<?xml version="1.0" encoding="utf-8" ?><svg version="1.1" xmlns = 'http://www.w3.org/2000/svg'><defs><font id='web' horiz-adv-x="1000">
<font-face font-family="web" descent="-533" cap-height="1333" units-per-em="2048" bbox="-960,-522,2398,2107" x-height="942" ascent="1515" />
<missing-glyph horiz-adv-x="512" d="" /><glyph horiz-adv-x="512" d="" unicode=" " />
<glyph horiz-adv-x="516" d="M 201 383 L 317 1333 L 473 1333 L 356 383 L 201 383 Z M 360 113 C 360 78 348 48 326 23 C 304 -1 275 -14 240 -14 C 208 -14 183 -3 164 17 C 144 38 135 64 135 96 C 135 132 146 162 168 187 C 190 212 218 225 254 225 C 285 225 310 214 330 193 C 350 172 360 145 360 113 Z" unicode="!" />
<glyph horiz-adv-x="719" d="M 222 1333 L 363 1333 L 297 893 L 156 893 L 222 1333 Z M 529 1333 L 670 1333 L 604 893 L 463 893 L 529 1333 Z" unicode="&#x22;" />
<glyph horiz-adv-x="1061" d="M 776 358 L 981 358 L 958 252 L 750 252 L 680 -49 L 551 -49 L 621 252 L 416 252 L 346 -49 L 217 -49 L 287 252 L 115 252 L 137 358 L 313 358 L 375 621 L 182 621 L 205 729 L 401 729 L 469 1026 L 598 1026 L 530 729 L 731 729 L 803 1026 L 932 1026 L 864 729 L 1047 729 L 1028 621 L 838 621 L 776 358 Z M 709 621 L 504 621 L 442 358 L 647 358 L 709 621 Z" unicode="#" />
<glyph horiz-adv-x="1120" d="M 752 1538 L 727 1327 C 767 1324 806 1315 842 1300 C 878 1285 910 1267 937 1245 C 963 1223 985 1199 1001 1173 C 1017 1147 1028 1123 1032 1100 L 897 1028 C 889 1067 870 1103 841 1135 C 811 1167 768 1188 711 1198 L 655 727 C 700 713 742 697 781 678 C 820 658 854 635 883 608 C 911 580 934 549 950 513 C 966 477 975 435 975 387 C 975 335 965 286 945 241 C 925 196 897 157 862 123 C 826 89 783 61 733 39 C 682 17 626 3 565 -2 L 539 -209 L 412 -209 L 438 -2 C 389 0 343 7 301 21 C 259 35 222 54 190 76 C 158 98 133 123 113 151 C 93 179 81 208 76 240 L 211 315 C 223 267 249 225 289 189 C 329 153 384 131 453 125 L 510 623 C 467 636 427 653 391 674 C 354 694 322 718 296 746 C 269 774 248 806 233 842 C 218 878 211 921 211 969 C 211 1022 220 1071 239 1115 C 258 1159 285 1198 320 1231 C 355 1263 396 1288 443 1306 C 490 1324 542 1333 600 1333 L 625 1538 L 752 1538 Z M 821 360 C 821 422 802 469 766 501 C 729 533 685 558 633 578 L 580 125 C 652 131 710 155 754 195 C 798 235 821 290 821 360 Z M 360 987 C 360 929 376 883 410 849 C 444 814 484 787 530 768 L 584 1206 C 502 1203 444 1180 410 1137 C 376 1094 360 1044 360 987 Z" unicode="$" />
<glyph horiz-adv-x="1679" d="M 494 0 L 363 0 L 1192 1333 L 1323 1333 L 494 0 Z M 440 1345 C 528 1345 595 1319 640 1267 C 685 1215 708 1140 708 1044 C 708 898 677 787 617 712 C 556 636 474 599 372 599 C 282 599 215 625 172 677 C 129 729 108 804 108 903 C 108 973 116 1036 132 1092 C 148 1147 171 1193 201 1231 C 230 1269 265 1297 306 1316 C 347 1335 392 1345 440 1345 Z M 380 700 C 446 700 496 729 532 788 C 567 846 585 930 585 1038 C 585 1104 573 1155 549 1191 C 525 1227 488 1245 438 1245 C 372 1245 322 1215 286 1156 C 250 1097 233 1015 233 909 C 233 840 245 788 269 753 C 293 717 330 700 380 700 Z M 1305 729 C 1393 729 1460 703 1505 651 C 1550 599 1573 524 1573 428 C 1573 282 1542 171 1482 96 C 1421 20 1339 -17 1237 -17 C 1147 -17 1080 9 1037 61 C 994 113 973 188 973 287 C 973 357 981 420 997 476 C 1013 531 1036 577 1066 615 C 1095 653 1130 681 1171 700 C 1212 719 1257 729 1305 729 Z M 1245 84 C 1311 84 1361 113 1397 172 C 1432 230 1450 314 1450 422 C 1450 488 1438 539 1414 575 C 1390 611 1353 629 1303 629 C 1237 629 1187 599 1151 540 C 1115 481 1098 399 1098 293 C 1098 224 1110 172 1134 137 C 1158 101 1195 84 1245 84 Z" unicode="%" />
<glyph horiz-adv-x="1384" d="M 1147 547 C 1140 493 1127 440 1109 388 C 1090 335 1065 286 1034 240 L 1159 59 L 1030 -25 L 926 127 C 875 79 820 41 762 15 C 703 -11 635 -25 557 -25 C 498 -25 445 -16 397 0 C 349 16 308 40 273 71 C 238 101 211 138 192 182 C 173 226 164 276 164 332 C 164 397 176 453 200 501 C 224 549 253 589 288 623 C 322 657 359 684 398 704 C 437 724 472 740 504 752 C 478 787 452 827 427 873 C 401 919 389 972 389 1032 C 389 1081 397 1126 414 1167 C 431 1208 455 1243 486 1271 C 516 1299 552 1320 594 1335 C 636 1350 681 1358 729 1358 C 777 1358 819 1350 857 1336 C 894 1322 926 1302 952 1277 C 978 1251 997 1222 1011 1189 C 1025 1155 1032 1120 1032 1083 C 1032 1030 1020 983 997 943 C 974 903 946 867 913 835 C 880 803 845 777 809 756 C 772 735 741 718 715 705 L 942 367 C 969 424 987 484 995 547 L 1147 547 Z M 567 104 C 624 104 677 116 725 142 C 773 167 814 200 850 240 L 571 653 C 548 643 522 632 494 618 C 465 604 438 586 414 564 C 389 541 368 514 351 482 C 334 450 326 411 326 365 C 326 336 330 306 338 276 C 346 246 359 218 378 192 C 396 166 421 145 452 129 C 482 112 521 104 567 104 Z M 537 1061 C 537 1024 548 982 571 935 C 594 887 619 844 647 805 C 667 813 691 823 719 837 C 746 851 772 868 797 890 C 821 911 842 936 859 966 C 876 995 885 1029 885 1067 C 885 1116 869 1156 839 1187 C 808 1217 767 1233 717 1233 C 662 1233 618 1216 586 1184 C 553 1151 537 1110 537 1061 Z" unicode="&#x26;" />
<glyph horiz-adv-x="451" d="M 242 1333 L 383 1333 L 317 893 L 176 893 L 242 1333 Z" unicode="'" />
<glyph horiz-adv-x="553" d="M 114 334 C 114 418 119 499 131 577 C 143 654 158 727 177 796 C 195 865 217 929 241 988 C 265 1046 290 1100 315 1150 C 373 1264 441 1366 518 1455 L 645 1455 C 571 1353 506 1244 450 1127 C 425 1076 401 1021 379 962 C 357 902 336 839 318 773 C 300 707 285 637 274 565 C 263 493 258 419 258 345 C 258 246 264 156 278 76 C 292 -3 307 -75 325 -137 C 344 -207 367 -271 393 -329 L 266 -329 C 237 -278 212 -219 190 -153 C 171 -95 154 -26 138 55 C 122 136 114 229 114 334 Z" unicode="(" />
<glyph horiz-adv-x="551" d="M 481 791 C 481 706 475 625 463 548 C 451 471 436 398 418 329 C 400 260 378 196 354 138 C 329 79 304 25 280 -24 C 221 -138 154 -240 78 -329 L -49 -329 C 24 -228 89 -119 145 -1 C 169 49 193 103 216 163 C 238 223 259 286 277 352 C 295 418 310 487 321 559 C 332 631 338 705 338 781 C 338 879 331 968 317 1049 C 303 1129 288 1200 270 1262 C 250 1333 228 1397 203 1455 L 329 1455 C 357 1404 383 1345 405 1279 C 424 1221 441 1152 457 1071 C 473 989 481 896 481 791 Z" unicode=")" />
<glyph horiz-adv-x="819" d="M 385 1395 L 522 1395 L 512 1098 L 518 1092 L 799 1194 L 842 1063 L 555 981 L 553 975 L 735 741 L 625 659 L 457 907 L 451 905 L 285 659 L 172 739 L 356 977 L 352 981 L 68 1063 L 109 1194 L 389 1092 L 395 1098 L 385 1395 Z" unicode="*" />
<glyph horiz-adv-x="1044" d="M 584 526 L 952 526 L 952 399 L 584 399 L 584 31 L 440 31 L 440 399 L 72 399 L 72 526 L 440 526 L 440 893 L 584 893 L 584 526 Z" unicode="+" />
<glyph horiz-adv-x="451" d="M 303 217 L 276 -2 C 265 -50 251 -90 234 -124 C 217 -157 201 -185 186 -207 C 167 -231 148 -252 129 -268 L 18 -205 C 30 -192 43 -176 57 -158 C 68 -141 79 -120 91 -94 C 103 -68 113 -37 121 -2 C 123 11 126 30 130 56 C 133 81 136 105 139 129 C 141 156 144 185 147 217 L 303 217 Z" unicode="," />
<glyph horiz-adv-x="737" d="M 90 526 L 664 526 L 645 399 L 72 399 L 90 526 Z" unicode="-" />
<glyph horiz-adv-x="451" d="M 330 113 C 330 78 318 48 296 23 C 273 -1 244 -14 209 -14 C 177 -14 152 -3 133 17 C 113 38 104 64 104 96 C 104 132 115 162 137 187 C 159 212 187 225 223 225 C 254 225 280 214 300 193 C 320 172 330 145 330 113 Z" unicode="." />
<glyph horiz-adv-x="911" d="M 198 -329 L 59 -329 L 735 1455 L 874 1455 L 198 -329 Z" unicode="/" />
<glyph horiz-adv-x="1270" d="M 694 1358 C 821 1358 923 1314 1000 1228 C 1077 1141 1116 1007 1116 825 C 1116 799 1115 773 1113 747 C 1111 721 1108 694 1106 666 C 1093 546 1069 443 1035 357 C 1000 270 957 198 906 142 C 854 85 797 43 733 16 C 669 -11 601 -25 530 -25 C 394 -25 290 17 219 102 C 148 186 113 320 113 502 C 113 528 114 554 116 581 C 118 607 120 636 123 666 C 136 786 159 889 192 977 C 225 1064 266 1136 315 1192 C 364 1248 420 1289 484 1317 C 548 1344 618 1358 694 1358 Z M 547 104 C 607 104 661 121 711 155 C 761 189 804 238 840 302 C 876 365 904 441 924 530 C 944 619 954 719 954 829 C 954 953 929 1051 881 1122 C 833 1193 762 1229 668 1229 C 604 1229 548 1212 499 1178 C 450 1144 409 1096 375 1034 C 341 971 315 895 297 805 C 279 715 270 613 270 500 C 270 375 292 278 338 208 C 383 138 453 104 547 104 Z" unicode="0" />
<glyph horiz-adv-x="686" d="M 217 0 L 354 1106 C 332 1100 309 1095 285 1090 C 264 1085 240 1081 213 1078 C 185 1074 158 1073 131 1073 L 123 1176 C 183 1182 233 1194 273 1211 C 313 1228 346 1246 371 1266 C 399 1286 422 1308 438 1333 L 539 1333 L 373 0 L 217 0 Z" unicode="1" />
<glyph horiz-adv-x="1106" d="M 193 1004 C 193 1028 196 1054 202 1081 C 208 1108 218 1135 232 1161 C 246 1187 264 1212 286 1236 C 308 1260 336 1281 368 1299 C 400 1317 438 1331 481 1342 C 524 1352 573 1358 629 1358 C 685 1358 737 1350 785 1335 C 833 1319 875 1296 911 1266 C 947 1236 975 1198 995 1152 C 1015 1106 1026 1054 1026 995 C 1026 919 1011 846 981 776 C 951 706 907 637 851 568 C 795 499 726 429 646 358 C 565 287 474 213 373 135 L 932 135 L 915 0 L 84 0 L 96 102 C 248 200 373 291 472 375 C 571 459 649 536 707 607 C 765 678 805 743 828 803 C 850 863 862 918 862 970 C 862 1008 856 1043 845 1075 C 834 1107 818 1134 796 1157 C 774 1179 747 1197 715 1210 C 682 1222 644 1229 602 1229 C 558 1229 520 1222 487 1209 C 454 1195 427 1177 405 1153 C 383 1129 366 1101 355 1069 C 343 1036 338 1000 338 961 C 338 942 339 922 341 901 C 343 879 346 861 350 846 L 209 874 C 207 881 205 890 203 901 C 201 911 199 923 198 935 C 196 947 195 959 194 971 C 193 983 193 994 193 1004 Z" unicode="2" />
<glyph horiz-adv-x="1106" d="M 805 1018 C 805 1075 785 1125 747 1169 C 709 1213 650 1235 571 1235 C 530 1235 494 1228 462 1215 C 430 1202 402 1185 379 1165 C 355 1145 336 1122 322 1097 C 308 1071 297 1046 289 1020 L 188 1108 C 196 1136 211 1166 231 1196 C 251 1226 278 1253 312 1277 C 345 1301 385 1320 431 1335 C 477 1350 528 1358 586 1358 C 647 1358 701 1349 748 1331 C 795 1313 835 1290 867 1261 C 899 1231 923 1198 939 1160 C 955 1122 963 1084 963 1044 C 963 1002 953 963 934 927 C 914 891 890 860 860 832 C 830 804 797 780 762 760 C 726 739 691 723 657 713 C 691 704 725 691 757 673 C 789 655 817 633 843 606 C 868 578 888 547 903 511 C 918 475 926 434 926 389 C 926 326 914 269 890 219 C 866 168 832 125 789 89 C 746 53 695 25 637 5 C 578 -15 514 -25 446 -25 C 390 -25 339 -18 294 -6 C 249 5 210 22 177 42 C 143 62 116 84 94 109 C 72 134 56 160 47 186 L 154 309 C 168 249 202 199 255 160 C 307 121 376 102 461 102 C 513 102 558 110 596 126 C 634 142 665 163 690 189 C 714 215 733 246 745 280 C 757 314 764 349 764 385 C 764 417 758 449 748 479 C 738 509 721 535 697 558 C 673 580 643 598 606 612 C 569 626 524 633 471 633 C 456 633 431 632 397 631 C 363 629 330 625 299 618 L 322 764 C 339 762 356 761 373 761 C 390 760 408 760 426 760 C 495 760 554 767 603 781 C 651 795 691 815 721 840 C 751 864 772 892 785 923 C 798 953 805 985 805 1018 Z" unicode="3" />
<glyph horiz-adv-x="1188" d="M 1036 322 L 850 322 L 809 0 L 662 0 L 702 322 L 74 322 L 39 401 L 100 479 L 784 1333 L 975 1333 L 864 449 L 1051 449 L 1036 322 Z M 717 449 L 815 1176 L 248 449 L 717 449 Z" unicode="4" />
<glyph horiz-adv-x="1106" d="M 598 858 C 647 858 695 849 742 833 C 789 817 831 792 868 759 C 905 725 935 683 957 633 C 979 582 991 523 991 455 C 991 386 979 323 956 265 C 933 207 899 156 855 113 C 810 70 755 36 691 12 C 626 -12 553 -25 471 -25 C 417 -25 369 -19 326 -7 C 283 4 245 19 213 39 C 180 58 152 80 129 105 C 105 130 86 156 72 184 L 172 324 C 180 300 191 276 206 250 C 221 224 241 200 266 178 C 290 156 321 137 357 123 C 393 109 436 102 485 102 C 597 102 682 134 740 198 C 798 262 827 344 827 442 C 827 535 803 607 755 657 C 707 707 643 733 563 733 C 511 733 464 724 422 708 C 380 692 348 673 324 651 L 209 713 L 358 1333 L 1034 1333 L 1018 1198 L 463 1198 L 369 805 C 395 819 429 832 471 842 C 513 852 556 858 598 858 Z" unicode="5" />
<glyph horiz-adv-x="1188" d="M 582 -25 C 504 -25 438 -12 385 14 C 331 40 288 75 256 120 C 223 165 199 218 185 280 C 171 342 164 408 164 479 C 164 528 167 584 174 647 C 180 709 193 773 211 838 C 229 903 252 967 282 1029 C 311 1091 348 1146 393 1196 C 438 1245 491 1284 552 1314 C 612 1343 684 1358 766 1358 C 856 1358 929 1340 986 1306 C 1042 1272 1078 1231 1094 1184 L 971 1075 C 962 1123 939 1161 901 1190 C 863 1218 813 1233 752 1233 C 680 1233 620 1214 570 1177 C 520 1140 479 1094 446 1038 C 413 982 388 920 370 854 C 352 787 340 724 332 664 L 338 662 C 364 717 407 764 467 802 C 527 840 601 860 690 860 C 755 860 811 848 858 826 C 904 804 942 774 972 738 C 1001 702 1022 661 1036 615 C 1050 569 1057 524 1057 479 C 1057 437 1050 387 1037 330 C 1024 272 1000 217 964 165 C 928 112 880 67 819 30 C 757 -6 678 -25 582 -25 Z M 643 735 C 593 735 549 726 510 708 C 470 690 437 666 410 636 C 382 605 361 569 346 527 C 331 485 324 441 324 395 C 324 357 329 320 339 284 C 349 248 365 217 387 189 C 409 161 436 138 470 122 C 503 106 542 98 588 98 C 628 98 667 105 704 119 C 741 133 774 155 802 185 C 830 214 852 251 868 295 C 884 339 893 391 893 451 C 893 547 870 619 826 665 C 782 711 721 735 643 735 Z" unicode="6" />
<glyph horiz-adv-x="1106" d="M 1077 1333 L 1065 1227 C 989 1145 918 1055 850 957 C 782 859 720 758 666 652 C 611 546 565 438 527 328 C 489 217 465 108 453 0 L 289 0 C 299 88 322 186 356 294 C 390 401 433 509 484 617 C 535 725 594 830 660 931 C 726 1032 798 1121 874 1198 L 197 1198 L 213 1333 L 1077 1333 Z" unicode="7" />
<glyph horiz-adv-x="1188" d="M 793 694 C 833 679 871 659 905 633 C 933 609 960 578 984 538 C 1008 498 1020 448 1020 387 C 1020 323 1007 265 981 215 C 955 164 919 121 875 86 C 831 50 779 23 720 4 C 660 -15 598 -25 532 -25 C 466 -25 407 -16 353 2 C 299 20 253 45 215 78 C 177 110 147 149 126 195 C 104 241 94 291 94 346 C 94 416 109 474 141 521 C 172 568 207 606 245 635 C 283 663 319 684 351 696 C 383 708 399 715 401 715 L 403 721 C 369 737 339 758 313 784 C 290 807 269 836 251 870 C 232 904 223 946 223 995 C 223 1047 233 1095 254 1139 C 274 1183 303 1222 340 1254 C 376 1286 420 1312 471 1330 C 521 1348 577 1358 639 1358 C 695 1358 746 1350 793 1334 C 840 1318 881 1296 915 1268 C 949 1239 976 1204 995 1164 C 1014 1124 1024 1079 1024 1030 C 1024 972 1012 923 988 881 C 964 839 937 805 909 778 C 875 746 837 720 795 700 L 793 694 Z M 621 1233 C 544 1233 483 1212 439 1172 C 395 1132 373 1077 373 1008 C 373 936 394 878 438 834 C 482 790 538 768 606 768 C 641 768 674 774 706 786 C 738 798 765 816 789 838 C 813 860 831 887 845 918 C 859 949 866 983 866 1020 C 866 1086 843 1138 798 1176 C 753 1214 694 1233 621 1233 Z M 563 645 C 521 645 481 638 443 624 C 405 610 373 591 345 567 C 317 542 294 512 278 478 C 262 443 254 404 254 362 C 254 284 279 221 331 173 C 382 124 451 100 537 100 C 579 100 619 106 658 119 C 697 132 731 151 761 176 C 790 200 813 230 831 265 C 849 299 858 339 858 383 C 858 423 850 460 834 492 C 818 524 797 552 771 574 C 744 596 713 614 678 626 C 642 638 604 645 563 645 Z" unicode="8" />
<glyph horiz-adv-x="1188" d="M 635 1358 C 711 1358 776 1345 829 1319 C 882 1293 925 1257 959 1211 C 993 1165 1017 1111 1032 1047 C 1047 983 1055 915 1055 842 C 1055 795 1051 741 1045 681 C 1039 620 1027 557 1011 493 C 995 429 972 366 944 304 C 915 242 879 186 835 138 C 791 90 739 50 677 20 C 615 -9 543 -25 461 -25 C 411 -25 367 -19 328 -8 C 289 2 255 16 227 34 C 198 52 173 72 152 96 C 131 119 113 143 98 168 L 221 276 C 232 254 246 233 262 212 C 278 190 297 171 319 155 C 341 139 366 125 394 115 C 422 105 453 100 487 100 C 551 100 607 117 653 153 C 699 189 739 234 771 289 C 803 343 828 404 846 471 C 864 537 878 602 887 666 L 881 668 C 869 648 854 627 834 605 C 814 582 790 561 761 543 C 731 525 697 509 658 497 C 619 485 575 479 526 479 C 460 479 404 490 358 514 C 312 537 274 567 246 604 C 217 640 196 682 182 728 C 168 774 162 818 162 862 C 162 907 169 958 184 1016 C 199 1073 225 1127 261 1177 C 297 1227 345 1270 406 1305 C 467 1340 543 1358 635 1358 Z M 569 604 C 618 604 663 612 703 629 C 743 646 778 670 807 700 C 835 730 857 765 872 806 C 887 847 895 891 895 938 C 895 976 889 1012 879 1048 C 869 1084 853 1115 831 1143 C 809 1170 782 1192 748 1209 C 714 1226 675 1235 631 1235 C 589 1235 550 1227 514 1213 C 477 1199 445 1177 417 1148 C 389 1118 366 1081 350 1037 C 334 993 326 941 326 883 C 326 785 347 714 390 670 C 433 626 493 604 569 604 Z" unicode="9" />
<glyph horiz-adv-x="451" d="M 412 834 C 412 799 400 769 378 744 C 355 719 326 707 291 707 C 259 707 234 717 215 738 C 195 759 186 785 186 817 C 186 853 197 883 219 908 C 241 933 269 946 305 946 C 336 946 362 935 382 914 C 402 893 412 866 412 834 Z M 330 113 C 330 78 318 48 296 23 C 273 -1 244 -14 209 -14 C 177 -14 152 -3 133 17 C 113 38 104 64 104 96 C 104 132 115 162 137 187 C 159 212 187 225 223 225 C 254 225 280 214 300 193 C 320 172 330 145 330 113 Z" unicode=":" />
<glyph horiz-adv-x="451" d="M 303 217 L 276 -2 C 265 -50 251 -90 234 -124 C 217 -157 201 -185 186 -207 C 167 -231 148 -252 129 -268 L 18 -205 C 30 -192 43 -176 57 -158 C 68 -141 79 -120 91 -94 C 103 -68 113 -37 121 -2 C 123 11 126 30 130 56 C 133 81 136 105 139 129 C 141 156 144 185 147 217 L 303 217 Z M 412 834 C 412 799 400 769 378 744 C 355 719 326 707 291 707 C 259 707 234 717 215 738 C 195 759 186 785 186 817 C 186 853 197 883 219 908 C 241 933 269 946 305 946 C 336 946 362 935 382 914 C 402 893 412 866 412 834 Z" unicode=";" />
<glyph horiz-adv-x="1044" d="M 668 -29 L 195 477 L 668 973 L 760 885 L 362 477 L 756 55 L 668 -29 Z" unicode="&#x3C;" />
<glyph horiz-adv-x="1044" d="M 952 659 L 952 532 L 72 532 L 72 659 L 952 659 L 952 659 Z M 952 372 L 952 245 L 72 245 L 72 372 L 952 372 L 952 372 Z" unicode="=" />
<glyph horiz-adv-x="1044" d="M 248 43 L 641 465 L 244 872 L 336 961 L 809 465 L 336 -41 L 248 43 Z" unicode="&#x3E;" />
<glyph horiz-adv-x="860" d="M 104 1153 C 123 1191 150 1225 184 1255 C 212 1281 249 1304 294 1326 C 339 1347 395 1358 463 1358 C 517 1358 567 1351 613 1339 C 659 1327 698 1308 732 1282 C 765 1256 791 1222 811 1182 C 830 1142 840 1094 840 1040 C 840 968 822 906 786 854 C 750 802 710 760 666 729 C 622 697 580 674 541 660 C 502 646 479 639 471 639 L 438 385 L 283 385 L 326 729 C 364 733 403 741 445 755 C 487 769 525 788 561 813 C 596 837 625 868 649 906 C 672 944 684 987 684 1036 C 684 1092 667 1138 633 1176 C 599 1214 543 1233 465 1233 C 421 1233 384 1225 355 1209 C 325 1193 301 1176 283 1157 C 261 1135 243 1110 229 1083 L 104 1153 Z M 442 113 C 442 78 430 48 408 23 C 386 -1 357 -14 322 -14 C 290 -14 264 -3 245 17 C 226 38 217 64 217 96 C 217 132 228 162 250 187 C 272 212 300 225 336 225 C 367 225 392 214 412 193 C 432 172 442 145 442 113 Z" unicode="?" />
<glyph horiz-adv-x="1864" d="M 1255 -303 C 1223 -315 1189 -326 1151 -334 C 1118 -342 1079 -349 1035 -355 C 991 -361 943 -365 891 -365 C 775 -365 670 -346 577 -310 C 484 -274 406 -223 342 -157 C 278 -91 228 -14 193 75 C 158 164 141 262 141 369 C 141 483 161 594 202 700 C 243 806 302 901 378 983 C 454 1065 546 1130 654 1179 C 762 1228 884 1253 1020 1253 C 1141 1253 1246 1233 1334 1195 C 1422 1156 1494 1105 1551 1042 C 1607 979 1649 908 1677 828 C 1704 748 1718 668 1718 586 C 1718 508 1707 436 1686 370 C 1665 304 1636 248 1600 201 C 1564 154 1522 117 1475 91 C 1428 64 1378 51 1325 51 C 1277 51 1239 59 1212 77 C 1184 95 1163 115 1149 139 C 1132 165 1120 195 1114 229 L 1106 229 C 1093 195 1075 165 1051 139 C 1030 115 1002 95 967 77 C 932 59 889 51 838 51 C 743 51 669 83 617 148 C 565 213 539 297 539 401 C 539 463 548 520 566 572 C 584 624 610 670 643 709 C 675 748 713 779 757 801 C 801 823 848 834 899 834 C 940 834 976 827 1007 813 C 1037 799 1062 784 1081 768 C 1104 748 1123 727 1139 705 L 1147 709 C 1149 726 1152 741 1154 754 C 1156 767 1158 778 1161 786 L 1167 811 L 1309 811 C 1305 795 1301 780 1298 766 C 1295 752 1293 737 1291 721 C 1289 705 1286 690 1284 676 L 1243 330 C 1243 327 1242 325 1242 324 C 1241 322 1241 316 1241 305 C 1241 261 1250 229 1268 208 C 1286 186 1311 176 1341 176 C 1369 176 1397 185 1425 204 C 1452 223 1476 250 1497 285 C 1517 320 1534 362 1547 412 C 1560 462 1567 518 1567 582 C 1567 643 1558 706 1542 771 C 1526 835 1497 894 1455 948 C 1413 1001 1357 1044 1287 1078 C 1217 1111 1128 1128 1022 1128 C 902 1128 796 1106 706 1063 C 616 1020 540 964 480 895 C 419 825 374 746 344 657 C 314 568 299 478 299 387 C 299 303 311 224 337 148 C 362 72 399 6 449 -52 C 499 -110 560 -156 634 -190 C 708 -224 793 -242 891 -242 C 937 -242 981 -238 1021 -231 C 1061 -224 1096 -217 1126 -209 C 1162 -199 1193 -188 1221 -174 L 1255 -303 Z M 879 176 C 911 176 942 182 971 196 C 999 210 1024 229 1046 255 C 1068 280 1085 311 1097 348 C 1109 384 1116 426 1116 473 C 1116 555 1098 614 1063 652 C 1027 690 983 709 930 709 C 864 709 808 683 762 631 C 716 579 694 506 694 412 C 694 331 711 271 745 233 C 779 195 824 176 879 176 Z" unicode="@" />
<glyph horiz-adv-x="1235" d="M 29 0 L 625 1333 L 834 1333 L 1112 0 L 942 0 L 879 326 L 336 326 L 195 0 L 29 0 Z M 391 469 L 854 469 L 711 1200 L 391 469 Z" unicode="A" />
<glyph horiz-adv-x="1204" d="M 834 713 C 878 695 918 672 954 645 C 984 621 1011 591 1037 553 C 1062 515 1075 468 1075 414 C 1075 276 1030 172 940 103 C 850 34 725 0 565 0 L 129 0 L 291 1333 L 739 1333 C 851 1333 939 1307 1005 1257 C 1071 1207 1104 1132 1104 1034 C 1104 997 1096 962 1081 929 C 1066 895 1046 865 1022 838 C 997 810 968 787 936 767 C 903 747 869 731 834 719 L 834 713 Z M 383 754 L 651 754 C 738 754 807 777 859 824 C 910 871 936 936 936 1018 C 936 1074 917 1119 879 1155 C 841 1190 784 1208 707 1208 L 438 1208 L 383 754 Z M 598 125 C 643 125 685 132 723 146 C 761 160 794 181 822 207 C 850 233 872 264 888 302 C 904 339 913 380 913 426 C 913 488 892 539 850 578 C 808 617 745 637 659 637 L 367 637 L 305 125 L 598 125 Z" unicode="B" />
<glyph horiz-adv-x="1266" d="M 1055 1030 C 1043 1080 1014 1125 967 1164 C 920 1203 854 1223 768 1223 C 692 1223 626 1205 569 1170 C 511 1135 463 1087 425 1026 C 386 964 357 892 337 810 C 317 727 307 639 307 545 C 307 479 314 419 328 366 C 342 313 364 268 393 230 C 421 192 457 163 501 142 C 545 121 596 111 655 111 C 753 111 831 131 887 172 C 943 212 981 262 1001 322 L 1126 240 C 1104 202 1079 168 1051 136 C 1022 104 988 76 949 52 C 910 28 866 9 816 -4 C 766 -18 709 -25 645 -25 C 569 -25 501 -12 439 13 C 377 38 323 75 279 124 C 235 172 200 231 176 301 C 151 371 139 451 139 541 C 139 665 156 777 190 877 C 224 977 271 1063 330 1134 C 388 1205 455 1260 531 1299 C 607 1338 687 1358 772 1358 C 833 1358 887 1351 935 1337 C 982 1323 1023 1305 1058 1282 C 1092 1258 1122 1232 1146 1202 C 1170 1172 1189 1140 1204 1106 L 1055 1030 Z" unicode="C" />
<glyph horiz-adv-x="1358" d="M 129 0 L 291 1333 L 686 1333 C 870 1333 1010 1285 1104 1190 C 1198 1094 1245 957 1245 778 C 1245 655 1228 545 1194 448 C 1160 351 1112 269 1050 203 C 988 137 915 86 829 52 C 743 17 648 0 545 0 L 129 0 Z M 565 135 C 725 135 850 188 941 295 C 1031 401 1077 562 1077 776 C 1077 914 1046 1018 984 1090 C 922 1162 824 1198 692 1198 L 436 1198 L 307 135 L 565 135 Z" unicode="D" />
<glyph horiz-adv-x="1122" d="M 436 1198 L 381 739 L 942 739 L 926 604 L 365 604 L 307 135 L 954 135 L 938 0 L 129 0 L 291 1333 L 1073 1333 L 1057 1198 L 436 1198 Z" unicode="E" />
<glyph horiz-adv-x="1016" d="M 436 1198 L 373 682 L 872 682 L 856 547 L 356 547 L 291 0 L 129 0 L 291 1333 L 1038 1333 L 1022 1198 L 436 1198 Z" unicode="F" />
<glyph horiz-adv-x="1341" d="M 1223 670 L 1141 0 L 1020 0 L 1026 156 L 1018 156 C 1000 121 976 91 946 66 C 918 42 883 21 840 3 C 797 -15 742 -25 674 -25 C 596 -25 523 -12 457 14 C 391 40 334 77 287 125 C 240 173 203 231 177 301 C 150 371 137 450 137 539 C 137 633 150 728 177 825 C 203 922 244 1010 299 1089 C 353 1168 422 1233 506 1283 C 589 1333 687 1358 801 1358 C 863 1358 918 1351 965 1338 C 1012 1325 1053 1308 1087 1286 C 1121 1264 1150 1238 1174 1210 C 1198 1181 1219 1151 1237 1120 L 1087 1038 C 1079 1064 1067 1088 1053 1111 C 1039 1133 1020 1153 997 1169 C 974 1185 946 1198 912 1208 C 878 1218 839 1223 795 1223 C 713 1223 641 1204 579 1168 C 517 1132 466 1084 426 1024 C 385 964 355 894 335 814 C 315 734 305 650 305 563 C 305 419 334 308 394 229 C 453 150 546 111 672 111 C 722 111 769 117 812 130 C 855 143 893 161 925 184 C 957 207 982 234 1000 266 C 1018 297 1030 331 1034 369 L 1051 535 L 690 535 L 707 670 L 1223 670 Z" unicode="G" />
<glyph horiz-adv-x="1372" d="M 1305 1333 L 1143 0 L 981 0 L 1055 602 L 365 602 L 291 0 L 129 0 L 291 1333 L 453 1333 L 381 737 L 1071 737 L 1143 1333 L 1305 1333 Z" unicode="H" />
<glyph horiz-adv-x="520" d="M 129 0 L 291 1333 L 453 1333 L 291 0 L 129 0 Z" unicode="I" />
<glyph horiz-adv-x="858" d="M 795 1333 L 684 430 C 666 284 625 171 563 93 C 500 14 404 -25 276 -25 C 200 -25 133 -11 76 16 C 18 43 -21 77 -45 117 L 82 213 C 96 184 119 160 149 140 C 179 120 216 111 260 111 C 338 111 397 136 439 188 C 481 240 508 319 520 426 L 631 1333 L 795 1333 Z" unicode="J" />
<glyph horiz-adv-x="1188" d="M 377 702 L 995 1333 L 1206 1333 L 618 723 L 1085 0 L 877 0 L 494 633 L 352 504 L 291 0 L 129 0 L 291 1333 L 453 1333 L 377 702 Z" unicode="K" />
<glyph horiz-adv-x="999" d="M 453 1333 L 307 135 L 913 135 L 897 0 L 129 0 L 291 1333 L 453 1333 Z" unicode="L" />
<glyph horiz-adv-x="1583" d="M 686 248 L 426 1133 L 291 0 L 131 0 L 293 1333 L 524 1333 L 788 401 L 1280 1333 L 1513 1333 L 1352 0 L 1192 0 L 1339 1133 L 858 248 L 686 248 Z" unicode="M" />
<glyph horiz-adv-x="1343" d="M 285 0 L 129 0 L 291 1333 L 504 1333 L 985 231 L 1120 1333 L 1276 1333 L 1114 0 L 901 0 L 422 1133 L 285 0 Z" unicode="N" />
<glyph horiz-adv-x="1438" d="M 1325 793 C 1325 694 1312 596 1286 498 C 1260 400 1219 313 1165 236 C 1110 159 1041 96 959 48 C 877 0 780 -25 668 -25 C 587 -25 514 -12 448 13 C 382 38 326 75 279 124 C 232 172 196 232 170 302 C 144 372 131 453 131 543 C 131 638 144 734 172 831 C 199 928 240 1015 295 1093 C 349 1171 418 1234 500 1284 C 582 1333 677 1358 786 1358 C 865 1358 938 1345 1004 1320 C 1070 1294 1127 1257 1174 1209 C 1221 1161 1258 1101 1285 1031 C 1311 961 1325 881 1325 793 Z M 664 111 C 752 111 828 130 891 168 C 953 206 1004 256 1044 320 C 1084 384 1112 456 1130 537 C 1148 618 1157 701 1157 786 C 1157 928 1123 1036 1056 1111 C 989 1185 901 1223 791 1223 C 701 1223 626 1203 564 1164 C 502 1125 451 1074 411 1012 C 371 949 342 877 324 796 C 306 714 297 632 297 549 C 297 405 330 296 398 222 C 466 148 554 111 664 111 Z" unicode="O" />
<glyph horiz-adv-x="1130" d="M 1077 932 C 1077 870 1066 811 1044 755 C 1022 698 992 648 952 605 C 912 562 864 528 808 502 C 751 476 687 463 616 463 L 346 463 L 291 0 L 129 0 L 291 1333 L 635 1333 C 783 1333 894 1301 967 1238 C 1040 1174 1077 1072 1077 932 Z M 362 598 L 606 598 C 648 598 688 605 726 621 C 763 637 795 659 823 689 C 850 718 871 753 887 795 C 903 837 911 884 911 936 C 911 1014 891 1077 853 1125 C 814 1173 749 1198 659 1198 L 436 1198 L 362 598 Z" unicode="P" />
<glyph horiz-adv-x="1438" d="M 1325 795 C 1325 723 1316 651 1298 577 C 1280 503 1255 432 1221 364 C 1187 296 1146 234 1096 178 C 1046 122 989 77 924 43 C 942 23 965 4 992 -14 C 1018 -33 1046 -52 1076 -72 C 1105 -92 1136 -111 1168 -129 C 1200 -147 1231 -162 1260 -176 L 1116 -258 C 1092 -250 1068 -237 1042 -219 C 1016 -201 990 -181 964 -159 C 937 -136 911 -111 887 -85 C 862 -58 841 -31 823 -4 C 798 -10 773 -15 747 -19 C 721 -23 695 -25 668 -25 C 587 -25 514 -12 448 13 C 382 38 326 75 279 124 C 232 172 196 232 170 303 C 144 374 131 455 131 545 C 131 636 145 730 174 826 C 202 922 245 1010 301 1089 C 357 1168 427 1233 512 1283 C 596 1333 694 1358 805 1358 C 884 1358 956 1345 1020 1320 C 1084 1294 1138 1258 1183 1210 C 1228 1162 1263 1103 1288 1033 C 1312 963 1325 883 1325 795 Z M 664 111 C 752 111 828 131 891 171 C 953 211 1004 263 1044 328 C 1084 393 1112 466 1130 547 C 1148 627 1157 708 1157 788 C 1157 932 1124 1040 1060 1113 C 995 1186 907 1223 797 1223 C 708 1223 632 1202 569 1162 C 506 1122 454 1069 414 1004 C 374 939 344 867 325 788 C 306 709 297 630 297 551 C 297 406 330 296 398 222 C 466 148 554 111 664 111 Z" unicode="Q" />
<glyph horiz-adv-x="1163" d="M 371 659 L 606 659 C 673 659 728 668 770 688 C 812 707 846 732 870 762 C 894 792 911 825 920 862 C 929 899 934 935 934 969 C 934 999 929 1028 921 1056 C 913 1084 899 1108 879 1129 C 859 1150 833 1167 800 1179 C 766 1191 724 1198 674 1198 L 436 1198 L 371 659 Z M 854 0 L 657 524 L 354 524 L 291 0 L 129 0 L 291 1333 L 666 1333 C 817 1333 927 1301 997 1239 C 1067 1176 1102 1089 1102 977 C 1102 918 1092 865 1073 817 C 1053 769 1028 727 998 691 C 967 655 933 625 895 602 C 857 578 818 563 780 555 L 1010 0 L 854 0 Z" unicode="R" />
<glyph horiz-adv-x="1081" d="M 879 1051 C 865 1098 835 1139 791 1173 C 747 1207 690 1225 621 1225 C 573 1225 533 1217 501 1201 C 469 1185 443 1166 423 1142 C 403 1118 388 1092 380 1065 C 371 1037 367 1011 367 987 C 367 954 373 925 387 901 C 401 876 419 854 441 835 C 463 816 489 799 519 785 C 548 771 578 757 610 743 C 655 724 699 705 741 685 C 783 665 821 641 854 614 C 886 586 913 553 933 515 C 953 476 963 428 963 371 C 963 315 951 263 929 215 C 906 167 874 125 833 90 C 792 54 743 26 686 6 C 628 -14 565 -25 496 -25 C 440 -25 388 -18 341 -4 C 293 9 252 27 217 51 C 181 74 152 101 128 132 C 104 162 87 195 78 231 L 217 313 C 235 255 269 207 319 169 C 369 130 433 111 510 111 C 552 111 590 116 626 128 C 662 139 693 155 719 175 C 745 195 765 218 779 245 C 793 271 801 300 801 332 C 801 368 793 400 779 428 C 765 455 746 478 723 498 C 699 518 672 535 641 551 C 609 567 577 582 545 598 C 503 616 462 635 422 655 C 382 675 346 700 314 729 C 282 757 255 791 235 831 C 215 871 205 919 205 977 C 209 1042 222 1099 246 1147 C 269 1195 300 1234 338 1266 C 376 1297 420 1320 470 1335 C 520 1350 573 1358 629 1358 C 685 1358 734 1351 777 1339 C 820 1327 858 1310 890 1288 C 922 1266 948 1241 969 1213 C 990 1185 1007 1155 1020 1124 L 879 1051 Z" unicode="S" />
<glyph horiz-adv-x="1032" d="M 143 1333 L 1120 1333 L 1104 1196 L 696 1196 L 551 0 L 389 0 L 535 1196 L 127 1196 L 143 1333 Z" unicode="T" />
<glyph horiz-adv-x="1266" d="M 455 1333 L 346 440 C 343 428 342 416 342 405 C 342 394 342 383 342 373 C 342 284 366 218 414 175 C 462 132 528 111 610 111 C 702 111 778 139 838 197 C 898 254 934 335 948 440 L 1057 1333 L 1221 1333 L 1112 451 C 1092 301 1041 185 957 101 C 873 17 756 -25 608 -25 C 463 -25 355 7 283 73 C 211 139 176 234 176 358 C 176 386 178 417 182 451 L 291 1333 L 455 1333 Z" unicode="U" />
<glyph horiz-adv-x="1143" d="M 1208 1333 L 631 0 L 422 0 L 164 1333 L 340 1333 L 541 135 L 1032 1333 L 1208 1333 Z" unicode="V" />
<glyph horiz-adv-x="1872" d="M 1151 1333 L 1294 154 L 1704 1333 L 1880 1333 L 1393 0 L 1161 0 L 1022 1194 L 596 0 L 385 0 L 215 1333 L 379 1333 L 508 154 L 932 1333 L 1151 1333 Z" unicode="W" />
<glyph horiz-adv-x="1163" d="M 190 0 L 4 0 L 498 676 L 176 1333 L 356 1333 L 612 791 L 1016 1333 L 1200 1333 L 707 676 L 1051 0 L 858 0 L 586 559 L 190 0 Z" unicode="X" />
<glyph horiz-adv-x="1059" d="M 125 1333 L 295 1333 L 553 653 L 977 1333 L 1155 1333 L 618 512 L 557 0 L 395 0 L 457 512 L 125 1333 Z" unicode="Y" />
<glyph horiz-adv-x="1065" d="M 1087 1229 L 1030 1157 L 229 133 L 973 133 L 956 0 L 6 0 L 18 104 L 80 182 L 879 1200 L 190 1200 L 207 1333 L 1100 1333 L 1087 1229 Z" unicode="Z" />
<glyph horiz-adv-x="655" d="M 350 1455 L 696 1455 L 678 1324 L 477 1324 L 262 -198 L 463 -198 L 444 -329 L 98 -329 L 350 1455 Z" unicode="[" />
<glyph horiz-adv-x="911" d="M -8 1455 L 131 1455 L 807 -329 L 668 -329 L -8 1455 Z" unicode="\" />
<glyph horiz-adv-x="655" d="M 309 -329 L -37 -329 L -19 -198 L 182 -198 L 397 1324 L 196 1324 L 215 1455 L 561 1455 L 309 -329 Z" unicode="]" />
<glyph horiz-adv-x="1044" d="M 940 821 L 518 1214 L 111 817 L 23 911 L 518 1382 L 1024 909 L 940 821 Z" unicode="^" />
<glyph horiz-adv-x="983" d="M 4 -143 L 946 -143 L 928 -279 L -12 -279 L 4 -143 Z" unicode="_" />
<glyph horiz-adv-x="512" d="M 452 1243 L 368 1159 L 71 1458 L 155 1542 L 452 1243 Z" unicode="`" />
<glyph horiz-adv-x="1184" d="M 967 264 C 964 243 961 225 959 210 C 957 195 956 184 956 176 C 956 154 959 139 966 131 C 973 123 985 119 1001 119 C 1009 119 1018 119 1026 121 C 1034 122 1041 124 1049 127 C 1057 129 1065 133 1073 137 L 1053 10 C 1045 4 1037 0 1028 -6 C 1008 -15 985 -20 958 -20 C 924 -20 897 -10 879 7 C 861 25 847 46 839 68 C 831 90 826 111 825 131 C 823 150 823 161 823 164 L 811 164 C 791 128 767 97 739 70 C 713 46 680 25 641 5 C 601 -15 552 -25 492 -25 C 430 -25 374 -14 325 7 C 276 28 235 58 201 97 C 167 136 140 183 122 239 C 103 294 94 355 94 422 C 94 500 106 572 130 638 C 154 704 187 761 230 811 C 273 860 324 898 384 926 C 443 953 508 967 578 967 C 635 967 683 957 722 938 C 760 918 791 897 815 874 C 842 848 864 818 881 784 L 893 788 L 918 942 L 1063 942 L 967 264 Z M 512 104 C 562 104 608 114 650 135 C 692 155 727 184 756 222 C 784 260 806 304 822 356 C 838 408 846 465 846 528 C 846 634 822 713 774 763 C 726 813 663 838 586 838 C 534 838 487 827 446 807 C 405 786 370 757 342 720 C 313 682 291 638 275 587 C 259 535 252 479 252 418 C 252 311 275 232 323 181 C 371 129 434 104 512 104 Z" unicode="a" />
<glyph horiz-adv-x="1165" d="M 575 104 C 624 104 669 114 711 134 C 753 154 789 182 820 218 C 850 254 874 297 892 348 C 909 398 918 454 918 516 C 918 572 911 620 897 660 C 883 700 864 734 840 761 C 815 787 786 807 754 819 C 721 831 685 838 647 838 C 601 838 557 828 517 810 C 477 791 442 764 413 730 C 383 695 360 652 343 602 C 325 551 317 493 317 428 C 317 316 341 234 389 182 C 437 130 499 104 575 104 Z M 453 1456 C 451 1456 449 1444 445 1420 C 441 1396 437 1365 433 1329 C 428 1292 423 1251 418 1207 C 412 1163 407 1121 403 1081 C 399 1041 395 1006 392 976 C 388 945 386 926 385 918 C 382 894 378 873 373 855 C 367 836 365 825 365 821 L 375 821 C 395 847 420 871 449 893 C 473 912 503 929 541 944 C 579 959 624 967 676 967 C 734 967 788 956 837 936 C 886 915 928 886 963 848 C 998 810 1025 763 1044 709 C 1063 654 1073 592 1073 524 C 1073 449 1061 378 1038 311 C 1015 244 982 186 940 136 C 898 86 847 46 787 18 C 727 -10 661 -25 588 -25 C 528 -25 479 -15 442 3 C 405 21 375 42 352 66 C 326 91 306 122 293 158 L 283 158 L 258 0 L 117 0 L 297 1456 L 453 1456 Z" unicode="b" />
<glyph horiz-adv-x="973" d="M 797 694 C 785 734 762 768 727 796 C 691 824 642 838 578 838 C 524 838 477 826 437 804 C 397 781 363 750 335 711 C 307 672 285 627 271 577 C 257 527 250 473 250 416 C 250 313 272 235 317 183 C 362 130 428 104 514 104 C 576 104 627 115 666 139 C 705 162 733 190 750 223 L 864 131 C 836 89 794 52 736 21 C 678 -9 607 -25 524 -25 C 462 -25 405 -16 353 2 C 300 20 254 47 216 84 C 177 120 147 167 125 223 C 103 279 92 345 92 422 C 92 501 104 574 129 641 C 153 707 187 765 231 814 C 275 862 326 900 386 927 C 445 953 510 967 580 967 C 670 967 742 949 796 914 C 850 879 888 836 911 786 L 797 694 Z" unicode="c" />
<glyph horiz-adv-x="1151" d="M 514 102 C 560 102 605 111 647 130 C 689 148 726 175 757 210 C 787 244 812 287 830 339 C 848 390 858 448 858 514 C 858 622 834 703 787 757 C 740 811 676 838 596 838 C 548 838 503 828 461 810 C 419 791 383 764 353 730 C 322 695 297 652 279 601 C 261 549 252 491 252 426 C 252 318 275 237 322 183 C 369 129 433 102 514 102 Z M 1120 1456 C 1095 1254 1072 1067 1051 897 C 1041 824 1031 751 1023 677 C 1014 603 1005 535 997 472 C 989 408 982 352 977 303 C 971 253 967 217 965 195 C 963 185 962 175 962 166 C 961 156 961 145 961 131 C 961 95 963 65 967 41 C 968 25 970 12 973 0 L 831 0 C 828 9 825 20 823 33 C 819 53 817 77 817 106 C 817 110 817 115 817 120 C 817 124 817 129 819 135 L 809 135 C 787 105 760 78 729 55 C 701 35 668 16 628 0 C 588 -16 542 -25 489 -25 C 429 -25 374 -14 326 6 C 278 26 236 56 202 95 C 167 134 140 181 121 235 C 101 289 92 351 92 420 C 92 498 104 570 129 637 C 153 703 187 761 231 810 C 275 858 326 897 385 925 C 443 953 508 967 578 967 C 632 967 678 958 717 940 C 756 922 787 903 811 883 C 838 858 861 830 879 799 L 889 799 C 897 889 905 976 915 1061 C 919 1096 924 1132 928 1170 C 932 1208 936 1244 940 1279 C 944 1313 948 1346 952 1377 C 956 1407 960 1434 965 1456 L 1120 1456 Z" unicode="d" />
<glyph horiz-adv-x="1024" d="M 254 463 C 252 450 252 438 252 428 C 252 417 252 407 252 397 C 252 296 274 222 318 176 C 362 129 426 106 510 106 C 575 106 629 117 671 141 C 713 164 744 191 762 223 L 874 131 C 848 87 804 50 741 20 C 678 -9 604 -25 518 -25 C 447 -25 385 -14 333 7 C 280 28 236 58 200 96 C 164 134 138 180 120 233 C 102 286 94 346 94 412 C 94 480 104 547 124 613 C 144 679 173 739 213 791 C 252 843 301 886 361 918 C 421 950 491 967 571 967 C 633 967 686 957 730 937 C 774 917 811 890 840 856 C 868 822 889 781 903 735 C 917 689 924 638 924 584 C 924 568 923 550 921 528 C 919 506 915 485 911 463 L 254 463 Z M 551 854 C 475 854 414 831 367 785 C 320 739 288 672 272 584 L 776 584 L 776 594 C 776 596 776 600 777 604 C 777 608 778 612 778 618 C 778 636 775 658 770 686 C 764 713 754 739 738 764 C 722 788 700 809 670 827 C 640 845 600 854 551 854 Z" unicode="e" />
<glyph horiz-adv-x="645" d="M 272 813 L 106 813 L 121 942 L 293 942 L 328 1184 C 333 1226 345 1264 364 1299 C 383 1334 406 1364 434 1388 C 461 1412 493 1431 529 1445 C 565 1459 604 1466 645 1466 C 689 1466 726 1461 756 1451 C 786 1441 806 1429 817 1415 L 778 1282 C 768 1292 753 1302 731 1311 C 709 1320 679 1325 643 1325 C 602 1325 564 1311 530 1284 C 496 1256 475 1211 469 1147 L 446 942 L 662 942 L 647 813 L 428 813 L 301 -250 C 295 -293 284 -330 266 -362 C 248 -394 226 -420 200 -441 C 173 -462 143 -478 110 -488 C 77 -498 43 -504 8 -504 C -23 -504 -50 -500 -74 -493 C -97 -486 -116 -478 -131 -469 L -102 -334 C -91 -340 -77 -347 -61 -353 C -45 -359 -24 -362 0 -362 C 13 -362 28 -360 44 -357 C 60 -353 75 -347 89 -337 C 103 -327 116 -312 127 -292 C 137 -272 145 -245 150 -213 L 272 813 Z" unicode="f" />
<glyph horiz-adv-x="1124" d="M 434 -516 C 354 -516 288 -506 236 -486 C 184 -466 142 -444 110 -419 C 78 -393 55 -369 41 -347 C 27 -324 19 -310 18 -305 L 129 -213 C 130 -217 137 -228 149 -247 C 161 -266 180 -286 205 -307 C 229 -327 261 -346 301 -362 C 340 -378 388 -387 446 -387 C 615 -387 716 -286 750 -84 C 752 -64 756 -42 760 -17 C 764 7 768 32 772 56 C 776 80 779 100 782 116 C 784 132 786 141 786 143 L 776 143 C 757 111 733 83 705 59 C 680 37 649 18 611 1 C 573 -16 528 -25 475 -25 C 416 -25 363 -14 316 8 C 269 30 229 60 196 99 C 163 138 138 185 121 240 C 104 294 96 354 96 420 C 96 498 107 570 131 637 C 154 703 187 761 229 810 C 271 858 321 897 378 925 C 434 953 497 967 565 967 C 621 967 667 957 703 938 C 739 918 769 897 791 874 C 815 848 834 818 850 784 L 862 788 L 885 942 L 1030 942 L 915 10 C 892 -176 839 -311 757 -393 C 674 -475 566 -516 434 -516 Z M 504 104 C 548 104 590 113 629 132 C 668 150 702 177 731 213 C 759 248 782 292 798 344 C 814 396 823 455 823 522 C 823 631 801 711 759 762 C 717 812 659 838 586 838 C 538 838 493 827 453 807 C 413 786 378 757 348 721 C 318 684 294 640 278 588 C 262 536 254 478 254 416 C 254 306 277 227 323 178 C 369 128 430 104 504 104 Z" unicode="g" />
<glyph horiz-adv-x="1112" d="M 862 -18 C 772 -18 727 27 727 119 C 727 137 729 157 733 178 C 739 218 746 254 752 287 C 758 319 765 352 771 384 C 777 416 783 449 790 484 C 797 519 805 558 813 600 C 817 622 819 643 819 664 C 819 722 803 766 771 796 C 739 825 694 840 637 840 C 555 840 487 809 435 748 C 382 687 347 593 330 465 C 328 452 326 436 323 417 C 320 398 317 376 315 352 C 312 327 309 301 307 275 C 304 249 301 223 299 197 C 292 135 285 69 279 0 L 123 0 L 299 1456 L 455 1456 L 360 766 L 371 766 C 392 802 419 836 453 866 C 480 890 514 913 556 935 C 597 956 647 967 705 967 C 792 967 858 942 902 894 C 946 845 969 782 969 705 C 969 681 967 657 963 633 C 946 535 930 452 915 384 C 900 315 886 248 874 184 C 872 177 872 170 872 164 C 872 140 876 125 886 119 C 896 112 909 109 926 109 C 939 109 953 110 967 113 C 972 114 977 116 983 119 L 965 2 C 956 -2 946 -5 936 -8 C 915 -14 890 -18 862 -18 Z" unicode="h" />
<glyph horiz-adv-x="522" d="M 293 -18 C 234 -18 193 -3 171 25 C 148 53 137 87 137 125 C 137 134 137 143 138 153 C 138 163 139 171 141 178 L 248 942 L 403 942 L 303 242 C 300 221 298 203 297 189 C 295 175 295 164 295 158 C 295 122 312 104 346 104 C 354 104 362 104 370 106 C 378 108 386 110 393 113 C 401 115 410 119 418 123 L 399 10 C 392 4 384 0 375 -4 C 355 -13 328 -18 293 -18 Z M 482 1282 C 482 1244 470 1214 447 1192 C 423 1170 396 1159 365 1159 C 336 1159 310 1170 287 1192 C 264 1214 253 1244 253 1282 C 253 1317 264 1345 287 1367 C 310 1388 336 1399 365 1399 C 396 1399 423 1388 447 1367 C 470 1345 482 1317 482 1282 Z" unicode="i" />
<glyph horiz-adv-x="522" d="M 475 1282 C 475 1244 463 1214 440 1192 C 416 1170 389 1159 358 1159 C 329 1159 303 1170 280 1192 C 257 1214 246 1244 246 1282 C 246 1317 257 1345 280 1367 C 303 1388 329 1399 358 1399 C 389 1399 416 1388 440 1367 C 463 1345 475 1317 475 1282 Z M -154 -334 C -142 -340 -128 -347 -112 -353 C -96 -359 -75 -362 -51 -362 C -37 -362 -23 -360 -7 -357 C 8 -353 23 -347 37 -337 C 51 -327 64 -312 75 -292 C 86 -272 94 -245 98 -213 L 248 942 L 401 942 L 250 -250 C 244 -293 233 -330 215 -362 C 197 -394 174 -420 148 -441 C 122 -462 92 -478 59 -488 C 26 -498 -7 -504 -43 -504 C -74 -504 -101 -500 -125 -493 C -148 -486 -167 -478 -182 -469 L -154 -334 Z" unicode="j" />
<glyph horiz-adv-x="1034" d="M 809 942 L 1004 942 L 571 522 L 942 0 L 750 0 L 451 438 L 317 322 L 279 0 L 123 0 L 299 1456 L 455 1456 L 334 483 L 809 942 Z" unicode="k" />
<glyph horiz-adv-x="532" d="M 287 1456 L 442 1456 L 285 242 C 282 221 280 203 278 189 C 276 175 276 164 276 158 C 276 140 283 126 299 117 C 314 108 329 104 344 104 C 354 104 365 105 375 108 C 385 111 395 114 403 117 C 413 121 422 125 432 129 L 418 16 C 406 9 395 3 383 -2 C 372 -6 360 -9 346 -13 C 332 -16 317 -18 299 -18 C 232 -18 186 -2 160 30 C 134 62 121 99 121 141 C 121 148 121 154 121 160 C 121 165 121 171 123 178 L 287 1456 Z" unicode="l" />
<glyph horiz-adv-x="1665" d="M 911 506 C 901 454 893 398 885 339 C 877 279 870 224 864 174 C 857 115 850 57 844 0 L 688 0 C 703 100 717 192 731 276 C 736 312 741 348 747 384 C 753 420 758 453 764 484 C 769 514 773 542 777 566 C 780 590 783 608 786 621 C 787 627 788 634 788 640 C 788 646 788 652 788 659 C 788 711 773 754 743 788 C 713 822 669 840 612 840 C 571 840 535 831 505 813 C 474 795 448 770 426 739 C 404 707 385 671 371 629 C 357 587 346 543 338 496 C 331 460 324 414 317 358 C 310 302 303 247 297 195 C 289 131 280 66 272 0 L 117 0 C 134 125 150 240 166 346 C 171 391 177 435 184 479 C 191 523 197 563 202 600 C 206 636 211 668 215 694 C 219 720 221 738 223 748 C 224 757 225 767 226 778 C 226 789 227 801 227 813 C 227 828 226 843 226 859 C 225 875 224 889 223 901 C 221 916 220 930 219 942 L 371 942 C 371 931 371 920 373 909 C 373 898 373 887 374 875 C 374 863 375 852 375 840 C 375 816 373 792 369 766 L 377 766 C 396 802 419 836 446 866 C 469 890 499 913 535 935 C 571 956 614 967 662 967 C 723 967 771 956 805 934 C 839 912 864 887 881 860 C 899 828 911 793 915 754 L 924 754 C 942 793 967 828 997 860 C 1023 887 1056 912 1097 934 C 1138 956 1188 967 1247 967 C 1301 967 1346 958 1381 942 C 1416 926 1444 905 1464 880 C 1484 854 1498 826 1506 795 C 1514 763 1518 732 1518 702 C 1518 694 1515 674 1510 642 C 1505 610 1498 570 1490 523 C 1481 476 1471 423 1459 364 C 1447 305 1435 244 1423 182 C 1421 176 1421 169 1421 160 C 1421 140 1426 127 1437 121 C 1448 114 1461 111 1477 111 C 1487 111 1499 112 1513 115 C 1519 116 1525 118 1532 121 L 1513 2 C 1503 -2 1493 -5 1483 -8 C 1462 -14 1436 -18 1405 -18 C 1359 -18 1326 -7 1306 13 C 1286 34 1276 66 1276 109 C 1276 129 1278 151 1282 176 C 1290 214 1298 256 1306 302 C 1314 348 1322 392 1330 434 C 1337 476 1344 514 1350 548 C 1356 581 1361 605 1364 621 C 1365 629 1366 637 1367 645 C 1367 653 1368 661 1368 670 C 1368 691 1365 712 1360 734 C 1354 755 1345 773 1333 788 C 1321 803 1304 815 1284 825 C 1263 835 1237 840 1206 840 C 1164 840 1126 831 1092 814 C 1058 796 1030 773 1006 743 C 982 713 963 677 947 636 C 931 595 919 552 911 506 Z" unicode="m" />
<glyph horiz-adv-x="1116" d="M 858 -18 C 770 -18 727 27 727 119 C 727 137 729 157 733 178 C 744 243 756 308 770 372 C 784 436 799 512 815 600 C 819 622 821 643 821 664 C 821 722 805 766 773 796 C 741 825 695 840 637 840 C 555 840 487 807 433 742 C 379 677 344 585 328 465 C 322 429 316 385 310 332 C 304 278 297 227 291 178 C 284 120 276 61 268 0 L 113 0 C 130 125 146 240 162 346 C 167 391 173 435 180 479 C 186 523 192 563 197 600 C 202 636 207 668 211 694 C 215 720 217 738 219 748 C 220 757 221 767 222 778 C 222 789 223 801 223 813 C 223 828 222 843 222 859 C 221 875 220 889 219 901 C 217 916 216 930 215 942 L 367 942 C 367 931 367 919 369 907 C 370 896 371 884 372 870 C 372 856 373 843 373 829 C 373 819 373 809 373 798 C 373 787 371 776 369 766 L 379 766 C 398 802 422 836 451 866 C 475 890 506 913 546 935 C 586 956 634 967 692 967 C 786 967 856 942 901 892 C 946 842 969 778 969 700 C 969 689 969 678 969 666 C 969 654 967 643 965 633 C 956 582 947 536 939 495 C 930 454 922 416 914 381 C 906 345 899 311 893 279 C 886 247 880 216 874 186 C 872 179 872 171 872 162 C 872 140 877 126 887 120 C 897 114 910 111 926 111 C 939 111 953 112 967 115 C 972 116 977 118 983 121 L 965 2 C 956 -2 946 -5 936 -8 C 915 -14 889 -18 858 -18 Z" unicode="n" />
<glyph horiz-adv-x="1092" d="M 508 -25 C 446 -25 390 -14 339 7 C 287 28 244 58 208 96 C 172 134 144 180 124 233 C 104 286 94 345 94 410 C 94 494 106 571 131 639 C 155 707 189 765 233 814 C 277 862 329 900 389 927 C 449 953 515 967 588 967 C 723 967 825 928 895 850 C 964 772 999 669 999 541 C 999 456 987 379 964 309 C 941 239 908 180 865 131 C 822 81 770 43 709 16 C 648 -11 581 -25 508 -25 Z M 514 104 C 559 104 602 113 642 132 C 682 150 716 178 746 214 C 776 250 799 294 817 348 C 835 401 844 463 844 535 C 844 635 819 711 771 762 C 722 812 659 838 582 838 C 536 838 493 828 453 810 C 413 791 378 763 348 727 C 318 690 294 645 277 591 C 260 537 252 474 252 403 C 252 303 276 229 324 179 C 372 129 436 104 514 104 Z" unicode="o" />
<glyph horiz-adv-x="1174" d="M 588 104 C 631 104 673 113 713 131 C 753 149 789 175 820 211 C 850 246 875 290 894 343 C 912 395 922 456 922 526 C 922 630 897 708 849 760 C 800 812 733 838 647 838 C 603 838 561 829 521 811 C 481 793 445 766 415 732 C 384 697 359 654 341 602 C 322 550 313 489 313 420 C 313 316 337 237 386 184 C 434 130 502 104 588 104 Z M 608 -25 C 546 -25 496 -16 456 1 C 416 18 384 37 360 59 C 331 83 309 111 293 143 L 283 143 C 283 129 282 116 281 102 C 279 91 278 78 277 64 C 276 50 275 37 274 27 C 274 19 272 6 270 -11 C 267 -29 264 -52 262 -78 C 259 -104 256 -132 252 -164 C 248 -195 244 -227 240 -260 C 230 -335 219 -419 209 -512 L 53 -512 L 207 750 C 208 759 209 768 209 777 C 209 786 209 796 209 807 C 209 823 208 839 207 856 C 205 872 204 887 203 899 C 201 914 200 928 199 942 L 340 942 C 341 932 343 921 346 909 C 348 898 350 886 352 874 C 353 862 354 849 354 836 C 354 830 353 825 353 821 C 352 817 352 812 352 807 L 362 807 C 382 835 408 862 440 887 C 467 905 501 923 541 941 C 581 958 630 967 688 967 C 745 967 798 956 846 935 C 894 913 935 883 970 845 C 1004 807 1031 761 1051 708 C 1071 655 1081 596 1081 532 C 1081 452 1068 378 1044 310 C 1020 242 986 184 943 134 C 900 84 850 45 793 17 C 735 -11 674 -25 608 -25 Z" unicode="p" />
<glyph horiz-adv-x="1143" d="M 254 471 C 252 460 251 449 251 438 C 250 427 250 416 250 406 C 250 306 276 230 329 180 C 381 129 446 104 524 104 C 569 104 611 113 651 131 C 691 149 725 175 755 211 C 784 246 807 290 823 343 C 839 395 848 456 848 526 C 848 628 824 706 776 759 C 728 811 665 838 586 838 C 500 838 426 807 366 745 C 306 683 268 592 254 471 Z M 715 -512 C 725 -420 735 -337 745 -262 C 749 -229 753 -197 757 -166 C 760 -134 763 -106 767 -80 C 770 -54 773 -31 775 -13 C 777 4 778 17 780 25 C 781 35 783 46 785 58 C 787 70 789 80 793 90 C 795 100 798 111 801 121 L 791 121 C 770 93 745 69 717 47 C 692 27 661 10 624 -3 C 587 -17 544 -25 494 -25 C 433 -25 378 -14 329 6 C 280 26 238 55 204 92 C 169 128 142 173 123 226 C 103 278 94 337 94 401 C 94 481 106 556 130 625 C 154 694 186 754 228 805 C 270 855 320 895 378 924 C 436 952 499 967 567 967 C 631 967 683 957 722 938 C 760 918 791 897 815 874 C 841 848 860 818 872 784 L 883 784 L 907 942 L 1049 942 L 870 -512 L 715 -512 Z" unicode="q" />
<glyph horiz-adv-x="702" d="M 678 793 C 670 794 661 795 652 796 C 643 796 635 797 629 797 C 549 797 483 767 430 709 C 376 650 343 571 330 473 C 318 403 309 340 303 282 C 296 224 289 173 283 131 C 275 81 269 38 264 0 L 109 0 L 217 768 C 218 777 219 786 219 795 C 219 804 219 813 219 823 C 219 838 218 853 217 868 C 215 883 214 896 213 907 C 211 921 210 932 209 942 L 356 942 C 357 935 359 928 362 920 C 364 912 365 902 367 890 C 368 878 369 864 369 850 C 369 836 367 817 364 793 C 361 769 358 748 356 729 L 367 729 C 394 795 431 852 479 898 C 527 944 583 967 649 967 C 655 967 662 966 670 966 C 678 965 685 964 692 963 L 678 793 Z" unicode="r" />
<glyph horiz-adv-x="889" d="M 668 731 C 659 751 647 769 633 784 C 619 798 600 810 577 821 C 554 832 524 838 487 838 C 428 838 383 826 351 802 C 319 778 303 742 303 694 C 303 675 308 658 318 643 C 328 628 342 615 360 603 C 378 591 399 581 423 571 C 447 561 472 552 498 543 C 530 530 564 517 599 503 C 633 489 664 473 692 454 C 719 435 741 412 759 384 C 777 356 786 321 786 281 C 786 239 778 200 763 162 C 748 124 725 92 694 65 C 662 38 623 16 576 0 C 529 -16 474 -25 412 -25 C 339 -25 281 -15 237 4 C 193 23 159 44 133 68 C 103 93 81 124 68 160 L 203 233 C 212 209 226 187 246 168 C 262 151 283 136 310 122 C 336 108 372 102 416 102 C 476 102 525 114 564 139 C 603 163 623 200 623 248 C 623 270 618 288 608 304 C 598 320 585 334 569 346 C 553 358 534 369 512 379 C 490 388 466 397 442 406 C 408 418 373 430 339 443 C 304 456 272 473 244 493 C 215 513 192 539 174 569 C 156 599 147 636 147 680 C 147 720 155 758 171 794 C 187 830 209 860 239 886 C 268 911 303 931 344 945 C 385 959 431 967 481 967 C 548 967 602 958 644 941 C 686 923 719 905 743 887 C 770 862 791 835 807 807 L 668 731 Z" unicode="s" />
<glyph horiz-adv-x="715" d="M 260 942 L 289 1143 L 446 1163 L 416 942 L 709 942 L 690 813 L 397 813 L 319 274 C 316 263 314 251 314 239 C 313 227 313 217 313 209 C 313 177 320 152 336 134 C 352 115 381 106 424 106 C 444 106 464 109 482 115 C 500 121 517 129 532 137 C 548 147 564 158 580 170 L 621 41 C 603 29 582 18 559 8 C 539 0 516 -7 490 -14 C 464 -21 434 -25 401 -25 C 322 -25 262 -5 220 32 C 178 70 158 122 158 188 C 158 196 158 205 159 213 C 159 221 160 230 162 240 L 242 813 L 92 813 L 111 942 L 260 942 Z" unicode="t" />
<glyph horiz-adv-x="1079" d="M 369 942 L 289 332 C 287 323 287 315 287 308 C 287 300 287 293 287 287 C 287 229 301 184 329 151 C 357 118 399 102 457 102 C 540 102 603 131 647 190 C 691 249 722 347 741 485 C 747 521 753 565 759 617 C 765 669 771 720 778 768 C 784 824 792 882 801 942 L 956 942 L 860 264 C 857 243 854 225 852 210 C 849 195 848 184 848 178 C 848 157 852 143 860 136 C 868 128 879 125 895 125 C 913 125 929 127 944 131 C 952 133 960 136 969 139 L 948 16 C 940 10 931 6 922 2 C 902 -7 878 -12 848 -12 C 819 -12 797 -4 781 10 C 765 25 754 42 747 60 C 740 78 736 96 735 112 C 733 128 733 139 733 143 L 721 143 C 700 111 675 83 645 59 C 619 37 586 18 547 1 C 508 -16 461 -25 406 -25 C 324 -25 258 0 209 49 C 159 98 135 164 135 248 C 135 258 135 269 137 280 C 138 291 139 302 141 313 L 221 942 L 369 942 Z" unicode="u" />
<glyph horiz-adv-x="899" d="M 289 0 L 88 942 L 248 942 L 401 145 L 756 942 L 932 942 L 483 0 L 289 0 Z" unicode="v" />
<glyph horiz-adv-x="1430" d="M 854 942 L 965 145 L 1260 942 L 1423 942 L 1051 0 L 844 0 L 741 795 L 430 0 L 238 0 L 127 942 L 276 942 L 352 145 L 666 942 L 854 942 Z" unicode="w" />
<glyph horiz-adv-x="995" d="M 526 569 L 807 942 L 1001 942 L 623 467 L 877 0 L 698 0 L 502 377 L 205 0 L 6 0 L 410 477 L 156 942 L 330 942 L 526 569 Z" unicode="x" />
<glyph horiz-adv-x="1044" d="M 360 942 L 281 332 C 279 325 278 317 277 308 C 276 299 276 289 276 279 C 276 225 289 182 316 150 C 342 118 384 102 442 102 C 486 102 524 111 556 131 C 588 150 615 176 639 210 C 662 243 681 282 696 327 C 711 372 723 421 731 473 C 733 493 737 519 742 551 C 747 582 752 615 756 649 C 760 683 764 717 768 752 C 772 787 776 819 780 847 C 784 875 787 897 789 914 C 791 931 793 940 793 942 L 948 942 L 831 -47 C 821 -129 803 -199 776 -258 C 748 -316 713 -365 671 -403 C 629 -441 580 -470 526 -488 C 471 -506 412 -516 350 -516 C 276 -516 217 -506 172 -487 C 126 -468 90 -447 63 -424 C 31 -398 8 -367 -6 -332 L 96 -242 C 108 -269 127 -293 152 -315 C 172 -334 199 -351 234 -366 C 269 -381 313 -389 365 -389 C 417 -389 462 -380 499 -362 C 536 -344 567 -321 591 -291 C 615 -261 633 -226 646 -187 C 659 -148 669 -108 676 -66 C 682 -18 688 20 692 49 C 696 77 699 101 702 119 C 706 137 709 152 711 164 C 691 128 667 97 639 70 C 614 46 583 25 545 5 C 507 -15 462 -25 410 -25 C 324 -25 255 0 205 50 C 154 100 129 167 129 252 C 129 261 129 271 129 281 C 129 291 130 302 133 313 L 213 942 L 360 942 Z" unicode="y" />
<glyph horiz-adv-x="934" d="M 885 834 L 840 782 L 287 129 L 809 129 L 791 0 L 74 0 L 90 109 L 154 182 L 686 813 L 193 813 L 211 942 L 901 942 L 885 834 Z" unicode="z" />
<glyph horiz-adv-x="758" d="M 366 789 L 420 1168 C 425 1207 434 1244 448 1279 C 462 1314 481 1345 505 1371 C 529 1397 560 1417 596 1432 C 632 1447 677 1455 729 1455 C 738 1455 748 1454 758 1454 C 768 1453 779 1452 790 1451 L 774 1340 C 764 1341 758 1342 756 1342 C 754 1342 751 1342 749 1342 C 735 1342 718 1340 698 1336 C 677 1332 656 1322 636 1308 C 616 1294 597 1273 580 1245 C 563 1217 551 1179 545 1131 L 491 758 C 484 716 471 682 451 658 C 431 633 411 614 389 601 C 364 585 336 574 305 568 L 303 560 C 327 556 350 547 370 533 C 386 522 402 506 416 486 C 430 465 438 438 438 404 C 438 398 438 393 438 387 C 438 381 437 375 436 369 L 383 -1 C 381 -12 380 -22 380 -31 C 379 -39 379 -48 379 -57 C 379 -92 384 -120 394 -140 C 404 -160 416 -176 431 -187 C 446 -198 462 -205 480 -209 C 497 -212 512 -214 524 -214 L 547 -214 C 551 -214 553 -213 555 -212 L 538 -323 C 510 -327 487 -329 467 -329 C 425 -329 390 -323 362 -311 C 333 -299 310 -284 292 -265 C 274 -246 262 -223 254 -197 C 246 -170 243 -141 243 -110 C 243 -88 245 -64 250 -40 L 303 336 C 304 342 305 347 305 352 C 305 356 305 361 305 365 C 305 393 298 416 286 432 C 274 448 259 461 243 469 C 227 477 211 482 196 484 C 181 485 171 486 166 486 L 186 642 C 234 642 274 655 307 682 C 339 708 359 744 366 789 Z" unicode="{" />
<glyph horiz-adv-x="553" d="M 215 -329 L 215 1455 L 360 1455 L 360 -329 L 215 -329 Z" unicode="|" />
<glyph horiz-adv-x="758" d="M 368 336 L 315 -42 C 309 -82 300 -119 286 -154 C 272 -188 253 -219 229 -245 C 204 -271 174 -291 138 -306 C 102 -321 58 -329 6 -329 C -3 -329 -13 -328 -23 -328 C -33 -327 -44 -326 -56 -325 L -39 -214 C -29 -215 -24 -216 -22 -216 C -20 -216 -17 -216 -15 -216 C -1 -216 16 -214 36 -210 C 56 -206 77 -196 98 -182 C 118 -168 137 -147 154 -119 C 171 -91 183 -53 190 -6 L 243 367 C 250 409 263 443 283 467 C 303 491 324 511 346 525 C 370 539 398 550 430 558 L 432 566 C 407 570 384 578 364 592 C 348 603 332 619 318 639 C 304 659 297 687 297 722 C 297 727 297 732 297 738 C 297 743 297 749 299 756 L 352 1127 C 353 1137 354 1147 355 1156 C 355 1165 356 1174 356 1182 C 356 1218 350 1246 340 1266 C 330 1286 317 1302 302 1313 C 287 1324 271 1331 254 1335 C 237 1338 223 1340 211 1340 L 188 1340 C 184 1340 181 1339 180 1338 L 196 1449 C 223 1453 247 1455 268 1455 C 308 1455 343 1449 372 1437 C 401 1425 424 1410 442 1391 C 460 1372 472 1349 480 1323 C 487 1296 491 1267 491 1236 C 491 1214 489 1190 485 1166 L 432 789 C 430 783 430 778 430 774 C 430 769 430 764 430 760 C 430 731 436 708 448 692 C 460 676 475 664 491 656 C 507 648 523 643 538 642 C 553 640 563 640 569 640 L 549 484 C 501 484 460 470 428 444 C 395 417 375 381 368 336 Z" unicode="}" />
<glyph horiz-adv-x="1044" d="M 815 561 L 922 561 C 928 541 933 519 937 495 C 940 471 942 450 942 434 C 942 379 927 338 898 312 C 868 285 828 272 778 272 C 734 272 690 280 646 298 C 602 315 559 333 518 353 C 477 373 437 391 399 408 C 361 425 326 434 295 434 C 263 434 242 426 232 410 C 222 394 217 379 217 365 C 217 353 218 340 221 325 C 223 310 227 295 231 281 L 123 281 C 116 298 111 317 107 339 C 103 360 102 379 102 397 C 102 450 116 492 146 523 C 175 553 217 569 272 569 C 314 569 357 560 400 543 C 443 526 485 508 526 488 C 567 468 606 450 644 433 C 681 416 716 408 750 408 C 778 408 798 414 810 428 C 821 442 827 457 827 475 C 827 484 825 497 823 514 C 820 530 817 546 815 561 Z" unicode="~" />
<glyph horiz-adv-x="516" d="M 331 561 L 215 -388 L 59 -388 L 176 561 L 331 561 Z M 172 831 C 172 865 183 895 205 920 C 227 945 256 957 292 957 C 323 957 348 947 368 926 C 387 905 397 879 397 848 C 397 812 386 781 364 756 C 342 731 313 719 278 719 C 246 719 221 729 201 750 C 181 771 172 798 172 831 Z" unicode="¡" />
<glyph horiz-adv-x="1034" d="M 848 700 C 836 723 823 744 807 764 C 791 780 772 795 750 811 C 728 826 700 835 668 838 L 578 102 C 618 106 653 116 681 130 C 709 144 731 160 748 176 C 766 195 782 216 795 240 L 911 164 C 895 131 872 102 842 76 C 814 52 778 31 734 12 C 690 -6 633 -18 563 -23 L 541 -209 L 403 -209 L 426 -18 C 333 -3 259 39 204 110 C 148 181 121 276 121 395 C 121 462 129 527 145 591 C 161 654 187 712 222 764 C 256 816 301 859 355 895 C 409 930 473 954 547 967 L 569 1151 L 707 1151 L 682 963 C 739 958 787 946 825 927 C 863 908 894 887 918 864 C 944 838 967 808 985 776 L 848 700 Z M 530 840 C 484 828 445 808 413 780 C 381 751 354 718 334 680 C 313 642 298 601 289 557 C 280 513 276 470 276 428 C 276 335 288 262 313 210 C 337 157 380 123 442 109 L 530 840 Z" unicode="¢" />
<glyph horiz-adv-x="1202" d="M 868 598 L 565 598 C 569 570 572 544 576 519 C 580 493 582 468 582 444 C 582 400 572 351 554 296 C 535 240 496 189 438 141 L 438 135 L 1038 135 L 1020 0 L 143 0 L 162 131 C 224 141 273 159 309 184 C 344 208 371 236 390 266 C 408 296 420 326 425 358 C 429 390 432 418 432 444 C 432 471 430 497 427 523 C 423 548 419 573 414 598 L 207 598 L 223 723 L 381 723 C 370 762 360 801 352 839 C 344 877 340 917 340 958 C 340 996 346 1039 359 1085 C 372 1131 395 1175 427 1215 C 459 1255 502 1289 558 1317 C 613 1344 683 1358 768 1358 C 833 1358 889 1352 937 1340 C 984 1328 1024 1313 1058 1294 C 1091 1275 1118 1252 1138 1226 C 1158 1199 1175 1171 1188 1143 L 1051 1047 C 1034 1097 1005 1140 963 1176 C 921 1212 857 1231 770 1231 C 720 1231 679 1222 645 1206 C 611 1190 583 1169 561 1143 C 539 1117 523 1088 514 1056 C 504 1024 500 993 500 963 C 500 928 503 890 511 849 C 518 808 527 766 539 723 L 885 723 L 868 598 Z" unicode="£" />
<glyph horiz-adv-x="1270" d="M 995 967 C 1025 927 1048 882 1065 832 C 1081 782 1090 729 1090 672 C 1090 616 1082 563 1066 515 C 1050 466 1028 422 1001 383 L 1145 244 L 1069 168 L 934 305 C 894 268 848 240 797 220 C 746 200 692 190 635 190 C 577 190 523 200 471 220 C 419 240 373 268 334 305 L 201 168 L 125 244 L 264 383 C 236 422 215 466 200 515 C 185 563 178 616 178 672 C 178 729 186 783 202 833 C 218 883 242 929 272 969 L 125 1114 L 201 1190 L 344 1044 C 383 1078 427 1105 477 1123 C 526 1141 579 1151 635 1151 C 691 1151 743 1141 792 1122 C 841 1103 886 1076 926 1042 L 1069 1190 L 1145 1114 L 995 967 Z M 940 672 C 940 718 932 761 916 801 C 900 841 879 877 852 907 C 824 937 792 961 755 979 C 718 997 678 1006 635 1006 C 591 1006 550 997 513 979 C 475 961 443 937 416 907 C 388 877 367 841 351 801 C 335 761 328 718 328 672 C 328 625 336 581 352 541 C 368 501 390 465 418 435 C 445 404 477 380 515 362 C 552 344 592 336 635 336 C 677 336 716 344 753 362 C 790 380 823 404 851 435 C 879 465 900 501 916 541 C 932 581 940 625 940 672 Z" unicode="¤" />
<glyph horiz-adv-x="1229" d="M 188 819 L 393 819 L 176 1333 L 338 1333 L 614 662 L 1073 1333 L 1227 1333 L 881 819 L 1094 819 L 1077 694 L 797 694 L 690 539 L 1059 539 L 1042 414 L 666 414 L 616 0 L 455 0 L 504 414 L 137 414 L 154 539 L 510 539 L 446 694 L 172 694 L 188 819 Z" unicode="¥" />
<glyph horiz-adv-x="553" d="M 215 396 L 360 396 L 360 -329 L 215 -329 L 215 396 Z M 360 730 L 215 730 L 215 1455 L 360 1455 L 360 730 Z" unicode="¦" />
<glyph horiz-adv-x="1024" d="M 223 117 C 234 92 249 71 268 53 C 284 37 306 22 333 9 C 359 -3 393 -10 434 -10 C 509 -10 567 3 608 31 C 649 58 670 93 670 137 C 670 174 657 204 633 227 C 608 250 577 270 540 287 C 503 304 463 320 420 335 C 377 350 337 369 301 391 C 264 413 233 440 209 472 C 184 504 172 546 172 598 C 172 628 177 656 187 683 C 197 709 210 733 225 755 C 240 777 257 797 276 815 C 295 833 314 848 334 862 C 278 906 250 971 250 1059 C 250 1093 257 1127 271 1163 C 285 1199 308 1231 339 1260 C 369 1288 408 1312 455 1330 C 502 1348 558 1358 623 1358 C 689 1358 744 1348 787 1330 C 830 1312 864 1291 889 1268 C 917 1242 939 1212 954 1178 L 813 1102 C 802 1125 788 1146 772 1165 C 757 1180 737 1194 713 1208 C 688 1222 656 1229 616 1229 C 549 1229 498 1214 462 1186 C 426 1157 408 1119 408 1071 C 408 1035 419 1007 443 985 C 467 963 496 943 532 927 C 568 911 606 895 647 880 C 688 865 726 847 762 825 C 797 803 827 776 851 744 C 875 712 887 671 887 621 C 887 590 882 562 872 536 C 862 510 850 487 835 466 C 820 444 803 425 785 407 C 767 389 749 374 731 360 C 761 337 784 310 800 279 C 816 248 825 209 825 162 C 825 129 817 95 801 59 C 785 23 762 -8 730 -38 C 698 -67 657 -91 608 -110 C 559 -129 501 -139 434 -139 C 366 -139 309 -129 264 -111 C 219 -93 183 -72 156 -49 C 122 -23 98 7 82 41 L 223 117 Z M 725 575 C 725 609 716 638 698 661 C 680 684 657 705 629 723 C 600 741 568 756 533 770 C 498 784 464 799 430 815 C 409 793 387 765 365 733 C 343 700 332 665 332 629 C 332 597 340 571 358 550 C 376 528 399 509 428 493 C 456 477 488 462 524 449 C 560 436 595 422 629 408 C 647 428 668 452 691 482 C 713 511 725 542 725 575 Z" unicode="§" />
<glyph horiz-adv-x="512" d="M 275 1278 C 275 1242 263 1214 240 1192 C 216 1170 188 1159 154 1159 C 122 1159 97 1169 77 1189 C 57 1209 48 1234 48 1266 C 48 1302 59 1331 81 1353 C 103 1375 132 1386 166 1386 C 198 1386 224 1376 244 1356 C 264 1336 275 1310 275 1278 Z M 687 1278 C 687 1242 675 1214 652 1192 C 628 1170 600 1159 568 1159 C 535 1159 509 1169 489 1189 C 469 1209 459 1234 459 1266 C 459 1302 470 1331 493 1353 C 515 1375 544 1386 580 1386 C 611 1386 637 1376 657 1356 C 677 1336 687 1310 687 1278 Z" unicode="¨" />
<glyph horiz-adv-x="1509" d="M 985 498 L 1102 428 C 1076 382 1034 344 978 312 C 921 280 856 264 782 264 C 720 264 664 273 614 291 C 564 309 520 336 484 371 C 448 406 420 448 400 498 C 380 548 371 604 371 668 C 371 730 381 786 401 835 C 421 884 450 926 486 961 C 522 996 565 1023 615 1041 C 665 1059 720 1069 780 1069 C 854 1069 920 1052 979 1020 C 1037 987 1079 947 1104 901 L 977 827 C 963 860 938 888 903 911 C 867 934 822 946 766 946 C 716 946 676 938 645 922 C 613 906 588 885 570 859 C 552 832 539 802 532 769 C 525 735 522 702 522 668 C 522 632 525 597 531 564 C 537 530 550 501 568 475 C 586 449 612 427 646 411 C 679 395 722 387 776 387 C 825 387 868 397 904 419 C 940 440 967 466 985 498 Z M 164 668 C 164 583 179 504 209 432 C 239 360 280 296 334 242 C 387 187 449 144 521 114 C 593 83 670 68 754 68 C 837 68 915 83 987 114 C 1059 144 1122 187 1175 242 C 1228 296 1270 360 1300 432 C 1330 504 1346 583 1346 668 C 1346 751 1330 829 1300 902 C 1270 975 1228 1039 1175 1093 C 1122 1147 1059 1189 987 1220 C 915 1250 837 1266 754 1266 C 670 1266 593 1250 521 1220 C 449 1189 387 1147 334 1093 C 280 1039 239 975 209 902 C 179 829 164 751 164 668 Z M 61 668 C 61 763 78 852 114 936 C 150 1019 199 1092 261 1155 C 323 1217 396 1267 480 1303 C 564 1339 655 1358 754 1358 C 852 1358 943 1339 1028 1303 C 1112 1267 1186 1217 1248 1155 C 1310 1092 1358 1019 1394 936 C 1430 852 1448 763 1448 668 C 1448 572 1430 482 1394 398 C 1358 314 1310 240 1248 178 C 1186 115 1112 65 1028 29 C 943 -6 852 -25 754 -25 C 655 -25 564 -6 480 29 C 396 65 323 115 261 178 C 199 240 150 314 114 398 C 78 482 61 572 61 668 Z" unicode="©" />
<glyph horiz-adv-x="895" d="M 720 825 C 718 808 717 794 716 783 C 714 772 714 763 714 757 C 714 740 716 729 721 723 C 725 717 734 714 746 714 C 753 714 760 714 766 716 C 772 717 777 718 781 720 C 787 722 794 725 800 728 L 785 634 C 779 630 773 626 767 622 C 751 613 734 609 714 609 C 686 609 665 616 649 630 C 633 644 622 660 615 677 C 608 693 604 709 604 723 C 603 737 603 746 603 749 L 593 749 C 579 721 561 697 540 677 C 520 660 496 644 466 629 C 436 614 398 607 353 607 C 308 607 267 615 230 631 C 193 647 162 669 136 699 C 110 728 90 763 76 805 C 62 847 56 892 56 941 C 56 999 64 1054 82 1104 C 100 1154 125 1197 157 1234 C 189 1270 228 1299 273 1320 C 318 1340 367 1351 419 1351 C 461 1351 496 1343 526 1329 C 555 1315 579 1299 597 1281 C 617 1262 634 1240 646 1214 L 654 1218 L 673 1332 L 793 1332 L 720 825 Z M 376 714 C 412 714 446 721 476 736 C 506 751 531 772 553 800 C 574 827 590 859 602 897 C 613 935 619 975 619 1019 C 619 1097 601 1154 567 1190 C 532 1226 486 1244 429 1244 C 391 1244 356 1236 326 1221 C 296 1206 270 1185 250 1158 C 230 1130 214 1098 202 1062 C 190 1025 185 985 185 941 C 185 863 202 806 237 769 C 272 732 318 714 376 714 Z" unicode="ª" />
<glyph horiz-adv-x="995" d="M 309 74 L 102 442 L 393 811 L 547 811 L 264 442 L 444 74 L 309 74 Z M 676 74 L 469 442 L 760 811 L 914 811 L 631 442 L 811 74 L 676 74 Z" unicode="«" />
<glyph horiz-adv-x="1044" d="M 82 649 L 963 649 L 963 246 L 844 246 L 844 522 L 82 522 L 82 649 Z" unicode="¬" />
<glyph horiz-adv-x="696" d="M 61 526 L 635 526 L 635 399 L 61 399 L 61 526 Z" unicode="­" />
<glyph horiz-adv-x="1509" d="M 901 283 L 772 559 L 651 559 L 651 283 L 496 283 L 496 1057 L 766 1057 C 865 1057 940 1033 991 986 C 1041 938 1067 881 1067 813 C 1067 780 1062 751 1054 727 C 1046 702 1034 680 1020 662 C 1006 644 989 629 971 617 C 953 605 934 597 915 592 L 1067 283 L 901 283 Z M 651 682 L 745 682 C 781 682 809 685 830 693 C 851 701 867 710 879 721 C 891 731 899 744 903 758 C 907 772 909 787 909 803 C 909 835 897 864 874 890 C 851 915 809 928 748 928 L 651 928 L 651 682 Z M 164 668 C 164 583 179 504 209 432 C 239 360 280 296 334 242 C 387 187 449 144 521 114 C 593 83 670 68 754 68 C 837 68 915 83 987 114 C 1059 144 1122 187 1175 242 C 1228 296 1270 360 1300 432 C 1330 504 1346 583 1346 668 C 1346 751 1330 829 1300 902 C 1270 975 1228 1039 1175 1093 C 1122 1147 1059 1189 987 1220 C 915 1250 837 1266 754 1266 C 670 1266 593 1250 521 1220 C 449 1189 387 1147 334 1093 C 280 1039 239 975 209 902 C 179 829 164 751 164 668 Z M 61 668 C 61 763 78 852 114 936 C 150 1019 199 1092 261 1155 C 323 1217 396 1267 480 1303 C 564 1339 655 1358 754 1358 C 852 1358 943 1339 1028 1303 C 1112 1267 1186 1217 1248 1155 C 1310 1092 1358 1019 1394 936 C 1430 852 1448 763 1448 668 C 1448 572 1430 482 1394 398 C 1358 314 1310 240 1248 178 C 1186 115 1112 65 1028 29 C 943 -6 852 -25 754 -25 C 655 -25 564 -6 480 29 C 396 65 323 115 261 178 C 199 240 150 314 114 398 C 78 482 61 572 61 668 Z" unicode="®" />
<glyph horiz-adv-x="512" d="M 44 1272 L 664 1272 L 652 1159 L 32 1159 L 44 1272 Z" unicode="¯" />
<glyph horiz-adv-x="786" d="M 379 1454 C 417 1454 453 1446 487 1432 C 521 1418 551 1398 576 1374 C 601 1349 621 1320 635 1286 C 649 1252 657 1216 657 1178 C 657 1138 649 1101 635 1068 C 621 1034 601 1005 576 981 C 551 956 521 936 487 922 C 453 908 417 901 379 901 C 339 901 302 908 269 922 C 235 936 206 956 181 981 C 155 1005 135 1034 121 1068 C 107 1101 100 1138 100 1178 C 100 1216 107 1252 121 1286 C 135 1320 155 1349 181 1374 C 206 1398 235 1418 269 1432 C 302 1446 339 1454 379 1454 Z M 379 1006 C 429 1006 470 1021 501 1053 C 531 1084 547 1126 547 1178 C 547 1228 531 1269 501 1301 C 470 1333 429 1350 379 1350 C 328 1350 287 1333 257 1301 C 226 1269 211 1228 211 1178 C 211 1126 226 1084 257 1053 C 287 1021 328 1006 379 1006 Z" unicode="°" />
<glyph horiz-adv-x="1044" d="M 584 725 L 952 725 L 952 598 L 584 598 L 584 230 L 440 230 L 440 598 L 72 598 L 72 725 L 440 725 L 440 1092 L 584 1092 L 584 725 Z M 952 127 L 952 0 L 72 0 L 72 127 L 952 127 L 952 127 Z" unicode="±" />
<glyph horiz-adv-x="717" d="M 227 1443 C 225 1449 224 1457 224 1466 C 223 1475 223 1483 223 1490 C 223 1520 229 1548 243 1574 C 257 1600 276 1622 300 1642 C 324 1662 352 1677 384 1688 C 416 1699 450 1705 487 1705 C 553 1705 610 1687 657 1652 C 703 1617 727 1564 727 1494 C 727 1450 717 1409 697 1373 C 677 1336 650 1301 617 1269 C 583 1236 544 1204 499 1173 C 454 1142 407 1112 358 1082 L 708 1082 L 696 976 L 151 976 L 161 1054 C 215 1085 269 1118 322 1152 C 374 1186 421 1220 463 1256 C 505 1292 539 1327 565 1363 C 591 1398 604 1433 604 1469 C 604 1510 593 1543 572 1568 C 550 1592 517 1605 473 1605 C 431 1605 397 1591 371 1565 C 344 1538 331 1503 331 1459 C 331 1452 331 1443 331 1433 C 331 1423 331 1414 333 1408 L 227 1443 Z" unicode="²" />
<glyph horiz-adv-x="717" d="M 229 1588 C 251 1622 281 1650 319 1672 C 357 1694 407 1705 469 1705 C 539 1705 595 1689 636 1659 C 677 1628 698 1587 698 1535 C 698 1503 690 1477 674 1457 C 658 1436 641 1420 622 1408 C 598 1392 573 1381 546 1375 C 574 1371 600 1361 624 1347 C 643 1334 661 1316 677 1294 C 693 1272 702 1242 702 1205 C 702 1161 693 1124 675 1094 C 657 1063 634 1038 606 1018 C 577 998 545 983 510 973 C 475 963 441 959 407 959 C 377 959 348 962 320 968 C 292 974 266 983 244 994 C 222 1005 201 1017 183 1031 C 164 1045 151 1058 145 1072 L 223 1170 C 227 1158 234 1145 246 1131 C 258 1117 272 1105 289 1093 C 306 1081 325 1072 345 1065 C 365 1057 387 1054 409 1054 C 431 1054 452 1056 472 1062 C 492 1067 511 1075 528 1086 C 544 1097 557 1112 567 1130 C 576 1148 581 1171 581 1197 C 581 1224 571 1248 551 1269 C 531 1290 496 1301 444 1301 C 434 1301 425 1300 415 1300 C 405 1299 390 1298 368 1297 C 353 1295 337 1293 321 1289 L 340 1400 C 346 1398 359 1397 377 1397 C 395 1396 408 1396 415 1396 C 459 1396 497 1404 530 1421 C 562 1438 579 1469 579 1514 C 579 1542 569 1566 550 1585 C 531 1603 500 1613 456 1613 C 410 1613 374 1602 348 1580 C 322 1558 301 1531 286 1500 L 229 1588 Z" unicode="³" />
<glyph horiz-adv-x="512" d="M 576 1542 L 660 1458 L 363 1159 L 279 1243 L 576 1542 Z" unicode="´" />
<glyph horiz-adv-x="1102" d="M 53 -512 L 231 942 L 375 942 L 305 365 C 301 341 299 320 299 301 C 299 239 314 191 344 155 C 374 119 415 102 467 102 C 532 102 589 124 637 169 C 685 213 717 279 735 365 C 739 382 743 404 747 430 C 751 456 756 484 761 515 C 765 545 770 577 776 610 C 781 642 786 675 791 707 C 801 781 812 860 823 942 L 979 942 L 883 264 C 880 243 877 225 875 211 C 873 197 872 186 872 180 C 872 144 888 127 920 127 C 928 127 936 127 945 129 C 953 130 961 132 969 135 C 977 137 985 141 993 145 L 975 18 C 965 12 956 8 946 4 C 927 -5 902 -10 872 -10 C 840 -10 816 -4 798 7 C 780 19 767 33 758 50 C 749 67 743 84 741 102 C 738 120 737 135 737 147 L 737 168 C 737 170 737 173 739 176 L 727 176 C 710 138 690 104 666 76 C 644 50 615 26 580 6 C 545 -14 502 -25 451 -25 C 411 -25 376 -13 346 9 C 316 31 290 56 270 84 L 260 84 L 260 37 C 260 33 259 19 258 -3 C 256 -25 254 -53 252 -86 C 249 -118 246 -155 243 -195 C 239 -235 236 -275 232 -314 C 228 -353 225 -390 221 -425 C 217 -459 213 -488 209 -512 L 53 -512 Z" unicode="µ" />
<glyph horiz-adv-x="1229" d="M 751 1333 L 573 -125 L 437 -125 L 509 464 C 457 464 408 472 364 490 C 320 507 281 532 249 564 C 216 596 190 635 172 682 C 154 729 145 783 145 845 C 145 920 157 988 182 1048 C 207 1108 241 1159 284 1201 C 327 1243 377 1276 435 1299 C 492 1321 552 1333 616 1333 L 751 1333 Z M 1224 1208 L 1031 1208 L 867 -125 L 732 -125 L 911 1333 L 1238 1333 L 1224 1208 Z" unicode="¶" />
<glyph horiz-adv-x="434" d="M 330 447 C 330 412 318 382 296 357 C 273 332 244 320 209 320 C 177 320 152 330 133 351 C 113 372 104 398 104 430 C 104 466 115 496 137 521 C 159 546 187 559 223 559 C 254 559 280 548 300 527 C 320 506 330 479 330 447 Z" unicode="·" />
<glyph horiz-adv-x="512" d="M 229 35 C 249 23 268 12 286 0 C 374 -60 418 -129 418 -207 C 418 -341 339 -408 182 -408 C 114 -408 56 -386 10 -344 L 61 -268 C 99 -296 142 -311 188 -311 C 256 -311 291 -273 291 -197 C 291 -116 231 -44 112 18 L 229 35 Z" unicode="¸" />
<glyph horiz-adv-x="717" d="M 174 1074 L 395 1074 L 452 1535 C 434 1525 408 1517 372 1511 C 336 1505 297 1502 254 1502 L 254 1600 C 288 1600 316 1602 340 1607 C 364 1612 387 1619 409 1627 C 431 1635 451 1644 469 1656 C 487 1668 502 1680 514 1693 L 592 1693 L 516 1074 L 727 1074 L 714 976 L 161 976 L 174 1074 Z" unicode="¹" />
<glyph horiz-adv-x="825" d="M 370 607 C 324 607 282 615 242 631 C 202 647 169 669 142 698 C 114 726 93 761 78 801 C 63 841 56 885 56 933 C 56 995 65 1052 83 1104 C 101 1155 127 1199 161 1236 C 195 1272 234 1301 280 1321 C 326 1341 377 1351 433 1351 C 535 1351 613 1321 665 1263 C 717 1204 744 1127 744 1031 C 744 967 735 909 718 857 C 701 805 676 760 644 724 C 611 687 571 658 525 638 C 479 617 427 607 370 607 Z M 378 714 C 409 714 440 720 470 733 C 500 746 525 766 546 793 C 567 819 584 852 597 891 C 610 929 617 974 617 1025 C 617 1097 599 1152 564 1189 C 528 1225 482 1244 425 1244 C 393 1244 363 1237 333 1223 C 303 1209 277 1189 255 1163 C 233 1137 215 1104 203 1065 C 191 1026 185 981 185 931 C 185 858 202 804 238 768 C 274 732 320 714 378 714 Z" unicode="º" />
<glyph horiz-adv-x="995" d="M 279 811 L 486 442 L 195 74 L 41 74 L 324 442 L 144 811 L 279 811 Z M 643 811 L 850 442 L 559 74 L 405 74 L 688 442 L 508 811 L 643 811 Z" unicode="»" />
<glyph horiz-adv-x="1679" d="M 535 0 L 404 0 L 1233 1333 L 1364 1333 L 535 0 Z M 103 714 L 324 714 L 381 1175 C 363 1165 337 1157 301 1151 C 265 1145 226 1142 183 1142 L 183 1240 C 217 1240 245 1242 269 1247 C 293 1252 316 1259 338 1267 C 360 1275 380 1284 398 1296 C 416 1308 431 1320 443 1333 L 521 1333 L 445 714 L 656 714 L 643 616 L 90 616 L 103 714 Z M 1377 717 L 1534 717 L 1477 237 L 1620 237 L 1608 145 L 1469 145 L 1450 0 L 1338 0 L 1356 145 L 1002 145 L 973 211 L 1020 270 L 1377 717 Z M 1420 635 L 1123 237 L 1369 237 L 1420 635 Z" unicode="¼" />
<glyph horiz-adv-x="1679" d="M 535 0 L 404 0 L 1233 1333 L 1364 1333 L 535 0 Z M 103 714 L 324 714 L 381 1175 C 363 1165 337 1157 301 1151 C 265 1145 226 1142 183 1142 L 183 1240 C 217 1240 245 1242 269 1247 C 293 1252 316 1259 338 1267 C 360 1275 380 1284 398 1296 C 416 1308 431 1320 443 1333 L 521 1333 L 445 714 L 656 714 L 643 616 L 90 616 L 103 714 Z M 1147 467 C 1145 473 1144 481 1144 490 C 1143 499 1143 507 1143 514 C 1143 544 1149 572 1163 598 C 1177 624 1196 646 1220 666 C 1244 686 1272 701 1304 712 C 1336 723 1370 729 1407 729 C 1473 729 1530 711 1577 676 C 1623 641 1647 588 1647 518 C 1647 474 1637 433 1617 397 C 1597 360 1570 325 1537 293 C 1503 260 1464 228 1419 197 C 1374 166 1327 136 1278 106 L 1628 106 L 1616 0 L 1071 0 L 1081 78 C 1135 109 1189 142 1242 176 C 1294 210 1341 244 1383 280 C 1425 316 1459 351 1485 387 C 1511 422 1524 457 1524 493 C 1524 534 1513 567 1492 592 C 1470 616 1437 629 1393 629 C 1351 629 1317 615 1291 589 C 1264 562 1251 527 1251 483 C 1251 476 1251 467 1251 457 C 1251 447 1251 438 1253 432 L 1147 467 Z" unicode="½" />
<glyph horiz-adv-x="1679" d="M 535 0 L 404 0 L 1233 1333 L 1364 1333 L 535 0 Z M 235 1228 C 257 1262 287 1290 325 1312 C 363 1334 413 1345 475 1345 C 545 1345 601 1329 642 1299 C 683 1268 704 1227 704 1175 C 704 1143 696 1117 680 1097 C 664 1076 647 1060 628 1048 C 604 1032 579 1021 552 1015 C 580 1011 606 1001 630 987 C 649 974 667 956 683 934 C 699 912 708 882 708 845 C 708 801 699 764 681 734 C 663 703 640 678 612 658 C 583 638 551 623 516 613 C 481 603 447 599 413 599 C 383 599 354 602 326 608 C 298 614 272 623 250 634 C 228 645 207 657 189 671 C 170 685 157 698 151 712 L 229 810 C 233 798 240 785 252 771 C 264 757 278 745 295 733 C 312 721 331 712 351 705 C 371 697 393 694 415 694 C 437 694 458 696 478 702 C 498 707 517 715 534 726 C 550 737 563 752 573 770 C 582 788 587 811 587 837 C 587 864 577 888 557 909 C 537 930 502 941 450 941 C 440 941 431 940 421 940 C 411 939 396 938 374 937 C 359 935 343 933 327 929 L 346 1040 C 352 1038 365 1037 383 1037 C 401 1036 414 1036 421 1036 C 465 1036 503 1044 536 1061 C 568 1078 585 1109 585 1154 C 585 1182 575 1206 556 1225 C 537 1243 506 1253 462 1253 C 416 1253 380 1242 354 1220 C 328 1198 307 1171 292 1140 L 235 1228 Z M 1377 717 L 1534 717 L 1477 237 L 1620 237 L 1608 145 L 1469 145 L 1450 0 L 1338 0 L 1356 145 L 1002 145 L 973 211 L 1020 270 L 1377 717 Z M 1420 635 L 1123 237 L 1369 237 L 1420 635 Z" unicode="¾" />
<glyph horiz-adv-x="860" d="M 785 -208 C 765 -246 739 -280 705 -310 C 676 -336 639 -360 594 -381 C 549 -403 493 -413 426 -413 C 371 -413 321 -407 275 -395 C 229 -383 190 -363 157 -337 C 123 -311 97 -278 78 -238 C 58 -198 49 -150 49 -95 C 49 -23 66 38 102 90 C 138 142 178 183 222 215 C 266 246 308 269 347 283 C 386 297 410 305 418 305 L 451 559 L 606 559 L 563 215 C 525 211 485 202 443 188 C 401 174 363 155 328 131 C 292 106 263 75 240 37 C 216 0 205 -43 205 -91 C 205 -147 222 -194 256 -232 C 290 -270 346 -288 424 -288 C 468 -288 504 -281 534 -265 C 563 -249 587 -232 606 -212 C 628 -190 646 -166 660 -138 L 785 -208 Z M 447 831 C 447 865 458 895 480 920 C 502 945 531 957 567 957 C 599 957 624 947 643 926 C 662 905 672 879 672 848 C 672 812 661 781 639 756 C 617 731 588 719 553 719 C 521 719 496 729 476 750 C 456 771 447 798 447 831 Z" unicode="¿" />
<glyph horiz-adv-x="1235" d="M 29 0 L 625 1333 L 834 1333 L 1112 0 L 942 0 L 879 326 L 336 326 L 195 0 L 29 0 Z M 391 469 L 854 469 L 711 1200 L 391 469 Z M 834 1634 L 750 1550 L 453 1849 L 537 1933 L 834 1634 Z" unicode="À" />
<glyph horiz-adv-x="1235" d="M 29 0 L 625 1333 L 834 1333 L 1112 0 L 942 0 L 879 326 L 336 326 L 195 0 L 29 0 Z M 391 469 L 854 469 L 711 1200 L 391 469 Z M 966 1933 L 1050 1849 L 753 1550 L 669 1634 L 966 1933 Z" unicode="Á" />
<glyph horiz-adv-x="1235" d="M 29 0 L 625 1333 L 834 1333 L 1112 0 L 942 0 L 879 326 L 336 326 L 195 0 L 29 0 Z M 391 469 L 854 469 L 711 1200 L 391 469 Z M 384 1550 L 742 1878 L 869 1878 L 1160 1550 L 992 1550 L 795 1788 L 550 1550 L 384 1550 Z" unicode="Â" />
<glyph horiz-adv-x="1235" d="M 29 0 L 625 1333 L 834 1333 L 1112 0 L 942 0 L 879 326 L 336 326 L 195 0 L 29 0 Z M 391 469 L 854 469 L 711 1200 L 391 469 Z M 652 1783 C 673 1783 694 1777 716 1767 C 737 1757 757 1745 776 1733 C 795 1720 813 1708 829 1698 C 845 1688 859 1683 871 1683 C 882 1683 891 1686 899 1692 C 906 1698 912 1705 916 1715 C 920 1724 924 1735 927 1747 C 929 1759 932 1772 934 1785 L 1047 1742 C 1049 1722 1048 1700 1043 1678 C 1037 1656 1028 1635 1014 1617 C 1000 1598 983 1582 962 1570 C 940 1558 915 1552 887 1552 C 865 1552 843 1557 823 1567 C 802 1577 782 1589 764 1602 C 745 1614 727 1626 711 1636 C 695 1646 680 1652 668 1652 C 658 1652 649 1649 642 1643 C 635 1637 629 1630 625 1621 C 620 1611 616 1600 613 1588 C 609 1576 606 1563 604 1550 L 492 1593 C 490 1619 493 1644 501 1668 C 509 1691 520 1711 534 1728 C 548 1745 566 1758 586 1768 C 606 1778 628 1783 652 1783 Z" unicode="Ã" />
<glyph horiz-adv-x="1235" d="M 29 0 L 625 1333 L 834 1333 L 1112 0 L 942 0 L 879 326 L 336 326 L 195 0 L 29 0 Z M 391 469 L 854 469 L 711 1200 L 391 469 Z M 674 1669 C 674 1633 662 1605 639 1583 C 615 1561 587 1550 553 1550 C 521 1550 496 1560 476 1580 C 456 1600 447 1625 447 1657 C 447 1693 458 1722 480 1744 C 502 1766 531 1777 565 1777 C 597 1777 623 1767 643 1747 C 663 1727 674 1701 674 1669 Z M 1086 1669 C 1086 1633 1074 1605 1051 1583 C 1027 1561 999 1550 967 1550 C 934 1550 908 1560 888 1580 C 868 1600 858 1625 858 1657 C 858 1693 869 1722 892 1744 C 914 1766 943 1777 979 1777 C 1010 1777 1036 1767 1056 1747 C 1076 1727 1086 1701 1086 1669 Z" unicode="Ä" />
<glyph horiz-adv-x="1235" d="M 29 0 L 625 1333 L 834 1333 L 1112 0 L 942 0 L 879 326 L 336 326 L 195 0 L 29 0 Z M 391 469 L 854 469 L 711 1200 L 391 469 Z M 553 1767 C 553 1799 558 1830 570 1859 C 581 1887 597 1912 619 1934 C 640 1955 665 1972 695 1985 C 724 1998 757 2005 794 2005 C 861 2005 915 1983 955 1941 C 995 1899 1016 1848 1016 1788 C 1016 1755 1010 1724 998 1695 C 986 1665 970 1640 948 1619 C 926 1597 900 1580 871 1568 C 841 1556 809 1550 774 1550 C 704 1550 649 1570 611 1612 C 572 1654 553 1705 553 1767 Z M 651 1773 C 651 1735 662 1703 686 1678 C 709 1652 740 1640 778 1640 C 816 1640 848 1653 876 1681 C 903 1708 917 1742 917 1782 C 917 1817 904 1848 880 1875 C 855 1901 825 1915 790 1915 C 750 1915 717 1901 691 1873 C 664 1845 651 1811 651 1773 Z" unicode="Å" />
<glyph horiz-adv-x="1694" d="M 121 0 L -47 0 L 764 1333 L 1653 1333 L 1636 1198 L 1026 1198 L 971 739 L 1532 739 L 1516 604 L 954 604 L 897 135 L 1534 135 L 1518 0 L 719 0 L 760 336 L 326 336 L 121 0 Z M 866 1217 L 412 469 L 776 469 L 866 1217 Z" unicode="Æ" />
<glyph horiz-adv-x="1266" d="M 565 35 C 585 23 604 12 622 0 C 710 -60 754 -129 754 -207 C 754 -341 675 -408 518 -408 C 450 -408 392 -386 346 -344 L 397 -268 C 435 -296 478 -311 524 -311 C 592 -311 627 -273 627 -197 C 627 -116 567 -44 448 18 L 565 35 Z M 1055 1030 C 1043 1080 1014 1125 967 1164 C 920 1203 854 1223 768 1223 C 692 1223 626 1205 569 1170 C 511 1135 463 1087 425 1026 C 386 964 357 892 337 810 C 317 727 307 639 307 545 C 307 479 314 419 328 366 C 342 313 364 268 393 230 C 421 192 457 163 501 142 C 545 121 596 111 655 111 C 753 111 831 131 887 172 C 943 212 981 262 1001 322 L 1126 240 C 1104 202 1079 168 1051 136 C 1022 104 988 76 949 52 C 910 28 866 9 816 -4 C 766 -18 709 -25 645 -25 C 569 -25 501 -12 439 13 C 377 38 323 75 279 124 C 235 172 200 231 176 301 C 151 371 139 451 139 541 C 139 665 156 777 190 877 C 224 977 271 1063 330 1134 C 388 1205 455 1260 531 1299 C 607 1338 687 1358 772 1358 C 833 1358 887 1351 935 1337 C 982 1323 1023 1305 1058 1282 C 1092 1258 1122 1232 1146 1202 C 1170 1172 1189 1140 1204 1106 L 1055 1030 Z" unicode="Ç" />
<glyph horiz-adv-x="1122" d="M 436 1198 L 381 739 L 942 739 L 926 604 L 365 604 L 307 135 L 954 135 L 938 0 L 129 0 L 291 1333 L 1073 1333 L 1057 1198 L 436 1198 Z M 819 1634 L 735 1550 L 438 1849 L 522 1933 L 819 1634 Z" unicode="È" />
<glyph horiz-adv-x="1122" d="M 436 1198 L 381 739 L 942 739 L 926 604 L 365 604 L 307 135 L 954 135 L 938 0 L 129 0 L 291 1333 L 1073 1333 L 1057 1198 L 436 1198 Z M 935 1933 L 1019 1849 L 722 1550 L 638 1634 L 935 1933 Z" unicode="É" />
<glyph horiz-adv-x="1122" d="M 436 1198 L 381 739 L 942 739 L 926 604 L 365 604 L 307 135 L 954 135 L 938 0 L 129 0 L 291 1333 L 1073 1333 L 1057 1198 L 436 1198 Z M 320 1550 L 678 1878 L 805 1878 L 1096 1550 L 928 1550 L 731 1788 L 486 1550 L 320 1550 Z" unicode="Ê" />
<glyph horiz-adv-x="1122" d="M 436 1198 L 381 739 L 942 739 L 926 604 L 365 604 L 307 135 L 954 135 L 938 0 L 129 0 L 291 1333 L 1073 1333 L 1057 1198 L 436 1198 Z M 622 1669 C 622 1633 610 1605 587 1583 C 563 1561 535 1550 501 1550 C 469 1550 444 1560 424 1580 C 404 1600 395 1625 395 1657 C 395 1693 406 1722 428 1744 C 450 1766 479 1777 513 1777 C 545 1777 571 1767 591 1747 C 611 1727 622 1701 622 1669 Z M 1034 1669 C 1034 1633 1022 1605 999 1583 C 975 1561 947 1550 915 1550 C 882 1550 856 1560 836 1580 C 816 1600 806 1625 806 1657 C 806 1693 817 1722 840 1744 C 862 1766 891 1777 927 1777 C 958 1777 984 1767 1004 1747 C 1024 1727 1034 1701 1034 1669 Z" unicode="Ë" />
<glyph horiz-adv-x="520" d="M 129 0 L 291 1333 L 453 1333 L 291 0 L 129 0 Z M 483 1634 L 399 1550 L 102 1849 L 186 1933 L 483 1634 Z" unicode="Ì" />
<glyph horiz-adv-x="520" d="M 129 0 L 291 1333 L 453 1333 L 291 0 L 129 0 Z M 617 1933 L 701 1849 L 404 1550 L 320 1634 L 617 1933 Z" unicode="Í" />
<glyph horiz-adv-x="520" d="M 129 0 L 291 1333 L 453 1333 L 291 0 L 129 0 Z M 23 1550 L 381 1878 L 508 1878 L 799 1550 L 631 1550 L 434 1788 L 189 1550 L 23 1550 Z" unicode="Î" />
<glyph horiz-adv-x="520" d="M 129 0 L 291 1333 L 453 1333 L 291 0 L 129 0 Z M 319 1669 C 319 1633 307 1605 284 1583 C 260 1561 232 1550 198 1550 C 166 1550 141 1560 121 1580 C 101 1600 92 1625 92 1657 C 92 1693 103 1722 125 1744 C 147 1766 176 1777 210 1777 C 242 1777 268 1767 288 1747 C 308 1727 319 1701 319 1669 Z M 731 1669 C 731 1633 719 1605 696 1583 C 672 1561 644 1550 612 1550 C 579 1550 553 1560 533 1580 C 513 1600 503 1625 503 1657 C 503 1693 514 1722 537 1744 C 559 1766 588 1777 624 1777 C 655 1777 681 1767 701 1747 C 721 1727 731 1701 731 1669 Z" unicode="Ï" />
<glyph horiz-adv-x="1378" d="M 170 0 L 242 606 L 61 606 L 76 733 L 258 733 L 332 1333 L 707 1333 C 891 1333 1030 1285 1124 1190 C 1218 1094 1266 957 1266 778 C 1266 655 1248 545 1214 448 C 1180 351 1132 269 1071 203 C 1009 137 936 86 850 52 C 764 17 669 0 565 0 L 170 0 Z M 586 135 C 745 135 870 188 961 295 C 1052 401 1098 562 1098 776 C 1098 914 1066 1018 1004 1090 C 942 1162 845 1198 713 1198 L 477 1198 L 420 733 L 690 733 L 676 606 L 403 606 L 348 135 L 586 135 Z" unicode="Ð" />
<glyph horiz-adv-x="1343" d="M 285 0 L 129 0 L 291 1333 L 504 1333 L 985 231 L 1120 1333 L 1276 1333 L 1114 0 L 901 0 L 422 1133 L 285 0 Z M 704 1783 C 725 1783 746 1777 768 1767 C 789 1757 809 1745 828 1733 C 847 1720 865 1708 881 1698 C 897 1688 911 1683 923 1683 C 934 1683 943 1686 951 1692 C 958 1698 964 1705 968 1715 C 972 1724 976 1735 979 1747 C 981 1759 984 1772 986 1785 L 1099 1742 C 1101 1722 1100 1700 1095 1678 C 1089 1656 1080 1635 1066 1617 C 1052 1598 1035 1582 1014 1570 C 992 1558 967 1552 939 1552 C 917 1552 895 1557 875 1567 C 854 1577 834 1589 816 1602 C 797 1614 779 1626 763 1636 C 747 1646 732 1652 720 1652 C 710 1652 701 1649 694 1643 C 687 1637 681 1630 677 1621 C 672 1611 668 1600 665 1588 C 661 1576 658 1563 656 1550 L 544 1593 C 542 1619 545 1644 553 1668 C 561 1691 572 1711 586 1728 C 600 1745 618 1758 638 1768 C 658 1778 680 1783 704 1783 Z" unicode="Ñ" />
<glyph horiz-adv-x="1438" d="M 1325 793 C 1325 694 1312 596 1286 498 C 1260 400 1219 313 1165 236 C 1110 159 1041 96 959 48 C 877 0 780 -25 668 -25 C 587 -25 514 -12 448 13 C 382 38 326 75 279 124 C 232 172 196 232 170 302 C 144 372 131 453 131 543 C 131 638 144 734 172 831 C 199 928 240 1015 295 1093 C 349 1171 418 1234 500 1284 C 582 1333 677 1358 786 1358 C 865 1358 938 1345 1004 1320 C 1070 1294 1127 1257 1174 1209 C 1221 1161 1258 1101 1285 1031 C 1311 961 1325 881 1325 793 Z M 664 111 C 752 111 828 130 891 168 C 953 206 1004 256 1044 320 C 1084 384 1112 456 1130 537 C 1148 618 1157 701 1157 786 C 1157 928 1123 1036 1056 1111 C 989 1185 901 1223 791 1223 C 701 1223 626 1203 564 1164 C 502 1125 451 1074 411 1012 C 371 949 342 877 324 796 C 306 714 297 632 297 549 C 297 405 330 296 398 222 C 466 148 554 111 664 111 Z M 954 1634 L 870 1550 L 573 1849 L 657 1933 L 954 1634 Z" unicode="Ò" />
<glyph horiz-adv-x="1438" d="M 1325 793 C 1325 694 1312 596 1286 498 C 1260 400 1219 313 1165 236 C 1110 159 1041 96 959 48 C 877 0 780 -25 668 -25 C 587 -25 514 -12 448 13 C 382 38 326 75 279 124 C 232 172 196 232 170 302 C 144 372 131 453 131 543 C 131 638 144 734 172 831 C 199 928 240 1015 295 1093 C 349 1171 418 1234 500 1284 C 582 1333 677 1358 786 1358 C 865 1358 938 1345 1004 1320 C 1070 1294 1127 1257 1174 1209 C 1221 1161 1258 1101 1285 1031 C 1311 961 1325 881 1325 793 Z M 664 111 C 752 111 828 130 891 168 C 953 206 1004 256 1044 320 C 1084 384 1112 456 1130 537 C 1148 618 1157 701 1157 786 C 1157 928 1123 1036 1056 1111 C 989 1185 901 1223 791 1223 C 701 1223 626 1203 564 1164 C 502 1125 451 1074 411 1012 C 371 949 342 877 324 796 C 306 714 297 632 297 549 C 297 405 330 296 398 222 C 466 148 554 111 664 111 Z M 1055 1933 L 1139 1849 L 842 1550 L 758 1634 L 1055 1933 Z" unicode="Ó" />
<glyph horiz-adv-x="1438" d="M 1325 793 C 1325 694 1312 596 1286 498 C 1260 400 1219 313 1165 236 C 1110 159 1041 96 959 48 C 877 0 780 -25 668 -25 C 587 -25 514 -12 448 13 C 382 38 326 75 279 124 C 232 172 196 232 170 302 C 144 372 131 453 131 543 C 131 638 144 734 172 831 C 199 928 240 1015 295 1093 C 349 1171 418 1234 500 1284 C 582 1333 677 1358 786 1358 C 865 1358 938 1345 1004 1320 C 1070 1294 1127 1257 1174 1209 C 1221 1161 1258 1101 1285 1031 C 1311 961 1325 881 1325 793 Z M 664 111 C 752 111 828 130 891 168 C 953 206 1004 256 1044 320 C 1084 384 1112 456 1130 537 C 1148 618 1157 701 1157 786 C 1157 928 1123 1036 1056 1111 C 989 1185 901 1223 791 1223 C 701 1223 626 1203 564 1164 C 502 1125 451 1074 411 1012 C 371 949 342 877 324 796 C 306 714 297 632 297 549 C 297 405 330 296 398 222 C 466 148 554 111 664 111 Z M 475 1550 L 833 1878 L 960 1878 L 1251 1550 L 1083 1550 L 886 1788 L 641 1550 L 475 1550 Z" unicode="Ô" />
<glyph horiz-adv-x="1438" d="M 1325 793 C 1325 694 1312 596 1286 498 C 1260 400 1219 313 1165 236 C 1110 159 1041 96 959 48 C 877 0 780 -25 668 -25 C 587 -25 514 -12 448 13 C 382 38 326 75 279 124 C 232 172 196 232 170 302 C 144 372 131 453 131 543 C 131 638 144 734 172 831 C 199 928 240 1015 295 1093 C 349 1171 418 1234 500 1284 C 582 1333 677 1358 786 1358 C 865 1358 938 1345 1004 1320 C 1070 1294 1127 1257 1174 1209 C 1221 1161 1258 1101 1285 1031 C 1311 961 1325 881 1325 793 Z M 664 111 C 752 111 828 130 891 168 C 953 206 1004 256 1044 320 C 1084 384 1112 456 1130 537 C 1148 618 1157 701 1157 786 C 1157 928 1123 1036 1056 1111 C 989 1185 901 1223 791 1223 C 701 1223 626 1203 564 1164 C 502 1125 451 1074 411 1012 C 371 949 342 877 324 796 C 306 714 297 632 297 549 C 297 405 330 296 398 222 C 466 148 554 111 664 111 Z M 735 1783 C 756 1783 777 1777 799 1767 C 820 1757 840 1745 859 1733 C 878 1720 896 1708 912 1698 C 928 1688 942 1683 954 1683 C 965 1683 974 1686 982 1692 C 989 1698 995 1705 999 1715 C 1003 1724 1007 1735 1010 1747 C 1012 1759 1015 1772 1017 1785 L 1130 1742 C 1132 1722 1131 1700 1126 1678 C 1120 1656 1111 1635 1097 1617 C 1083 1598 1066 1582 1045 1570 C 1023 1558 998 1552 970 1552 C 948 1552 926 1557 906 1567 C 885 1577 865 1589 847 1602 C 828 1614 810 1626 794 1636 C 778 1646 763 1652 751 1652 C 741 1652 732 1649 725 1643 C 718 1637 712 1630 708 1621 C 703 1611 699 1600 696 1588 C 692 1576 689 1563 687 1550 L 575 1593 C 573 1619 576 1644 584 1668 C 592 1691 603 1711 617 1728 C 631 1745 649 1758 669 1768 C 689 1778 711 1783 735 1783 Z" unicode="Õ" />
<glyph horiz-adv-x="1438" d="M 1325 793 C 1325 694 1312 596 1286 498 C 1260 400 1219 313 1165 236 C 1110 159 1041 96 959 48 C 877 0 780 -25 668 -25 C 587 -25 514 -12 448 13 C 382 38 326 75 279 124 C 232 172 196 232 170 302 C 144 372 131 453 131 543 C 131 638 144 734 172 831 C 199 928 240 1015 295 1093 C 349 1171 418 1234 500 1284 C 582 1333 677 1358 786 1358 C 865 1358 938 1345 1004 1320 C 1070 1294 1127 1257 1174 1209 C 1221 1161 1258 1101 1285 1031 C 1311 961 1325 881 1325 793 Z M 664 111 C 752 111 828 130 891 168 C 953 206 1004 256 1044 320 C 1084 384 1112 456 1130 537 C 1148 618 1157 701 1157 786 C 1157 928 1123 1036 1056 1111 C 989 1185 901 1223 791 1223 C 701 1223 626 1203 564 1164 C 502 1125 451 1074 411 1012 C 371 949 342 877 324 796 C 306 714 297 632 297 549 C 297 405 330 296 398 222 C 466 148 554 111 664 111 Z M 748 1669 C 748 1633 736 1605 713 1583 C 689 1561 661 1550 627 1550 C 595 1550 570 1560 550 1580 C 530 1600 521 1625 521 1657 C 521 1693 532 1722 554 1744 C 576 1766 605 1777 639 1777 C 671 1777 697 1767 717 1747 C 737 1727 748 1701 748 1669 Z M 1160 1669 C 1160 1633 1148 1605 1125 1583 C 1101 1561 1073 1550 1041 1550 C 1008 1550 982 1560 962 1580 C 942 1600 932 1625 932 1657 C 932 1693 943 1722 966 1744 C 988 1766 1017 1777 1053 1777 C 1084 1777 1110 1767 1130 1747 C 1150 1727 1160 1701 1160 1669 Z" unicode="Ö" />
<glyph horiz-adv-x="1044" d="M 788 834 L 883 739 L 608 463 L 883 186 L 788 92 L 512 367 L 236 92 L 141 186 L 416 463 L 141 739 L 236 834 L 512 559 L 788 834 L 788 834 Z" unicode="×" />
<glyph horiz-adv-x="1438" d="M 244 168 C 168 267 131 397 131 557 C 131 682 148 794 183 893 C 218 992 266 1076 326 1145 C 386 1214 455 1267 535 1303 C 615 1339 699 1358 788 1358 C 858 1358 921 1348 979 1328 C 1036 1308 1087 1280 1133 1245 L 1243 1370 L 1337 1286 L 1221 1149 C 1252 1101 1276 1045 1294 983 C 1312 920 1321 850 1321 774 C 1321 648 1303 536 1267 438 C 1231 340 1184 256 1125 187 C 1065 118 996 65 916 29 C 836 -6 753 -25 666 -25 C 532 -25 421 9 334 78 L 240 -31 L 145 55 L 244 168 Z M 793 1223 C 703 1223 627 1201 564 1159 C 500 1117 449 1062 409 995 C 369 928 340 853 322 771 C 304 688 295 606 295 524 C 295 428 312 347 346 279 L 1040 1126 C 978 1190 896 1223 793 1223 Z M 662 111 C 752 111 828 131 891 171 C 953 211 1004 263 1043 329 C 1082 395 1110 469 1127 552 C 1144 634 1153 718 1153 803 C 1153 893 1139 970 1112 1036 L 426 193 C 486 138 564 111 662 111 Z" unicode="Ø" />
<glyph horiz-adv-x="1266" d="M 455 1333 L 346 440 C 343 428 342 416 342 405 C 342 394 342 383 342 373 C 342 284 366 218 414 175 C 462 132 528 111 610 111 C 702 111 778 139 838 197 C 898 254 934 335 948 440 L 1057 1333 L 1221 1333 L 1112 451 C 1092 301 1041 185 957 101 C 873 17 756 -25 608 -25 C 463 -25 355 7 283 73 C 211 139 176 234 176 358 C 176 386 178 417 182 451 L 291 1333 L 455 1333 Z M 868 1634 L 784 1550 L 487 1849 L 571 1933 L 868 1634 Z" unicode="Ù" />
<glyph horiz-adv-x="1266" d="M 455 1333 L 346 440 C 343 428 342 416 342 405 C 342 394 342 383 342 373 C 342 284 366 218 414 175 C 462 132 528 111 610 111 C 702 111 778 139 838 197 C 898 254 934 335 948 440 L 1057 1333 L 1221 1333 L 1112 451 C 1092 301 1041 185 957 101 C 873 17 756 -25 608 -25 C 463 -25 355 7 283 73 C 211 139 176 234 176 358 C 176 386 178 417 182 451 L 291 1333 L 455 1333 Z M 993 1933 L 1077 1849 L 780 1550 L 696 1634 L 993 1933 Z" unicode="Ú" />
<glyph horiz-adv-x="1266" d="M 455 1333 L 346 440 C 343 428 342 416 342 405 C 342 394 342 383 342 373 C 342 284 366 218 414 175 C 462 132 528 111 610 111 C 702 111 778 139 838 197 C 898 254 934 335 948 440 L 1057 1333 L 1221 1333 L 1112 451 C 1092 301 1041 185 957 101 C 873 17 756 -25 608 -25 C 463 -25 355 7 283 73 C 211 139 176 234 176 358 C 176 386 178 417 182 451 L 291 1333 L 455 1333 Z M 382 1550 L 740 1878 L 867 1878 L 1158 1550 L 990 1550 L 793 1788 L 548 1550 L 382 1550 Z" unicode="Û" />
<glyph horiz-adv-x="1266" d="M 455 1333 L 346 440 C 343 428 342 416 342 405 C 342 394 342 383 342 373 C 342 284 366 218 414 175 C 462 132 528 111 610 111 C 702 111 778 139 838 197 C 898 254 934 335 948 440 L 1057 1333 L 1221 1333 L 1112 451 C 1092 301 1041 185 957 101 C 873 17 756 -25 608 -25 C 463 -25 355 7 283 73 C 211 139 176 234 176 358 C 176 386 178 417 182 451 L 291 1333 L 455 1333 Z M 700 1669 C 700 1633 688 1605 665 1583 C 641 1561 613 1550 579 1550 C 547 1550 522 1560 502 1580 C 482 1600 473 1625 473 1657 C 473 1693 484 1722 506 1744 C 528 1766 557 1777 591 1777 C 623 1777 649 1767 669 1747 C 689 1727 700 1701 700 1669 Z M 1112 1669 C 1112 1633 1100 1605 1077 1583 C 1053 1561 1025 1550 993 1550 C 960 1550 934 1560 914 1580 C 894 1600 884 1625 884 1657 C 884 1693 895 1722 918 1744 C 940 1766 969 1777 1005 1777 C 1036 1777 1062 1767 1082 1747 C 1102 1727 1112 1701 1112 1669 Z" unicode="Ü" />
<glyph horiz-adv-x="1059" d="M 125 1333 L 295 1333 L 553 653 L 977 1333 L 1155 1333 L 618 512 L 557 0 L 395 0 L 457 512 L 125 1333 Z M 850 1933 L 934 1849 L 637 1550 L 553 1634 L 850 1933 Z" unicode="Ý" />
<glyph horiz-adv-x="1087" d="M 635 1106 C 765 1106 863 1074 929 1010 C 995 946 1028 857 1028 741 C 1028 671 1017 608 995 551 C 973 493 943 444 905 404 C 867 364 822 332 771 310 C 719 287 664 276 606 276 L 317 276 L 285 0 L 123 0 L 285 1333 L 446 1333 L 420 1106 L 635 1106 Z M 592 412 C 642 412 685 421 720 440 C 754 459 782 484 804 515 C 825 545 840 579 850 617 C 859 655 864 691 864 727 C 864 761 859 792 850 822 C 840 851 826 877 807 899 C 787 921 763 938 734 951 C 704 964 669 971 629 971 L 403 971 L 334 412 L 592 412 Z" unicode="Þ" />
<glyph horiz-adv-x="1153" d="M 240 -250 C 234 -293 222 -330 204 -362 C 186 -394 164 -420 138 -441 C 111 -462 81 -478 49 -488 C 16 -498 -17 -504 -53 -504 C -84 -504 -111 -500 -135 -493 C -158 -486 -177 -478 -193 -469 L -164 -334 C -152 -340 -138 -347 -122 -353 C -106 -359 -85 -362 -61 -362 C -47 -362 -33 -360 -17 -357 C -1 -353 13 -347 27 -337 C 41 -327 54 -312 65 -292 C 76 -272 84 -245 88 -213 L 252 1102 C 257 1152 270 1200 292 1245 C 313 1290 341 1330 375 1365 C 409 1399 450 1427 498 1449 C 546 1470 602 1481 664 1481 C 726 1481 780 1471 824 1451 C 868 1431 904 1405 931 1374 C 957 1342 977 1307 989 1268 C 1001 1229 1008 1191 1008 1153 C 1008 1082 994 1024 967 978 C 939 932 909 895 877 868 C 838 835 794 810 745 793 L 745 784 C 804 773 856 753 901 723 C 920 711 939 695 958 677 C 977 658 994 636 1008 612 C 1022 587 1034 559 1043 528 C 1052 496 1057 461 1057 422 C 1057 358 1046 299 1024 245 C 1002 191 971 144 931 104 C 891 64 844 33 789 10 C 734 -13 673 -25 606 -25 C 574 -25 547 -23 523 -19 C 499 -15 479 -12 463 -8 C 443 -2 427 3 414 10 L 430 156 C 445 144 463 135 483 129 C 501 122 522 116 547 110 C 571 104 599 102 631 102 C 666 102 700 108 732 121 C 764 134 792 154 817 180 C 841 206 861 238 876 276 C 891 314 899 360 899 414 C 899 449 893 484 883 519 C 873 553 856 585 832 613 C 808 641 776 664 736 682 C 696 700 646 709 588 709 C 581 709 573 708 565 708 C 557 707 549 707 541 707 L 510 707 L 526 829 C 590 829 643 839 685 859 C 727 879 759 904 783 935 C 807 965 823 1000 833 1038 C 843 1076 848 1112 848 1145 C 848 1171 845 1196 839 1222 C 833 1247 823 1269 809 1289 C 795 1309 775 1324 750 1336 C 725 1348 693 1354 655 1354 C 614 1354 579 1346 550 1330 C 520 1314 495 1294 475 1268 C 454 1242 438 1216 428 1190 C 417 1164 409 1128 403 1083 L 240 -250 Z" unicode="ß" />
<glyph horiz-adv-x="1184" d="M 706 1243 L 622 1159 L 325 1458 L 409 1542 L 706 1243 Z M 967 264 C 964 243 961 225 959 210 C 957 195 956 184 956 176 C 956 154 959 139 966 131 C 973 123 985 119 1001 119 C 1009 119 1018 119 1026 121 C 1034 122 1041 124 1049 127 C 1057 129 1065 133 1073 137 L 1053 10 C 1045 4 1037 0 1028 -6 C 1008 -15 985 -20 958 -20 C 924 -20 897 -10 879 7 C 861 25 847 46 839 68 C 831 90 826 111 825 131 C 823 150 823 161 823 164 L 811 164 C 791 128 767 97 739 70 C 713 46 680 25 641 5 C 601 -15 552 -25 492 -25 C 430 -25 374 -14 325 7 C 276 28 235 58 201 97 C 167 136 140 183 122 239 C 103 294 94 355 94 422 C 94 500 106 572 130 638 C 154 704 187 761 230 811 C 273 860 324 898 384 926 C 443 953 508 967 578 967 C 635 967 683 957 722 938 C 760 918 791 897 815 874 C 842 848 864 818 881 784 L 893 788 L 918 942 L 1063 942 L 967 264 Z M 512 104 C 562 104 608 114 650 135 C 692 155 727 184 756 222 C 784 260 806 304 822 356 C 838 408 846 465 846 528 C 846 634 822 713 774 763 C 726 813 663 838 586 838 C 534 838 487 827 446 807 C 405 786 370 757 342 720 C 313 682 291 638 275 587 C 259 535 252 479 252 418 C 252 311 275 232 323 181 C 371 129 434 104 512 104 Z" unicode="à" />
<glyph horiz-adv-x="1184" d="M 809 1532 L 893 1448 L 596 1149 L 512 1233 L 809 1532 Z M 967 264 C 964 243 961 225 959 210 C 957 195 956 184 956 176 C 956 154 959 139 966 131 C 973 123 985 119 1001 119 C 1009 119 1018 119 1026 121 C 1034 122 1041 124 1049 127 C 1057 129 1065 133 1073 137 L 1053 10 C 1045 4 1037 0 1028 -6 C 1008 -15 985 -20 958 -20 C 924 -20 897 -10 879 7 C 861 25 847 46 839 68 C 831 90 826 111 825 131 C 823 150 823 161 823 164 L 811 164 C 791 128 767 97 739 70 C 713 46 680 25 641 5 C 601 -15 552 -25 492 -25 C 430 -25 374 -14 325 7 C 276 28 235 58 201 97 C 167 136 140 183 122 239 C 103 294 94 355 94 422 C 94 500 106 572 130 638 C 154 704 187 761 230 811 C 273 860 324 898 384 926 C 443 953 508 967 578 967 C 635 967 683 957 722 938 C 760 918 791 897 815 874 C 842 848 864 818 881 784 L 893 788 L 918 942 L 1063 942 L 967 264 Z M 512 104 C 562 104 608 114 650 135 C 692 155 727 184 756 222 C 784 260 806 304 822 356 C 838 408 846 465 846 528 C 846 634 822 713 774 763 C 726 813 663 838 586 838 C 534 838 487 827 446 807 C 405 786 370 757 342 720 C 313 682 291 638 275 587 C 259 535 252 479 252 418 C 252 311 275 232 323 181 C 371 129 434 104 512 104 Z" unicode="á" />
<glyph horiz-adv-x="1184" d="M 251 1159 L 609 1487 L 736 1487 L 1027 1159 L 859 1159 L 662 1397 L 417 1159 L 251 1159 Z M 967 264 C 964 243 961 225 959 210 C 957 195 956 184 956 176 C 956 154 959 139 966 131 C 973 123 985 119 1001 119 C 1009 119 1018 119 1026 121 C 1034 122 1041 124 1049 127 C 1057 129 1065 133 1073 137 L 1053 10 C 1045 4 1037 0 1028 -6 C 1008 -15 985 -20 958 -20 C 924 -20 897 -10 879 7 C 861 25 847 46 839 68 C 831 90 826 111 825 131 C 823 150 823 161 823 164 L 811 164 C 791 128 767 97 739 70 C 713 46 680 25 641 5 C 601 -15 552 -25 492 -25 C 430 -25 374 -14 325 7 C 276 28 235 58 201 97 C 167 136 140 183 122 239 C 103 294 94 355 94 422 C 94 500 106 572 130 638 C 154 704 187 761 230 811 C 273 860 324 898 384 926 C 443 953 508 967 578 967 C 635 967 683 957 722 938 C 760 918 791 897 815 874 C 842 848 864 818 881 784 L 893 788 L 918 942 L 1063 942 L 967 264 Z M 512 104 C 562 104 608 114 650 135 C 692 155 727 184 756 222 C 784 260 806 304 822 356 C 838 408 846 465 846 528 C 846 634 822 713 774 763 C 726 813 663 838 586 838 C 534 838 487 827 446 807 C 405 786 370 757 342 720 C 313 682 291 638 275 587 C 259 535 252 479 252 418 C 252 311 275 232 323 181 C 371 129 434 104 512 104 Z" unicode="â" />
<glyph horiz-adv-x="1184" d="M 502 1392 C 523 1392 544 1386 566 1376 C 587 1366 607 1354 626 1342 C 645 1329 663 1317 679 1307 C 695 1297 709 1292 721 1292 C 732 1292 741 1295 749 1301 C 756 1307 762 1314 766 1324 C 770 1333 774 1344 777 1356 C 779 1368 782 1381 784 1394 L 897 1351 C 899 1331 898 1309 893 1287 C 887 1265 878 1244 864 1226 C 850 1207 833 1191 812 1179 C 790 1167 765 1161 737 1161 C 715 1161 693 1166 673 1176 C 652 1186 632 1198 614 1211 C 595 1223 577 1235 561 1245 C 545 1255 530 1261 518 1261 C 508 1261 499 1258 492 1252 C 485 1246 479 1239 475 1230 C 470 1220 466 1209 463 1197 C 459 1185 456 1172 454 1159 L 342 1202 C 340 1228 343 1253 351 1277 C 359 1300 370 1320 384 1337 C 398 1354 416 1367 436 1377 C 456 1387 478 1392 502 1392 Z M 967 264 C 964 243 961 225 959 210 C 957 195 956 184 956 176 C 956 154 959 139 966 131 C 973 123 985 119 1001 119 C 1009 119 1018 119 1026 121 C 1034 122 1041 124 1049 127 C 1057 129 1065 133 1073 137 L 1053 10 C 1045 4 1037 0 1028 -6 C 1008 -15 985 -20 958 -20 C 924 -20 897 -10 879 7 C 861 25 847 46 839 68 C 831 90 826 111 825 131 C 823 150 823 161 823 164 L 811 164 C 791 128 767 97 739 70 C 713 46 680 25 641 5 C 601 -15 552 -25 492 -25 C 430 -25 374 -14 325 7 C 276 28 235 58 201 97 C 167 136 140 183 122 239 C 103 294 94 355 94 422 C 94 500 106 572 130 638 C 154 704 187 761 230 811 C 273 860 324 898 384 926 C 443 953 508 967 578 967 C 635 967 683 957 722 938 C 760 918 791 897 815 874 C 842 848 864 818 881 784 L 893 788 L 918 942 L 1063 942 L 967 264 Z M 512 104 C 562 104 608 114 650 135 C 692 155 727 184 756 222 C 784 260 806 304 822 356 C 838 408 846 465 846 528 C 846 634 822 713 774 763 C 726 813 663 838 586 838 C 534 838 487 827 446 807 C 405 786 370 757 342 720 C 313 682 291 638 275 587 C 259 535 252 479 252 418 C 252 311 275 232 323 181 C 371 129 434 104 512 104 Z" unicode="ã" />
<glyph horiz-adv-x="1184" d="M 532 1278 C 532 1242 520 1214 497 1192 C 473 1170 445 1159 411 1159 C 379 1159 354 1169 334 1189 C 314 1209 305 1234 305 1266 C 305 1302 316 1331 338 1353 C 360 1375 389 1386 423 1386 C 455 1386 481 1376 501 1356 C 521 1336 532 1310 532 1278 Z M 944 1278 C 944 1242 932 1214 909 1192 C 885 1170 857 1159 825 1159 C 792 1159 766 1169 746 1189 C 726 1209 716 1234 716 1266 C 716 1302 727 1331 750 1353 C 772 1375 801 1386 837 1386 C 868 1386 894 1376 914 1356 C 934 1336 944 1310 944 1278 Z M 967 264 C 964 243 961 225 959 210 C 957 195 956 184 956 176 C 956 154 959 139 966 131 C 973 123 985 119 1001 119 C 1009 119 1018 119 1026 121 C 1034 122 1041 124 1049 127 C 1057 129 1065 133 1073 137 L 1053 10 C 1045 4 1037 0 1028 -6 C 1008 -15 985 -20 958 -20 C 924 -20 897 -10 879 7 C 861 25 847 46 839 68 C 831 90 826 111 825 131 C 823 150 823 161 823 164 L 811 164 C 791 128 767 97 739 70 C 713 46 680 25 641 5 C 601 -15 552 -25 492 -25 C 430 -25 374 -14 325 7 C 276 28 235 58 201 97 C 167 136 140 183 122 239 C 103 294 94 355 94 422 C 94 500 106 572 130 638 C 154 704 187 761 230 811 C 273 860 324 898 384 926 C 443 953 508 967 578 967 C 635 967 683 957 722 938 C 760 918 791 897 815 874 C 842 848 864 818 881 784 L 893 788 L 918 942 L 1063 942 L 967 264 Z M 512 104 C 562 104 608 114 650 135 C 692 155 727 184 756 222 C 784 260 806 304 822 356 C 838 408 846 465 846 528 C 846 634 822 713 774 763 C 726 813 663 838 586 838 C 534 838 487 827 446 807 C 405 786 370 757 342 720 C 313 682 291 638 275 587 C 259 535 252 479 252 418 C 252 311 275 232 323 181 C 371 129 434 104 512 104 Z" unicode="ä" />
<glyph horiz-adv-x="1184" d="M 461 1376 C 461 1408 466 1439 478 1468 C 489 1496 505 1521 527 1543 C 548 1564 573 1581 603 1594 C 632 1607 665 1614 702 1614 C 769 1614 823 1592 863 1550 C 903 1508 924 1457 924 1397 C 924 1364 918 1333 906 1304 C 894 1274 878 1249 856 1228 C 834 1206 808 1189 779 1177 C 749 1165 717 1159 682 1159 C 612 1159 557 1179 519 1221 C 480 1263 461 1314 461 1376 Z M 559 1382 C 559 1344 570 1312 594 1287 C 617 1261 648 1249 686 1249 C 724 1249 756 1262 784 1290 C 811 1317 825 1351 825 1391 C 825 1426 812 1457 788 1484 C 763 1510 733 1524 698 1524 C 658 1524 625 1510 599 1482 C 572 1454 559 1420 559 1382 Z M 967 264 C 964 243 961 225 959 210 C 957 195 956 184 956 176 C 956 154 959 139 966 131 C 973 123 985 119 1001 119 C 1009 119 1018 119 1026 121 C 1034 122 1041 124 1049 127 C 1057 129 1065 133 1073 137 L 1053 10 C 1045 4 1037 0 1028 -6 C 1008 -15 985 -20 958 -20 C 924 -20 897 -10 879 7 C 861 25 847 46 839 68 C 831 90 826 111 825 131 C 823 150 823 161 823 164 L 811 164 C 791 128 767 97 739 70 C 713 46 680 25 641 5 C 601 -15 552 -25 492 -25 C 430 -25 374 -14 325 7 C 276 28 235 58 201 97 C 167 136 140 183 122 239 C 103 294 94 355 94 422 C 94 500 106 572 130 638 C 154 704 187 761 230 811 C 273 860 324 898 384 926 C 443 953 508 967 578 967 C 635 967 683 957 722 938 C 760 918 791 897 815 874 C 842 848 864 818 881 784 L 893 788 L 918 942 L 1063 942 L 967 264 Z M 512 104 C 562 104 608 114 650 135 C 692 155 727 184 756 222 C 784 260 806 304 822 356 C 838 408 846 465 846 528 C 846 634 822 713 774 763 C 726 813 663 838 586 838 C 534 838 487 827 446 807 C 405 786 370 757 342 720 C 313 682 291 638 275 587 C 259 535 252 479 252 418 C 252 311 275 232 323 181 C 371 129 434 104 512 104 Z" unicode="å" />
<glyph horiz-adv-x="1651" d="M 907 418 C 907 374 911 333 919 296 C 927 258 940 226 957 199 C 974 171 996 149 1024 133 C 1051 117 1084 109 1122 109 C 1164 109 1200 115 1229 128 C 1257 140 1280 155 1298 172 C 1318 190 1335 211 1348 236 L 1483 164 C 1462 128 1435 97 1403 70 C 1375 46 1339 25 1295 5 C 1251 -15 1197 -25 1133 -25 C 1060 -25 1001 -13 957 11 C 913 35 878 62 854 92 C 825 127 804 167 791 211 L 778 211 C 766 181 747 152 723 124 C 698 96 670 71 638 49 C 606 27 570 9 531 -4 C 492 -18 452 -25 410 -25 C 354 -25 306 -17 268 -3 C 230 10 199 29 176 52 C 152 74 136 100 127 130 C 117 159 113 188 113 217 C 113 304 146 372 214 421 C 281 469 368 498 475 508 L 754 530 L 766 627 C 767 633 768 639 768 645 C 768 650 768 656 768 664 C 768 721 751 765 717 795 C 683 825 633 840 569 840 C 521 840 481 831 448 815 C 415 799 389 781 371 762 C 347 738 329 713 315 686 L 190 756 C 209 795 236 830 270 862 C 298 889 336 914 384 936 C 431 958 491 969 563 969 C 637 969 694 957 735 934 C 776 910 807 885 827 858 C 851 825 866 788 872 748 L 881 748 C 901 788 926 825 958 858 C 985 885 1019 910 1059 934 C 1099 957 1148 969 1206 969 C 1256 969 1303 960 1345 944 C 1387 928 1424 903 1455 870 C 1485 837 1509 796 1526 747 C 1543 698 1552 641 1552 575 C 1552 557 1551 540 1550 523 C 1548 506 1546 488 1544 469 L 907 418 Z M 1180 838 C 1118 838 1062 811 1012 759 C 962 706 932 635 922 545 L 1393 578 C 1394 584 1395 593 1395 603 C 1395 613 1395 621 1395 629 C 1395 693 1376 743 1338 781 C 1300 819 1248 838 1180 838 Z M 418 106 C 500 106 569 122 626 155 C 682 188 716 241 727 315 L 741 414 C 708 411 676 407 645 403 C 617 400 588 397 558 395 C 527 392 500 389 477 387 C 406 380 354 365 320 342 C 286 318 270 283 270 236 C 270 196 282 164 308 141 C 333 117 370 106 418 106 Z" unicode="æ" />
<glyph horiz-adv-x="973" d="M 797 694 C 785 734 762 768 727 796 C 691 824 642 838 578 838 C 524 838 477 826 437 804 C 397 781 363 750 335 711 C 307 672 285 627 271 577 C 257 527 250 473 250 416 C 250 313 272 235 317 183 C 362 130 428 104 514 104 C 576 104 627 115 666 139 C 705 162 733 190 750 223 L 864 131 C 836 89 794 52 736 21 C 678 -9 607 -25 524 -25 C 462 -25 405 -16 353 2 C 300 20 254 47 216 84 C 177 120 147 167 125 223 C 103 279 92 345 92 422 C 92 501 104 574 129 641 C 153 707 187 765 231 814 C 275 862 326 900 386 927 C 445 953 510 967 580 967 C 670 967 742 949 796 914 C 850 879 888 836 911 786 L 797 694 Z M 428 35 C 448 23 467 12 485 0 C 573 -60 617 -129 617 -207 C 617 -341 538 -408 381 -408 C 313 -408 255 -386 209 -344 L 260 -268 C 298 -296 341 -311 387 -311 C 455 -311 490 -273 490 -197 C 490 -116 430 -44 311 18 L 428 35 Z" unicode="ç" />
<glyph horiz-adv-x="1024" d="M 254 463 C 252 450 252 438 252 428 C 252 417 252 407 252 397 C 252 296 274 222 318 176 C 362 129 426 106 510 106 C 575 106 629 117 671 141 C 713 164 744 191 762 223 L 874 131 C 848 87 804 50 741 20 C 678 -9 604 -25 518 -25 C 447 -25 385 -14 333 7 C 280 28 236 58 200 96 C 164 134 138 180 120 233 C 102 286 94 346 94 412 C 94 480 104 547 124 613 C 144 679 173 739 213 791 C 252 843 301 886 361 918 C 421 950 491 967 571 967 C 633 967 686 957 730 937 C 774 917 811 890 840 856 C 868 822 889 781 903 735 C 917 689 924 638 924 584 C 924 568 923 550 921 528 C 919 506 915 485 911 463 L 254 463 Z M 551 854 C 475 854 414 831 367 785 C 320 739 288 672 272 584 L 776 584 L 776 594 C 776 596 776 600 777 604 C 777 608 778 612 778 618 C 778 636 775 658 770 686 C 764 713 754 739 738 764 C 722 788 700 809 670 827 C 640 845 600 854 551 854 Z M 703 1243 L 619 1159 L 322 1458 L 406 1542 L 703 1243 Z" unicode="è" />
<glyph horiz-adv-x="1024" d="M 254 463 C 252 450 252 438 252 428 C 252 417 252 407 252 397 C 252 296 274 222 318 176 C 362 129 426 106 510 106 C 575 106 629 117 671 141 C 713 164 744 191 762 223 L 874 131 C 848 87 804 50 741 20 C 678 -9 604 -25 518 -25 C 447 -25 385 -14 333 7 C 280 28 236 58 200 96 C 164 134 138 180 120 233 C 102 286 94 346 94 412 C 94 480 104 547 124 613 C 144 679 173 739 213 791 C 252 843 301 886 361 918 C 421 950 491 967 571 967 C 633 967 686 957 730 937 C 774 917 811 890 840 856 C 868 822 889 781 903 735 C 917 689 924 638 924 584 C 924 568 923 550 921 528 C 919 506 915 485 911 463 L 254 463 Z M 551 854 C 475 854 414 831 367 785 C 320 739 288 672 272 584 L 776 584 L 776 594 C 776 596 776 600 777 604 C 777 608 778 612 778 618 C 778 636 775 658 770 686 C 764 713 754 739 738 764 C 722 788 700 809 670 827 C 640 845 600 854 551 854 Z M 820 1542 L 904 1458 L 607 1159 L 523 1243 L 820 1542 Z" unicode="é" />
<glyph horiz-adv-x="1024" d="M 254 463 C 252 450 252 438 252 428 C 252 417 252 407 252 397 C 252 296 274 222 318 176 C 362 129 426 106 510 106 C 575 106 629 117 671 141 C 713 164 744 191 762 223 L 874 131 C 848 87 804 50 741 20 C 678 -9 604 -25 518 -25 C 447 -25 385 -14 333 7 C 280 28 236 58 200 96 C 164 134 138 180 120 233 C 102 286 94 346 94 412 C 94 480 104 547 124 613 C 144 679 173 739 213 791 C 252 843 301 886 361 918 C 421 950 491 967 571 967 C 633 967 686 957 730 937 C 774 917 811 890 840 856 C 868 822 889 781 903 735 C 917 689 924 638 924 584 C 924 568 923 550 921 528 C 919 506 915 485 911 463 L 254 463 Z M 551 854 C 475 854 414 831 367 785 C 320 739 288 672 272 584 L 776 584 L 776 594 C 776 596 776 600 777 604 C 777 608 778 612 778 618 C 778 636 775 658 770 686 C 764 713 754 739 738 764 C 722 788 700 809 670 827 C 640 845 600 854 551 854 Z M 228 1159 L 586 1487 L 713 1487 L 1004 1159 L 836 1159 L 639 1397 L 394 1159 L 228 1159 Z" unicode="ê" />
<glyph horiz-adv-x="1024" d="M 254 463 C 252 450 252 438 252 428 C 252 417 252 407 252 397 C 252 296 274 222 318 176 C 362 129 426 106 510 106 C 575 106 629 117 671 141 C 713 164 744 191 762 223 L 874 131 C 848 87 804 50 741 20 C 678 -9 604 -25 518 -25 C 447 -25 385 -14 333 7 C 280 28 236 58 200 96 C 164 134 138 180 120 233 C 102 286 94 346 94 412 C 94 480 104 547 124 613 C 144 679 173 739 213 791 C 252 843 301 886 361 918 C 421 950 491 967 571 967 C 633 967 686 957 730 937 C 774 917 811 890 840 856 C 868 822 889 781 903 735 C 917 689 924 638 924 584 C 924 568 923 550 921 528 C 919 506 915 485 911 463 L 254 463 Z M 551 854 C 475 854 414 831 367 785 C 320 739 288 672 272 584 L 776 584 L 776 594 C 776 596 776 600 777 604 C 777 608 778 612 778 618 C 778 636 775 658 770 686 C 764 713 754 739 738 764 C 722 788 700 809 670 827 C 640 845 600 854 551 854 Z M 541 1278 C 541 1242 529 1214 506 1192 C 482 1170 454 1159 420 1159 C 388 1159 363 1169 343 1189 C 323 1209 314 1234 314 1266 C 314 1302 325 1331 347 1353 C 369 1375 398 1386 432 1386 C 464 1386 490 1376 510 1356 C 530 1336 541 1310 541 1278 Z M 953 1278 C 953 1242 941 1214 918 1192 C 894 1170 866 1159 834 1159 C 801 1159 775 1169 755 1189 C 735 1209 725 1234 725 1266 C 725 1302 736 1331 759 1353 C 781 1375 810 1386 846 1386 C 877 1386 903 1376 923 1356 C 943 1336 953 1310 953 1278 Z" unicode="ë" />
<glyph horiz-adv-x="522" d="M 293 -18 C 234 -18 193 -3 171 25 C 148 53 137 87 137 125 C 137 134 137 143 138 153 C 138 163 139 171 141 178 L 248 942 L 403 942 L 303 242 C 300 221 298 203 297 189 C 295 175 295 164 295 158 C 295 122 312 104 346 104 C 354 104 362 104 370 106 C 378 108 386 110 393 113 C 401 115 410 119 418 123 L 399 10 C 392 4 384 0 375 -4 C 355 -13 328 -18 293 -18 Z M 465 1228 L 368 1159 L 128 1505 L 225 1574 L 465 1228 Z" unicode="ì" />
<glyph horiz-adv-x="522" d="M 293 -18 C 234 -18 193 -3 171 25 C 148 53 137 87 137 125 C 137 134 137 143 138 153 C 138 163 139 171 141 178 L 248 942 L 403 942 L 303 242 C 300 221 298 203 297 189 C 295 175 295 164 295 158 C 295 122 312 104 346 104 C 354 104 362 104 370 106 C 378 108 386 110 393 113 C 401 115 410 119 418 123 L 399 10 C 392 4 384 0 375 -4 C 355 -13 328 -18 293 -18 Z M 507 1574 L 604 1505 L 364 1159 L 267 1228 L 507 1574 Z" unicode="í" />
<glyph horiz-adv-x="522" d="M 293 -18 C 234 -18 193 -3 171 25 C 148 53 137 87 137 125 C 137 134 137 143 138 153 C 138 163 139 171 141 178 L 248 942 L 403 942 L 303 242 C 300 221 298 203 297 189 C 295 175 295 164 295 158 C 295 122 312 104 346 104 C 354 104 362 104 370 106 C 378 108 386 110 393 113 C 401 115 410 119 418 123 L 399 10 C 392 4 384 0 375 -4 C 355 -13 328 -18 293 -18 Z M 64 1159 L 340 1487 L 467 1487 L 676 1159 L 529 1159 L 393 1397 L 209 1159 L 64 1159 Z" unicode="î" />
<glyph horiz-adv-x="522" d="M 293 -18 C 234 -18 193 -3 171 25 C 148 53 137 87 137 125 C 137 134 137 143 138 153 C 138 163 139 171 141 178 L 248 942 L 403 942 L 303 242 C 300 221 298 203 297 189 C 295 175 295 164 295 158 C 295 122 312 104 346 104 C 354 104 362 104 370 106 C 378 108 386 110 393 113 C 401 115 410 119 418 123 L 399 10 C 392 4 384 0 375 -4 C 355 -13 328 -18 293 -18 Z M 285 1278 C 285 1242 273 1214 250 1192 C 226 1170 198 1159 164 1159 C 132 1159 107 1169 87 1189 C 67 1209 58 1234 58 1266 C 58 1302 69 1331 91 1353 C 113 1375 142 1386 176 1386 C 208 1386 234 1376 254 1356 C 274 1336 285 1310 285 1278 Z M 657 1278 C 657 1242 645 1214 622 1192 C 598 1170 570 1159 538 1159 C 505 1159 479 1169 459 1189 C 439 1209 429 1234 429 1266 C 429 1302 440 1331 463 1353 C 485 1375 514 1386 550 1386 C 581 1386 607 1376 627 1356 C 647 1336 657 1310 657 1278 Z" unicode="ï" />
<glyph horiz-adv-x="1161" d="M 905 735 C 906 741 907 748 907 756 C 907 764 907 772 907 780 C 907 817 903 856 896 896 C 888 936 878 974 864 1012 C 850 1050 835 1085 818 1117 C 801 1149 783 1175 764 1196 L 475 1083 L 440 1186 L 690 1284 C 684 1290 675 1298 663 1308 C 651 1318 638 1328 624 1338 C 610 1348 597 1358 583 1368 C 569 1377 558 1385 549 1391 L 633 1479 C 643 1473 657 1464 675 1452 C 693 1440 711 1427 730 1413 C 748 1399 765 1386 781 1372 C 797 1358 809 1348 817 1341 L 1022 1425 L 1053 1319 L 893 1255 C 936 1197 973 1125 1003 1038 C 1033 950 1049 849 1049 733 C 1049 623 1037 522 1013 430 C 989 337 953 257 907 189 C 861 121 803 68 735 29 C 667 -9 588 -29 498 -29 C 424 -29 361 -16 309 9 C 257 34 214 67 181 108 C 147 149 123 197 108 251 C 93 305 86 360 86 418 C 86 471 95 529 114 592 C 133 654 162 713 202 768 C 242 822 292 868 354 905 C 415 942 489 961 575 961 C 621 961 663 953 700 938 C 737 922 769 903 797 881 C 824 859 846 834 863 808 C 880 781 892 756 899 733 L 905 735 Z M 514 98 C 562 98 606 108 647 129 C 688 149 724 178 754 214 C 784 250 807 292 824 342 C 841 391 850 444 850 500 C 850 544 845 587 835 627 C 825 667 810 703 788 734 C 766 764 739 789 705 807 C 671 825 632 834 586 834 C 528 834 479 822 437 798 C 395 774 361 742 333 703 C 305 664 284 620 271 570 C 258 520 252 470 252 418 C 252 318 271 239 311 183 C 351 126 418 98 514 98 Z" unicode="ð" />
<glyph horiz-adv-x="1116" d="M 858 -18 C 770 -18 727 27 727 119 C 727 137 729 157 733 178 C 744 243 756 308 770 372 C 784 436 799 512 815 600 C 819 622 821 643 821 664 C 821 722 805 766 773 796 C 741 825 695 840 637 840 C 555 840 487 807 433 742 C 379 677 344 585 328 465 C 322 429 316 385 310 332 C 304 278 297 227 291 178 C 284 120 276 61 268 0 L 113 0 C 130 125 146 240 162 346 C 167 391 173 435 180 479 C 186 523 192 563 197 600 C 202 636 207 668 211 694 C 215 720 217 738 219 748 C 220 757 221 767 222 778 C 222 789 223 801 223 813 C 223 828 222 843 222 859 C 221 875 220 889 219 901 C 217 916 216 930 215 942 L 367 942 C 367 931 367 919 369 907 C 370 896 371 884 372 870 C 372 856 373 843 373 829 C 373 819 373 809 373 798 C 373 787 371 776 369 766 L 379 766 C 398 802 422 836 451 866 C 475 890 506 913 546 935 C 586 956 634 967 692 967 C 786 967 856 942 901 892 C 946 842 969 778 969 700 C 969 689 969 678 969 666 C 969 654 967 643 965 633 C 956 582 947 536 939 495 C 930 454 922 416 914 381 C 906 345 899 311 893 279 C 886 247 880 216 874 186 C 872 179 872 171 872 162 C 872 140 877 126 887 120 C 897 114 910 111 926 111 C 939 111 953 112 967 115 C 972 116 977 118 983 121 L 965 2 C 956 -2 946 -5 936 -8 C 915 -14 889 -18 858 -18 Z M 547 1392 C 568 1392 589 1386 611 1376 C 632 1366 652 1354 671 1342 C 690 1329 708 1317 724 1307 C 740 1297 754 1292 766 1292 C 777 1292 786 1295 794 1301 C 801 1307 807 1314 811 1324 C 815 1333 819 1344 822 1356 C 824 1368 827 1381 829 1394 L 942 1351 C 944 1331 943 1309 938 1287 C 932 1265 923 1244 909 1226 C 895 1207 878 1191 857 1179 C 835 1167 810 1161 782 1161 C 760 1161 738 1166 718 1176 C 697 1186 677 1198 659 1211 C 640 1223 622 1235 606 1245 C 590 1255 575 1261 563 1261 C 553 1261 544 1258 537 1252 C 530 1246 524 1239 520 1230 C 515 1220 511 1209 508 1197 C 504 1185 501 1172 499 1159 L 387 1202 C 385 1228 388 1253 396 1277 C 404 1300 415 1320 429 1337 C 443 1354 461 1367 481 1377 C 501 1387 523 1392 547 1392 Z" unicode="ñ" />
<glyph horiz-adv-x="1092" d="M 508 -25 C 446 -25 390 -14 339 7 C 287 28 244 58 208 96 C 172 134 144 180 124 233 C 104 286 94 345 94 410 C 94 494 106 571 131 639 C 155 707 189 765 233 814 C 277 862 329 900 389 927 C 449 953 515 967 588 967 C 723 967 825 928 895 850 C 964 772 999 669 999 541 C 999 456 987 379 964 309 C 941 239 908 180 865 131 C 822 81 770 43 709 16 C 648 -11 581 -25 508 -25 Z M 514 104 C 559 104 602 113 642 132 C 682 150 716 178 746 214 C 776 250 799 294 817 348 C 835 401 844 463 844 535 C 844 635 819 711 771 762 C 722 812 659 838 582 838 C 536 838 493 828 453 810 C 413 791 378 763 348 727 C 318 690 294 645 277 591 C 260 537 252 474 252 403 C 252 303 276 229 324 179 C 372 129 436 104 514 104 Z M 734 1243 L 650 1159 L 353 1458 L 437 1542 L 734 1243 Z" unicode="ò" />
<glyph horiz-adv-x="1092" d="M 508 -25 C 446 -25 390 -14 339 7 C 287 28 244 58 208 96 C 172 134 144 180 124 233 C 104 286 94 345 94 410 C 94 494 106 571 131 639 C 155 707 189 765 233 814 C 277 862 329 900 389 927 C 449 953 515 967 588 967 C 723 967 825 928 895 850 C 964 772 999 669 999 541 C 999 456 987 379 964 309 C 941 239 908 180 865 131 C 822 81 770 43 709 16 C 648 -11 581 -25 508 -25 Z M 514 104 C 559 104 602 113 642 132 C 682 150 716 178 746 214 C 776 250 799 294 817 348 C 835 401 844 463 844 535 C 844 635 819 711 771 762 C 722 812 659 838 582 838 C 536 838 493 828 453 810 C 413 791 378 763 348 727 C 318 690 294 645 277 591 C 260 537 252 474 252 403 C 252 303 276 229 324 179 C 372 129 436 104 514 104 Z M 823 1542 L 907 1458 L 610 1159 L 526 1243 L 823 1542 Z" unicode="ó" />
<glyph horiz-adv-x="1092" d="M 508 -25 C 446 -25 390 -14 339 7 C 287 28 244 58 208 96 C 172 134 144 180 124 233 C 104 286 94 345 94 410 C 94 494 106 571 131 639 C 155 707 189 765 233 814 C 277 862 329 900 389 927 C 449 953 515 967 588 967 C 723 967 825 928 895 850 C 964 772 999 669 999 541 C 999 456 987 379 964 309 C 941 239 908 180 865 131 C 822 81 770 43 709 16 C 648 -11 581 -25 508 -25 Z M 514 104 C 559 104 602 113 642 132 C 682 150 716 178 746 214 C 776 250 799 294 817 348 C 835 401 844 463 844 535 C 844 635 819 711 771 762 C 722 812 659 838 582 838 C 536 838 493 828 453 810 C 413 791 378 763 348 727 C 318 690 294 645 277 591 C 260 537 252 474 252 403 C 252 303 276 229 324 179 C 372 129 436 104 514 104 Z M 254 1159 L 612 1487 L 739 1487 L 1030 1159 L 862 1159 L 665 1397 L 420 1159 L 254 1159 Z" unicode="ô" />
<glyph horiz-adv-x="1092" d="M 508 -25 C 446 -25 390 -14 339 7 C 287 28 244 58 208 96 C 172 134 144 180 124 233 C 104 286 94 345 94 410 C 94 494 106 571 131 639 C 155 707 189 765 233 814 C 277 862 329 900 389 927 C 449 953 515 967 588 967 C 723 967 825 928 895 850 C 964 772 999 669 999 541 C 999 456 987 379 964 309 C 941 239 908 180 865 131 C 822 81 770 43 709 16 C 648 -11 581 -25 508 -25 Z M 514 104 C 559 104 602 113 642 132 C 682 150 716 178 746 214 C 776 250 799 294 817 348 C 835 401 844 463 844 535 C 844 635 819 711 771 762 C 722 812 659 838 582 838 C 536 838 493 828 453 810 C 413 791 378 763 348 727 C 318 690 294 645 277 591 C 260 537 252 474 252 403 C 252 303 276 229 324 179 C 372 129 436 104 514 104 Z M 530 1392 C 551 1392 572 1386 594 1376 C 615 1366 635 1354 654 1342 C 673 1329 691 1317 707 1307 C 723 1297 737 1292 749 1292 C 760 1292 769 1295 777 1301 C 784 1307 790 1314 794 1324 C 798 1333 802 1344 805 1356 C 807 1368 810 1381 812 1394 L 925 1351 C 927 1331 926 1309 921 1287 C 915 1265 906 1244 892 1226 C 878 1207 861 1191 840 1179 C 818 1167 793 1161 765 1161 C 743 1161 721 1166 701 1176 C 680 1186 660 1198 642 1211 C 623 1223 605 1235 589 1245 C 573 1255 558 1261 546 1261 C 536 1261 527 1258 520 1252 C 513 1246 507 1239 503 1230 C 498 1220 494 1209 491 1197 C 487 1185 484 1172 482 1159 L 370 1202 C 368 1228 371 1253 379 1277 C 387 1300 398 1320 412 1337 C 426 1354 444 1367 464 1377 C 484 1387 506 1392 530 1392 Z" unicode="õ" />
<glyph horiz-adv-x="1092" d="M 508 -25 C 446 -25 390 -14 339 7 C 287 28 244 58 208 96 C 172 134 144 180 124 233 C 104 286 94 345 94 410 C 94 494 106 571 131 639 C 155 707 189 765 233 814 C 277 862 329 900 389 927 C 449 953 515 967 588 967 C 723 967 825 928 895 850 C 964 772 999 669 999 541 C 999 456 987 379 964 309 C 941 239 908 180 865 131 C 822 81 770 43 709 16 C 648 -11 581 -25 508 -25 Z M 514 104 C 559 104 602 113 642 132 C 682 150 716 178 746 214 C 776 250 799 294 817 348 C 835 401 844 463 844 535 C 844 635 819 711 771 762 C 722 812 659 838 582 838 C 536 838 493 828 453 810 C 413 791 378 763 348 727 C 318 690 294 645 277 591 C 260 537 252 474 252 403 C 252 303 276 229 324 179 C 372 129 436 104 514 104 Z M 551 1278 C 551 1242 539 1214 516 1192 C 492 1170 464 1159 430 1159 C 398 1159 373 1169 353 1189 C 333 1209 324 1234 324 1266 C 324 1302 335 1331 357 1353 C 379 1375 408 1386 442 1386 C 474 1386 500 1376 520 1356 C 540 1336 551 1310 551 1278 Z M 963 1278 C 963 1242 951 1214 928 1192 C 904 1170 876 1159 844 1159 C 811 1159 785 1169 765 1189 C 745 1209 735 1234 735 1266 C 735 1302 746 1331 769 1353 C 791 1375 820 1386 856 1386 C 887 1386 913 1376 933 1356 C 953 1336 963 1310 963 1278 Z" unicode="ö" />
<glyph horiz-adv-x="1044" d="M 952 526 L 952 399 L 72 399 L 72 526 L 952 526 L 952 526 Z M 648 168 C 648 133 636 103 614 78 C 591 53 562 41 527 41 C 495 41 470 51 451 72 C 431 93 422 119 422 151 C 422 187 433 217 455 242 C 477 267 505 280 541 280 C 572 280 598 269 618 248 C 638 227 648 200 648 168 Z M 648 793 C 648 758 636 728 614 703 C 591 678 562 666 527 666 C 495 666 470 676 451 697 C 431 718 422 744 422 776 C 422 812 433 842 455 867 C 477 892 505 905 541 905 C 572 905 598 894 618 873 C 638 852 648 825 648 793 Z" unicode="÷" />
<glyph horiz-adv-x="1092" d="M 154 168 C 114 236 94 316 94 410 C 94 494 106 571 131 639 C 155 707 189 765 233 814 C 277 862 329 900 389 927 C 449 953 515 967 588 967 C 656 967 715 956 766 936 C 816 915 859 886 895 848 L 1020 958 L 1090 874 L 956 756 C 984 694 999 623 999 541 C 999 456 987 379 964 309 C 941 239 908 180 865 131 C 822 81 770 43 709 16 C 648 -11 581 -25 508 -25 C 449 -25 396 -15 348 3 C 300 21 258 47 223 80 L 102 -29 L 35 59 L 154 168 Z M 252 403 C 252 351 258 307 270 270 L 782 748 C 734 808 668 838 582 838 C 536 838 493 828 453 810 C 413 791 378 763 348 727 C 318 690 294 645 277 591 C 260 537 252 474 252 403 Z M 514 104 C 559 104 602 113 642 132 C 682 150 716 178 746 214 C 776 250 799 294 817 348 C 835 401 844 463 844 535 C 844 578 838 619 827 659 L 319 184 C 364 130 429 104 514 104 Z" unicode="ø" />
<glyph horiz-adv-x="1079" d="M 369 942 L 289 332 C 287 323 287 315 287 308 C 287 300 287 293 287 287 C 287 229 301 184 329 151 C 357 118 399 102 457 102 C 540 102 603 131 647 190 C 691 249 722 347 741 485 C 747 521 753 565 759 617 C 765 669 771 720 778 768 C 784 824 792 882 801 942 L 956 942 L 860 264 C 857 243 854 225 852 210 C 849 195 848 184 848 178 C 848 157 852 143 860 136 C 868 128 879 125 895 125 C 913 125 929 127 944 131 C 952 133 960 136 969 139 L 948 16 C 940 10 931 6 922 2 C 902 -7 878 -12 848 -12 C 819 -12 797 -4 781 10 C 765 25 754 42 747 60 C 740 78 736 96 735 112 C 733 128 733 139 733 143 L 721 143 C 700 111 675 83 645 59 C 619 37 586 18 547 1 C 508 -16 461 -25 406 -25 C 324 -25 258 0 209 49 C 159 98 135 164 135 248 C 135 258 135 269 137 280 C 138 291 139 302 141 313 L 221 942 L 369 942 Z M 714 1243 L 630 1159 L 333 1458 L 417 1542 L 714 1243 Z" unicode="ù" />
<glyph horiz-adv-x="1079" d="M 369 942 L 289 332 C 287 323 287 315 287 308 C 287 300 287 293 287 287 C 287 229 301 184 329 151 C 357 118 399 102 457 102 C 540 102 603 131 647 190 C 691 249 722 347 741 485 C 747 521 753 565 759 617 C 765 669 771 720 778 768 C 784 824 792 882 801 942 L 956 942 L 860 264 C 857 243 854 225 852 210 C 849 195 848 184 848 178 C 848 157 852 143 860 136 C 868 128 879 125 895 125 C 913 125 929 127 944 131 C 952 133 960 136 969 139 L 948 16 C 940 10 931 6 922 2 C 902 -7 878 -12 848 -12 C 819 -12 797 -4 781 10 C 765 25 754 42 747 60 C 740 78 736 96 735 112 C 733 128 733 139 733 143 L 721 143 C 700 111 675 83 645 59 C 619 37 586 18 547 1 C 508 -16 461 -25 406 -25 C 324 -25 258 0 209 49 C 159 98 135 164 135 248 C 135 258 135 269 137 280 C 138 291 139 302 141 313 L 221 942 L 369 942 Z M 819 1542 L 903 1458 L 606 1159 L 522 1243 L 819 1542 Z" unicode="ú" />
<glyph horiz-adv-x="1079" d="M 369 942 L 289 332 C 287 323 287 315 287 308 C 287 300 287 293 287 287 C 287 229 301 184 329 151 C 357 118 399 102 457 102 C 540 102 603 131 647 190 C 691 249 722 347 741 485 C 747 521 753 565 759 617 C 765 669 771 720 778 768 C 784 824 792 882 801 942 L 956 942 L 860 264 C 857 243 854 225 852 210 C 849 195 848 184 848 178 C 848 157 852 143 860 136 C 868 128 879 125 895 125 C 913 125 929 127 944 131 C 952 133 960 136 969 139 L 948 16 C 940 10 931 6 922 2 C 902 -7 878 -12 848 -12 C 819 -12 797 -4 781 10 C 765 25 754 42 747 60 C 740 78 736 96 735 112 C 733 128 733 139 733 143 L 721 143 C 700 111 675 83 645 59 C 619 37 586 18 547 1 C 508 -16 461 -25 406 -25 C 324 -25 258 0 209 49 C 159 98 135 164 135 248 C 135 258 135 269 137 280 C 138 291 139 302 141 313 L 221 942 L 369 942 Z M 244 1159 L 602 1487 L 729 1487 L 1020 1159 L 852 1159 L 655 1397 L 410 1159 L 244 1159 Z" unicode="û" />
<glyph horiz-adv-x="1079" d="M 369 942 L 289 332 C 287 323 287 315 287 308 C 287 300 287 293 287 287 C 287 229 301 184 329 151 C 357 118 399 102 457 102 C 540 102 603 131 647 190 C 691 249 722 347 741 485 C 747 521 753 565 759 617 C 765 669 771 720 778 768 C 784 824 792 882 801 942 L 956 942 L 860 264 C 857 243 854 225 852 210 C 849 195 848 184 848 178 C 848 157 852 143 860 136 C 868 128 879 125 895 125 C 913 125 929 127 944 131 C 952 133 960 136 969 139 L 948 16 C 940 10 931 6 922 2 C 902 -7 878 -12 848 -12 C 819 -12 797 -4 781 10 C 765 25 754 42 747 60 C 740 78 736 96 735 112 C 733 128 733 139 733 143 L 721 143 C 700 111 675 83 645 59 C 619 37 586 18 547 1 C 508 -16 461 -25 406 -25 C 324 -25 258 0 209 49 C 159 98 135 164 135 248 C 135 258 135 269 137 280 C 138 291 139 302 141 313 L 221 942 L 369 942 Z M 532 1278 C 532 1242 520 1214 497 1192 C 473 1170 445 1159 411 1159 C 379 1159 354 1169 334 1189 C 314 1209 305 1234 305 1266 C 305 1302 316 1331 338 1353 C 360 1375 389 1386 423 1386 C 455 1386 481 1376 501 1356 C 521 1336 532 1310 532 1278 Z M 944 1278 C 944 1242 932 1214 909 1192 C 885 1170 857 1159 825 1159 C 792 1159 766 1169 746 1189 C 726 1209 716 1234 716 1266 C 716 1302 727 1331 750 1353 C 772 1375 801 1386 837 1386 C 868 1386 894 1376 914 1356 C 934 1336 944 1310 944 1278 Z" unicode="ü" />
<glyph horiz-adv-x="1044" d="M 360 942 L 281 332 C 279 325 278 317 277 308 C 276 299 276 289 276 279 C 276 225 289 182 316 150 C 342 118 384 102 442 102 C 486 102 524 111 556 131 C 588 150 615 176 639 210 C 662 243 681 282 696 327 C 711 372 723 421 731 473 C 733 493 737 519 742 551 C 747 582 752 615 756 649 C 760 683 764 717 768 752 C 772 787 776 819 780 847 C 784 875 787 897 789 914 C 791 931 793 940 793 942 L 948 942 L 831 -47 C 821 -129 803 -199 776 -258 C 748 -316 713 -365 671 -403 C 629 -441 580 -470 526 -488 C 471 -506 412 -516 350 -516 C 276 -516 217 -506 172 -487 C 126 -468 90 -447 63 -424 C 31 -398 8 -367 -6 -332 L 96 -242 C 108 -269 127 -293 152 -315 C 172 -334 199 -351 234 -366 C 269 -381 313 -389 365 -389 C 417 -389 462 -380 499 -362 C 536 -344 567 -321 591 -291 C 615 -261 633 -226 646 -187 C 659 -148 669 -108 676 -66 C 682 -18 688 20 692 49 C 696 77 699 101 702 119 C 706 137 709 152 711 164 C 691 128 667 97 639 70 C 614 46 583 25 545 5 C 507 -15 462 -25 410 -25 C 324 -25 255 0 205 50 C 154 100 129 167 129 252 C 129 261 129 271 129 281 C 129 291 130 302 133 313 L 213 942 L 360 942 Z M 810 1542 L 894 1458 L 597 1159 L 513 1243 L 810 1542 Z" unicode="ý" />
<glyph horiz-adv-x="1174" d="M 922 526 C 922 630 898 708 850 761 C 802 813 735 840 649 840 C 603 840 559 830 519 810 C 479 790 443 762 413 726 C 382 690 358 646 340 594 C 322 542 313 484 313 420 C 313 316 337 237 386 184 C 434 130 502 104 588 104 C 631 104 673 113 713 133 C 753 152 789 180 820 216 C 850 252 875 296 894 348 C 912 400 922 459 922 526 Z M 53 -512 L 293 1456 L 451 1456 L 387 961 C 385 944 383 927 379 911 C 376 896 372 879 368 861 C 364 843 358 825 352 807 L 362 807 C 384 835 410 862 442 887 C 469 907 503 926 543 943 C 583 960 632 969 690 969 C 747 969 800 958 849 937 C 897 915 939 885 973 846 C 1007 807 1033 761 1052 708 C 1071 655 1081 596 1081 532 C 1081 456 1069 384 1045 316 C 1021 248 988 189 946 139 C 904 88 854 48 796 19 C 738 -10 675 -25 608 -25 C 546 -25 496 -16 456 1 C 416 18 384 37 360 59 C 331 83 309 111 293 143 L 283 143 C 283 129 282 116 281 102 C 279 91 278 78 277 64 C 276 50 275 37 274 27 C 274 19 272 6 270 -11 C 267 -29 264 -52 262 -78 C 259 -104 256 -132 252 -164 C 248 -195 244 -227 240 -260 C 230 -335 219 -419 209 -512 L 53 -512 Z" unicode="þ" />
<glyph horiz-adv-x="1044" d="M 360 942 L 281 332 C 279 325 278 317 277 308 C 276 299 276 289 276 279 C 276 225 289 182 316 150 C 342 118 384 102 442 102 C 486 102 524 111 556 131 C 588 150 615 176 639 210 C 662 243 681 282 696 327 C 711 372 723 421 731 473 C 733 493 737 519 742 551 C 747 582 752 615 756 649 C 760 683 764 717 768 752 C 772 787 776 819 780 847 C 784 875 787 897 789 914 C 791 931 793 940 793 942 L 948 942 L 831 -47 C 821 -129 803 -199 776 -258 C 748 -316 713 -365 671 -403 C 629 -441 580 -470 526 -488 C 471 -506 412 -516 350 -516 C 276 -516 217 -506 172 -487 C 126 -468 90 -447 63 -424 C 31 -398 8 -367 -6 -332 L 96 -242 C 108 -269 127 -293 152 -315 C 172 -334 199 -351 234 -366 C 269 -381 313 -389 365 -389 C 417 -389 462 -380 499 -362 C 536 -344 567 -321 591 -291 C 615 -261 633 -226 646 -187 C 659 -148 669 -108 676 -66 C 682 -18 688 20 692 49 C 696 77 699 101 702 119 C 706 137 709 152 711 164 C 691 128 667 97 639 70 C 614 46 583 25 545 5 C 507 -15 462 -25 410 -25 C 324 -25 255 0 205 50 C 154 100 129 167 129 252 C 129 261 129 271 129 281 C 129 291 130 302 133 313 L 213 942 L 360 942 Z M 530 1278 C 530 1242 518 1214 495 1192 C 471 1170 443 1159 409 1159 C 377 1159 352 1169 332 1189 C 312 1209 303 1234 303 1266 C 303 1302 314 1331 336 1353 C 358 1375 387 1386 421 1386 C 453 1386 479 1376 499 1356 C 519 1336 530 1310 530 1278 Z M 942 1278 C 942 1242 930 1214 907 1192 C 883 1170 855 1159 823 1159 C 790 1159 764 1169 744 1189 C 724 1209 714 1234 714 1266 C 714 1302 725 1331 748 1353 C 770 1375 799 1386 835 1386 C 866 1386 892 1376 912 1356 C 932 1336 942 1310 942 1278 Z" unicode="ÿ" />
<glyph horiz-adv-x="1235" d="M 29 0 L 625 1333 L 834 1333 L 1112 0 L 942 0 L 879 326 L 336 326 L 195 0 L 29 0 Z M 391 469 L 854 469 L 711 1200 L 391 469 Z M 455 1663 L 1075 1663 L 1063 1550 L 443 1550 L 455 1663 Z" unicode="Ā" />
<glyph horiz-adv-x="1184" d="M 967 264 C 964 243 961 225 959 210 C 957 195 956 184 956 176 C 956 154 959 139 966 131 C 973 123 985 119 1001 119 C 1009 119 1018 119 1026 121 C 1034 122 1041 124 1049 127 C 1057 129 1065 133 1073 137 L 1053 10 C 1045 4 1037 0 1028 -6 C 1008 -15 985 -20 958 -20 C 924 -20 897 -10 879 7 C 861 25 847 46 839 68 C 831 90 826 111 825 131 C 823 150 823 161 823 164 L 811 164 C 791 128 767 97 739 70 C 713 46 680 25 641 5 C 601 -15 552 -25 492 -25 C 430 -25 374 -14 325 7 C 276 28 235 58 201 97 C 167 136 140 183 122 239 C 103 294 94 355 94 422 C 94 500 106 572 130 638 C 154 704 187 761 230 811 C 273 860 324 898 384 926 C 443 953 508 967 578 967 C 635 967 683 957 722 938 C 760 918 791 897 815 874 C 842 848 864 818 881 784 L 893 788 L 918 942 L 1063 942 L 967 264 Z M 512 104 C 562 104 608 114 650 135 C 692 155 727 184 756 222 C 784 260 806 304 822 356 C 838 408 846 465 846 528 C 846 634 822 713 774 763 C 726 813 663 838 586 838 C 534 838 487 827 446 807 C 405 786 370 757 342 720 C 313 682 291 638 275 587 C 259 535 252 479 252 418 C 252 311 275 232 323 181 C 371 129 434 104 512 104 Z M 353 1272 L 973 1272 L 961 1159 L 341 1159 L 353 1272 Z" unicode="ā" />
<glyph horiz-adv-x="1235" d="M 29 0 L 625 1333 L 834 1333 L 1112 0 L 942 0 L 879 326 L 336 326 L 195 0 L 29 0 Z M 391 469 L 854 469 L 711 1200 L 391 469 Z M 759 1663 C 821 1663 871 1683 909 1724 C 947 1765 969 1816 976 1876 L 1115 1876 C 1109 1829 1097 1786 1079 1746 C 1061 1706 1036 1672 1006 1643 C 975 1613 938 1590 894 1574 C 850 1558 801 1550 747 1550 C 636 1550 556 1580 507 1641 C 457 1701 438 1780 450 1876 L 585 1876 C 578 1816 590 1765 622 1724 C 653 1683 699 1663 759 1663 Z" unicode="Ă" />
<glyph horiz-adv-x="1184" d="M 967 264 C 964 243 961 225 959 210 C 957 195 956 184 956 176 C 956 154 959 139 966 131 C 973 123 985 119 1001 119 C 1009 119 1018 119 1026 121 C 1034 122 1041 124 1049 127 C 1057 129 1065 133 1073 137 L 1053 10 C 1045 4 1037 0 1028 -6 C 1008 -15 985 -20 958 -20 C 924 -20 897 -10 879 7 C 861 25 847 46 839 68 C 831 90 826 111 825 131 C 823 150 823 161 823 164 L 811 164 C 791 128 767 97 739 70 C 713 46 680 25 641 5 C 601 -15 552 -25 492 -25 C 430 -25 374 -14 325 7 C 276 28 235 58 201 97 C 167 136 140 183 122 239 C 103 294 94 355 94 422 C 94 500 106 572 130 638 C 154 704 187 761 230 811 C 273 860 324 898 384 926 C 443 953 508 967 578 967 C 635 967 683 957 722 938 C 760 918 791 897 815 874 C 842 848 864 818 881 784 L 893 788 L 918 942 L 1063 942 L 967 264 Z M 512 104 C 562 104 608 114 650 135 C 692 155 727 184 756 222 C 784 260 806 304 822 356 C 838 408 846 465 846 528 C 846 634 822 713 774 763 C 726 813 663 838 586 838 C 534 838 487 827 446 807 C 405 786 370 757 342 720 C 313 682 291 638 275 587 C 259 535 252 479 252 418 C 252 311 275 232 323 181 C 371 129 434 104 512 104 Z M 637 1272 C 699 1272 749 1292 787 1333 C 825 1374 847 1425 854 1485 L 993 1485 C 987 1438 975 1395 957 1355 C 939 1315 914 1281 884 1252 C 853 1222 816 1199 772 1183 C 728 1167 679 1159 625 1159 C 514 1159 434 1189 385 1250 C 335 1310 316 1389 328 1485 L 463 1485 C 456 1425 468 1374 500 1333 C 531 1292 577 1272 637 1272 Z" unicode="ă" />
<glyph horiz-adv-x="1235" d="M 1087 18 C 913 -59 827 -135 827 -209 C 827 -277 856 -311 915 -311 C 954 -311 991 -296 1026 -268 L 1077 -344 C 1025 -386 969 -408 911 -408 C 770 -408 700 -347 700 -227 C 700 -146 767 -70 901 0 C 923 13 946 25 970 35 L 1087 18 Z M 29 0 L 625 1333 L 834 1333 L 1112 0 L 942 0 L 879 326 L 336 326 L 195 0 L 29 0 Z M 391 469 L 854 469 L 711 1200 L 391 469 Z" unicode="Ą" />
<glyph horiz-adv-x="1184" d="M 967 264 C 964 243 961 225 959 210 C 957 195 956 184 956 176 C 956 154 959 139 966 131 C 973 123 985 119 1001 119 C 1009 119 1018 119 1026 121 C 1034 122 1041 124 1049 127 C 1057 129 1065 133 1073 137 L 1053 10 C 1045 4 1037 0 1028 -6 C 1008 -15 985 -20 958 -20 C 924 -20 897 -10 879 7 C 861 25 847 46 839 68 C 831 90 826 111 825 131 C 823 150 823 161 823 164 L 811 164 C 791 128 767 97 739 70 C 713 46 680 25 641 5 C 601 -15 552 -25 492 -25 C 430 -25 374 -14 325 7 C 276 28 235 58 201 97 C 167 136 140 183 122 239 C 103 294 94 355 94 422 C 94 500 106 572 130 638 C 154 704 187 761 230 811 C 273 860 324 898 384 926 C 443 953 508 967 578 967 C 635 967 683 957 722 938 C 760 918 791 897 815 874 C 842 848 864 818 881 784 L 893 788 L 918 942 L 1063 942 L 967 264 Z M 512 104 C 562 104 608 114 650 135 C 692 155 727 184 756 222 C 784 260 806 304 822 356 C 838 408 846 465 846 528 C 846 634 822 713 774 763 C 726 813 663 838 586 838 C 534 838 487 827 446 807 C 405 786 370 757 342 720 C 313 682 291 638 275 587 C 259 535 252 479 252 418 C 252 311 275 232 323 181 C 371 129 434 104 512 104 Z M 1049 18 C 875 -59 789 -135 789 -209 C 789 -277 818 -311 877 -311 C 916 -311 953 -296 988 -268 L 1039 -344 C 987 -386 931 -408 873 -408 C 732 -408 662 -347 662 -227 C 662 -146 729 -70 863 0 C 885 13 908 25 932 35 L 1049 18 Z" unicode="ą" />
<glyph horiz-adv-x="1266" d="M 1055 1030 C 1043 1080 1014 1125 967 1164 C 920 1203 854 1223 768 1223 C 692 1223 626 1205 569 1170 C 511 1135 463 1087 425 1026 C 386 964 357 892 337 810 C 317 727 307 639 307 545 C 307 479 314 419 328 366 C 342 313 364 268 393 230 C 421 192 457 163 501 142 C 545 121 596 111 655 111 C 753 111 831 131 887 172 C 943 212 981 262 1001 322 L 1126 240 C 1104 202 1079 168 1051 136 C 1022 104 988 76 949 52 C 910 28 866 9 816 -4 C 766 -18 709 -25 645 -25 C 569 -25 501 -12 439 13 C 377 38 323 75 279 124 C 235 172 200 231 176 301 C 151 371 139 451 139 541 C 139 665 156 777 190 877 C 224 977 271 1063 330 1134 C 388 1205 455 1260 531 1299 C 607 1338 687 1358 772 1358 C 833 1358 887 1351 935 1337 C 982 1323 1023 1305 1058 1282 C 1092 1258 1122 1232 1146 1202 C 1170 1172 1189 1140 1204 1106 L 1055 1030 Z M 1032 1933 L 1116 1849 L 819 1550 L 735 1634 L 1032 1933 Z" unicode="Ć" />
<glyph horiz-adv-x="973" d="M 797 694 C 785 734 762 768 727 796 C 691 824 642 838 578 838 C 524 838 477 826 437 804 C 397 781 363 750 335 711 C 307 672 285 627 271 577 C 257 527 250 473 250 416 C 250 313 272 235 317 183 C 362 130 428 104 514 104 C 576 104 627 115 666 139 C 705 162 733 190 750 223 L 864 131 C 836 89 794 52 736 21 C 678 -9 607 -25 524 -25 C 462 -25 405 -16 353 2 C 300 20 254 47 216 84 C 177 120 147 167 125 223 C 103 279 92 345 92 422 C 92 501 104 574 129 641 C 153 707 187 765 231 814 C 275 862 326 900 386 927 C 445 953 510 967 580 967 C 670 967 742 949 796 914 C 850 879 888 836 911 786 L 797 694 Z M 803 1542 L 887 1458 L 590 1159 L 506 1243 L 803 1542 Z" unicode="ć" />
<glyph horiz-adv-x="1266" d="M 1055 1030 C 1043 1080 1014 1125 967 1164 C 920 1203 854 1223 768 1223 C 692 1223 626 1205 569 1170 C 511 1135 463 1087 425 1026 C 386 964 357 892 337 810 C 317 727 307 639 307 545 C 307 479 314 419 328 366 C 342 313 364 268 393 230 C 421 192 457 163 501 142 C 545 121 596 111 655 111 C 753 111 831 131 887 172 C 943 212 981 262 1001 322 L 1126 240 C 1104 202 1079 168 1051 136 C 1022 104 988 76 949 52 C 910 28 866 9 816 -4 C 766 -18 709 -25 645 -25 C 569 -25 501 -12 439 13 C 377 38 323 75 279 124 C 235 172 200 231 176 301 C 151 371 139 451 139 541 C 139 665 156 777 190 877 C 224 977 271 1063 330 1134 C 388 1205 455 1260 531 1299 C 607 1338 687 1358 772 1358 C 833 1358 887 1351 935 1337 C 982 1323 1023 1305 1058 1282 C 1092 1258 1122 1232 1146 1202 C 1170 1172 1189 1140 1204 1106 L 1055 1030 Z M 439 1550 L 797 1878 L 924 1878 L 1215 1550 L 1047 1550 L 850 1788 L 605 1550 L 439 1550 Z" unicode="Ĉ" />
<glyph horiz-adv-x="973" d="M 797 694 C 785 734 762 768 727 796 C 691 824 642 838 578 838 C 524 838 477 826 437 804 C 397 781 363 750 335 711 C 307 672 285 627 271 577 C 257 527 250 473 250 416 C 250 313 272 235 317 183 C 362 130 428 104 514 104 C 576 104 627 115 666 139 C 705 162 733 190 750 223 L 864 131 C 836 89 794 52 736 21 C 678 -9 607 -25 524 -25 C 462 -25 405 -16 353 2 C 300 20 254 47 216 84 C 177 120 147 167 125 223 C 103 279 92 345 92 422 C 92 501 104 574 129 641 C 153 707 187 765 231 814 C 275 862 326 900 386 927 C 445 953 510 967 580 967 C 670 967 742 949 796 914 C 850 879 888 836 911 786 L 797 694 Z M 247 1159 L 605 1487 L 732 1487 L 1023 1159 L 855 1159 L 658 1397 L 413 1159 L 247 1159 Z" unicode="ĉ" />
<glyph horiz-adv-x="1266" d="M 1055 1030 C 1043 1080 1014 1125 967 1164 C 920 1203 854 1223 768 1223 C 692 1223 626 1205 569 1170 C 511 1135 463 1087 425 1026 C 386 964 357 892 337 810 C 317 727 307 639 307 545 C 307 479 314 419 328 366 C 342 313 364 268 393 230 C 421 192 457 163 501 142 C 545 121 596 111 655 111 C 753 111 831 131 887 172 C 943 212 981 262 1001 322 L 1126 240 C 1104 202 1079 168 1051 136 C 1022 104 988 76 949 52 C 910 28 866 9 816 -4 C 766 -18 709 -25 645 -25 C 569 -25 501 -12 439 13 C 377 38 323 75 279 124 C 235 172 200 231 176 301 C 151 371 139 451 139 541 C 139 665 156 777 190 877 C 224 977 271 1063 330 1134 C 388 1205 455 1260 531 1299 C 607 1338 687 1358 772 1358 C 833 1358 887 1351 935 1337 C 982 1323 1023 1305 1058 1282 C 1092 1258 1122 1232 1146 1202 C 1170 1172 1189 1140 1204 1106 L 1055 1030 Z M 910 1673 C 910 1635 898 1605 875 1583 C 851 1561 824 1550 793 1550 C 764 1550 738 1561 715 1583 C 692 1605 681 1635 681 1673 C 681 1708 692 1736 715 1758 C 738 1779 764 1790 793 1790 C 824 1790 851 1779 875 1758 C 898 1736 910 1708 910 1673 Z" unicode="Ċ" />
<glyph horiz-adv-x="973" d="M 797 694 C 785 734 762 768 727 796 C 691 824 642 838 578 838 C 524 838 477 826 437 804 C 397 781 363 750 335 711 C 307 672 285 627 271 577 C 257 527 250 473 250 416 C 250 313 272 235 317 183 C 362 130 428 104 514 104 C 576 104 627 115 666 139 C 705 162 733 190 750 223 L 864 131 C 836 89 794 52 736 21 C 678 -9 607 -25 524 -25 C 462 -25 405 -16 353 2 C 300 20 254 47 216 84 C 177 120 147 167 125 223 C 103 279 92 345 92 422 C 92 501 104 574 129 641 C 153 707 187 765 231 814 C 275 862 326 900 386 927 C 445 953 510 967 580 967 C 670 967 742 949 796 914 C 850 879 888 836 911 786 L 797 694 Z M 723 1282 C 723 1244 711 1214 688 1192 C 664 1170 637 1159 606 1159 C 577 1159 551 1170 528 1192 C 505 1214 494 1244 494 1282 C 494 1317 505 1345 528 1367 C 551 1388 577 1399 606 1399 C 637 1399 664 1388 688 1367 C 711 1345 723 1317 723 1282 Z" unicode="ċ" />
<glyph horiz-adv-x="1266" d="M 1055 1030 C 1043 1080 1014 1125 967 1164 C 920 1203 854 1223 768 1223 C 692 1223 626 1205 569 1170 C 511 1135 463 1087 425 1026 C 386 964 357 892 337 810 C 317 727 307 639 307 545 C 307 479 314 419 328 366 C 342 313 364 268 393 230 C 421 192 457 163 501 142 C 545 121 596 111 655 111 C 753 111 831 131 887 172 C 943 212 981 262 1001 322 L 1126 240 C 1104 202 1079 168 1051 136 C 1022 104 988 76 949 52 C 910 28 866 9 816 -4 C 766 -18 709 -25 645 -25 C 569 -25 501 -12 439 13 C 377 38 323 75 279 124 C 235 172 200 231 176 301 C 151 371 139 451 139 541 C 139 665 156 777 190 877 C 224 977 271 1063 330 1134 C 388 1205 455 1260 531 1299 C 607 1338 687 1358 772 1358 C 833 1358 887 1351 935 1337 C 982 1323 1023 1305 1058 1282 C 1092 1258 1122 1232 1146 1202 C 1170 1172 1189 1140 1204 1106 L 1055 1030 Z M 1223 1878 L 863 1550 L 734 1550 L 447 1878 L 611 1878 L 809 1640 L 1055 1878 L 1223 1878 Z" unicode="Č" />
<glyph horiz-adv-x="973" d="M 797 694 C 785 734 762 768 727 796 C 691 824 642 838 578 838 C 524 838 477 826 437 804 C 397 781 363 750 335 711 C 307 672 285 627 271 577 C 257 527 250 473 250 416 C 250 313 272 235 317 183 C 362 130 428 104 514 104 C 576 104 627 115 666 139 C 705 162 733 190 750 223 L 864 131 C 836 89 794 52 736 21 C 678 -9 607 -25 524 -25 C 462 -25 405 -16 353 2 C 300 20 254 47 216 84 C 177 120 147 167 125 223 C 103 279 92 345 92 422 C 92 501 104 574 129 641 C 153 707 187 765 231 814 C 275 862 326 900 386 927 C 445 953 510 967 580 967 C 670 967 742 949 796 914 C 850 879 888 836 911 786 L 797 694 Z M 1024 1487 L 664 1159 L 535 1159 L 248 1487 L 412 1487 L 610 1249 L 856 1487 L 1024 1487 Z" unicode="č" />
<glyph horiz-adv-x="1358" d="M 129 0 L 291 1333 L 686 1333 C 870 1333 1010 1285 1104 1190 C 1198 1094 1245 957 1245 778 C 1245 655 1228 545 1194 448 C 1160 351 1112 269 1050 203 C 988 137 915 86 829 52 C 743 17 648 0 545 0 L 129 0 Z M 565 135 C 725 135 850 188 941 295 C 1031 401 1077 562 1077 776 C 1077 914 1046 1018 984 1090 C 922 1162 824 1198 692 1198 L 436 1198 L 307 135 L 565 135 Z M 1165 1878 L 805 1550 L 676 1550 L 389 1878 L 553 1878 L 751 1640 L 997 1878 L 1165 1878 Z" unicode="Ď" />
<glyph horiz-adv-x="1192" d="M 514 102 C 560 102 605 111 647 130 C 689 148 726 175 757 210 C 787 244 812 287 830 339 C 848 390 858 448 858 514 C 858 622 834 703 787 757 C 740 811 676 838 596 838 C 548 838 503 828 461 810 C 419 791 383 764 353 730 C 322 695 297 652 279 601 C 261 549 252 491 252 426 C 252 318 275 237 322 183 C 369 129 433 102 514 102 Z M 1120 1456 C 1095 1254 1072 1067 1051 897 C 1041 824 1031 751 1023 677 C 1014 603 1005 535 997 472 C 989 408 982 352 977 303 C 971 253 967 217 965 195 C 963 185 962 175 962 166 C 961 156 961 145 961 131 C 961 95 963 65 967 41 C 968 25 970 12 973 0 L 831 0 C 828 9 825 20 823 33 C 819 53 817 77 817 106 C 817 110 817 115 817 120 C 817 124 817 129 819 135 L 809 135 C 787 105 760 78 729 55 C 701 35 668 16 628 0 C 588 -16 542 -25 489 -25 C 429 -25 374 -14 326 6 C 278 26 236 56 202 95 C 167 134 140 181 121 235 C 101 289 92 351 92 420 C 92 498 104 570 129 637 C 153 703 187 761 231 810 C 275 858 326 897 385 925 C 443 953 508 967 578 967 C 632 967 678 958 717 940 C 756 922 787 903 811 883 C 838 858 861 830 879 799 L 889 799 C 897 889 905 976 915 1061 C 919 1096 924 1132 928 1170 C 932 1208 936 1244 940 1279 C 944 1313 948 1346 952 1377 C 956 1407 960 1434 965 1456 L 1120 1456 Z M 1301 1128 L 1389 1479 L 1536 1456 L 1409 1116 L 1301 1128 Z" unicode="ď" />
<glyph horiz-adv-x="1378" d="M 170 0 L 242 606 L 61 606 L 76 733 L 258 733 L 332 1333 L 707 1333 C 891 1333 1030 1285 1124 1190 C 1218 1094 1266 957 1266 778 C 1266 655 1248 545 1214 448 C 1180 351 1132 269 1071 203 C 1009 137 936 86 850 52 C 764 17 669 0 565 0 L 170 0 Z M 586 135 C 745 135 870 188 961 295 C 1052 401 1098 562 1098 776 C 1098 914 1066 1018 1004 1090 C 942 1162 845 1198 713 1198 L 477 1198 L 420 733 L 690 733 L 676 606 L 403 606 L 348 135 L 586 135 Z" unicode="Đ" />
<glyph horiz-adv-x="1151" d="M 1120 1456 C 1117 1438 1114 1419 1112 1397 C 1109 1377 1106 1355 1104 1329 C 1101 1303 1098 1274 1094 1243 L 1225 1243 L 1210 1116 L 1077 1116 C 1066 1032 1055 943 1043 849 C 1031 754 1020 663 1009 575 C 998 487 989 410 981 342 C 973 274 967 225 965 195 C 963 185 962 175 962 166 C 961 156 961 145 961 131 C 961 95 963 65 967 41 C 968 25 970 12 973 0 L 831 0 C 828 9 825 20 823 33 C 819 53 817 77 817 106 C 817 110 817 115 817 120 C 817 124 817 129 819 135 L 809 135 C 787 105 760 78 729 55 C 701 35 668 16 628 0 C 588 -16 542 -25 489 -25 C 429 -25 374 -14 326 6 C 278 26 236 56 202 95 C 167 134 140 181 121 235 C 101 289 92 351 92 420 C 92 498 104 570 129 637 C 153 703 187 761 231 810 C 275 858 326 897 385 925 C 443 953 508 967 578 967 C 632 967 678 958 717 940 C 756 922 787 903 811 883 C 838 858 861 830 879 799 L 889 799 C 891 830 895 863 899 899 C 901 929 905 962 909 1000 C 913 1038 917 1076 922 1116 L 637 1116 L 651 1243 L 936 1243 L 965 1456 L 1120 1456 Z M 514 102 C 560 102 605 111 647 130 C 689 148 726 175 757 210 C 787 244 812 287 830 339 C 848 390 858 448 858 514 C 858 622 834 703 787 757 C 740 811 676 838 596 838 C 548 838 503 828 461 810 C 419 791 383 764 353 730 C 322 695 297 652 279 601 C 261 549 252 491 252 426 C 252 318 275 237 322 183 C 369 129 433 102 514 102 Z" unicode="đ" />
<glyph horiz-adv-x="1122" d="M 436 1198 L 381 739 L 942 739 L 926 604 L 365 604 L 307 135 L 954 135 L 938 0 L 129 0 L 291 1333 L 1073 1333 L 1057 1198 L 436 1198 Z M 414 1663 L 1034 1663 L 1022 1550 L 402 1550 L 414 1663 Z" unicode="Ē" />
<glyph horiz-adv-x="1024" d="M 254 463 C 252 450 252 438 252 428 C 252 417 252 407 252 397 C 252 296 274 222 318 176 C 362 129 426 106 510 106 C 575 106 629 117 671 141 C 713 164 744 191 762 223 L 874 131 C 848 87 804 50 741 20 C 678 -9 604 -25 518 -25 C 447 -25 385 -14 333 7 C 280 28 236 58 200 96 C 164 134 138 180 120 233 C 102 286 94 346 94 412 C 94 480 104 547 124 613 C 144 679 173 739 213 791 C 252 843 301 886 361 918 C 421 950 491 967 571 967 C 633 967 686 957 730 937 C 774 917 811 890 840 856 C 868 822 889 781 903 735 C 917 689 924 638 924 584 C 924 568 923 550 921 528 C 919 506 915 485 911 463 L 254 463 Z M 551 854 C 475 854 414 831 367 785 C 320 739 288 672 272 584 L 776 584 L 776 594 C 776 596 776 600 777 604 C 777 608 778 612 778 618 C 778 636 775 658 770 686 C 764 713 754 739 738 764 C 722 788 700 809 670 827 C 640 845 600 854 551 854 Z M 301 1272 L 921 1272 L 909 1159 L 289 1159 L 301 1272 Z" unicode="ē" />
<glyph horiz-adv-x="1122" d="M 436 1198 L 381 739 L 942 739 L 926 604 L 365 604 L 307 135 L 954 135 L 938 0 L 129 0 L 291 1333 L 1073 1333 L 1057 1198 L 436 1198 Z M 719 1663 C 781 1663 831 1683 869 1724 C 907 1765 929 1816 936 1876 L 1075 1876 C 1069 1829 1057 1786 1039 1746 C 1021 1706 996 1672 966 1643 C 935 1613 898 1590 854 1574 C 810 1558 761 1550 707 1550 C 596 1550 516 1580 467 1641 C 417 1701 398 1780 410 1876 L 545 1876 C 538 1816 550 1765 582 1724 C 613 1683 659 1663 719 1663 Z" unicode="Ĕ" />
<glyph horiz-adv-x="1024" d="M 254 463 C 252 450 252 438 252 428 C 252 417 252 407 252 397 C 252 296 274 222 318 176 C 362 129 426 106 510 106 C 575 106 629 117 671 141 C 713 164 744 191 762 223 L 874 131 C 848 87 804 50 741 20 C 678 -9 604 -25 518 -25 C 447 -25 385 -14 333 7 C 280 28 236 58 200 96 C 164 134 138 180 120 233 C 102 286 94 346 94 412 C 94 480 104 547 124 613 C 144 679 173 739 213 791 C 252 843 301 886 361 918 C 421 950 491 967 571 967 C 633 967 686 957 730 937 C 774 917 811 890 840 856 C 868 822 889 781 903 735 C 917 689 924 638 924 584 C 924 568 923 550 921 528 C 919 506 915 485 911 463 L 254 463 Z M 551 854 C 475 854 414 831 367 785 C 320 739 288 672 272 584 L 776 584 L 776 594 C 776 596 776 600 777 604 C 777 608 778 612 778 618 C 778 636 775 658 770 686 C 764 713 754 739 738 764 C 722 788 700 809 670 827 C 640 845 600 854 551 854 Z M 616 1272 C 678 1272 728 1292 766 1333 C 804 1374 826 1425 833 1485 L 972 1485 C 966 1438 954 1395 936 1355 C 918 1315 893 1281 863 1252 C 832 1222 795 1199 751 1183 C 707 1167 658 1159 604 1159 C 493 1159 413 1189 364 1250 C 314 1310 295 1389 307 1485 L 442 1485 C 435 1425 447 1374 479 1333 C 510 1292 556 1272 616 1272 Z" unicode="ĕ" />
<glyph horiz-adv-x="1122" d="M 436 1198 L 381 739 L 942 739 L 926 604 L 365 604 L 307 135 L 954 135 L 938 0 L 129 0 L 291 1333 L 1073 1333 L 1057 1198 L 436 1198 Z M 832 1673 C 832 1635 820 1605 797 1583 C 773 1561 746 1550 715 1550 C 686 1550 660 1561 637 1583 C 614 1605 603 1635 603 1673 C 603 1708 614 1736 637 1758 C 660 1779 686 1790 715 1790 C 746 1790 773 1779 797 1758 C 820 1736 832 1708 832 1673 Z" unicode="Ė" />
<glyph horiz-adv-x="1024" d="M 254 463 C 252 450 252 438 252 428 C 252 417 252 407 252 397 C 252 296 274 222 318 176 C 362 129 426 106 510 106 C 575 106 629 117 671 141 C 713 164 744 191 762 223 L 874 131 C 848 87 804 50 741 20 C 678 -9 604 -25 518 -25 C 447 -25 385 -14 333 7 C 280 28 236 58 200 96 C 164 134 138 180 120 233 C 102 286 94 346 94 412 C 94 480 104 547 124 613 C 144 679 173 739 213 791 C 252 843 301 886 361 918 C 421 950 491 967 571 967 C 633 967 686 957 730 937 C 774 917 811 890 840 856 C 868 822 889 781 903 735 C 917 689 924 638 924 584 C 924 568 923 550 921 528 C 919 506 915 485 911 463 L 254 463 Z M 551 854 C 475 854 414 831 367 785 C 320 739 288 672 272 584 L 776 584 L 776 594 C 776 596 776 600 777 604 C 777 608 778 612 778 618 C 778 636 775 658 770 686 C 764 713 754 739 738 764 C 722 788 700 809 670 827 C 640 845 600 854 551 854 Z M 723 1282 C 723 1244 711 1214 688 1192 C 664 1170 637 1159 606 1159 C 577 1159 551 1170 528 1192 C 505 1214 494 1244 494 1282 C 494 1317 505 1345 528 1367 C 551 1388 577 1399 606 1399 C 637 1399 664 1388 688 1367 C 711 1345 723 1317 723 1282 Z" unicode="ė" />
<glyph horiz-adv-x="1122" d="M 436 1198 L 381 739 L 942 739 L 926 604 L 365 604 L 307 135 L 954 135 L 938 0 L 129 0 L 291 1333 L 1073 1333 L 1057 1198 L 436 1198 Z M 920 18 C 746 -59 660 -135 660 -209 C 660 -277 689 -311 748 -311 C 787 -311 824 -296 859 -268 L 910 -344 C 858 -386 802 -408 744 -408 C 603 -408 533 -347 533 -227 C 533 -146 600 -70 734 0 C 756 13 779 25 803 35 L 920 18 Z" unicode="Ę" />
<glyph horiz-adv-x="1024" d="M 254 463 C 252 450 252 438 252 428 C 252 417 252 407 252 397 C 252 296 274 222 318 176 C 362 129 426 106 510 106 C 575 106 629 117 671 141 C 713 164 744 191 762 223 L 874 131 C 848 87 804 50 741 20 C 678 -9 604 -25 518 -25 C 447 -25 385 -14 333 7 C 280 28 236 58 200 96 C 164 134 138 180 120 233 C 102 286 94 346 94 412 C 94 480 104 547 124 613 C 144 679 173 739 213 791 C 252 843 301 886 361 918 C 421 950 491 967 571 967 C 633 967 686 957 730 937 C 774 917 811 890 840 856 C 868 822 889 781 903 735 C 917 689 924 638 924 584 C 924 568 923 550 921 528 C 919 506 915 485 911 463 L 254 463 Z M 551 854 C 475 854 414 831 367 785 C 320 739 288 672 272 584 L 776 584 L 776 594 C 776 596 776 600 777 604 C 777 608 778 612 778 618 C 778 636 775 658 770 686 C 764 713 754 739 738 764 C 722 788 700 809 670 827 C 640 845 600 854 551 854 Z M 702 18 C 528 -59 442 -135 442 -209 C 442 -277 471 -311 530 -311 C 569 -311 606 -296 641 -268 L 692 -344 C 640 -386 584 -408 526 -408 C 385 -408 315 -347 315 -227 C 315 -146 382 -70 516 0 C 538 13 561 25 585 35 L 702 18 Z" unicode="ę" />
<glyph horiz-adv-x="1122" d="M 436 1198 L 381 739 L 942 739 L 926 604 L 365 604 L 307 135 L 954 135 L 938 0 L 129 0 L 291 1333 L 1073 1333 L 1057 1198 L 436 1198 Z M 1128 1878 L 768 1550 L 639 1550 L 352 1878 L 516 1878 L 714 1640 L 960 1878 L 1128 1878 Z" unicode="Ě" />
<glyph horiz-adv-x="1024" d="M 254 463 C 252 450 252 438 252 428 C 252 417 252 407 252 397 C 252 296 274 222 318 176 C 362 129 426 106 510 106 C 575 106 629 117 671 141 C 713 164 744 191 762 223 L 874 131 C 848 87 804 50 741 20 C 678 -9 604 -25 518 -25 C 447 -25 385 -14 333 7 C 280 28 236 58 200 96 C 164 134 138 180 120 233 C 102 286 94 346 94 412 C 94 480 104 547 124 613 C 144 679 173 739 213 791 C 252 843 301 886 361 918 C 421 950 491 967 571 967 C 633 967 686 957 730 937 C 774 917 811 890 840 856 C 868 822 889 781 903 735 C 917 689 924 638 924 584 C 924 568 923 550 921 528 C 919 506 915 485 911 463 L 254 463 Z M 551 854 C 475 854 414 831 367 785 C 320 739 288 672 272 584 L 776 584 L 776 594 C 776 596 776 600 777 604 C 777 608 778 612 778 618 C 778 636 775 658 770 686 C 764 713 754 739 738 764 C 722 788 700 809 670 827 C 640 845 600 854 551 854 Z M 1009 1487 L 649 1159 L 520 1159 L 233 1487 L 397 1487 L 595 1249 L 841 1487 L 1009 1487 Z" unicode="ě" />
<glyph horiz-adv-x="1341" d="M 1223 670 L 1141 0 L 1020 0 L 1026 156 L 1018 156 C 1000 121 976 91 946 66 C 918 42 883 21 840 3 C 797 -15 742 -25 674 -25 C 596 -25 523 -12 457 14 C 391 40 334 77 287 125 C 240 173 203 231 177 301 C 150 371 137 450 137 539 C 137 633 150 728 177 825 C 203 922 244 1010 299 1089 C 353 1168 422 1233 506 1283 C 589 1333 687 1358 801 1358 C 863 1358 918 1351 965 1338 C 1012 1325 1053 1308 1087 1286 C 1121 1264 1150 1238 1174 1210 C 1198 1181 1219 1151 1237 1120 L 1087 1038 C 1079 1064 1067 1088 1053 1111 C 1039 1133 1020 1153 997 1169 C 974 1185 946 1198 912 1208 C 878 1218 839 1223 795 1223 C 713 1223 641 1204 579 1168 C 517 1132 466 1084 426 1024 C 385 964 355 894 335 814 C 315 734 305 650 305 563 C 305 419 334 308 394 229 C 453 150 546 111 672 111 C 722 111 769 117 812 130 C 855 143 893 161 925 184 C 957 207 982 234 1000 266 C 1018 297 1030 331 1034 369 L 1051 535 L 690 535 L 707 670 L 1223 670 Z M 442 1550 L 800 1878 L 927 1878 L 1218 1550 L 1050 1550 L 853 1788 L 608 1550 L 442 1550 Z" unicode="Ĝ" />
<glyph horiz-adv-x="1124" d="M 434 -516 C 354 -516 288 -506 236 -486 C 184 -466 142 -444 110 -419 C 78 -393 55 -369 41 -347 C 27 -324 19 -310 18 -305 L 129 -213 C 130 -217 137 -228 149 -247 C 161 -266 180 -286 205 -307 C 229 -327 261 -346 301 -362 C 340 -378 388 -387 446 -387 C 615 -387 716 -286 750 -84 C 752 -64 756 -42 760 -17 C 764 7 768 32 772 56 C 776 80 779 100 782 116 C 784 132 786 141 786 143 L 776 143 C 757 111 733 83 705 59 C 680 37 649 18 611 1 C 573 -16 528 -25 475 -25 C 416 -25 363 -14 316 8 C 269 30 229 60 196 99 C 163 138 138 185 121 240 C 104 294 96 354 96 420 C 96 498 107 570 131 637 C 154 703 187 761 229 810 C 271 858 321 897 378 925 C 434 953 497 967 565 967 C 621 967 667 957 703 938 C 739 918 769 897 791 874 C 815 848 834 818 850 784 L 862 788 L 885 942 L 1030 942 L 915 10 C 892 -176 839 -311 757 -393 C 674 -475 566 -516 434 -516 Z M 504 104 C 548 104 590 113 629 132 C 668 150 702 177 731 213 C 759 248 782 292 798 344 C 814 396 823 455 823 522 C 823 631 801 711 759 762 C 717 812 659 838 586 838 C 538 838 493 827 453 807 C 413 786 378 757 348 721 C 318 684 294 640 278 588 C 262 536 254 478 254 416 C 254 306 277 227 323 178 C 369 128 430 104 504 104 Z M 258 1159 L 616 1487 L 743 1487 L 1034 1159 L 866 1159 L 669 1397 L 424 1159 L 258 1159 Z" unicode="ĝ" />
<glyph horiz-adv-x="1341" d="M 1223 670 L 1141 0 L 1020 0 L 1026 156 L 1018 156 C 1000 121 976 91 946 66 C 918 42 883 21 840 3 C 797 -15 742 -25 674 -25 C 596 -25 523 -12 457 14 C 391 40 334 77 287 125 C 240 173 203 231 177 301 C 150 371 137 450 137 539 C 137 633 150 728 177 825 C 203 922 244 1010 299 1089 C 353 1168 422 1233 506 1283 C 589 1333 687 1358 801 1358 C 863 1358 918 1351 965 1338 C 1012 1325 1053 1308 1087 1286 C 1121 1264 1150 1238 1174 1210 C 1198 1181 1219 1151 1237 1120 L 1087 1038 C 1079 1064 1067 1088 1053 1111 C 1039 1133 1020 1153 997 1169 C 974 1185 946 1198 912 1208 C 878 1218 839 1223 795 1223 C 713 1223 641 1204 579 1168 C 517 1132 466 1084 426 1024 C 385 964 355 894 335 814 C 315 734 305 650 305 563 C 305 419 334 308 394 229 C 453 150 546 111 672 111 C 722 111 769 117 812 130 C 855 143 893 161 925 184 C 957 207 982 234 1000 266 C 1018 297 1030 331 1034 369 L 1051 535 L 690 535 L 707 670 L 1223 670 Z M 823 1663 C 885 1663 935 1683 973 1724 C 1011 1765 1033 1816 1040 1876 L 1179 1876 C 1173 1829 1161 1786 1143 1746 C 1125 1706 1100 1672 1070 1643 C 1039 1613 1002 1590 958 1574 C 914 1558 865 1550 811 1550 C 700 1550 620 1580 571 1641 C 521 1701 502 1780 514 1876 L 649 1876 C 642 1816 654 1765 686 1724 C 717 1683 763 1663 823 1663 Z" unicode="Ğ" />
<glyph horiz-adv-x="1124" d="M 434 -516 C 354 -516 288 -506 236 -486 C 184 -466 142 -444 110 -419 C 78 -393 55 -369 41 -347 C 27 -324 19 -310 18 -305 L 129 -213 C 130 -217 137 -228 149 -247 C 161 -266 180 -286 205 -307 C 229 -327 261 -346 301 -362 C 340 -378 388 -387 446 -387 C 615 -387 716 -286 750 -84 C 752 -64 756 -42 760 -17 C 764 7 768 32 772 56 C 776 80 779 100 782 116 C 784 132 786 141 786 143 L 776 143 C 757 111 733 83 705 59 C 680 37 649 18 611 1 C 573 -16 528 -25 475 -25 C 416 -25 363 -14 316 8 C 269 30 229 60 196 99 C 163 138 138 185 121 240 C 104 294 96 354 96 420 C 96 498 107 570 131 637 C 154 703 187 761 229 810 C 271 858 321 897 378 925 C 434 953 497 967 565 967 C 621 967 667 957 703 938 C 739 918 769 897 791 874 C 815 848 834 818 850 784 L 862 788 L 885 942 L 1030 942 L 915 10 C 892 -176 839 -311 757 -393 C 674 -475 566 -516 434 -516 Z M 504 104 C 548 104 590 113 629 132 C 668 150 702 177 731 213 C 759 248 782 292 798 344 C 814 396 823 455 823 522 C 823 631 801 711 759 762 C 717 812 659 838 586 838 C 538 838 493 827 453 807 C 413 786 378 757 348 721 C 318 684 294 640 278 588 C 262 536 254 478 254 416 C 254 306 277 227 323 178 C 369 128 430 104 504 104 Z M 640 1272 C 702 1272 752 1292 790 1333 C 828 1374 850 1425 857 1485 L 996 1485 C 990 1438 978 1395 960 1355 C 942 1315 917 1281 887 1252 C 856 1222 819 1199 775 1183 C 731 1167 682 1159 628 1159 C 517 1159 437 1189 388 1250 C 338 1310 319 1389 331 1485 L 466 1485 C 459 1425 471 1374 503 1333 C 534 1292 580 1272 640 1272 Z" unicode="ğ" />
<glyph horiz-adv-x="1341" d="M 1223 670 L 1141 0 L 1020 0 L 1026 156 L 1018 156 C 1000 121 976 91 946 66 C 918 42 883 21 840 3 C 797 -15 742 -25 674 -25 C 596 -25 523 -12 457 14 C 391 40 334 77 287 125 C 240 173 203 231 177 301 C 150 371 137 450 137 539 C 137 633 150 728 177 825 C 203 922 244 1010 299 1089 C 353 1168 422 1233 506 1283 C 589 1333 687 1358 801 1358 C 863 1358 918 1351 965 1338 C 1012 1325 1053 1308 1087 1286 C 1121 1264 1150 1238 1174 1210 C 1198 1181 1219 1151 1237 1120 L 1087 1038 C 1079 1064 1067 1088 1053 1111 C 1039 1133 1020 1153 997 1169 C 974 1185 946 1198 912 1208 C 878 1218 839 1223 795 1223 C 713 1223 641 1204 579 1168 C 517 1132 466 1084 426 1024 C 385 964 355 894 335 814 C 315 734 305 650 305 563 C 305 419 334 308 394 229 C 453 150 546 111 672 111 C 722 111 769 117 812 130 C 855 143 893 161 925 184 C 957 207 982 234 1000 266 C 1018 297 1030 331 1034 369 L 1051 535 L 690 535 L 707 670 L 1223 670 Z M 940 1673 C 940 1635 928 1605 905 1583 C 881 1561 854 1550 823 1550 C 794 1550 768 1561 745 1583 C 722 1605 711 1635 711 1673 C 711 1708 722 1736 745 1758 C 768 1779 794 1790 823 1790 C 854 1790 881 1779 905 1758 C 928 1736 940 1708 940 1673 Z" unicode="Ġ" />
<glyph horiz-adv-x="1124" d="M 434 -516 C 354 -516 288 -506 236 -486 C 184 -466 142 -444 110 -419 C 78 -393 55 -369 41 -347 C 27 -324 19 -310 18 -305 L 129 -213 C 130 -217 137 -228 149 -247 C 161 -266 180 -286 205 -307 C 229 -327 261 -346 301 -362 C 340 -378 388 -387 446 -387 C 615 -387 716 -286 750 -84 C 752 -64 756 -42 760 -17 C 764 7 768 32 772 56 C 776 80 779 100 782 116 C 784 132 786 141 786 143 L 776 143 C 757 111 733 83 705 59 C 680 37 649 18 611 1 C 573 -16 528 -25 475 -25 C 416 -25 363 -14 316 8 C 269 30 229 60 196 99 C 163 138 138 185 121 240 C 104 294 96 354 96 420 C 96 498 107 570 131 637 C 154 703 187 761 229 810 C 271 858 321 897 378 925 C 434 953 497 967 565 967 C 621 967 667 957 703 938 C 739 918 769 897 791 874 C 815 848 834 818 850 784 L 862 788 L 885 942 L 1030 942 L 915 10 C 892 -176 839 -311 757 -393 C 674 -475 566 -516 434 -516 Z M 504 104 C 548 104 590 113 629 132 C 668 150 702 177 731 213 C 759 248 782 292 798 344 C 814 396 823 455 823 522 C 823 631 801 711 759 762 C 717 812 659 838 586 838 C 538 838 493 827 453 807 C 413 786 378 757 348 721 C 318 684 294 640 278 588 C 262 536 254 478 254 416 C 254 306 277 227 323 178 C 369 128 430 104 504 104 Z M 756 1282 C 756 1244 744 1214 721 1192 C 697 1170 670 1159 639 1159 C 610 1159 584 1170 561 1192 C 538 1214 527 1244 527 1282 C 527 1317 538 1345 561 1367 C 584 1388 610 1399 639 1399 C 670 1399 697 1388 721 1367 C 744 1345 756 1317 756 1282 Z" unicode="ġ" />
<glyph horiz-adv-x="1341" d="M 1223 670 L 1141 0 L 1020 0 L 1026 156 L 1018 156 C 1000 121 976 91 946 66 C 918 42 883 21 840 3 C 797 -15 742 -25 674 -25 C 596 -25 523 -12 457 14 C 391 40 334 77 287 125 C 240 173 203 231 177 301 C 150 371 137 450 137 539 C 137 633 150 728 177 825 C 203 922 244 1010 299 1089 C 353 1168 422 1233 506 1283 C 589 1333 687 1358 801 1358 C 863 1358 918 1351 965 1338 C 1012 1325 1053 1308 1087 1286 C 1121 1264 1150 1238 1174 1210 C 1198 1181 1219 1151 1237 1120 L 1087 1038 C 1079 1064 1067 1088 1053 1111 C 1039 1133 1020 1153 997 1169 C 974 1185 946 1198 912 1208 C 878 1218 839 1223 795 1223 C 713 1223 641 1204 579 1168 C 517 1132 466 1084 426 1024 C 385 964 355 894 335 814 C 315 734 305 650 305 563 C 305 419 334 308 394 229 C 453 150 546 111 672 111 C 722 111 769 117 812 130 C 855 143 893 161 925 184 C 957 207 982 234 1000 266 C 1018 297 1030 331 1034 369 L 1051 535 L 690 535 L 707 670 L 1223 670 Z M 484 -510 L 521 -201 L 670 -223 L 595 -522 L 484 -510 Z" unicode="Ģ" />
<glyph horiz-adv-x="1124" d="M 434 -516 C 354 -516 288 -506 236 -486 C 184 -466 142 -444 110 -419 C 78 -393 55 -369 41 -347 C 27 -324 19 -310 18 -305 L 129 -213 C 130 -217 137 -228 149 -247 C 161 -266 180 -286 205 -307 C 229 -327 261 -346 301 -362 C 340 -378 388 -387 446 -387 C 615 -387 716 -286 750 -84 C 752 -64 756 -42 760 -17 C 764 7 768 32 772 56 C 776 80 779 100 782 116 C 784 132 786 141 786 143 L 776 143 C 757 111 733 83 705 59 C 680 37 649 18 611 1 C 573 -16 528 -25 475 -25 C 416 -25 363 -14 316 8 C 269 30 229 60 196 99 C 163 138 138 185 121 240 C 104 294 96 354 96 420 C 96 498 107 570 131 637 C 154 703 187 761 229 810 C 271 858 321 897 378 925 C 434 953 497 967 565 967 C 621 967 667 957 703 938 C 739 918 769 897 791 874 C 815 848 834 818 850 784 L 862 788 L 885 942 L 1030 942 L 915 10 C 892 -176 839 -311 757 -393 C 674 -475 566 -516 434 -516 Z M 504 104 C 548 104 590 113 629 132 C 668 150 702 177 731 213 C 759 248 782 292 798 344 C 814 396 823 455 823 522 C 823 631 801 711 759 762 C 717 812 659 838 586 838 C 538 838 493 827 453 807 C 413 786 378 757 348 721 C 318 684 294 640 278 588 C 262 536 254 478 254 416 C 254 306 277 227 323 178 C 369 128 430 104 504 104 Z M 739 1487 L 702 1178 L 553 1200 L 628 1499 L 739 1487 Z" unicode="ģ" />
<glyph horiz-adv-x="1372" d="M 1305 1333 L 1143 0 L 981 0 L 1055 602 L 365 602 L 291 0 L 129 0 L 291 1333 L 453 1333 L 381 737 L 1071 737 L 1143 1333 L 1305 1333 Z M 443 1550 L 801 1878 L 928 1878 L 1219 1550 L 1051 1550 L 854 1788 L 609 1550 L 443 1550 Z" unicode="Ĥ" />
<glyph horiz-adv-x="1112" d="M 320 1550 L 678 1878 L 805 1878 L 1096 1550 L 928 1550 L 731 1788 L 486 1550 L 320 1550 Z M 862 -18 C 772 -18 727 27 727 119 C 727 137 729 157 733 178 C 739 218 746 254 752 287 C 758 319 765 352 771 384 C 777 416 783 449 790 484 C 797 519 805 558 813 600 C 817 622 819 643 819 664 C 819 722 803 766 771 796 C 739 825 694 840 637 840 C 555 840 487 809 435 748 C 382 687 347 593 330 465 C 328 452 326 436 323 417 C 320 398 317 376 315 352 C 312 327 309 301 307 275 C 304 249 301 223 299 197 C 292 135 285 69 279 0 L 123 0 L 284 1333 L 440 1333 L 360 766 L 371 766 C 392 802 419 836 453 866 C 480 890 514 913 556 935 C 597 956 647 967 705 967 C 792 967 858 942 902 894 C 946 845 969 782 969 705 C 969 681 967 657 963 633 C 946 535 930 452 915 384 C 900 315 886 248 874 184 C 872 177 872 170 872 164 C 872 140 876 125 886 119 C 896 112 909 109 926 109 C 939 109 953 110 967 113 C 972 114 977 116 983 119 L 965 2 C 956 -2 946 -5 936 -8 C 915 -14 890 -18 862 -18 Z" unicode="ĥ" />
<glyph horiz-adv-x="1413" d="M 92 1047 L 276 1047 L 311 1333 L 473 1333 L 438 1047 L 1128 1047 L 1163 1333 L 1325 1333 L 1290 1047 L 1473 1047 L 1458 920 L 1274 920 L 1163 0 L 1001 0 L 1065 520 L 375 520 L 311 0 L 150 0 L 260 920 L 78 920 L 92 1047 Z M 1081 655 L 1112 920 L 422 920 L 391 655 L 1081 655 Z" unicode="Ħ" />
<glyph horiz-adv-x="1112" d="M 862 -18 C 772 -18 727 27 727 119 C 727 137 729 157 733 178 C 739 218 746 254 752 287 C 758 319 765 352 771 384 C 777 416 783 449 790 484 C 797 519 805 558 813 600 C 817 622 819 643 819 664 C 819 722 803 766 771 796 C 739 825 694 840 637 840 C 555 840 487 809 435 748 C 382 687 347 593 330 465 C 328 452 326 436 323 417 C 320 398 317 376 315 352 C 312 327 309 301 307 275 C 304 249 301 223 299 197 C 292 135 285 69 279 0 L 123 0 L 258 1116 L 129 1116 L 143 1243 L 272 1243 L 299 1456 L 455 1456 L 426 1243 L 717 1243 L 702 1116 L 408 1116 L 360 766 L 371 766 C 392 802 419 836 453 866 C 480 890 514 913 556 935 C 597 956 647 967 705 967 C 792 967 858 942 902 894 C 946 845 969 782 969 705 C 969 681 967 657 963 633 C 946 535 930 452 915 384 C 900 315 886 248 874 184 C 872 177 872 170 872 164 C 872 140 876 125 886 119 C 896 112 909 109 926 109 C 939 109 953 110 967 113 C 972 114 977 116 983 119 L 965 2 C 956 -2 946 -5 936 -8 C 915 -14 890 -18 862 -18 Z" unicode="ħ" />
<glyph horiz-adv-x="520" d="M 129 0 L 291 1333 L 453 1333 L 291 0 L 129 0 Z M 295 1783 C 316 1783 337 1777 359 1767 C 380 1757 400 1745 419 1733 C 438 1720 456 1708 472 1698 C 488 1688 502 1683 514 1683 C 525 1683 534 1686 542 1692 C 549 1698 555 1705 559 1715 C 563 1724 567 1735 570 1747 C 572 1759 575 1772 577 1785 L 690 1742 C 692 1722 691 1700 686 1678 C 680 1656 671 1635 657 1617 C 643 1598 626 1582 605 1570 C 583 1558 558 1552 530 1552 C 508 1552 486 1557 466 1567 C 445 1577 425 1589 407 1602 C 388 1614 370 1626 354 1636 C 338 1646 323 1652 311 1652 C 301 1652 292 1649 285 1643 C 278 1637 272 1630 268 1621 C 263 1611 259 1600 256 1588 C 252 1576 249 1563 247 1550 L 135 1593 C 133 1619 136 1644 144 1668 C 152 1691 163 1711 177 1728 C 191 1745 209 1758 229 1768 C 249 1778 271 1783 295 1783 Z" unicode="Ĩ" />
<glyph horiz-adv-x="522" d="M 293 -18 C 234 -18 193 -3 171 25 C 148 53 137 87 137 125 C 137 134 137 143 138 153 C 138 163 139 171 141 178 L 248 942 L 403 942 L 303 242 C 300 221 298 203 297 189 C 295 175 295 164 295 158 C 295 122 312 104 346 104 C 354 104 362 104 370 106 C 378 108 386 110 393 113 C 401 115 410 119 418 123 L 399 10 C 392 4 384 0 375 -4 C 355 -13 328 -18 293 -18 Z M 260 1392 C 279 1392 298 1386 318 1376 C 337 1366 355 1354 373 1342 C 390 1329 406 1317 421 1307 C 435 1297 448 1292 459 1292 C 470 1292 479 1295 487 1301 C 494 1307 500 1314 504 1324 C 508 1333 512 1344 515 1356 C 517 1368 520 1381 522 1394 L 635 1351 C 637 1331 636 1309 631 1287 C 625 1265 616 1244 602 1226 C 588 1207 571 1191 550 1179 C 528 1167 503 1161 475 1161 C 455 1161 435 1166 417 1176 C 398 1186 380 1198 363 1211 C 346 1223 330 1235 315 1245 C 300 1255 287 1261 276 1261 C 266 1261 257 1258 250 1252 C 243 1246 237 1239 233 1230 C 228 1220 224 1209 221 1197 C 217 1185 214 1172 212 1159 L 100 1202 C 98 1228 101 1253 109 1277 C 117 1300 128 1320 142 1337 C 156 1354 174 1367 194 1377 C 214 1387 236 1392 260 1392 Z" unicode="ĩ" />
<glyph horiz-adv-x="520" d="M 129 0 L 291 1333 L 453 1333 L 291 0 L 129 0 Z M 102 1663 L 722 1663 L 710 1550 L 90 1550 L 102 1663 Z" unicode="Ī" />
<glyph horiz-adv-x="522" d="M 293 -18 C 234 -18 193 -3 171 25 C 148 53 137 87 137 125 C 137 134 137 143 138 153 C 138 163 139 171 141 178 L 248 942 L 403 942 L 303 242 C 300 221 298 203 297 189 C 295 175 295 164 295 158 C 295 122 312 104 346 104 C 354 104 362 104 370 106 C 378 108 386 110 393 113 C 401 115 410 119 418 123 L 399 10 C 392 4 384 0 375 -4 C 355 -13 328 -18 293 -18 Z M 74 1272 L 634 1272 L 622 1159 L 62 1159 L 74 1272 Z" unicode="ī" />
<glyph horiz-adv-x="520" d="M 129 0 L 291 1333 L 453 1333 L 291 0 L 129 0 Z M 406 1663 C 468 1663 518 1683 556 1724 C 594 1765 616 1816 623 1876 L 762 1876 C 756 1829 744 1786 726 1746 C 708 1706 683 1672 653 1643 C 622 1613 585 1590 541 1574 C 497 1558 448 1550 394 1550 C 283 1550 203 1580 154 1641 C 104 1701 85 1780 97 1876 L 232 1876 C 225 1816 237 1765 269 1724 C 300 1683 346 1663 406 1663 Z" unicode="Ĭ" />
<glyph horiz-adv-x="522" d="M 293 -18 C 234 -18 193 -3 171 25 C 148 53 137 87 137 125 C 137 134 137 143 138 153 C 138 163 139 171 141 178 L 248 942 L 403 942 L 303 242 C 300 221 298 203 297 189 C 295 175 295 164 295 158 C 295 122 312 104 346 104 C 354 104 362 104 370 106 C 378 108 386 110 393 113 C 401 115 410 119 418 123 L 399 10 C 392 4 384 0 375 -4 C 355 -13 328 -18 293 -18 Z M 364 1272 C 417 1272 459 1289 491 1325 C 522 1360 540 1403 544 1455 L 683 1455 C 679 1412 668 1373 652 1337 C 636 1301 614 1269 586 1243 C 558 1216 525 1195 485 1181 C 445 1166 401 1159 352 1159 C 251 1159 178 1186 133 1241 C 87 1296 70 1367 80 1455 L 213 1455 C 207 1403 218 1360 246 1325 C 274 1289 313 1272 364 1272 Z" unicode="ĭ" />
<glyph horiz-adv-x="520" d="M 129 0 L 291 1333 L 453 1333 L 291 0 L 129 0 Z M 290 18 C 116 -59 30 -135 30 -209 C 30 -277 59 -311 118 -311 C 157 -311 194 -296 229 -268 L 280 -344 C 228 -386 172 -408 114 -408 C -26 -408 -97 -347 -97 -227 C -97 -146 -30 -70 104 0 C 126 13 149 25 173 35 L 290 18 Z" unicode="Į" />
<glyph horiz-adv-x="522" d="M 391 18 C 217 -59 131 -135 131 -209 C 131 -277 160 -311 219 -311 C 258 -311 295 -296 330 -268 L 381 -344 C 329 -386 273 -408 215 -408 C 74 -408 4 -347 4 -227 C 4 -146 71 -70 205 0 C 227 13 250 25 274 35 L 391 18 Z M 293 -18 C 234 -18 193 -3 171 25 C 148 53 137 87 137 125 C 137 134 137 143 138 153 C 138 163 139 171 141 178 L 248 942 L 403 942 L 303 242 C 300 221 298 203 297 189 C 295 175 295 164 295 158 C 295 122 312 104 346 104 C 354 104 362 104 370 106 C 378 108 386 110 393 113 C 401 115 410 119 418 123 L 399 10 C 392 4 384 0 375 -4 C 355 -13 328 -18 293 -18 Z M 482 1282 C 482 1244 470 1214 447 1192 C 423 1170 396 1159 365 1159 C 336 1159 310 1170 287 1192 C 264 1214 253 1244 253 1282 C 253 1317 264 1345 287 1367 C 310 1388 336 1399 365 1399 C 396 1399 423 1388 447 1367 C 470 1345 482 1317 482 1282 Z" unicode="į" />
<glyph horiz-adv-x="520" d="M 129 0 L 291 1333 L 453 1333 L 291 0 L 129 0 Z M 526 1673 C 526 1635 514 1605 491 1583 C 467 1561 440 1550 409 1550 C 380 1550 354 1561 331 1583 C 308 1605 297 1635 297 1673 C 297 1708 308 1736 331 1758 C 354 1779 380 1790 409 1790 C 440 1790 467 1779 491 1758 C 514 1736 526 1708 526 1673 Z" unicode="İ" />
<glyph horiz-adv-x="522" d="M 293 -18 C 234 -18 193 -3 171 25 C 148 53 137 87 137 125 C 137 134 137 143 138 153 C 138 163 139 171 141 178 L 248 942 L 403 942 L 303 242 C 300 221 298 203 297 189 C 295 175 295 164 295 158 C 295 122 312 104 346 104 C 354 104 362 104 370 106 C 378 108 386 110 393 113 C 401 115 410 119 418 123 L 399 10 C 392 4 384 0 375 -4 C 355 -13 328 -18 293 -18 Z" unicode="ı" />
<glyph horiz-adv-x="1337" d="M 129 0 L 291 1333 L 453 1333 L 291 0 L 129 0 Z M 1274 1333 L 1163 430 C 1145 284 1104 171 1042 93 C 979 14 883 -25 755 -25 C 679 -25 612 -11 555 16 C 497 43 457 77 434 117 L 561 213 C 575 184 598 160 628 140 C 658 120 695 111 739 111 C 817 111 876 136 918 188 C 960 240 987 319 999 426 L 1110 1333 L 1274 1333 Z" unicode="Ĳ" />
<glyph horiz-adv-x="1044" d="M 293 -18 C 234 -18 193 -3 171 25 C 148 53 137 87 137 125 C 137 134 137 143 138 153 C 138 163 139 171 141 178 L 248 942 L 403 942 L 303 242 C 300 221 298 203 297 189 C 295 175 295 164 295 158 C 295 122 312 104 346 104 C 354 104 362 104 370 106 C 378 108 386 110 393 113 C 401 115 410 119 418 123 L 399 10 C 392 4 384 0 375 -4 C 355 -13 328 -18 293 -18 Z M 482 1282 C 482 1244 470 1214 447 1192 C 423 1170 396 1159 365 1159 C 336 1159 310 1170 287 1192 C 264 1214 253 1244 253 1282 C 253 1317 264 1345 287 1367 C 310 1388 336 1399 365 1399 C 396 1399 423 1388 447 1367 C 470 1345 482 1317 482 1282 Z M 997 1282 C 997 1244 985 1214 962 1192 C 938 1170 911 1159 880 1159 C 851 1159 825 1170 802 1192 C 779 1214 768 1244 768 1282 C 768 1317 779 1345 802 1367 C 825 1388 851 1399 880 1399 C 911 1399 938 1388 962 1367 C 985 1345 997 1317 997 1282 Z M 368 -334 C 379 -340 393 -347 409 -353 C 425 -359 446 -362 471 -362 C 484 -362 498 -360 514 -357 C 530 -353 545 -347 559 -337 C 573 -327 586 -312 597 -292 C 608 -272 616 -245 620 -213 L 770 942 L 923 942 L 772 -250 C 766 -293 755 -330 737 -362 C 719 -394 696 -420 670 -441 C 644 -462 614 -478 581 -488 C 548 -498 514 -504 479 -504 C 447 -504 420 -500 397 -493 C 373 -486 354 -478 340 -469 L 368 -334 Z" unicode="ĳ" />
<glyph horiz-adv-x="858" d="M 795 1333 L 684 430 C 666 284 625 171 563 93 C 500 14 404 -25 276 -25 C 200 -25 133 -11 76 16 C 18 43 -21 77 -45 117 L 82 213 C 96 184 119 160 149 140 C 179 120 216 111 260 111 C 338 111 397 136 439 188 C 481 240 508 319 520 426 L 631 1333 L 795 1333 Z M 363 1550 L 721 1878 L 848 1878 L 1139 1550 L 971 1550 L 774 1788 L 529 1550 L 363 1550 Z" unicode="Ĵ" />
<glyph horiz-adv-x="522" d="M -154 -334 C -142 -340 -128 -347 -112 -353 C -96 -359 -75 -362 -51 -362 C -37 -362 -23 -360 -7 -357 C 8 -353 23 -347 37 -337 C 51 -327 64 -312 75 -292 C 86 -272 94 -245 98 -213 L 248 942 L 401 942 L 250 -250 C 244 -293 233 -330 215 -362 C 197 -394 174 -420 148 -441 C 122 -462 92 -478 59 -488 C 26 -498 -7 -504 -43 -504 C -74 -504 -101 -500 -125 -493 C -148 -486 -167 -478 -182 -469 L -154 -334 Z M 64 1159 L 340 1487 L 467 1487 L 676 1159 L 529 1159 L 393 1397 L 209 1159 L 64 1159 Z" unicode="ĵ" />
<glyph horiz-adv-x="1188" d="M 377 702 L 995 1333 L 1206 1333 L 618 723 L 1085 0 L 877 0 L 494 633 L 352 504 L 291 0 L 129 0 L 291 1333 L 453 1333 L 377 702 Z M 402 -510 L 439 -201 L 588 -223 L 513 -522 L 402 -510 Z" unicode="Ķ" />
<glyph horiz-adv-x="1034" d="M 809 942 L 1004 942 L 571 522 L 942 0 L 750 0 L 451 438 L 317 322 L 279 0 L 123 0 L 299 1456 L 455 1456 L 334 483 L 809 942 Z M 357 -510 L 394 -201 L 543 -223 L 468 -522 L 357 -510 Z" unicode="ķ" />
<glyph horiz-adv-x="1034" d="M 809 942 L 1004 942 L 571 522 L 938 0 L 750 0 L 451 440 L 317 322 L 279 0 L 123 0 L 236 942 L 391 942 L 334 483 L 809 942 Z" unicode="ĸ" />
<glyph horiz-adv-x="999" d="M 453 1333 L 307 135 L 913 135 L 897 0 L 129 0 L 291 1333 L 453 1333 Z M 824 1933 L 908 1849 L 611 1550 L 527 1634 L 824 1933 Z" unicode="Ĺ" />
<glyph horiz-adv-x="532" d="M 609 1933 L 693 1849 L 396 1550 L 312 1634 L 609 1933 Z M 272 1333 L 427 1333 L 285 242 C 282 221 280 203 278 189 C 276 175 276 164 276 158 C 276 140 283 126 299 117 C 314 108 329 104 344 104 C 354 104 365 105 375 108 C 385 111 395 114 403 117 C 413 121 422 125 432 129 L 418 16 C 406 9 395 3 383 -2 C 372 -6 360 -9 346 -13 C 332 -16 317 -18 299 -18 C 232 -18 186 -2 160 30 C 134 62 121 99 121 141 C 121 148 121 154 121 160 C 121 165 121 171 123 178 L 272 1333 Z" unicode="ĺ" />
<glyph horiz-adv-x="999" d="M 453 1333 L 307 135 L 913 135 L 897 0 L 129 0 L 291 1333 L 453 1333 Z M 374 -510 L 411 -201 L 560 -223 L 485 -522 L 374 -510 Z" unicode="Ļ" />
<glyph horiz-adv-x="532" d="M 287 1456 L 442 1456 L 285 242 C 282 221 280 203 278 189 C 276 175 276 164 276 158 C 276 140 283 126 299 117 C 314 108 329 104 344 104 C 354 104 365 105 375 108 C 385 111 395 114 403 117 C 413 121 422 125 432 129 L 418 16 C 406 9 395 3 383 -2 C 372 -6 360 -9 346 -13 C 332 -16 317 -18 299 -18 C 232 -18 186 -2 160 30 C 134 62 121 99 121 141 C 121 148 121 154 121 160 C 121 165 121 171 123 178 L 287 1456 Z M 84 -510 L 121 -201 L 270 -223 L 195 -522 L 84 -510 Z" unicode="ļ" />
<glyph horiz-adv-x="999" d="M 453 1333 L 307 135 L 913 135 L 897 0 L 129 0 L 291 1333 L 453 1333 Z M 814 1005 L 902 1356 L 1049 1333 L 922 993 L 814 1005 Z" unicode="Ľ" />
<glyph horiz-adv-x="573" d="M 287 1456 L 442 1456 L 285 242 C 282 221 280 203 278 189 C 276 175 276 164 276 158 C 276 140 283 126 299 117 C 314 108 329 104 344 104 C 354 104 365 105 375 108 C 385 111 395 114 403 117 C 413 121 422 125 432 129 L 418 16 C 406 9 395 3 383 -2 C 372 -6 360 -9 346 -13 C 332 -16 317 -18 299 -18 C 232 -18 186 -2 160 30 C 134 62 121 99 121 141 C 121 148 121 154 121 160 C 121 165 121 171 123 178 L 287 1456 Z M 621 1128 L 709 1479 L 856 1456 L 729 1116 L 621 1128 Z" unicode="ľ" />
<glyph horiz-adv-x="999" d="M 453 1333 L 307 135 L 913 135 L 897 0 L 129 0 L 291 1333 L 453 1333 Z M 814 734 C 814 699 802 669 780 644 C 757 619 728 607 693 607 C 661 607 636 617 617 638 C 597 659 588 685 588 717 C 588 753 599 783 621 808 C 643 833 671 846 707 846 C 738 846 764 835 784 814 C 804 793 814 766 814 734 Z" unicode="Ŀ" />
<glyph horiz-adv-x="840" d="M 287 1456 L 442 1456 L 285 242 C 282 221 280 203 278 189 C 276 175 276 164 276 158 C 276 140 283 126 299 117 C 314 108 329 104 344 104 C 354 104 365 105 375 108 C 385 111 395 114 403 117 C 413 121 422 125 432 129 L 418 16 C 406 9 395 3 383 -2 C 372 -6 360 -9 346 -13 C 332 -16 317 -18 299 -18 C 232 -18 186 -2 160 30 C 134 62 121 99 121 141 C 121 148 121 154 121 160 C 121 165 121 171 123 178 L 287 1456 Z M 789 734 C 789 699 777 669 755 644 C 732 619 703 607 668 607 C 636 607 611 617 592 638 C 572 659 563 685 563 717 C 563 753 574 783 596 808 C 618 833 646 846 682 846 C 713 846 739 835 759 814 C 779 793 789 766 789 734 Z" unicode="ŀ" />
<glyph horiz-adv-x="999" d="M 70 688 L 217 727 L 291 1333 L 453 1333 L 385 772 L 610 838 L 594 709 L 369 647 L 307 135 L 913 135 L 897 0 L 129 0 L 203 600 L 53 559 L 70 688 Z" unicode="Ł" />
<glyph horiz-adv-x="573" d="M 199 616 L 14 565 L 27 694 L 215 745 L 307 1456 L 463 1456 L 375 784 L 559 838 L 545 709 L 358 657 L 305 242 C 302 221 300 203 299 189 C 297 175 297 164 297 158 C 297 140 304 126 319 117 C 334 108 349 104 365 104 C 375 104 386 105 396 108 C 406 111 416 114 424 117 C 433 121 443 125 453 129 L 434 16 C 426 9 415 3 403 -2 C 392 -6 380 -9 366 -13 C 352 -16 337 -18 319 -18 C 252 -18 206 -2 180 30 C 154 62 141 99 141 141 C 141 148 141 154 141 160 C 141 165 141 171 143 178 L 199 616 Z" unicode="ł" />
<glyph horiz-adv-x="1343" d="M 285 0 L 129 0 L 291 1333 L 504 1333 L 985 231 L 1120 1333 L 1276 1333 L 1114 0 L 901 0 L 422 1133 L 285 0 Z M 1034 1933 L 1118 1849 L 821 1550 L 737 1634 L 1034 1933 Z" unicode="Ń" />
<glyph horiz-adv-x="1116" d="M 858 -18 C 770 -18 727 27 727 119 C 727 137 729 157 733 178 C 744 243 756 308 770 372 C 784 436 799 512 815 600 C 819 622 821 643 821 664 C 821 722 805 766 773 796 C 741 825 695 840 637 840 C 555 840 487 807 433 742 C 379 677 344 585 328 465 C 322 429 316 385 310 332 C 304 278 297 227 291 178 C 284 120 276 61 268 0 L 113 0 C 130 125 146 240 162 346 C 167 391 173 435 180 479 C 186 523 192 563 197 600 C 202 636 207 668 211 694 C 215 720 217 738 219 748 C 220 757 221 767 222 778 C 222 789 223 801 223 813 C 223 828 222 843 222 859 C 221 875 220 889 219 901 C 217 916 216 930 215 942 L 367 942 C 367 931 367 919 369 907 C 370 896 371 884 372 870 C 372 856 373 843 373 829 C 373 819 373 809 373 798 C 373 787 371 776 369 766 L 379 766 C 398 802 422 836 451 866 C 475 890 506 913 546 935 C 586 956 634 967 692 967 C 786 967 856 942 901 892 C 946 842 969 778 969 700 C 969 689 969 678 969 666 C 969 654 967 643 965 633 C 956 582 947 536 939 495 C 930 454 922 416 914 381 C 906 345 899 311 893 279 C 886 247 880 216 874 186 C 872 179 872 171 872 162 C 872 140 877 126 887 120 C 897 114 910 111 926 111 C 939 111 953 112 967 115 C 972 116 977 118 983 121 L 965 2 C 956 -2 946 -5 936 -8 C 915 -14 889 -18 858 -18 Z M 916 1542 L 1000 1458 L 703 1159 L 619 1243 L 916 1542 Z" unicode="ń" />
<glyph horiz-adv-x="1343" d="M 285 0 L 129 0 L 291 1333 L 504 1333 L 985 231 L 1120 1333 L 1276 1333 L 1114 0 L 901 0 L 422 1133 L 285 0 Z M 478 -510 L 515 -201 L 664 -223 L 589 -522 L 478 -510 Z" unicode="Ņ" />
<glyph horiz-adv-x="1116" d="M 858 -18 C 770 -18 727 27 727 119 C 727 137 729 157 733 178 C 744 243 756 308 770 372 C 784 436 799 512 815 600 C 819 622 821 643 821 664 C 821 722 805 766 773 796 C 741 825 695 840 637 840 C 555 840 487 807 433 742 C 379 677 344 585 328 465 C 322 429 316 385 310 332 C 304 278 297 227 291 178 C 284 120 276 61 268 0 L 113 0 C 130 125 146 240 162 346 C 167 391 173 435 180 479 C 186 523 192 563 197 600 C 202 636 207 668 211 694 C 215 720 217 738 219 748 C 220 757 221 767 222 778 C 222 789 223 801 223 813 C 223 828 222 843 222 859 C 221 875 220 889 219 901 C 217 916 216 930 215 942 L 367 942 C 367 931 367 919 369 907 C 370 896 371 884 372 870 C 372 856 373 843 373 829 C 373 819 373 809 373 798 C 373 787 371 776 369 766 L 379 766 C 398 802 422 836 451 866 C 475 890 506 913 546 935 C 586 956 634 967 692 967 C 786 967 856 942 901 892 C 946 842 969 778 969 700 C 969 689 969 678 969 666 C 969 654 967 643 965 633 C 956 582 947 536 939 495 C 930 454 922 416 914 381 C 906 345 899 311 893 279 C 886 247 880 216 874 186 C 872 179 872 171 872 162 C 872 140 877 126 887 120 C 897 114 910 111 926 111 C 939 111 953 112 967 115 C 972 116 977 118 983 121 L 965 2 C 956 -2 946 -5 936 -8 C 915 -14 889 -18 858 -18 Z M 364 -510 L 401 -201 L 550 -223 L 475 -522 L 364 -510 Z" unicode="ņ" />
<glyph horiz-adv-x="1343" d="M 285 0 L 129 0 L 291 1333 L 504 1333 L 985 231 L 1120 1333 L 1276 1333 L 1114 0 L 901 0 L 422 1133 L 285 0 Z M 1245 1878 L 885 1550 L 756 1550 L 469 1878 L 633 1878 L 831 1640 L 1077 1878 L 1245 1878 Z" unicode="Ň" />
<glyph horiz-adv-x="1116" d="M 858 -18 C 770 -18 727 27 727 119 C 727 137 729 157 733 178 C 744 243 756 308 770 372 C 784 436 799 512 815 600 C 819 622 821 643 821 664 C 821 722 805 766 773 796 C 741 825 695 840 637 840 C 555 840 487 807 433 742 C 379 677 344 585 328 465 C 322 429 316 385 310 332 C 304 278 297 227 291 178 C 284 120 276 61 268 0 L 113 0 C 130 125 146 240 162 346 C 167 391 173 435 180 479 C 186 523 192 563 197 600 C 202 636 207 668 211 694 C 215 720 217 738 219 748 C 220 757 221 767 222 778 C 222 789 223 801 223 813 C 223 828 222 843 222 859 C 221 875 220 889 219 901 C 217 916 216 930 215 942 L 367 942 C 367 931 367 919 369 907 C 370 896 371 884 372 870 C 372 856 373 843 373 829 C 373 819 373 809 373 798 C 373 787 371 776 369 766 L 379 766 C 398 802 422 836 451 866 C 475 890 506 913 546 935 C 586 956 634 967 692 967 C 786 967 856 942 901 892 C 946 842 969 778 969 700 C 969 689 969 678 969 666 C 969 654 967 643 965 633 C 956 582 947 536 939 495 C 930 454 922 416 914 381 C 906 345 899 311 893 279 C 886 247 880 216 874 186 C 872 179 872 171 872 162 C 872 140 877 126 887 120 C 897 114 910 111 926 111 C 939 111 953 112 967 115 C 972 116 977 118 983 121 L 965 2 C 956 -2 946 -5 936 -8 C 915 -14 889 -18 858 -18 Z M 1079 1487 L 719 1159 L 590 1159 L 303 1487 L 467 1487 L 665 1249 L 911 1487 L 1079 1487 Z" unicode="ň" />
<glyph horiz-adv-x="1438" d="M 1180 -18 C 1092 -18 1049 27 1049 119 C 1049 137 1051 157 1055 178 C 1066 243 1078 308 1092 372 C 1106 436 1121 512 1137 600 C 1141 622 1143 643 1143 664 C 1143 722 1127 766 1095 796 C 1063 825 1017 840 959 840 C 877 840 809 807 755 742 C 701 677 666 585 650 465 C 644 429 638 385 632 332 C 626 278 619 227 613 178 C 606 120 598 61 590 0 L 435 0 C 452 125 468 240 484 346 C 489 391 495 435 502 479 C 508 523 514 563 519 600 C 524 636 529 668 533 694 C 537 720 539 738 541 748 C 542 757 543 767 544 778 C 544 789 545 801 545 813 C 545 828 544 843 544 859 C 543 875 542 889 541 901 C 539 916 538 930 537 942 L 689 942 C 689 931 689 919 691 907 C 692 896 693 884 694 870 C 694 856 695 843 695 829 C 695 819 695 809 695 798 C 695 787 693 776 691 766 L 701 766 C 720 802 744 836 773 866 C 797 890 828 913 868 935 C 908 956 956 967 1014 967 C 1108 967 1178 942 1223 892 C 1268 842 1291 778 1291 700 C 1291 689 1291 678 1291 666 C 1291 654 1289 643 1287 633 C 1278 582 1269 536 1261 495 C 1252 454 1244 416 1236 381 C 1228 345 1221 311 1215 279 C 1208 247 1202 216 1196 186 C 1194 179 1194 171 1194 162 C 1194 140 1199 126 1209 120 C 1219 114 1232 111 1248 111 C 1261 111 1275 112 1289 115 C 1294 116 1299 118 1305 121 L 1287 2 C 1278 -2 1268 -5 1258 -8 C 1237 -14 1211 -18 1180 -18 Z M 427 1333 L 400 1114 C 389 1066 375 1025 358 992 C 341 958 325 931 310 909 C 291 884 272 864 253 848 L 142 911 C 154 923 167 939 181 958 C 192 974 203 996 215 1022 C 227 1048 237 1078 245 1114 C 247 1127 250 1146 254 1172 C 257 1197 260 1221 263 1245 C 265 1272 268 1301 271 1333 L 427 1333 Z" unicode="ŉ" />
<glyph horiz-adv-x="1343" d="M 700 -334 C 710 -340 722 -347 738 -353 C 754 -359 773 -362 797 -362 C 836 -362 867 -349 891 -323 C 914 -297 930 -247 940 -172 L 965 43 L 422 1133 L 285 0 L 129 0 L 291 1333 L 504 1333 L 1001 365 L 1120 1333 L 1276 1333 L 1083 -250 C 1072 -336 1042 -399 994 -441 C 946 -483 885 -504 811 -504 C 779 -504 752 -500 729 -493 C 705 -486 686 -478 672 -469 L 700 -334 Z" unicode="Ŋ" />
<glyph horiz-adv-x="1096" d="M 958 700 C 958 688 957 675 957 663 C 956 651 955 639 954 629 L 842 -250 C 836 -293 825 -330 807 -362 C 789 -394 766 -420 740 -441 C 713 -462 683 -478 651 -488 C 618 -498 584 -504 549 -504 C 517 -504 490 -500 467 -493 C 443 -486 424 -478 410 -469 L 438 -334 C 449 -340 463 -347 479 -353 C 495 -359 516 -362 541 -362 C 554 -362 568 -360 584 -357 C 600 -353 615 -347 629 -337 C 643 -327 656 -312 667 -292 C 678 -272 686 -245 690 -213 L 797 600 C 801 632 803 658 803 678 C 803 726 790 765 764 795 C 738 825 693 840 631 840 C 550 840 483 807 431 742 C 378 677 344 585 328 465 C 296 216 276 61 268 0 L 113 0 C 164 363 192 563 197 600 C 202 636 207 668 211 694 C 215 720 217 738 219 748 C 220 757 221 767 222 778 C 222 789 223 801 223 813 C 223 828 222 843 222 859 C 221 875 220 889 219 901 C 217 916 216 930 215 942 L 367 942 C 367 931 367 919 369 907 C 370 896 371 884 372 870 C 372 856 373 843 373 829 L 373 799 C 373 787 371 776 369 766 L 379 766 C 388 785 398 803 410 819 C 422 835 435 851 449 866 C 473 890 504 913 542 935 C 580 956 628 967 686 967 C 780 967 848 942 892 892 C 936 842 958 778 958 700 Z" unicode="ŋ" />
<glyph horiz-adv-x="1438" d="M 1325 793 C 1325 694 1312 596 1286 498 C 1260 400 1219 313 1165 236 C 1110 159 1041 96 959 48 C 877 0 780 -25 668 -25 C 587 -25 514 -12 448 13 C 382 38 326 75 279 124 C 232 172 196 232 170 302 C 144 372 131 453 131 543 C 131 638 144 734 172 831 C 199 928 240 1015 295 1093 C 349 1171 418 1234 500 1284 C 582 1333 677 1358 786 1358 C 865 1358 938 1345 1004 1320 C 1070 1294 1127 1257 1174 1209 C 1221 1161 1258 1101 1285 1031 C 1311 961 1325 881 1325 793 Z M 664 111 C 752 111 828 130 891 168 C 953 206 1004 256 1044 320 C 1084 384 1112 456 1130 537 C 1148 618 1157 701 1157 786 C 1157 928 1123 1036 1056 1111 C 989 1185 901 1223 791 1223 C 701 1223 626 1203 564 1164 C 502 1125 451 1074 411 1012 C 371 949 342 877 324 796 C 306 714 297 632 297 549 C 297 405 330 296 398 222 C 466 148 554 111 664 111 Z M 538 1663 L 1158 1663 L 1146 1550 L 526 1550 L 538 1663 Z" unicode="Ō" />
<glyph horiz-adv-x="1092" d="M 508 -25 C 446 -25 390 -14 339 7 C 287 28 244 58 208 96 C 172 134 144 180 124 233 C 104 286 94 345 94 410 C 94 494 106 571 131 639 C 155 707 189 765 233 814 C 277 862 329 900 389 927 C 449 953 515 967 588 967 C 723 967 825 928 895 850 C 964 772 999 669 999 541 C 999 456 987 379 964 309 C 941 239 908 180 865 131 C 822 81 770 43 709 16 C 648 -11 581 -25 508 -25 Z M 514 104 C 559 104 602 113 642 132 C 682 150 716 178 746 214 C 776 250 799 294 817 348 C 835 401 844 463 844 535 C 844 635 819 711 771 762 C 722 812 659 838 582 838 C 536 838 493 828 453 810 C 413 791 378 763 348 727 C 318 690 294 645 277 591 C 260 537 252 474 252 403 C 252 303 276 229 324 179 C 372 129 436 104 514 104 Z M 328 1272 L 948 1272 L 936 1159 L 316 1159 L 328 1272 Z" unicode="ō" />
<glyph horiz-adv-x="1438" d="M 1325 793 C 1325 694 1312 596 1286 498 C 1260 400 1219 313 1165 236 C 1110 159 1041 96 959 48 C 877 0 780 -25 668 -25 C 587 -25 514 -12 448 13 C 382 38 326 75 279 124 C 232 172 196 232 170 302 C 144 372 131 453 131 543 C 131 638 144 734 172 831 C 199 928 240 1015 295 1093 C 349 1171 418 1234 500 1284 C 582 1333 677 1358 786 1358 C 865 1358 938 1345 1004 1320 C 1070 1294 1127 1257 1174 1209 C 1221 1161 1258 1101 1285 1031 C 1311 961 1325 881 1325 793 Z M 664 111 C 752 111 828 130 891 168 C 953 206 1004 256 1044 320 C 1084 384 1112 456 1130 537 C 1148 618 1157 701 1157 786 C 1157 928 1123 1036 1056 1111 C 989 1185 901 1223 791 1223 C 701 1223 626 1203 564 1164 C 502 1125 451 1074 411 1012 C 371 949 342 877 324 796 C 306 714 297 632 297 549 C 297 405 330 296 398 222 C 466 148 554 111 664 111 Z M 835 1663 C 897 1663 947 1683 985 1724 C 1023 1765 1045 1816 1052 1876 L 1191 1876 C 1185 1829 1173 1786 1155 1746 C 1137 1706 1112 1672 1082 1643 C 1051 1613 1014 1590 970 1574 C 926 1558 877 1550 823 1550 C 712 1550 632 1580 583 1641 C 533 1701 514 1780 526 1876 L 661 1876 C 654 1816 666 1765 698 1724 C 729 1683 775 1663 835 1663 Z" unicode="Ŏ" />
<glyph horiz-adv-x="1092" d="M 508 -25 C 446 -25 390 -14 339 7 C 287 28 244 58 208 96 C 172 134 144 180 124 233 C 104 286 94 345 94 410 C 94 494 106 571 131 639 C 155 707 189 765 233 814 C 277 862 329 900 389 927 C 449 953 515 967 588 967 C 723 967 825 928 895 850 C 964 772 999 669 999 541 C 999 456 987 379 964 309 C 941 239 908 180 865 131 C 822 81 770 43 709 16 C 648 -11 581 -25 508 -25 Z M 514 104 C 559 104 602 113 642 132 C 682 150 716 178 746 214 C 776 250 799 294 817 348 C 835 401 844 463 844 535 C 844 635 819 711 771 762 C 722 812 659 838 582 838 C 536 838 493 828 453 810 C 413 791 378 763 348 727 C 318 690 294 645 277 591 C 260 537 252 474 252 403 C 252 303 276 229 324 179 C 372 129 436 104 514 104 Z M 644 1272 C 706 1272 756 1292 794 1333 C 832 1374 854 1425 861 1485 L 1000 1485 C 994 1438 982 1395 964 1355 C 946 1315 921 1281 891 1252 C 860 1222 823 1199 779 1183 C 735 1167 686 1159 632 1159 C 521 1159 441 1189 392 1250 C 342 1310 323 1389 335 1485 L 470 1485 C 463 1425 475 1374 507 1333 C 538 1292 584 1272 644 1272 Z" unicode="ŏ" />
<glyph horiz-adv-x="1438" d="M 1325 793 C 1325 694 1312 596 1286 498 C 1260 400 1219 313 1165 236 C 1110 159 1041 96 959 48 C 877 0 780 -25 668 -25 C 587 -25 514 -12 448 13 C 382 38 326 75 279 124 C 232 172 196 232 170 302 C 144 372 131 453 131 543 C 131 638 144 734 172 831 C 199 928 240 1015 295 1093 C 349 1171 418 1234 500 1284 C 582 1333 677 1358 786 1358 C 865 1358 938 1345 1004 1320 C 1070 1294 1127 1257 1174 1209 C 1221 1161 1258 1101 1285 1031 C 1311 961 1325 881 1325 793 Z M 664 111 C 752 111 828 130 891 168 C 953 206 1004 256 1044 320 C 1084 384 1112 456 1130 537 C 1148 618 1157 701 1157 786 C 1157 928 1123 1036 1056 1111 C 989 1185 901 1223 791 1223 C 701 1223 626 1203 564 1164 C 502 1125 451 1074 411 1012 C 371 949 342 877 324 796 C 306 714 297 632 297 549 C 297 405 330 296 398 222 C 466 148 554 111 664 111 Z M 873 1933 L 961 1861 L 687 1552 L 599 1622 L 873 1933 Z M 1228 1933 L 1316 1861 L 1041 1552 L 953 1622 L 1228 1933 Z" unicode="Ő" />
<glyph horiz-adv-x="1092" d="M 508 -25 C 446 -25 390 -14 339 7 C 287 28 244 58 208 96 C 172 134 144 180 124 233 C 104 286 94 345 94 410 C 94 494 106 571 131 639 C 155 707 189 765 233 814 C 277 862 329 900 389 927 C 449 953 515 967 588 967 C 723 967 825 928 895 850 C 964 772 999 669 999 541 C 999 456 987 379 964 309 C 941 239 908 180 865 131 C 822 81 770 43 709 16 C 648 -11 581 -25 508 -25 Z M 514 104 C 559 104 602 113 642 132 C 682 150 716 178 746 214 C 776 250 799 294 817 348 C 835 401 844 463 844 535 C 844 635 819 711 771 762 C 722 812 659 838 582 838 C 536 838 493 828 453 810 C 413 791 378 763 348 727 C 318 690 294 645 277 591 C 260 537 252 474 252 403 C 252 303 276 229 324 179 C 372 129 436 104 514 104 Z M 660 1542 L 748 1470 L 474 1161 L 386 1231 L 660 1542 Z M 1015 1542 L 1103 1470 L 828 1161 L 740 1231 L 1015 1542 Z" unicode="ő" />
<glyph horiz-adv-x="2032" d="M 1346 1198 L 1290 739 L 1851 739 L 1835 604 L 1274 604 L 1217 135 L 1864 135 L 1847 0 L 1038 0 L 1063 197 C 1008 131 945 77 875 36 C 805 -4 729 -25 647 -25 C 569 -25 498 -12 435 14 C 371 40 317 77 272 127 C 227 176 192 236 168 308 C 143 380 131 461 131 553 C 131 587 133 624 137 664 C 149 772 174 870 211 956 C 247 1042 293 1114 347 1174 C 401 1234 463 1279 533 1311 C 603 1342 679 1358 760 1358 C 850 1358 930 1335 1001 1289 C 1072 1243 1129 1185 1171 1114 L 1200 1333 L 1982 1333 L 1966 1198 L 1346 1198 Z M 1106 664 C 1108 686 1110 708 1112 729 C 1113 749 1114 770 1114 791 C 1114 931 1082 1038 1020 1112 C 957 1186 873 1223 768 1223 C 700 1223 637 1208 580 1179 C 522 1149 472 1106 430 1049 C 388 991 355 920 331 836 C 307 751 295 654 295 545 C 295 401 326 293 390 220 C 453 147 538 111 645 111 C 773 111 877 157 956 251 C 1035 344 1085 482 1106 664 Z" unicode="Œ" />
<glyph horiz-adv-x="1769" d="M 999 463 C 997 450 997 438 997 428 C 997 417 997 407 997 397 C 997 296 1019 222 1063 176 C 1107 129 1171 106 1255 106 C 1303 106 1343 111 1375 123 C 1407 135 1432 148 1452 164 C 1475 180 1493 199 1507 223 L 1620 131 C 1599 102 1572 76 1540 53 C 1512 34 1476 16 1430 0 C 1384 -16 1329 -25 1264 -25 C 1166 -25 1088 -1 1028 45 C 968 91 924 149 897 217 C 857 147 805 90 739 44 C 673 -2 596 -25 508 -25 C 446 -25 390 -14 339 7 C 287 28 244 58 208 96 C 172 134 144 180 124 233 C 104 286 94 345 94 410 C 94 494 106 571 131 639 C 155 707 189 765 233 814 C 277 862 329 900 389 927 C 449 953 515 967 588 967 C 632 967 673 960 711 947 C 749 934 782 917 812 896 C 841 874 866 849 888 821 C 909 792 926 762 938 731 C 956 762 977 792 1002 821 C 1027 849 1055 874 1087 896 C 1119 917 1154 934 1192 947 C 1230 960 1271 967 1317 967 C 1378 967 1431 957 1475 937 C 1519 917 1556 890 1585 856 C 1613 822 1634 781 1648 735 C 1662 689 1669 638 1669 584 C 1669 568 1668 550 1666 528 C 1664 506 1661 485 1657 463 L 999 463 Z M 514 104 C 559 104 602 113 642 132 C 682 150 716 178 746 214 C 776 250 799 294 817 348 C 835 401 844 463 844 535 C 844 635 819 711 771 762 C 722 812 659 838 582 838 C 536 838 493 828 453 810 C 413 791 378 763 348 727 C 318 690 294 645 277 591 C 260 537 252 474 252 403 C 252 303 276 229 324 179 C 372 129 436 104 514 104 Z M 1296 854 C 1221 854 1160 831 1113 785 C 1065 739 1034 672 1018 584 L 1522 584 L 1522 594 C 1522 596 1522 600 1523 604 C 1523 608 1524 612 1524 618 C 1524 636 1521 658 1515 686 C 1509 713 1499 739 1483 764 C 1467 788 1445 809 1415 827 C 1385 845 1345 854 1296 854 Z" unicode="œ" />
<glyph horiz-adv-x="1163" d="M 371 659 L 606 659 C 673 659 728 668 770 688 C 812 707 846 732 870 762 C 894 792 911 825 920 862 C 929 899 934 935 934 969 C 934 999 929 1028 921 1056 C 913 1084 899 1108 879 1129 C 859 1150 833 1167 800 1179 C 766 1191 724 1198 674 1198 L 436 1198 L 371 659 Z M 854 0 L 657 524 L 354 524 L 291 0 L 129 0 L 291 1333 L 666 1333 C 817 1333 927 1301 997 1239 C 1067 1176 1102 1089 1102 977 C 1102 918 1092 865 1073 817 C 1053 769 1028 727 998 691 C 967 655 933 625 895 602 C 857 578 818 563 780 555 L 1010 0 L 854 0 Z M 899 1933 L 983 1849 L 686 1550 L 602 1634 L 899 1933 Z" unicode="Ŕ" />
<glyph horiz-adv-x="702" d="M 678 793 C 670 794 661 795 652 796 C 643 796 635 797 629 797 C 549 797 483 767 430 709 C 376 650 343 571 330 473 C 318 403 309 340 303 282 C 296 224 289 173 283 131 C 275 81 269 38 264 0 L 109 0 L 217 768 C 218 777 219 786 219 795 C 219 804 219 813 219 823 C 219 838 218 853 217 868 C 215 883 214 896 213 907 C 211 921 210 932 209 942 L 356 942 C 357 935 359 928 362 920 C 364 912 365 902 367 890 C 368 878 369 864 369 850 C 369 836 367 817 364 793 C 361 769 358 748 356 729 L 367 729 C 394 795 431 852 479 898 C 527 944 583 967 649 967 C 655 967 662 966 670 966 C 678 965 685 964 692 963 L 678 793 Z M 674 1542 L 758 1458 L 461 1159 L 377 1243 L 674 1542 Z" unicode="ŕ" />
<glyph horiz-adv-x="1163" d="M 371 659 L 606 659 C 673 659 728 668 770 688 C 812 707 846 732 870 762 C 894 792 911 825 920 862 C 929 899 934 935 934 969 C 934 999 929 1028 921 1056 C 913 1084 899 1108 879 1129 C 859 1150 833 1167 800 1179 C 766 1191 724 1198 674 1198 L 436 1198 L 371 659 Z M 854 0 L 657 524 L 354 524 L 291 0 L 129 0 L 291 1333 L 666 1333 C 817 1333 927 1301 997 1239 C 1067 1176 1102 1089 1102 977 C 1102 918 1092 865 1073 817 C 1053 769 1028 727 998 691 C 967 655 933 625 895 602 C 857 578 818 563 780 555 L 1010 0 L 854 0 Z M 399 -510 L 436 -201 L 585 -223 L 510 -522 L 399 -510 Z" unicode="Ŗ" />
<glyph horiz-adv-x="702" d="M 678 793 C 670 794 661 795 652 796 C 643 796 635 797 629 797 C 549 797 483 767 430 709 C 376 650 343 571 330 473 C 318 403 309 340 303 282 C 296 224 289 173 283 131 C 275 81 269 38 264 0 L 109 0 L 217 768 C 218 777 219 786 219 795 C 219 804 219 813 219 823 C 219 838 218 853 217 868 C 215 883 214 896 213 907 C 211 921 210 932 209 942 L 356 942 C 357 935 359 928 362 920 C 364 912 365 902 367 890 C 368 878 369 864 369 850 C 369 836 367 817 364 793 C 361 769 358 748 356 729 L 367 729 C 394 795 431 852 479 898 C 527 944 583 967 649 967 C 655 967 662 966 670 966 C 678 965 685 964 692 963 L 678 793 Z M 54 -510 L 91 -201 L 240 -223 L 165 -522 L 54 -510 Z" unicode="ŗ" />
<glyph horiz-adv-x="1163" d="M 371 659 L 606 659 C 673 659 728 668 770 688 C 812 707 846 732 870 762 C 894 792 911 825 920 862 C 929 899 934 935 934 969 C 934 999 929 1028 921 1056 C 913 1084 899 1108 879 1129 C 859 1150 833 1167 800 1179 C 766 1191 724 1198 674 1198 L 436 1198 L 371 659 Z M 854 0 L 657 524 L 354 524 L 291 0 L 129 0 L 291 1333 L 666 1333 C 817 1333 927 1301 997 1239 C 1067 1176 1102 1089 1102 977 C 1102 918 1092 865 1073 817 C 1053 769 1028 727 998 691 C 967 655 933 625 895 602 C 857 578 818 563 780 555 L 1010 0 L 854 0 Z M 1107 1878 L 747 1550 L 618 1550 L 331 1878 L 495 1878 L 693 1640 L 939 1878 L 1107 1878 Z" unicode="Ř" />
</font>
</defs>
</svg>
