<?xml version="1.0" encoding="utf-8" ?><svg version="1.1" xmlns = 'http://www.w3.org/2000/svg'><defs><font id='web' horiz-adv-x="1000">
<font-face font-family="web" descent="-545" cap-height="1333" units-per-em="2048" bbox="-1106,-537,2398,2108" x-height="942" ascent="1503" />
<missing-glyph horiz-adv-x="512" d="" /><glyph horiz-adv-x="512" d="" unicode=" " />
<glyph horiz-adv-x="469" d="M 348 109 C 348 70 336 40 313 18 C 290 -3 263 -14 231 -14 C 202 -14 176 -3 153 18 C 130 40 119 70 119 109 C 119 144 130 172 153 193 C 176 214 202 225 231 225 C 263 225 290 214 313 193 C 336 172 348 144 348 109 Z M 152 383 L 152 1333 L 307 1333 L 307 383 L 152 383 Z" unicode="!" />
<glyph horiz-adv-x="676" d="M 113 1333 L 256 1333 L 256 811 L 113 811 L 113 1333 Z M 420 1333 L 563 1333 L 563 811 L 420 811 L 420 1333 Z" unicode="&#x22;" />
<glyph horiz-adv-x="1030" d="M 737 358 L 942 358 L 926 252 L 717 252 L 664 -49 L 535 -49 L 588 252 L 383 252 L 330 -49 L 201 -49 L 254 252 L 82 252 L 98 358 L 274 358 L 324 621 L 131 621 L 147 729 L 344 729 L 395 1026 L 524 1026 L 473 729 L 674 729 L 729 1026 L 858 1026 L 807 729 L 989 729 L 977 621 L 786 621 L 737 358 Z M 657 621 L 453 621 L 403 358 L 608 358 L 657 621 Z" unicode="#" />
<glyph horiz-adv-x="1106" d="M 631 1538 L 631 1331 C 675 1328 717 1320 756 1307 C 795 1294 829 1277 859 1257 C 888 1237 912 1214 932 1188 C 951 1162 964 1134 971 1106 L 840 1032 C 826 1072 802 1108 769 1140 C 735 1172 689 1192 631 1202 L 631 733 C 681 718 729 700 774 680 C 819 659 859 634 893 604 C 927 574 954 538 974 497 C 994 456 1004 408 1004 354 C 1004 306 995 262 977 221 C 959 180 934 144 902 113 C 870 81 831 56 785 36 C 739 16 688 3 631 -2 L 631 -209 L 502 -209 L 502 -2 C 451 0 404 7 360 21 C 316 35 278 54 244 76 C 210 98 181 123 158 151 C 134 179 118 208 109 240 L 233 315 C 252 267 284 225 329 189 C 374 153 432 131 502 125 L 502 604 C 452 619 406 637 364 659 C 322 681 285 707 254 739 C 222 770 197 806 179 848 C 161 890 152 938 152 993 C 152 1039 160 1082 177 1122 C 194 1162 218 1197 250 1227 C 281 1257 318 1281 360 1300 C 402 1319 450 1331 502 1335 L 502 1538 L 631 1538 Z M 850 340 C 850 375 844 405 832 430 C 820 454 805 475 785 493 C 765 511 742 525 716 537 C 689 549 661 560 631 571 L 631 125 C 696 131 749 153 789 191 C 829 229 850 278 850 340 Z M 303 997 C 303 963 308 933 318 909 C 328 884 343 863 361 845 C 379 827 401 812 425 800 C 449 788 474 776 502 766 L 502 1206 C 430 1195 379 1170 349 1131 C 318 1092 303 1047 303 997 Z" unicode="$" />
<glyph horiz-adv-x="1683" d="M 510 0 L 379 0 L 1131 1333 L 1262 1333 L 510 0 Z M 700 975 C 700 860 672 769 618 701 C 564 633 489 600 393 600 C 295 600 218 633 162 701 C 106 769 78 860 78 975 C 78 1088 106 1178 162 1245 C 218 1312 295 1346 393 1346 C 489 1346 564 1312 618 1245 C 672 1178 700 1088 700 975 Z M 573 973 C 573 1055 556 1120 524 1170 C 491 1219 446 1244 389 1244 C 331 1244 286 1219 253 1170 C 219 1120 203 1055 203 973 C 203 891 219 825 253 777 C 286 729 331 705 389 705 C 446 705 491 729 524 777 C 556 825 573 891 573 973 Z M 1606 358 C 1606 243 1578 152 1524 84 C 1470 16 1395 -17 1299 -17 C 1201 -17 1124 16 1068 84 C 1012 152 984 243 984 358 C 984 471 1012 561 1068 628 C 1124 695 1201 729 1299 729 C 1395 729 1470 695 1524 628 C 1578 561 1606 471 1606 358 Z M 1479 356 C 1479 438 1462 503 1430 553 C 1397 602 1352 627 1295 627 C 1237 627 1192 602 1159 553 C 1125 503 1109 438 1109 356 C 1109 274 1125 208 1159 160 C 1192 112 1237 88 1295 88 C 1352 88 1397 112 1430 160 C 1462 208 1479 274 1479 356 Z" unicode="%" />
<glyph horiz-adv-x="1325" d="M 1147 553 C 1147 495 1138 439 1121 383 C 1104 327 1080 275 1049 227 C 1067 202 1085 179 1103 159 C 1121 139 1136 121 1149 106 C 1163 88 1176 73 1188 59 L 1069 -25 C 1059 -13 1048 0 1036 14 C 1025 26 1013 41 999 58 C 985 75 970 94 954 115 C 908 71 855 36 796 12 C 736 -12 672 -25 602 -25 C 538 -25 478 -16 424 2 C 369 20 321 45 281 79 C 241 112 209 154 187 204 C 165 254 154 311 154 377 C 154 431 164 479 185 519 C 206 559 232 594 264 624 C 295 653 328 677 363 696 C 398 715 429 730 457 741 C 445 755 435 767 427 777 C 418 787 412 795 410 801 C 382 836 358 875 336 917 C 314 959 303 1009 303 1067 C 303 1109 310 1148 326 1184 C 342 1220 364 1251 392 1277 C 420 1302 453 1322 491 1336 C 529 1350 571 1358 616 1358 C 668 1358 713 1350 753 1336 C 793 1322 826 1302 853 1277 C 879 1251 899 1222 913 1189 C 927 1155 934 1119 934 1081 C 934 1029 924 983 904 941 C 884 899 860 863 832 832 C 804 801 775 775 743 755 C 711 735 684 719 662 707 L 952 346 C 980 411 995 480 995 553 L 1147 553 Z M 602 104 C 659 104 710 114 754 136 C 798 157 837 185 870 221 L 528 649 C 510 642 489 631 465 617 C 440 603 416 585 394 563 C 371 541 352 514 336 483 C 320 451 313 415 313 375 C 313 341 319 307 331 274 C 343 241 362 212 386 187 C 410 162 440 142 476 127 C 512 111 554 104 602 104 Z M 530 872 C 540 858 558 835 586 801 C 602 807 621 817 645 830 C 668 843 690 860 710 882 C 730 904 748 930 762 962 C 776 994 784 1031 784 1075 C 784 1091 780 1109 774 1128 C 767 1147 757 1164 744 1179 C 731 1194 714 1207 693 1217 C 672 1227 647 1233 618 1233 C 566 1233 527 1216 501 1184 C 474 1151 461 1110 461 1061 C 461 1029 465 999 475 971 C 484 942 502 909 530 872 Z" unicode="&#x26;" />
<glyph horiz-adv-x="410" d="M 133 1333 L 276 1333 L 276 811 L 133 811 L 133 1333 Z" unicode="'" />
<glyph horiz-adv-x="512" d="M 102 562 C 102 702 115 827 142 937 C 168 1047 198 1141 231 1219 C 269 1309 313 1387 362 1455 L 489 1455 C 443 1375 402 1288 367 1193 C 335 1111 306 1016 281 909 C 256 801 244 686 244 562 C 244 437 256 321 281 214 C 306 107 335 13 367 -69 C 402 -164 443 -251 489 -329 L 362 -329 C 313 -262 269 -184 231 -94 C 198 -16 168 77 142 187 C 115 296 102 421 102 562 Z" unicode="(" />
<glyph horiz-adv-x="512" d="M 410 564 C 410 423 396 298 370 188 C 343 78 313 -16 281 -94 C 242 -184 198 -262 150 -329 L 23 -329 C 69 -249 109 -162 145 -67 C 177 15 205 109 230 216 C 255 323 268 439 268 564 C 268 688 255 803 230 911 C 205 1018 177 1113 145 1195 C 109 1290 69 1377 23 1455 L 150 1455 C 198 1387 242 1309 281 1219 C 313 1141 343 1047 370 938 C 396 829 410 704 410 564 Z" unicode=")" />
<glyph horiz-adv-x="823" d="M 342 1395 L 479 1395 L 469 1098 L 475 1092 L 756 1194 L 799 1063 L 512 981 L 510 975 L 692 741 L 582 659 L 414 907 L 408 905 L 242 659 L 129 739 L 313 977 L 309 981 L 25 1063 L 66 1194 L 346 1092 L 352 1098 L 342 1395 Z" unicode="*" />
<glyph horiz-adv-x="1044" d="M 584 526 L 952 526 L 952 399 L 584 399 L 584 31 L 440 31 L 440 399 L 72 399 L 72 526 L 440 526 L 440 893 L 584 893 L 584 526 Z" unicode="+" />
<glyph horiz-adv-x="410" d="M 141 217 L 297 217 L 297 -2 C 297 -71 282 -128 252 -173 C 222 -217 185 -249 141 -268 L 41 -184 C 68 -173 91 -153 111 -124 C 131 -94 141 -54 141 -2 L 141 217 Z" unicode="," />
<glyph horiz-adv-x="696" d="M 61 530 L 635 530 L 635 395 L 61 395 L 61 530 Z" unicode="-" />
<glyph horiz-adv-x="410" d="M 319 109 C 319 70 307 40 284 18 C 261 -3 234 -14 203 -14 C 174 -14 148 -3 125 18 C 101 40 90 70 90 109 C 90 144 101 172 125 193 C 148 214 174 225 203 225 C 234 225 261 214 284 193 C 307 172 319 144 319 109 Z" unicode="." />
<glyph horiz-adv-x="870" d="M 168 -329 L 29 -329 L 705 1455 L 844 1455 L 168 -329 Z" unicode="/" />
<glyph horiz-adv-x="1229" d="M 614 1358 C 686 1358 753 1344 813 1316 C 873 1288 924 1245 968 1189 C 1012 1132 1046 1060 1070 974 C 1094 887 1106 784 1106 666 C 1106 551 1093 450 1069 363 C 1044 276 1010 204 966 147 C 922 89 871 46 811 18 C 751 -10 685 -25 614 -25 C 542 -25 476 -11 416 16 C 356 43 304 85 260 142 C 216 198 183 270 159 357 C 135 443 123 546 123 666 C 123 786 136 889 163 977 C 189 1064 225 1136 270 1192 C 315 1248 367 1289 427 1317 C 486 1344 548 1358 614 1358 Z M 614 104 C 666 104 712 117 753 143 C 794 169 829 206 857 255 C 885 303 906 362 921 432 C 936 502 944 580 944 666 C 944 752 936 829 921 899 C 906 969 885 1028 857 1077 C 829 1126 794 1164 753 1190 C 712 1216 666 1229 614 1229 C 562 1229 516 1216 475 1190 C 434 1164 399 1126 371 1077 C 342 1028 320 969 305 899 C 290 829 283 752 283 666 C 283 492 312 355 370 255 C 428 154 509 104 614 104 Z" unicode="0" />
<glyph horiz-adv-x="645" d="M 285 0 L 285 1114 C 269 1106 251 1097 229 1089 C 207 1081 184 1073 160 1066 C 135 1058 111 1052 88 1048 C 64 1044 45 1042 29 1042 L 0 1171 C 40 1173 79 1178 117 1188 C 155 1197 189 1209 219 1224 C 249 1239 274 1256 296 1276 C 317 1295 332 1314 340 1333 L 440 1333 L 440 0 L 285 0 Z" unicode="1" />
<glyph horiz-adv-x="1065" d="M 113 1024 C 113 1046 116 1069 122 1094 C 128 1119 139 1144 153 1169 C 167 1193 184 1217 206 1240 C 227 1262 253 1282 283 1300 C 313 1318 348 1332 387 1342 C 426 1352 470 1358 520 1358 C 582 1358 640 1349 692 1333 C 744 1317 789 1292 827 1260 C 865 1227 894 1186 915 1137 C 935 1087 946 1030 946 964 C 946 892 930 820 898 750 C 866 680 824 610 771 541 C 717 472 656 404 586 337 C 516 269 444 203 368 137 L 954 137 L 954 0 L 125 0 L 125 102 C 247 191 357 283 453 379 C 493 419 533 463 573 509 C 613 555 648 603 679 653 C 709 702 734 752 753 803 C 772 853 782 904 782 954 C 782 990 776 1024 766 1057 C 755 1090 739 1119 717 1145 C 695 1171 667 1191 633 1206 C 599 1221 560 1229 514 1229 C 474 1229 438 1223 406 1212 C 374 1200 348 1184 326 1164 C 304 1143 287 1118 275 1090 C 263 1062 258 1031 258 997 C 258 973 260 948 266 920 C 271 892 278 867 287 846 L 143 874 C 139 884 135 895 131 907 C 127 919 124 932 122 946 C 119 959 117 972 115 986 C 113 999 113 1012 113 1024 Z" unicode="2" />
<glyph horiz-adv-x="1065" d="M 750 1004 C 750 1030 745 1057 737 1085 C 729 1112 715 1136 695 1158 C 675 1179 650 1196 618 1210 C 586 1224 548 1231 504 1231 C 462 1231 426 1224 396 1211 C 365 1198 339 1181 317 1161 C 295 1140 278 1117 265 1092 C 252 1067 244 1042 240 1018 L 127 1106 C 131 1134 142 1164 161 1194 C 180 1224 205 1251 237 1275 C 269 1299 307 1318 353 1333 C 399 1348 450 1356 508 1356 C 574 1356 633 1346 685 1328 C 736 1309 779 1284 813 1252 C 847 1220 872 1183 889 1142 C 906 1101 915 1058 915 1014 C 915 970 905 931 886 897 C 867 863 843 833 815 809 C 786 784 755 763 721 745 C 687 727 654 713 623 702 C 663 694 704 680 745 662 C 786 644 823 620 855 592 C 887 563 913 530 933 492 C 953 454 963 413 963 369 C 963 315 951 265 929 217 C 906 169 874 127 833 91 C 792 55 743 26 686 5 C 628 -16 565 -27 496 -27 C 440 -27 390 -20 346 -8 C 302 3 264 20 231 41 C 198 61 171 84 149 109 C 127 134 110 159 98 184 L 190 307 C 213 245 251 196 304 158 C 356 120 420 102 496 102 C 546 102 590 110 628 126 C 666 142 699 162 725 187 C 751 212 770 241 782 273 C 794 305 801 338 801 371 C 801 403 794 435 780 466 C 766 496 746 524 720 548 C 693 572 660 590 620 604 C 580 618 535 625 483 625 C 458 625 428 624 394 623 C 359 621 326 617 295 610 L 301 756 C 305 756 311 755 321 755 C 331 754 342 753 354 753 C 366 752 378 752 390 752 C 402 752 412 752 420 752 C 537 752 621 775 673 822 C 724 869 750 930 750 1004 Z" unicode="3" />
<glyph horiz-adv-x="1147" d="M 1092 319 L 913 319 L 913 0 L 766 0 L 766 319 L 125 319 L 88 422 L 133 489 L 702 1333 L 913 1333 L 913 451 L 1092 451 L 1092 319 Z M 766 451 L 766 1192 L 274 451 L 766 451 Z" unicode="4" />
<glyph horiz-adv-x="1065" d="M 553 862 C 602 862 652 853 702 836 C 752 819 798 793 839 759 C 880 724 914 680 940 626 C 966 572 979 508 979 434 C 979 368 967 308 945 252 C 922 196 890 147 849 106 C 808 65 758 33 700 10 C 641 -13 576 -25 504 -25 C 405 -25 320 -5 250 32 C 180 70 127 117 92 172 L 190 295 C 200 271 214 248 232 226 C 250 204 273 183 300 165 C 326 146 357 131 392 119 C 426 107 465 102 508 102 C 561 102 607 110 645 128 C 683 145 715 169 741 199 C 767 229 786 263 798 302 C 810 340 817 382 817 426 C 817 475 809 519 793 557 C 777 595 756 627 730 653 C 703 679 671 698 634 712 C 596 726 556 733 514 733 C 467 733 423 724 381 708 C 339 692 307 673 285 651 L 164 713 L 238 1333 L 942 1333 L 942 1198 L 358 1198 L 311 805 C 335 819 369 832 411 844 C 453 856 501 862 553 862 Z" unicode="5" />
<glyph horiz-adv-x="1147" d="M 590 -25 C 510 -23 442 -7 385 23 C 327 54 280 96 242 149 C 204 202 176 266 158 341 C 140 415 131 497 131 586 C 131 688 139 785 157 878 C 175 971 203 1053 243 1124 C 283 1195 335 1252 401 1294 C 467 1336 547 1358 641 1358 C 689 1358 732 1352 772 1341 C 811 1330 846 1316 877 1299 C 908 1282 934 1262 954 1240 C 974 1217 989 1195 999 1174 L 897 1071 C 893 1089 884 1107 870 1127 C 856 1147 838 1164 816 1179 C 793 1194 766 1207 736 1217 C 705 1227 671 1233 633 1233 C 561 1233 504 1214 460 1177 C 416 1140 382 1094 357 1038 C 331 982 314 921 304 856 C 294 790 288 728 287 670 L 293 668 C 309 703 333 735 365 764 C 390 787 424 809 467 829 C 510 849 564 860 629 860 C 703 860 768 846 822 819 C 876 791 919 757 953 715 C 987 673 1011 627 1027 576 C 1043 525 1051 476 1051 430 C 1051 380 1042 329 1026 276 C 1009 223 982 174 946 130 C 909 85 861 48 803 19 C 744 -10 673 -25 590 -25 Z M 301 434 C 301 390 307 348 320 308 C 333 268 352 232 377 202 C 401 171 431 146 467 127 C 502 107 543 98 590 98 C 625 98 660 104 696 116 C 732 128 764 148 792 175 C 820 201 842 235 860 275 C 878 315 887 364 887 420 C 887 470 879 515 864 555 C 849 594 829 627 804 654 C 778 680 748 700 714 714 C 679 728 642 735 602 735 C 564 735 526 728 490 715 C 454 702 422 683 395 658 C 367 633 345 602 328 564 C 311 526 302 483 301 434 Z" unicode="6" />
<glyph horiz-adv-x="1065" d="M 956 1333 L 956 1227 C 892 1142 834 1050 784 951 C 734 852 691 745 655 629 C 621 519 594 413 574 309 C 554 205 541 102 535 0 L 379 0 C 380 102 391 209 413 319 C 435 429 466 544 506 662 C 540 764 580 859 626 947 C 672 1035 722 1118 774 1196 L 100 1196 L 100 1333 L 956 1333 Z" unicode="7" />
<glyph horiz-adv-x="1147" d="M 768 717 C 818 697 863 671 903 639 C 937 611 968 576 997 532 C 1025 488 1040 436 1040 375 C 1040 311 1028 254 1005 205 C 982 155 950 114 909 80 C 868 46 820 20 764 2 C 708 -16 647 -25 582 -25 C 513 -25 450 -15 393 3 C 335 21 285 48 242 82 C 199 116 166 157 142 206 C 118 254 106 309 106 369 C 106 431 119 485 147 529 C 174 573 205 609 240 637 C 279 669 324 696 375 717 C 336 735 302 758 272 786 C 246 809 222 839 202 877 C 182 915 172 960 172 1012 C 172 1060 182 1106 202 1148 C 222 1190 250 1227 286 1258 C 322 1289 364 1313 414 1331 C 464 1349 517 1358 575 1358 C 633 1358 686 1349 735 1333 C 784 1317 827 1294 864 1264 C 901 1234 930 1198 951 1157 C 972 1116 983 1070 983 1020 C 983 962 971 914 949 876 C 926 838 901 807 874 784 C 842 756 807 734 768 717 Z M 324 1006 C 324 970 330 937 344 909 C 358 880 376 855 398 835 C 420 815 447 799 477 787 C 507 775 539 770 573 770 C 607 770 640 775 671 787 C 701 799 728 815 751 835 C 774 855 792 880 806 909 C 820 937 827 970 827 1006 C 827 1041 820 1073 806 1101 C 792 1129 774 1152 751 1172 C 728 1192 701 1207 671 1218 C 640 1229 607 1235 573 1235 C 539 1235 507 1229 477 1218 C 447 1207 420 1192 398 1172 C 376 1152 358 1129 344 1101 C 330 1073 324 1041 324 1006 Z M 266 371 C 266 327 273 288 289 255 C 305 221 326 193 354 171 C 381 148 413 130 450 118 C 487 106 527 100 571 100 C 613 100 654 106 692 118 C 730 130 763 148 790 171 C 817 193 839 221 856 255 C 872 288 881 327 881 371 C 881 413 872 451 856 485 C 839 519 816 548 788 572 C 759 596 726 614 689 627 C 651 640 612 647 571 647 C 530 647 491 640 453 627 C 415 614 383 596 356 572 C 328 548 306 519 290 485 C 274 451 266 413 266 371 Z" unicode="8" />
<glyph horiz-adv-x="1147" d="M 547 1358 C 629 1358 699 1341 758 1309 C 816 1276 865 1231 903 1173 C 941 1115 970 1047 988 968 C 1006 889 1016 803 1016 711 C 1016 596 1007 493 990 402 C 973 311 945 234 906 171 C 867 107 815 59 751 25 C 687 -8 608 -25 516 -25 C 468 -25 423 -19 381 -8 C 339 2 302 16 270 34 C 237 52 209 72 187 94 C 165 116 149 138 139 160 L 242 270 C 250 251 261 231 277 211 C 293 190 312 171 336 155 C 359 139 386 125 417 115 C 447 105 481 100 518 100 C 582 100 635 112 678 136 C 721 160 756 194 784 240 C 811 286 831 342 843 408 C 855 474 863 549 866 633 L 860 635 C 840 601 815 571 784 547 C 756 523 721 503 678 485 C 635 467 582 459 520 459 C 444 459 379 473 325 502 C 271 530 226 566 192 609 C 158 652 133 699 118 751 C 103 803 96 852 96 899 C 96 948 103 1000 119 1054 C 135 1108 160 1157 196 1202 C 232 1247 278 1284 336 1314 C 393 1343 463 1358 547 1358 Z M 846 889 C 846 932 839 974 827 1016 C 815 1058 796 1095 771 1127 C 745 1159 714 1185 678 1205 C 641 1225 598 1235 549 1235 C 512 1235 476 1228 442 1215 C 408 1202 377 1183 350 1157 C 322 1131 300 1098 284 1058 C 268 1018 260 972 260 918 C 260 866 267 819 281 778 C 295 737 316 702 342 674 C 368 645 398 623 432 607 C 466 591 503 584 545 584 C 584 584 621 590 657 604 C 693 618 725 637 753 663 C 781 689 803 721 819 759 C 835 797 844 841 846 889 Z" unicode="9" />
<glyph horiz-adv-x="410" d="M 319 830 C 319 791 307 761 284 739 C 261 717 234 707 203 707 C 174 707 148 717 125 739 C 101 761 90 791 90 830 C 90 865 101 893 125 914 C 148 935 174 946 203 946 C 234 946 261 935 284 914 C 307 893 319 865 319 830 Z M 319 109 C 319 70 307 40 284 18 C 261 -3 234 -14 203 -14 C 174 -14 148 -3 125 18 C 101 40 90 70 90 109 C 90 144 101 172 125 193 C 148 214 174 225 203 225 C 234 225 261 214 284 193 C 307 172 319 144 319 109 Z" unicode=":" />
<glyph horiz-adv-x="410" d="M 141 217 L 297 217 L 297 -2 C 297 -71 282 -128 252 -173 C 222 -217 185 -249 141 -268 L 41 -184 C 68 -173 91 -153 111 -124 C 131 -94 141 -54 141 -2 L 141 217 Z M 331 830 C 331 791 319 761 296 739 C 273 717 246 707 215 707 C 186 707 160 717 137 739 C 113 761 102 791 102 830 C 102 865 113 893 137 914 C 160 935 186 946 215 946 C 246 946 273 935 296 914 C 319 893 331 865 331 830 Z" unicode=";" />
<glyph horiz-adv-x="1044" d="M 668 -29 L 195 477 L 668 973 L 760 885 L 362 477 L 756 55 L 668 -29 Z" unicode="&#x3C;" />
<glyph horiz-adv-x="1044" d="M 952 659 L 952 532 L 72 532 L 72 659 L 952 659 L 952 659 Z M 952 372 L 952 245 L 72 245 L 72 372 L 952 372 L 952 372 Z" unicode="=" />
<glyph horiz-adv-x="1044" d="M 248 43 L 641 465 L 244 872 L 336 961 L 809 465 L 336 -41 L 248 43 Z" unicode="&#x3E;" />
<glyph horiz-adv-x="819" d="M 498 109 C 498 70 486 40 463 18 C 439 -3 412 -14 381 -14 C 352 -14 326 -3 303 18 C 279 40 268 70 268 109 C 268 144 279 172 303 193 C 326 214 352 225 381 225 C 412 225 439 214 463 193 C 486 172 498 144 498 109 Z M 29 1149 C 51 1206 94 1254 156 1294 C 218 1334 293 1354 381 1354 C 435 1354 487 1346 535 1332 C 583 1318 626 1296 662 1268 C 698 1239 727 1202 748 1158 C 769 1114 780 1061 780 999 C 780 951 771 908 754 868 C 737 828 714 793 685 763 C 655 732 621 706 582 685 C 543 663 501 648 457 639 L 457 385 L 301 385 L 301 729 C 333 733 368 740 406 752 C 444 764 479 780 512 802 C 544 823 571 849 593 881 C 614 912 625 950 625 995 C 625 1026 620 1056 610 1084 C 600 1112 586 1137 566 1159 C 546 1181 521 1198 489 1210 C 457 1222 421 1229 379 1229 C 323 1229 277 1214 241 1185 C 205 1155 179 1120 162 1079 L 29 1149 Z" unicode="?" />
<glyph horiz-adv-x="1843" d="M 1343 -281 C 1323 -293 1297 -304 1267 -314 C 1236 -324 1202 -334 1165 -342 C 1128 -350 1090 -356 1050 -360 C 1010 -364 971 -367 932 -367 C 817 -367 710 -348 611 -310 C 512 -272 426 -219 354 -151 C 282 -83 225 0 183 97 C 141 195 121 304 121 424 C 121 536 139 642 177 742 C 214 842 268 930 339 1006 C 410 1082 498 1141 602 1185 C 706 1229 823 1251 954 1251 C 1086 1251 1201 1229 1297 1186 C 1393 1143 1473 1087 1536 1018 C 1598 949 1645 872 1675 787 C 1705 701 1720 616 1720 532 C 1720 464 1711 400 1693 342 C 1675 283 1651 232 1619 189 C 1587 146 1548 112 1504 87 C 1460 61 1412 49 1360 49 C 1298 49 1248 65 1208 98 C 1168 130 1142 173 1128 227 L 1120 227 C 1109 175 1079 133 1029 99 C 979 65 918 49 848 49 C 796 49 749 58 707 77 C 665 96 630 123 601 158 C 571 193 549 234 533 282 C 517 330 510 382 510 438 C 510 494 517 546 533 595 C 549 643 571 685 600 720 C 628 754 663 781 704 801 C 745 821 791 831 842 831 C 902 831 953 818 996 793 C 1039 768 1072 738 1096 702 L 1104 707 C 1104 725 1104 745 1106 766 C 1107 786 1109 801 1112 809 L 1253 809 C 1250 781 1248 752 1247 721 C 1245 689 1245 664 1245 645 L 1245 328 C 1245 280 1257 242 1281 215 C 1305 187 1334 174 1370 174 C 1398 174 1425 182 1450 199 C 1474 216 1495 240 1513 270 C 1531 300 1545 335 1555 377 C 1565 419 1571 464 1571 514 C 1571 579 1560 647 1540 719 C 1519 791 1485 857 1437 918 C 1389 979 1326 1029 1248 1068 C 1169 1106 1072 1126 956 1126 C 836 1126 733 1104 647 1062 C 561 1020 490 965 436 898 C 381 830 341 755 315 673 C 289 590 276 508 276 426 C 276 324 293 232 329 150 C 365 68 413 -2 475 -61 C 536 -120 607 -165 689 -197 C 770 -228 856 -244 948 -244 C 1016 -244 1082 -236 1146 -220 C 1209 -204 1258 -185 1294 -162 L 1343 -281 Z M 887 174 C 949 174 1001 196 1042 241 C 1083 286 1104 352 1104 440 C 1104 527 1083 593 1042 639 C 1001 684 949 707 887 707 C 823 707 770 684 728 639 C 686 593 666 527 666 440 C 666 352 686 286 728 241 C 770 196 823 174 887 174 Z" unicode="@" />
<glyph horiz-adv-x="1229" d="M 61 0 L 510 1333 L 719 1333 L 1167 0 L 997 0 L 891 326 L 334 326 L 227 0 L 61 0 Z M 381 471 L 844 471 L 612 1204 L 381 471 Z" unicode="A" />
<glyph horiz-adv-x="1196" d="M 829 717 C 879 700 925 677 967 647 C 1001 621 1032 586 1061 543 C 1089 500 1104 446 1104 381 C 1104 253 1064 158 986 95 C 907 31 791 0 639 0 L 184 0 L 184 1333 L 666 1333 C 786 1333 881 1305 951 1249 C 1021 1193 1057 1112 1057 1006 C 1057 951 1045 906 1021 870 C 997 834 971 806 944 784 C 910 760 872 739 831 723 L 829 717 Z M 336 754 L 655 754 C 733 754 791 774 831 814 C 871 854 891 909 891 979 C 891 1053 869 1109 825 1149 C 781 1188 715 1208 625 1208 L 336 1208 L 336 754 Z M 649 125 C 743 125 816 144 866 182 C 916 220 942 280 942 362 C 942 444 921 510 879 561 C 837 611 771 637 680 637 L 336 637 L 336 125 L 649 125 Z" unicode="B" />
<glyph horiz-adv-x="1266" d="M 1034 1020 C 1026 1047 1012 1073 992 1098 C 972 1122 948 1144 920 1162 C 891 1180 859 1195 824 1206 C 789 1217 752 1223 713 1223 C 639 1223 575 1208 522 1180 C 468 1151 425 1111 391 1061 C 357 1010 331 950 315 880 C 299 810 291 735 291 655 C 291 575 299 501 316 434 C 333 367 359 310 394 262 C 428 214 471 176 523 150 C 574 124 634 111 702 111 C 744 111 784 116 822 127 C 860 137 893 152 923 172 C 952 191 976 214 996 240 C 1016 266 1030 293 1040 322 L 1176 240 C 1160 202 1139 168 1111 136 C 1083 104 1048 76 1007 52 C 966 28 919 9 867 -4 C 814 -18 757 -25 696 -25 C 615 -25 540 -9 470 21 C 400 52 339 97 288 155 C 236 213 196 284 167 369 C 137 453 123 549 123 655 C 123 763 137 860 167 947 C 196 1033 237 1107 290 1168 C 342 1229 405 1276 477 1309 C 549 1341 628 1358 713 1358 C 771 1358 825 1351 875 1337 C 925 1323 969 1305 1008 1282 C 1047 1258 1081 1231 1109 1200 C 1137 1168 1158 1136 1174 1102 L 1034 1020 Z" unicode="C" />
<glyph horiz-adv-x="1348" d="M 184 0 L 184 1333 L 629 1333 C 821 1333 970 1275 1076 1161 C 1182 1046 1235 881 1235 666 C 1235 452 1182 288 1076 173 C 970 57 821 0 629 0 L 184 0 Z M 631 135 C 777 135 886 180 958 271 C 1030 362 1067 494 1067 666 C 1067 839 1030 971 958 1062 C 886 1152 777 1198 631 1198 L 346 1198 L 346 135 L 631 135 Z" unicode="D" />
<glyph horiz-adv-x="1137" d="M 346 1198 L 346 739 L 928 739 L 928 604 L 346 604 L 346 135 L 1014 135 L 1014 0 L 184 0 L 184 1333 L 987 1333 L 987 1198 L 346 1198 Z" unicode="E" />
<glyph horiz-adv-x="1044" d="M 346 1198 L 346 682 L 866 682 L 866 547 L 346 547 L 346 0 L 184 0 L 184 1333 L 952 1333 L 952 1198 L 346 1198 Z" unicode="F" />
<glyph horiz-adv-x="1382" d="M 1219 670 L 1219 0 L 1100 0 L 1079 203 L 1071 203 C 1060 174 1043 146 1021 119 C 998 91 971 67 939 46 C 907 24 871 7 831 -5 C 791 -18 750 -25 707 -25 C 621 -25 542 -9 471 21 C 400 52 339 97 287 155 C 235 213 194 284 166 369 C 137 453 123 549 123 655 C 123 763 137 860 166 947 C 194 1033 235 1107 288 1168 C 340 1229 403 1276 477 1309 C 551 1341 632 1358 721 1358 C 782 1358 839 1351 891 1338 C 943 1325 989 1308 1029 1286 C 1069 1264 1104 1238 1132 1209 C 1160 1179 1180 1148 1194 1116 L 1055 1034 C 1041 1086 1004 1130 944 1167 C 884 1204 809 1223 721 1223 C 640 1223 572 1208 518 1180 C 463 1151 419 1111 386 1061 C 352 1010 328 950 313 880 C 298 810 291 735 291 655 C 291 575 299 501 316 434 C 333 367 359 310 395 262 C 431 214 475 176 529 150 C 583 124 647 111 721 111 C 775 111 824 119 866 136 C 908 153 944 175 974 203 C 1003 230 1025 261 1040 296 C 1055 330 1063 366 1063 403 L 1063 535 L 702 535 L 702 670 L 1219 670 Z" unicode="G" />
<glyph horiz-adv-x="1403" d="M 1219 1333 L 1219 0 L 1057 0 L 1057 602 L 346 602 L 346 0 L 184 0 L 184 1333 L 346 1333 L 346 737 L 1057 737 L 1057 1333 L 1219 1333 Z" unicode="H" />
<glyph horiz-adv-x="530" d="M 184 0 L 184 1333 L 346 1333 L 346 0 L 184 0 Z" unicode="I" />
<glyph horiz-adv-x="918" d="M 743 1333 L 743 422 C 743 278 712 168 650 91 C 588 13 490 -25 358 -25 C 283 -25 217 -11 159 16 C 101 43 58 77 31 117 L 147 213 C 166 184 194 160 231 140 C 268 120 309 111 354 111 C 432 111 489 135 525 183 C 561 231 580 309 580 416 L 580 1333 L 743 1333 Z" unicode="J" />
<glyph horiz-adv-x="1192" d="M 346 705 L 907 1333 L 1104 1333 L 596 758 L 1141 0 L 932 0 L 483 639 L 346 498 L 346 0 L 184 0 L 184 1333 L 346 1333 L 346 705 Z" unicode="K" />
<glyph horiz-adv-x="1034" d="M 346 1333 L 346 135 L 973 135 L 973 0 L 184 0 L 184 1333 L 346 1333 Z" unicode="L" />
<glyph horiz-adv-x="1614" d="M 721 248 L 344 1128 L 344 0 L 184 0 L 184 1333 L 422 1333 L 811 401 L 1198 1333 L 1430 1333 L 1430 0 L 1270 0 L 1270 1128 L 893 248 L 721 248 Z" unicode="M" />
<glyph horiz-adv-x="1374" d="M 340 0 L 184 0 L 184 1333 L 403 1333 L 1034 186 L 1034 1333 L 1190 1333 L 1190 0 L 969 0 L 340 1143 L 340 0 Z" unicode="N" />
<glyph horiz-adv-x="1444" d="M 1321 668 C 1321 560 1306 463 1276 377 C 1246 291 1204 218 1151 159 C 1097 99 1034 54 961 22 C 888 -9 809 -25 723 -25 C 637 -25 557 -9 483 22 C 409 54 346 99 293 159 C 239 218 198 291 168 377 C 138 463 123 560 123 668 C 123 776 138 873 168 959 C 198 1044 239 1116 293 1176 C 346 1236 409 1281 483 1312 C 557 1342 637 1358 723 1358 C 809 1358 888 1342 961 1312 C 1034 1281 1097 1236 1151 1176 C 1204 1116 1246 1044 1276 959 C 1306 873 1321 776 1321 668 Z M 1153 668 C 1153 758 1142 837 1122 907 C 1102 977 1072 1035 1034 1081 C 996 1127 950 1163 898 1187 C 845 1211 787 1223 723 1223 C 659 1223 600 1211 548 1187 C 495 1163 449 1127 410 1081 C 371 1035 341 977 320 907 C 299 837 289 758 289 668 C 289 577 299 497 320 428 C 341 358 371 300 410 253 C 449 205 495 170 548 146 C 600 122 659 111 723 111 C 787 111 845 122 898 146 C 950 170 996 205 1034 253 C 1072 300 1102 358 1122 428 C 1142 497 1153 577 1153 668 Z" unicode="O" />
<glyph horiz-adv-x="1143" d="M 1040 907 C 1040 835 1029 771 1008 716 C 987 660 957 614 919 576 C 881 538 836 510 785 491 C 734 472 679 463 621 463 L 346 463 L 346 0 L 184 0 L 184 1333 L 573 1333 C 726 1333 842 1298 921 1229 C 1000 1160 1040 1053 1040 907 Z M 346 598 L 614 598 C 667 598 710 605 744 619 C 778 633 804 654 824 681 C 844 707 857 739 865 777 C 873 815 877 857 877 903 C 877 1000 854 1073 810 1123 C 765 1173 693 1198 594 1198 L 346 1198 L 346 598 Z" unicode="P" />
<glyph horiz-adv-x="1444" d="M 723 1358 C 809 1358 888 1342 961 1312 C 1034 1281 1097 1236 1151 1176 C 1204 1116 1246 1044 1276 958 C 1306 872 1321 774 1321 664 C 1321 598 1313 535 1298 477 C 1283 418 1263 364 1238 314 C 1212 264 1182 219 1147 179 C 1111 139 1073 104 1032 76 C 1064 40 1099 10 1136 -16 C 1173 -42 1207 -64 1239 -82 C 1274 -102 1310 -120 1346 -135 L 1192 -217 C 1166 -205 1140 -189 1115 -169 C 1089 -149 1066 -127 1044 -105 C 1022 -83 1003 -61 985 -40 C 967 -18 952 0 942 16 C 872 -11 799 -25 723 -25 C 638 -25 559 -9 486 22 C 413 54 350 99 296 158 C 242 216 199 288 169 374 C 138 459 123 556 123 664 C 123 772 138 870 168 956 C 198 1042 239 1114 293 1174 C 346 1234 409 1279 483 1311 C 557 1342 637 1358 723 1358 Z M 723 100 C 854 100 958 147 1036 242 C 1114 337 1153 478 1153 666 C 1153 756 1142 835 1122 905 C 1102 975 1072 1033 1034 1080 C 996 1127 950 1163 898 1187 C 845 1211 787 1223 723 1223 C 659 1223 600 1210 548 1186 C 495 1161 449 1125 410 1078 C 371 1031 341 973 320 903 C 299 833 289 754 289 664 C 289 569 300 486 322 416 C 344 346 375 287 414 240 C 453 193 499 158 553 135 C 606 111 663 100 723 100 Z" unicode="Q" />
<glyph horiz-adv-x="1198" d="M 346 659 L 596 659 C 654 659 703 665 742 678 C 781 691 812 710 834 735 C 856 759 872 789 881 823 C 890 857 895 895 895 938 C 895 1018 874 1082 833 1128 C 792 1174 720 1198 618 1198 L 346 1198 L 346 659 Z M 901 0 L 649 532 L 346 532 L 346 0 L 184 0 L 184 1333 L 600 1333 C 751 1333 866 1298 944 1230 C 1022 1162 1061 1065 1061 940 C 1061 888 1052 840 1035 798 C 1018 756 996 719 970 687 C 943 655 914 629 884 609 C 853 589 824 575 797 567 L 1085 0 L 901 0 Z" unicode="R" />
<glyph horiz-adv-x="1110" d="M 836 1051 C 819 1097 788 1137 743 1173 C 698 1209 636 1227 557 1227 C 511 1227 473 1220 441 1208 C 409 1196 383 1179 364 1159 C 345 1138 331 1115 322 1089 C 313 1063 309 1038 309 1012 C 309 974 316 942 332 915 C 348 887 369 864 396 844 C 422 824 454 807 490 791 C 526 775 564 760 604 745 C 654 726 703 706 751 686 C 799 665 841 640 878 611 C 915 581 945 547 967 508 C 989 468 1001 420 1001 362 C 1001 306 990 255 969 208 C 948 160 918 120 878 86 C 838 52 791 25 736 5 C 680 -15 619 -25 553 -25 C 497 -25 444 -18 395 -4 C 346 9 302 27 263 51 C 224 74 191 101 165 132 C 138 162 120 195 111 231 L 242 313 C 260 255 297 207 351 168 C 405 128 474 109 559 109 C 643 109 712 129 764 170 C 816 210 842 266 842 336 C 842 372 833 404 817 432 C 801 459 779 483 752 505 C 724 526 693 544 657 560 C 621 576 584 591 545 606 C 493 626 443 647 395 667 C 347 687 305 712 269 741 C 233 769 204 803 182 843 C 160 883 150 931 150 989 C 150 1046 160 1097 182 1143 C 204 1189 233 1227 271 1259 C 309 1291 353 1315 405 1332 C 457 1349 513 1358 573 1358 C 625 1358 673 1351 718 1339 C 763 1327 803 1310 837 1289 C 871 1267 900 1242 922 1214 C 944 1185 959 1155 967 1124 L 836 1051 Z" unicode="S" />
<glyph horiz-adv-x="1120" d="M 61 1333 L 1059 1333 L 1059 1196 L 641 1196 L 641 0 L 479 0 L 479 1196 L 61 1196 L 61 1333 Z" unicode="T" />
<glyph horiz-adv-x="1307" d="M 649 -25 C 492 -25 374 15 294 96 C 214 176 174 295 174 451 L 174 1333 L 338 1333 L 338 440 C 338 384 346 335 362 294 C 378 253 401 219 430 192 C 458 165 492 145 530 131 C 568 117 609 111 653 111 C 697 111 738 117 776 131 C 814 145 848 165 877 192 C 905 219 928 253 944 294 C 960 335 969 384 969 440 L 969 1333 L 1133 1333 L 1133 451 C 1133 301 1091 185 1009 101 C 926 17 806 -25 649 -25 Z" unicode="U" />
<glyph horiz-adv-x="1167" d="M 1116 1333 L 688 0 L 479 0 L 51 1333 L 229 1333 L 584 135 L 942 1333 L 1116 1333 Z" unicode="V" />
<glyph horiz-adv-x="1845" d="M 1028 1333 L 1321 154 L 1602 1333 L 1769 1333 L 1432 0 L 1210 0 L 915 1194 L 627 0 L 406 0 L 66 1333 L 236 1333 L 516 154 L 809 1333 L 1028 1333 Z" unicode="W" />
<glyph horiz-adv-x="1196" d="M 252 0 L 61 0 L 492 676 L 74 1333 L 256 1333 L 594 791 L 936 1333 L 1118 1333 L 700 676 L 1130 0 L 940 0 L 594 557 L 252 0 Z" unicode="X" />
<glyph horiz-adv-x="1092" d="M 20 1333 L 195 1333 L 543 643 L 897 1333 L 1071 1333 L 623 512 L 623 0 L 461 0 L 461 512 L 20 1333 Z" unicode="Y" />
<glyph horiz-adv-x="1098" d="M 1008 1229 L 958 1159 L 250 133 L 1026 133 L 1026 0 L 53 0 L 53 104 L 102 172 L 813 1200 L 94 1200 L 94 1333 L 1008 1333 L 1008 1229 Z" unicode="Z" />
<glyph horiz-adv-x="614" d="M 184 1455 L 530 1455 L 530 1324 L 330 1324 L 330 -198 L 530 -198 L 530 -329 L 184 -329 L 184 1455 Z" unicode="[" />
<glyph horiz-adv-x="870" d="M 22 1455 L 161 1455 L 837 -329 L 698 -329 L 22 1455 Z" unicode="\" />
<glyph horiz-adv-x="614" d="M 430 -329 L 84 -329 L 84 -198 L 285 -198 L 285 1324 L 84 1324 L 84 1455 L 430 1455 L 430 -329 Z" unicode="]" />
<glyph horiz-adv-x="1044" d="M 940 821 L 518 1214 L 111 817 L 23 911 L 518 1382 L 1024 909 L 940 821 Z" unicode="^" />
<glyph horiz-adv-x="942" d="M 0 -143 L 942 -143 L 942 -279 L 0 -279 L 0 -143 Z" unicode="_" />
<glyph horiz-adv-x="512" d="M 451 1243 L 367 1159 L 70 1458 L 154 1542 L 451 1243 Z" unicode="`" />
<glyph horiz-adv-x="1047" d="M 434 98 C 476 98 514 104 546 117 C 578 130 604 148 626 170 C 648 192 665 216 677 244 C 689 271 696 299 696 328 L 696 410 C 674 407 644 403 606 398 C 568 393 531 388 496 383 C 468 379 441 373 415 366 C 388 359 365 350 346 340 C 308 316 287 281 285 233 C 285 188 297 154 323 132 C 349 109 386 98 434 98 Z M 135 756 C 153 795 179 830 213 862 C 241 889 279 913 325 935 C 371 956 428 967 494 967 C 559 967 614 958 659 942 C 704 926 741 903 769 874 C 797 845 817 810 829 768 C 841 726 848 681 848 635 L 848 250 C 848 202 853 170 864 155 C 875 140 892 133 915 133 C 930 133 941 133 948 135 C 954 136 961 137 969 139 L 977 18 C 966 11 953 6 939 2 C 925 -2 903 -4 874 -4 C 830 -4 795 10 768 40 C 740 69 724 107 719 154 C 690 103 648 60 594 26 C 539 -7 478 -25 410 -25 C 320 -25 251 -2 201 43 C 151 88 127 149 127 227 C 128 275 141 314 165 345 C 189 375 218 400 254 420 C 289 437 326 450 366 460 C 406 470 452 478 506 485 L 696 510 L 696 623 C 696 687 679 738 647 778 C 614 818 562 838 492 838 C 446 838 409 830 381 815 C 352 800 329 783 313 764 C 294 740 278 714 266 686 L 135 756 Z" unicode="a" />
<glyph horiz-adv-x="1186" d="M 926 471 C 926 592 897 684 840 746 C 782 808 711 840 625 840 C 539 840 468 808 412 746 C 356 684 328 592 328 471 C 328 349 356 258 412 196 C 468 134 539 104 625 104 C 711 104 782 134 840 196 C 897 258 926 349 926 471 Z M 340 1456 L 340 918 C 340 905 339 892 339 878 C 338 864 337 852 336 842 C 334 828 334 814 334 801 L 344 801 C 358 818 375 837 395 857 C 415 877 439 895 466 911 C 492 927 522 941 554 952 C 586 963 621 969 659 969 C 722 969 780 956 832 932 C 884 907 929 872 967 828 C 1005 784 1034 731 1054 671 C 1074 610 1085 543 1085 471 C 1085 398 1074 332 1053 272 C 1032 212 1002 159 964 115 C 926 71 880 36 828 12 C 776 -12 718 -25 655 -25 C 619 -25 586 -19 554 -9 C 522 0 492 14 465 32 C 437 50 413 69 391 91 C 369 112 351 134 338 158 L 328 158 C 328 145 327 131 326 116 C 324 101 323 86 323 71 C 322 56 321 42 319 29 C 317 16 316 6 315 0 L 174 0 C 176 30 179 63 181 101 C 183 139 184 169 184 193 L 184 1456 L 340 1456 Z" unicode="b" />
<glyph horiz-adv-x="958" d="M 766 707 C 752 739 726 768 690 793 C 653 818 603 831 539 831 C 439 831 367 798 323 732 C 279 666 258 579 258 473 C 258 363 280 276 324 210 C 368 144 440 111 539 111 C 600 111 650 122 690 146 C 730 170 755 200 766 236 L 891 164 C 871 110 831 65 769 29 C 707 -6 632 -25 545 -25 C 479 -25 418 -13 364 9 C 310 31 263 64 224 107 C 185 150 155 202 133 263 C 111 323 100 393 100 471 C 100 549 111 618 133 679 C 155 739 185 791 224 834 C 263 877 310 910 364 933 C 418 955 478 967 543 967 C 629 967 702 948 764 911 C 825 874 867 830 891 778 L 766 707 Z" unicode="c" />
<glyph horiz-adv-x="1186" d="M 260 471 C 260 349 288 258 346 196 C 403 134 475 104 561 104 C 647 104 718 134 774 196 C 830 258 858 349 858 471 C 858 592 830 684 774 746 C 718 808 647 840 561 840 C 475 840 403 808 346 746 C 288 684 260 592 260 471 Z M 1001 1456 L 1001 193 C 1001 169 1002 139 1004 101 C 1006 63 1009 30 1012 0 L 870 0 C 868 6 867 16 866 29 C 864 42 863 56 863 71 C 862 86 861 101 860 116 C 858 131 858 145 858 158 L 848 158 C 834 134 816 112 794 91 C 772 69 748 50 720 32 C 692 14 661 0 628 -9 C 594 -19 560 -25 524 -25 C 464 -25 408 -13 356 10 C 304 33 260 66 222 109 C 184 152 155 204 133 264 C 111 324 100 391 100 465 C 100 538 111 606 134 668 C 156 730 187 784 226 828 C 265 872 311 907 364 932 C 417 956 475 969 537 969 C 571 969 603 964 635 954 C 666 944 695 931 722 915 C 748 899 772 881 792 861 C 812 841 829 821 842 801 L 852 801 C 849 819 847 840 847 863 C 846 885 846 904 846 918 L 846 1456 L 1001 1456 Z" unicode="d" />
<glyph horiz-adv-x="1040" d="M 256 453 C 258 332 287 243 342 187 C 396 130 465 102 549 102 C 592 102 628 108 658 121 C 687 134 711 149 731 166 C 751 184 768 205 780 229 L 920 158 C 900 122 874 91 840 66 C 811 42 773 21 726 3 C 678 -15 620 -25 551 -25 C 473 -25 405 -12 349 14 C 292 40 245 75 209 120 C 172 165 145 218 127 278 C 109 338 100 402 100 469 C 100 547 111 617 133 679 C 155 741 185 793 225 835 C 265 877 312 910 367 933 C 421 955 481 967 545 967 C 610 967 667 955 717 933 C 766 910 807 878 839 837 C 871 796 895 748 911 693 C 927 637 936 577 936 512 C 936 501 936 491 936 482 C 936 473 935 463 934 453 L 256 453 Z M 537 840 C 459 840 396 815 348 766 C 300 716 272 654 264 578 L 770 578 L 770 594 C 770 622 765 651 756 681 C 747 710 733 737 715 761 C 697 785 673 804 644 818 C 614 832 579 840 537 840 Z" unicode="e" />
<glyph horiz-adv-x="649" d="M 231 0 L 231 813 L 61 813 L 61 942 L 231 942 L 231 1178 C 231 1273 257 1347 310 1401 C 362 1454 432 1481 518 1481 C 533 1481 547 1480 560 1479 C 573 1477 585 1475 596 1473 C 608 1469 619 1467 629 1466 L 608 1341 C 601 1342 594 1344 586 1346 C 578 1347 570 1348 562 1350 C 553 1351 543 1352 532 1352 C 491 1352 457 1338 429 1312 C 401 1285 387 1234 387 1159 L 387 942 L 602 942 L 602 813 L 387 813 L 387 0 L 231 0 Z" unicode="f" />
<glyph horiz-adv-x="1100" d="M 438 -100 C 370 -100 318 -112 283 -138 C 248 -163 231 -204 231 -262 C 231 -290 236 -315 246 -336 C 256 -356 273 -373 296 -385 C 318 -397 348 -406 385 -412 C 421 -418 467 -422 522 -422 C 635 -422 717 -408 769 -382 C 820 -355 846 -311 846 -250 C 846 -198 827 -160 791 -136 C 755 -112 696 -100 614 -100 L 438 -100 Z M 510 356 C 582 356 637 376 676 416 C 715 456 735 518 735 600 C 735 764 660 846 512 846 C 438 846 379 825 337 783 C 295 741 274 680 274 600 C 274 518 294 456 336 416 C 378 376 436 356 510 356 Z M 1077 821 C 1070 822 1062 823 1053 824 C 1044 824 1034 825 1024 825 C 980 825 943 817 914 802 C 884 787 864 776 852 768 C 866 740 877 715 883 693 C 889 670 893 640 893 604 C 893 488 862 400 801 342 C 739 283 643 247 512 233 C 472 229 438 220 409 207 C 379 194 365 168 365 129 C 365 63 402 31 477 31 L 709 31 C 805 31 880 9 934 -33 C 987 -76 1014 -135 1014 -209 C 1014 -307 969 -386 881 -446 C 792 -506 666 -537 504 -537 C 359 -537 250 -515 178 -472 C 106 -429 70 -369 70 -291 C 70 -255 77 -224 91 -196 C 105 -168 125 -143 150 -123 C 175 -102 205 -86 239 -74 C 273 -62 311 -55 352 -53 C 316 -43 287 -26 265 0 C 242 26 231 56 231 90 C 231 130 244 164 272 193 C 299 221 335 241 379 252 C 346 261 314 275 283 295 C 251 314 224 338 200 366 C 176 394 156 426 141 464 C 126 501 119 544 119 592 C 119 649 129 700 149 746 C 169 792 197 831 233 864 C 269 896 310 922 358 940 C 406 958 457 967 512 967 C 574 967 632 953 684 927 C 736 900 776 867 805 827 C 813 842 824 858 838 876 C 852 894 870 910 891 926 C 911 942 934 955 959 965 C 984 975 1012 981 1042 981 C 1052 981 1060 980 1066 980 C 1072 979 1079 978 1087 977 L 1077 821 Z" unicode="g" />
<glyph horiz-adv-x="1133" d="M 330 1456 L 330 756 C 350 794 376 828 408 860 C 435 887 469 912 511 934 C 552 956 602 967 662 967 C 706 967 748 960 786 947 C 824 934 858 913 887 885 C 915 856 938 820 954 776 C 970 732 979 680 979 618 L 979 0 L 823 0 L 823 621 C 823 649 818 677 810 703 C 801 729 788 753 771 773 C 753 793 731 809 705 821 C 679 833 648 840 612 840 C 564 840 523 829 487 808 C 451 786 422 759 399 726 C 376 692 359 655 347 615 C 335 575 330 536 330 498 L 330 0 L 174 0 L 174 1456 L 330 1456 Z" unicode="h" />
<glyph horiz-adv-x="524" d="M 377 1284 C 377 1247 365 1217 342 1194 C 316 1172 288 1161 260 1161 C 232 1161 206 1172 182 1194 C 158 1216 147 1246 147 1284 C 147 1322 158 1350 182 1370 C 204 1390 230 1401 260 1401 C 290 1401 317 1390 342 1370 C 365 1349 377 1320 377 1284 Z M 184 0 L 184 942 L 340 942 L 340 0 L 184 0 Z" unicode="i" />
<glyph horiz-adv-x="524" d="M 340 942 L 340 -233 C 340 -329 313 -403 261 -457 C 208 -510 140 -537 57 -537 C 38 -537 18 -535 -3 -532 C -24 -529 -42 -526 -57 -522 L -37 -397 C -13 -404 10 -408 35 -408 C 52 -408 70 -405 88 -399 C 106 -393 122 -383 136 -369 C 150 -355 162 -335 171 -311 C 179 -286 184 -255 184 -217 L 184 942 L 340 942 Z M 379 1284 C 379 1247 367 1217 344 1194 C 318 1172 290 1161 262 1161 C 234 1161 208 1172 184 1194 C 160 1216 149 1246 149 1284 C 149 1322 160 1350 184 1370 C 206 1390 232 1401 262 1401 C 292 1401 319 1390 344 1370 C 367 1349 379 1320 379 1284 Z" unicode="j" />
<glyph horiz-adv-x="1036" d="M 737 942 L 950 942 L 567 547 L 985 0 L 780 0 L 459 440 L 330 309 L 330 0 L 174 0 L 174 1456 L 330 1456 L 330 487 L 737 942 Z" unicode="k" />
<glyph horiz-adv-x="524" d="M 184 1456 L 340 1456 L 340 0 L 184 0 L 184 1456 Z" unicode="l" />
<glyph horiz-adv-x="1710" d="M 948 0 L 793 0 L 793 621 C 793 649 789 677 781 703 C 773 729 761 753 745 773 C 729 793 708 809 684 821 C 659 833 630 840 598 840 C 554 840 516 829 484 809 C 452 788 425 762 404 730 C 383 698 367 662 356 622 C 345 582 340 544 340 508 L 340 0 L 184 0 L 184 748 C 184 768 183 796 181 834 C 179 872 176 908 174 942 L 326 942 C 327 934 328 922 329 906 C 329 890 330 874 331 857 C 331 839 332 821 332 803 C 332 785 332 769 332 756 L 340 756 C 352 782 367 807 387 832 C 406 857 429 880 455 900 C 481 920 509 936 540 948 C 570 960 603 967 637 967 C 698 967 747 954 784 930 C 821 905 850 878 872 848 C 896 812 915 773 928 729 L 936 729 C 945 759 960 788 980 817 C 1000 845 1023 871 1051 893 C 1078 915 1109 932 1144 946 C 1178 960 1215 967 1255 967 C 1318 967 1369 955 1408 932 C 1446 908 1477 880 1499 846 C 1521 812 1536 775 1544 735 C 1552 695 1556 660 1556 629 L 1556 0 L 1401 0 L 1401 621 C 1401 642 1397 666 1391 692 C 1385 718 1374 742 1359 764 C 1344 786 1324 804 1300 818 C 1276 832 1244 840 1206 840 C 1168 840 1133 830 1101 812 C 1069 793 1041 768 1019 738 C 996 707 978 672 966 632 C 954 592 948 552 948 510 L 948 0 Z" unicode="m" />
<glyph horiz-adv-x="1143" d="M 834 621 C 834 649 829 677 820 703 C 811 729 798 753 781 773 C 764 793 742 809 716 821 C 689 833 657 840 621 840 C 574 840 533 829 498 809 C 463 788 434 761 410 729 C 386 696 369 659 357 618 C 345 577 340 536 340 496 L 340 0 L 184 0 L 184 748 C 184 768 183 796 181 834 C 179 872 176 908 174 942 L 326 942 C 327 934 328 922 329 906 C 329 890 330 874 331 857 C 331 839 332 821 332 803 C 332 785 332 769 332 756 L 342 756 C 352 782 368 807 389 832 C 409 857 433 880 461 900 C 488 920 518 936 552 948 C 585 960 622 967 662 967 C 708 967 750 960 790 947 C 830 934 864 914 894 887 C 923 859 946 824 963 780 C 980 736 989 684 989 623 L 989 0 L 834 0 L 834 621 Z" unicode="n" />
<glyph horiz-adv-x="1100" d="M 999 471 C 999 393 987 323 965 262 C 943 200 912 148 872 106 C 832 64 785 31 731 9 C 676 -13 616 -25 551 -25 C 485 -25 425 -13 371 9 C 316 31 268 64 228 106 C 188 148 156 200 134 262 C 111 323 100 393 100 471 C 100 549 111 618 134 680 C 156 741 188 793 228 835 C 268 877 316 910 371 933 C 425 955 485 967 551 967 C 616 967 676 955 731 933 C 785 910 832 877 872 835 C 912 793 943 741 965 680 C 987 618 999 549 999 471 Z M 842 471 C 842 592 815 683 761 745 C 707 807 637 838 551 838 C 465 838 394 807 340 745 C 285 683 258 592 258 471 C 258 349 285 258 340 196 C 394 134 465 104 551 104 C 637 104 707 134 761 196 C 815 258 842 349 842 471 Z" unicode="o" />
<glyph horiz-adv-x="1186" d="M 926 473 C 926 594 897 685 840 747 C 782 809 711 840 625 840 C 539 840 468 809 412 747 C 356 685 328 594 328 473 C 328 351 356 259 412 197 C 468 135 539 104 625 104 C 711 104 782 135 840 197 C 897 259 926 351 926 473 Z M 184 -512 L 184 750 C 184 770 183 791 182 814 C 180 836 179 857 178 877 C 176 898 175 920 174 942 L 315 942 C 316 935 317 925 319 912 C 321 899 322 885 323 871 C 323 857 324 842 326 827 C 327 812 328 798 328 786 L 338 786 C 350 808 366 829 388 851 C 409 872 434 891 463 909 C 491 927 523 941 557 952 C 591 963 626 969 664 969 C 726 969 783 956 835 932 C 887 907 931 872 968 828 C 1005 784 1034 731 1054 671 C 1074 610 1085 543 1085 471 C 1085 398 1074 332 1054 272 C 1034 212 1005 159 967 115 C 929 71 884 36 831 12 C 778 -12 719 -25 655 -25 C 619 -25 586 -20 554 -10 C 522 0 492 11 465 27 C 437 43 413 61 393 82 C 372 102 356 123 344 143 L 334 143 C 336 124 338 103 339 81 C 339 58 340 40 340 27 L 340 -512 L 184 -512 Z" unicode="p" />
<glyph horiz-adv-x="1186" d="M 260 473 C 260 351 288 259 346 197 C 403 135 475 104 561 104 C 647 104 718 135 774 197 C 830 259 858 351 858 473 C 858 594 830 685 774 747 C 718 809 647 840 561 840 C 475 840 403 809 346 747 C 288 685 260 594 260 473 Z M 846 -512 L 846 27 C 846 37 846 50 846 64 C 846 78 846 91 848 102 C 849 116 850 129 852 143 L 842 143 C 829 123 812 103 792 83 C 772 63 748 44 722 28 C 695 12 666 0 634 -10 C 602 -20 568 -25 532 -25 C 468 -25 409 -12 357 13 C 305 38 259 72 221 116 C 183 160 153 212 132 273 C 110 334 100 401 100 473 C 100 544 110 610 132 671 C 153 731 183 784 221 828 C 259 872 305 907 357 932 C 409 956 467 969 530 969 C 568 969 605 963 639 951 C 673 939 703 925 731 908 C 758 891 781 872 801 850 C 821 828 836 806 848 786 L 858 786 C 858 798 858 812 860 827 C 861 842 862 857 863 871 C 863 885 864 899 866 912 C 867 925 868 935 870 942 L 1012 942 C 1009 912 1006 878 1004 840 C 1002 802 1001 772 1001 750 L 1001 -512 L 846 -512 Z" unicode="q" />
<glyph horiz-adv-x="700" d="M 645 791 C 631 793 615 795 596 795 C 516 795 454 766 408 708 C 362 650 340 571 340 473 L 340 0 L 184 0 L 184 768 C 184 791 183 820 181 854 C 179 888 176 917 174 942 L 322 942 C 324 909 327 874 329 836 C 331 798 332 770 332 750 L 342 750 C 348 777 361 803 381 828 C 400 853 422 876 447 896 C 472 916 499 932 528 944 C 556 956 584 963 612 963 C 619 963 627 962 637 962 C 646 961 652 960 655 958 L 645 791 Z" unicode="r" />
<glyph horiz-adv-x="936" d="M 688 715 C 673 750 646 780 608 805 C 570 829 522 842 465 842 C 407 842 363 829 332 803 C 300 777 285 744 285 705 C 285 680 290 659 301 643 C 311 626 327 612 347 600 C 367 588 390 577 416 568 C 442 559 470 551 500 543 C 540 531 581 519 623 506 C 665 493 702 477 735 457 C 767 437 794 413 815 383 C 835 353 846 314 846 268 C 846 227 837 189 821 153 C 805 117 780 86 748 60 C 716 33 677 12 632 -2 C 587 -17 536 -25 479 -25 C 405 -25 345 -14 298 7 C 250 28 212 52 182 78 C 146 108 119 142 100 180 L 225 254 C 237 225 256 199 281 176 C 299 156 325 139 359 123 C 393 107 434 100 483 100 C 509 100 534 102 560 108 C 585 114 607 123 626 135 C 645 147 660 162 672 180 C 684 198 690 219 690 244 C 690 290 668 324 626 346 C 584 368 527 389 457 410 C 418 420 379 432 341 446 C 302 460 267 477 236 497 C 205 517 180 543 161 573 C 142 603 133 640 133 684 C 133 726 141 765 159 800 C 177 834 201 864 233 889 C 265 913 301 932 343 946 C 385 960 430 967 479 967 C 562 967 634 949 696 913 C 757 877 797 835 817 786 L 688 715 Z" unicode="s" />
<glyph horiz-adv-x="731" d="M 221 942 L 221 1139 L 377 1159 L 377 942 L 659 942 L 659 813 L 377 813 L 377 260 C 377 238 378 217 382 199 C 385 181 391 164 401 150 C 411 136 424 124 442 116 C 460 108 482 104 510 104 C 541 104 565 106 582 112 C 599 118 616 126 633 137 L 659 14 C 639 3 615 -6 588 -14 C 560 -22 529 -27 494 -27 C 414 -27 349 -6 298 34 C 246 75 221 143 221 238 L 221 813 L 72 813 L 72 942 L 221 942 Z" unicode="t" />
<glyph horiz-adv-x="1124" d="M 319 326 C 319 296 322 267 330 240 C 338 212 350 188 366 168 C 382 147 403 131 428 119 C 452 107 482 102 516 102 C 558 102 596 111 629 129 C 661 147 689 171 713 203 C 736 234 754 270 766 311 C 778 352 784 396 784 444 L 784 942 L 940 942 L 940 195 C 940 175 941 146 943 108 C 945 70 947 34 950 0 L 799 0 C 797 8 796 19 796 35 C 795 51 794 67 794 85 C 793 102 792 119 792 137 C 791 155 791 171 791 186 L 782 186 C 770 158 754 132 734 107 C 714 82 692 60 667 40 C 641 20 612 4 580 -7 C 548 -19 513 -25 475 -25 C 434 -25 395 -18 357 -5 C 319 7 286 28 258 56 C 229 84 206 119 189 162 C 172 205 164 257 164 319 L 164 942 L 319 942 L 319 326 Z" unicode="u" />
<glyph horiz-adv-x="942" d="M 381 0 L 51 942 L 207 942 L 481 131 L 741 942 L 891 942 L 575 0 L 381 0 Z" unicode="v" />
<glyph horiz-adv-x="1466" d="M 840 942 L 1044 123 L 1231 942 L 1384 942 L 1155 0 L 938 0 L 729 819 L 528 0 L 313 0 L 82 942 L 240 942 L 422 123 L 627 942 L 840 942 Z" unicode="w" />
<glyph horiz-adv-x="956" d="M 477 561 L 711 942 L 891 942 L 590 477 L 901 0 L 713 0 L 477 393 L 236 0 L 47 0 L 373 477 L 57 942 L 240 942 L 477 561 Z" unicode="x" />
<glyph horiz-adv-x="969" d="M 489 -369 C 469 -429 436 -472 391 -498 C 346 -524 299 -537 250 -537 C 218 -537 191 -534 167 -528 C 143 -522 122 -516 104 -508 L 131 -383 C 149 -392 167 -398 185 -402 C 203 -406 221 -408 238 -408 C 270 -408 296 -399 315 -381 C 334 -363 348 -339 356 -309 L 424 -74 L 53 942 L 231 942 L 506 139 L 752 942 L 930 942 L 489 -369 L 489 -369 Z" unicode="y" />
<glyph horiz-adv-x="873" d="M 785 834 L 719 748 L 258 129 L 801 129 L 801 0 L 78 0 L 78 109 L 129 174 L 602 813 L 88 813 L 88 942 L 785 942 L 785 834 Z" unicode="z" />
<glyph horiz-adv-x="717" d="M 633 -329 C 567 -329 513 -321 471 -307 C 429 -293 395 -273 371 -248 C 346 -222 328 -192 318 -158 C 308 -123 303 -86 303 -46 L 303 336 C 303 380 287 416 256 444 C 224 472 187 486 143 486 L 143 642 C 187 642 224 655 256 683 C 287 710 303 745 303 789 L 303 1172 C 303 1211 308 1248 318 1283 C 328 1318 346 1348 371 1374 C 395 1399 429 1419 471 1433 C 513 1447 567 1455 633 1455 L 633 1344 C 600 1344 571 1341 546 1337 C 520 1332 499 1322 483 1307 C 467 1292 454 1271 445 1244 C 436 1216 432 1180 432 1135 L 432 758 C 432 735 428 713 420 692 C 412 670 400 651 386 634 C 372 617 355 603 335 591 C 315 579 294 572 272 568 L 272 560 C 294 556 315 548 335 536 C 355 524 372 510 386 493 C 400 476 412 457 420 436 C 428 414 432 392 432 369 L 432 -8 C 432 -50 436 -84 445 -112 C 454 -139 467 -160 484 -176 C 501 -192 522 -203 547 -209 C 571 -215 600 -219 633 -219 L 633 -329 Z" unicode="{" />
<glyph horiz-adv-x="512" d="M 184 -329 L 184 1455 L 330 1455 L 330 -329 L 184 -329 Z" unicode="|" />
<glyph horiz-adv-x="717" d="M 84 1455 C 149 1455 203 1447 245 1433 C 287 1419 321 1399 346 1374 C 370 1348 388 1318 398 1283 C 408 1248 414 1211 414 1172 L 414 789 C 414 745 429 710 461 682 C 492 654 529 640 573 640 L 573 484 C 529 484 492 470 461 443 C 429 415 414 380 414 336 L 414 -46 C 414 -86 408 -123 398 -158 C 388 -192 370 -222 346 -248 C 321 -273 287 -293 245 -307 C 203 -321 149 -329 84 -329 L 84 -219 C 116 -219 145 -216 171 -211 C 196 -206 217 -196 233 -181 C 249 -166 262 -145 271 -118 C 280 -90 285 -54 285 -10 L 285 367 C 285 390 289 412 297 434 C 305 455 316 474 330 491 C 344 508 362 522 382 534 C 402 546 422 554 444 558 L 444 566 C 422 570 402 577 382 589 C 362 601 344 615 330 632 C 316 649 305 668 297 690 C 289 711 285 733 285 756 L 285 1133 C 285 1175 280 1210 271 1238 C 262 1265 249 1286 232 1302 C 215 1318 194 1329 170 1335 C 145 1341 116 1344 84 1344 L 84 1455 Z" unicode="}" />
<glyph horiz-adv-x="1044" d="M 815 561 L 922 561 C 928 541 933 519 937 495 C 940 471 942 450 942 434 C 942 379 927 338 898 312 C 868 285 828 272 778 272 C 734 272 690 280 646 298 C 602 315 559 333 518 353 C 477 373 437 391 399 408 C 361 425 326 434 295 434 C 263 434 242 426 232 410 C 222 394 217 379 217 365 C 217 353 218 340 221 325 C 223 310 227 295 231 281 L 123 281 C 116 298 111 317 107 339 C 103 360 102 379 102 397 C 102 450 116 492 146 523 C 175 553 217 569 272 569 C 314 569 357 560 400 543 C 443 526 485 508 526 488 C 567 468 606 450 644 433 C 681 416 716 408 750 408 C 778 408 798 414 810 428 C 821 442 827 457 827 475 C 827 484 825 497 823 514 C 820 530 817 546 815 561 Z" unicode="~" />
<glyph horiz-adv-x="471" d="M 350 835 C 350 873 338 903 315 925 C 292 947 265 957 233 957 C 204 957 178 947 155 925 C 132 903 121 873 121 835 C 121 799 132 771 155 750 C 178 729 204 719 233 719 C 265 719 292 729 315 750 C 338 771 350 799 350 835 Z M 154 561 L 154 -388 L 309 -388 L 309 561 L 154 561 Z" unicode="¡" />
<glyph horiz-adv-x="1024" d="M 803 692 C 789 727 765 758 732 785 C 698 811 656 826 604 829 L 604 113 C 656 115 699 130 733 158 C 767 185 790 216 803 250 L 930 174 C 920 150 905 128 887 106 C 869 84 846 65 818 48 C 790 31 758 17 723 6 C 687 -4 648 -10 604 -12 L 604 -209 L 475 -209 L 475 -8 C 421 0 372 16 326 41 C 280 65 241 98 208 139 C 174 180 148 228 129 284 C 109 339 100 401 100 471 C 100 539 109 600 128 656 C 146 711 172 758 206 798 C 239 838 278 870 324 896 C 370 921 420 938 475 948 L 475 1151 L 604 1151 L 604 954 C 682 951 750 931 808 895 C 866 858 906 816 930 768 L 803 692 Z M 258 471 C 258 377 276 298 314 236 C 352 174 405 135 475 119 L 475 821 C 401 802 347 762 311 701 C 275 640 258 563 258 471 Z" unicode="¢" />
<glyph horiz-adv-x="1188" d="M 815 598 L 508 598 C 512 582 516 568 520 555 C 538 503 547 454 547 408 C 549 364 541 317 522 269 C 503 221 472 178 430 141 L 430 135 L 1030 135 L 1030 0 L 154 0 L 154 131 C 200 139 238 150 270 166 C 301 182 326 201 345 224 C 363 246 377 272 385 302 C 393 331 397 363 397 399 C 397 453 388 505 371 555 L 354 598 L 154 598 L 154 723 L 303 723 C 285 763 268 804 254 846 C 236 894 227 943 227 995 C 227 1043 235 1088 251 1132 C 267 1176 293 1214 327 1248 C 361 1281 405 1308 457 1328 C 509 1348 571 1358 643 1358 C 760 1358 851 1336 917 1294 C 983 1252 1029 1201 1057 1143 L 930 1047 C 909 1097 876 1140 830 1176 C 784 1212 721 1231 639 1231 C 559 1231 498 1209 454 1166 C 410 1123 388 1065 387 991 C 387 954 395 912 412 864 C 426 819 443 772 463 723 L 815 723 L 815 598 Z" unicode="£" />
<glyph horiz-adv-x="1229" d="M 975 967 C 1005 927 1028 882 1044 832 C 1060 782 1069 729 1069 672 C 1069 616 1061 563 1045 515 C 1029 466 1008 422 981 383 L 1124 244 L 1049 168 L 913 305 C 873 268 828 240 777 220 C 725 200 671 190 614 190 C 556 190 502 200 450 220 C 398 240 353 268 313 305 L 180 168 L 104 244 L 244 383 C 216 422 195 466 180 515 C 165 563 158 616 158 672 C 158 729 166 783 182 833 C 198 883 222 929 252 969 L 104 1114 L 180 1190 L 324 1044 C 363 1078 407 1105 456 1123 C 505 1141 558 1151 614 1151 C 670 1151 722 1141 772 1122 C 821 1103 865 1076 905 1042 L 1049 1190 L 1124 1114 L 975 967 Z M 920 672 C 920 718 912 761 896 801 C 880 841 858 877 831 907 C 804 937 772 961 735 979 C 698 997 658 1006 614 1006 C 570 1006 530 997 492 979 C 454 961 422 937 395 907 C 367 877 346 841 330 801 C 314 761 307 718 307 672 C 307 625 315 581 331 541 C 347 501 369 465 397 435 C 424 404 456 380 494 362 C 532 344 572 336 614 336 C 656 336 696 344 733 362 C 769 380 802 404 830 435 C 858 465 880 501 896 541 C 912 581 920 625 920 672 Z" unicode="¤" />
<glyph horiz-adv-x="1188" d="M 143 819 L 348 819 L 70 1333 L 238 1333 L 592 662 L 973 1333 L 1120 1333 L 836 819 L 1049 819 L 1049 694 L 768 694 L 680 539 L 1049 539 L 1049 414 L 672 414 L 672 0 L 510 0 L 510 414 L 143 414 L 143 539 L 500 539 L 418 694 L 143 694 L 143 819 Z" unicode="¥" />
<glyph horiz-adv-x="512" d="M 184 396 L 330 396 L 330 -329 L 184 -329 L 184 396 Z M 330 730 L 184 730 L 184 1455 L 330 1455 L 330 730 Z" unicode="¦" />
<glyph horiz-adv-x="983" d="M 254 117 C 273 83 301 53 338 28 C 374 2 426 -10 492 -10 C 556 -10 606 3 643 31 C 679 58 698 93 698 137 C 698 175 684 206 657 230 C 629 254 595 274 554 291 C 512 308 468 325 420 342 C 372 358 327 378 285 401 C 243 424 209 453 182 488 C 154 523 141 568 141 623 C 141 681 155 729 184 767 C 212 804 242 836 272 862 C 243 882 218 910 196 946 C 174 981 164 1023 164 1071 C 164 1106 171 1141 186 1176 C 201 1211 223 1242 253 1269 C 282 1295 318 1317 362 1333 C 406 1349 456 1358 514 1358 C 598 1358 670 1340 729 1306 C 787 1272 829 1229 854 1178 L 723 1102 C 709 1136 685 1165 652 1191 C 618 1216 572 1229 512 1229 C 452 1229 404 1215 370 1189 C 336 1162 319 1127 319 1083 C 319 1045 332 1013 359 989 C 385 964 419 943 459 925 C 499 907 543 891 589 875 C 635 859 679 840 719 817 C 759 793 793 764 820 730 C 846 695 860 650 860 596 C 860 540 846 493 820 457 C 793 421 763 388 731 360 C 767 336 797 305 820 269 C 842 233 854 192 854 147 C 854 110 846 75 830 41 C 814 7 791 -23 760 -50 C 728 -76 690 -98 644 -114 C 598 -130 545 -139 485 -139 C 396 -139 321 -122 259 -88 C 197 -54 151 -11 123 41 L 254 117 Z M 702 578 C 702 612 691 640 671 663 C 651 686 625 706 593 724 C 561 741 525 756 487 770 C 449 784 411 799 375 815 C 358 795 341 770 323 740 C 305 709 297 677 297 643 C 297 609 307 580 327 557 C 347 533 373 513 405 496 C 437 479 472 464 512 450 C 551 436 589 422 627 408 C 643 428 659 452 676 482 C 693 511 702 543 702 578 Z" unicode="§" />
<glyph horiz-adv-x="512" d="M 166 1274 C 166 1241 155 1214 133 1192 C 109 1171 82 1161 51 1161 C 18 1161 -9 1171 -31 1192 C -51 1212 -61 1240 -61 1274 C -61 1309 -51 1337 -31 1358 C -7 1376 19 1386 51 1386 C 82 1386 109 1376 133 1358 C 155 1336 166 1308 166 1274 Z M 578 1274 C 578 1241 567 1214 545 1192 C 521 1171 495 1161 465 1161 C 431 1161 403 1171 381 1192 C 360 1212 350 1240 350 1274 C 350 1309 360 1337 381 1358 C 404 1376 432 1386 465 1386 C 495 1386 521 1376 545 1358 C 567 1336 578 1308 578 1274 Z" unicode="¨" />
<glyph horiz-adv-x="1509" d="M 985 498 L 1102 428 C 1076 382 1034 344 978 312 C 921 280 856 264 782 264 C 720 264 664 273 614 291 C 564 309 520 336 484 371 C 448 406 420 448 400 498 C 380 548 371 604 371 668 C 371 730 381 786 401 835 C 421 884 450 926 486 961 C 522 996 565 1023 615 1041 C 665 1059 720 1069 780 1069 C 854 1069 920 1052 979 1020 C 1037 987 1079 947 1104 901 L 977 827 C 963 860 938 888 903 911 C 867 934 822 946 766 946 C 716 946 676 938 645 922 C 613 906 588 885 570 859 C 552 832 539 802 532 769 C 525 735 522 702 522 668 C 522 632 525 597 531 564 C 537 530 550 501 568 475 C 586 449 612 427 646 411 C 679 395 722 387 776 387 C 825 387 868 397 904 419 C 940 440 967 466 985 498 Z M 164 668 C 164 583 179 504 209 432 C 239 360 280 296 334 242 C 387 187 449 144 521 114 C 593 83 670 68 754 68 C 837 68 915 83 987 114 C 1059 144 1122 187 1175 242 C 1228 296 1270 360 1300 432 C 1330 504 1346 583 1346 668 C 1346 751 1330 829 1300 902 C 1270 975 1228 1039 1175 1093 C 1122 1147 1059 1189 987 1220 C 915 1250 837 1266 754 1266 C 670 1266 593 1250 521 1220 C 449 1189 387 1147 334 1093 C 280 1039 239 975 209 902 C 179 829 164 751 164 668 Z M 61 668 C 61 763 78 852 114 936 C 150 1019 199 1092 261 1155 C 323 1217 396 1267 480 1303 C 564 1339 655 1358 754 1358 C 852 1358 943 1339 1028 1303 C 1112 1267 1186 1217 1248 1155 C 1310 1092 1358 1019 1394 936 C 1430 852 1448 763 1448 668 C 1448 572 1430 482 1394 398 C 1358 314 1310 240 1248 178 C 1186 115 1112 65 1028 29 C 943 -6 852 -25 754 -25 C 655 -25 564 -6 480 29 C 396 65 323 115 261 178 C 199 240 150 314 114 398 C 78 482 61 572 61 668 Z" unicode="©" />
<glyph horiz-adv-x="788" d="M 92 1191 C 153 1291 247 1341 373 1341 C 421 1341 463 1334 498 1322 C 533 1310 561 1293 582 1271 C 603 1249 618 1223 628 1194 C 638 1164 643 1132 643 1097 L 643 812 C 643 776 647 753 655 742 C 663 731 676 726 694 726 C 708 726 720 729 731 737 L 737 630 C 730 624 721 620 710 617 C 699 613 684 612 664 612 C 629 612 600 623 577 645 C 554 667 541 696 537 731 C 515 692 483 660 442 635 C 401 609 356 597 307 597 C 245 597 194 613 153 646 C 112 679 92 726 92 786 C 92 824 100 855 117 881 C 134 906 159 927 193 944 C 227 961 273 973 332 980 L 518 1007 L 518 1085 C 518 1131 506 1167 482 1194 C 458 1220 420 1234 369 1234 C 291 1234 235 1202 203 1138 L 92 1191 Z M 334 700 C 361 700 386 704 409 713 C 432 721 452 733 468 748 C 484 763 496 780 505 799 C 513 817 518 837 518 858 L 518 913 C 502 910 480 907 453 903 C 425 899 399 896 373 892 C 351 889 330 886 311 882 C 292 878 276 872 262 864 C 234 848 221 823 221 788 C 221 756 233 734 257 720 C 281 706 306 700 334 700 Z" unicode="ª" />
<glyph horiz-adv-x="932" d="M 311 74 L 61 442 L 311 811 L 455 811 L 229 442 L 455 74 L 311 74 Z M 669 74 L 419 442 L 669 811 L 813 811 L 587 442 L 813 74 L 669 74 Z" unicode="«" />
<glyph horiz-adv-x="1044" d="M 82 649 L 963 649 L 963 246 L 844 246 L 844 522 L 82 522 L 82 649 Z" unicode="¬" />
<glyph horiz-adv-x="696" d="M 61 526 L 635 526 L 635 399 L 61 399 L 61 526 Z" unicode="­" />
<glyph horiz-adv-x="1509" d="M 901 283 L 772 559 L 651 559 L 651 283 L 496 283 L 496 1057 L 766 1057 C 865 1057 940 1033 991 986 C 1041 938 1067 881 1067 813 C 1067 780 1062 751 1054 727 C 1046 702 1034 680 1020 662 C 1006 644 989 629 971 617 C 953 605 934 597 915 592 L 1067 283 L 901 283 Z M 651 682 L 745 682 C 781 682 809 685 830 693 C 851 701 867 710 879 721 C 891 731 899 744 903 758 C 907 772 909 787 909 803 C 909 835 897 864 874 890 C 851 915 809 928 748 928 L 651 928 L 651 682 Z M 164 668 C 164 583 179 504 209 432 C 239 360 280 296 334 242 C 387 187 449 144 521 114 C 593 83 670 68 754 68 C 837 68 915 83 987 114 C 1059 144 1122 187 1175 242 C 1228 296 1270 360 1300 432 C 1330 504 1346 583 1346 668 C 1346 751 1330 829 1300 902 C 1270 975 1228 1039 1175 1093 C 1122 1147 1059 1189 987 1220 C 915 1250 837 1266 754 1266 C 670 1266 593 1250 521 1220 C 449 1189 387 1147 334 1093 C 280 1039 239 975 209 902 C 179 829 164 751 164 668 Z M 61 668 C 61 763 78 852 114 936 C 150 1019 199 1092 261 1155 C 323 1217 396 1267 480 1303 C 564 1339 655 1358 754 1358 C 852 1358 943 1339 1028 1303 C 1112 1267 1186 1217 1248 1155 C 1310 1092 1358 1019 1394 936 C 1430 852 1448 763 1448 668 C 1448 572 1430 482 1394 398 C 1358 314 1310 240 1248 178 C 1186 115 1112 65 1028 29 C 943 -6 852 -25 754 -25 C 655 -25 564 -6 480 29 C 396 65 323 115 261 178 C 199 240 150 314 114 398 C 78 482 61 572 61 668 Z" unicode="®" />
<glyph horiz-adv-x="512" d="M -51 1274 L 563 1274 L 563 1161 L -51 1161 L -51 1274 Z" unicode="¯" />
<glyph horiz-adv-x="717" d="M 358 1454 C 396 1454 433 1446 467 1432 C 501 1418 530 1398 556 1374 C 581 1349 601 1320 615 1286 C 629 1252 637 1216 637 1178 C 637 1138 629 1101 615 1068 C 601 1034 581 1005 556 981 C 530 956 501 936 467 922 C 433 908 396 901 358 901 C 318 901 282 908 249 922 C 215 936 186 956 161 981 C 135 1005 115 1034 101 1068 C 87 1101 80 1138 80 1178 C 80 1216 87 1252 101 1286 C 115 1320 135 1349 161 1374 C 186 1398 215 1418 249 1432 C 282 1446 318 1454 358 1454 Z M 358 1006 C 408 1006 449 1021 480 1053 C 510 1084 526 1126 526 1178 C 526 1228 510 1269 480 1301 C 449 1333 408 1350 358 1350 C 308 1350 267 1333 236 1301 C 205 1269 190 1228 190 1178 C 190 1126 205 1084 236 1053 C 267 1021 308 1006 358 1006 Z" unicode="°" />
<glyph horiz-adv-x="1044" d="M 584 725 L 952 725 L 952 598 L 584 598 L 584 230 L 440 230 L 440 598 L 72 598 L 72 725 L 440 725 L 440 1092 L 584 1092 L 584 725 Z M 952 127 L 952 0 L 72 0 L 72 127 L 952 127 L 952 127 Z" unicode="±" />
<glyph horiz-adv-x="717" d="M 109 1444 C 101 1468 98 1489 98 1507 C 98 1535 104 1562 117 1586 C 130 1610 148 1630 170 1648 C 192 1666 218 1680 248 1690 C 278 1700 310 1706 344 1706 C 378 1706 410 1701 441 1691 C 471 1681 499 1668 523 1650 C 547 1632 565 1610 579 1583 C 593 1555 600 1525 600 1491 C 600 1444 591 1402 574 1365 C 557 1327 534 1292 506 1259 C 477 1226 443 1196 405 1168 C 367 1140 327 1111 285 1083 L 635 1083 L 635 977 L 90 977 L 90 1055 C 139 1085 187 1117 233 1152 C 279 1186 321 1222 357 1259 C 393 1296 423 1333 445 1370 C 467 1406 479 1442 479 1477 C 479 1508 468 1537 447 1565 C 426 1592 390 1606 340 1606 C 302 1606 270 1594 246 1572 C 221 1549 209 1520 209 1485 C 209 1464 212 1439 219 1409 L 109 1444 Z" unicode="²" />
<glyph horiz-adv-x="717" d="M 82 1589 C 101 1623 133 1651 177 1673 C 221 1695 276 1706 340 1706 C 420 1706 481 1688 521 1652 C 561 1616 582 1576 582 1532 C 582 1499 574 1472 560 1452 C 546 1431 530 1415 514 1405 C 493 1391 470 1381 446 1376 C 479 1369 509 1358 535 1343 C 557 1329 578 1310 597 1285 C 615 1259 625 1225 625 1182 C 625 1144 616 1112 598 1084 C 580 1056 557 1032 530 1014 C 502 996 472 982 440 973 C 407 964 376 960 348 960 C 319 958 288 961 254 968 C 220 975 191 984 169 995 C 146 1006 124 1018 104 1032 C 84 1046 69 1059 61 1073 L 143 1167 C 154 1142 176 1117 210 1092 C 243 1067 283 1055 330 1055 C 351 1055 372 1057 393 1062 C 413 1066 432 1073 448 1083 C 464 1093 478 1105 488 1121 C 498 1137 504 1156 504 1180 C 504 1219 492 1249 468 1270 C 444 1291 401 1302 340 1302 C 330 1302 318 1301 304 1300 C 290 1298 276 1297 262 1296 C 246 1293 229 1291 211 1290 L 215 1401 C 221 1399 235 1398 257 1398 C 278 1397 292 1397 299 1397 C 343 1397 381 1405 413 1421 C 445 1437 461 1470 461 1518 C 461 1543 449 1565 427 1585 C 404 1604 367 1614 317 1614 C 268 1614 230 1604 204 1584 C 177 1564 157 1538 145 1507 L 82 1589 Z" unicode="³" />
<glyph horiz-adv-x="512" d="M 367 1542 L 451 1458 L 154 1159 L 70 1243 L 367 1542 Z" unicode="´" />
<glyph horiz-adv-x="1145" d="M 961 174 C 961 154 962 128 964 94 C 966 60 968 28 971 0 L 819 0 C 817 8 816 19 816 34 C 815 49 814 65 814 83 C 813 100 812 117 812 135 C 811 153 811 169 811 184 L 803 186 C 793 160 779 134 763 109 C 747 84 728 62 706 42 C 684 22 660 5 633 -6 C 605 -18 577 -25 547 -25 C 496 -25 451 -12 412 13 C 373 38 347 64 334 92 L 328 88 C 329 66 331 43 334 20 C 335 1 336 -19 338 -41 C 339 -63 340 -83 340 -102 L 340 -514 L 184 -514 L 184 942 L 340 942 L 340 326 C 340 296 343 267 351 240 C 358 212 370 188 387 168 C 403 147 423 131 447 119 C 471 107 499 102 532 102 C 576 102 614 111 648 129 C 681 147 709 171 733 203 C 756 234 774 270 786 311 C 798 352 805 396 805 444 L 805 942 L 961 942 L 961 174 Z" unicode="µ" />
<glyph horiz-adv-x="1188" d="M 612 1333 L 612 -125 L 477 -125 L 477 465 C 417 465 361 474 311 493 C 261 512 217 540 180 577 C 143 614 114 660 93 714 C 71 768 61 829 61 899 C 61 970 71 1032 93 1086 C 114 1140 143 1185 180 1222 C 217 1259 261 1287 311 1305 C 361 1323 417 1333 477 1333 L 612 1333 Z M 1100 1208 L 907 1208 L 907 -125 L 772 -125 L 772 1333 L 1100 1333 L 1100 1208 Z" unicode="¶" />
<glyph horiz-adv-x="393" d="M 311 443 C 311 404 299 374 276 352 C 253 330 226 320 195 320 C 166 320 140 330 117 352 C 93 374 82 404 82 443 C 82 478 93 506 117 527 C 140 548 166 559 195 559 C 226 559 253 548 276 527 C 299 506 311 478 311 443 Z" unicode="·" />
<glyph horiz-adv-x="512" d="M 247 35 C 270 23 291 12 311 0 C 407 -60 456 -129 456 -207 C 456 -341 377 -408 221 -408 C 152 -408 95 -386 49 -344 L 100 -268 C 138 -296 180 -311 227 -311 C 295 -311 329 -273 329 -197 C 329 -116 262 -44 130 18 L 247 35 Z" unicode="¸" />
<glyph horiz-adv-x="717" d="M 84 1075 L 305 1075 L 305 1536 C 290 1526 265 1518 230 1512 C 195 1506 156 1503 113 1503 L 100 1601 C 134 1601 163 1603 186 1608 C 209 1613 231 1620 253 1628 C 274 1636 293 1645 310 1657 C 327 1669 340 1681 348 1694 L 426 1694 L 426 1075 L 637 1075 L 637 977 L 84 977 L 84 1075 Z" unicode="¹" />
<glyph horiz-adv-x="848" d="M 766 968 C 766 910 757 858 740 812 C 723 766 700 727 670 696 C 640 664 604 640 562 623 C 520 605 475 597 426 597 C 375 597 329 605 287 623 C 245 640 209 664 179 696 C 148 727 124 766 107 812 C 90 858 82 910 82 968 C 82 1026 90 1079 107 1125 C 124 1171 148 1210 179 1242 C 209 1274 245 1298 287 1315 C 329 1332 375 1341 426 1341 C 475 1341 520 1332 562 1315 C 604 1298 640 1274 670 1242 C 700 1210 723 1171 740 1125 C 757 1079 766 1026 766 968 Z M 637 968 C 637 1056 617 1123 577 1167 C 537 1211 486 1234 424 1234 C 362 1234 311 1211 271 1167 C 231 1123 211 1056 211 968 C 211 880 231 814 271 770 C 311 726 362 704 424 704 C 486 704 537 726 577 770 C 617 814 637 880 637 968 Z" unicode="º" />
<glyph horiz-adv-x="932" d="M 620 811 L 870 442 L 620 74 L 477 74 L 702 442 L 477 811 L 620 811 Z M 262 811 L 512 442 L 262 74 L 119 74 L 344 442 L 119 811 L 262 811 Z" unicode="»" />
<glyph horiz-adv-x="1638" d="M 510 0 L 379 0 L 1131 1333 L 1262 1333 L 510 0 Z M 82 715 L 303 715 L 303 1176 C 288 1166 263 1158 228 1152 C 193 1146 154 1143 111 1143 L 98 1241 C 132 1241 161 1243 184 1248 C 207 1253 229 1260 251 1268 C 272 1276 291 1285 308 1297 C 325 1309 338 1321 346 1334 L 424 1334 L 424 715 L 635 715 L 635 617 L 82 617 L 82 715 Z M 1214 717 L 1401 717 L 1401 237 L 1536 237 L 1536 139 L 1401 139 L 1401 0 L 1288 0 L 1288 139 L 922 139 L 885 211 L 920 264 L 1214 717 Z M 1288 631 L 1036 237 L 1288 237 L 1288 631 Z" unicode="¼" />
<glyph horiz-adv-x="1638" d="M 510 0 L 379 0 L 1131 1333 L 1262 1333 L 510 0 Z M 82 715 L 303 715 L 303 1176 C 288 1166 263 1158 228 1152 C 193 1146 154 1143 111 1143 L 98 1241 C 132 1241 161 1243 184 1248 C 207 1253 229 1260 251 1268 C 272 1276 291 1285 308 1297 C 325 1309 338 1321 346 1334 L 424 1334 L 424 715 L 635 715 L 635 617 L 82 617 L 82 715 Z M 1014 467 C 1006 491 1003 512 1003 530 C 1003 558 1009 585 1022 609 C 1035 633 1053 653 1075 671 C 1097 689 1123 703 1153 713 C 1183 723 1215 729 1249 729 C 1283 729 1315 724 1346 714 C 1376 704 1404 691 1428 673 C 1452 655 1470 633 1484 606 C 1498 578 1505 548 1505 514 C 1505 467 1496 425 1479 388 C 1462 350 1439 315 1411 282 C 1382 249 1348 219 1310 191 C 1272 163 1232 134 1190 106 L 1540 106 L 1540 0 L 995 0 L 995 78 C 1044 108 1092 140 1138 175 C 1184 209 1226 245 1262 282 C 1298 319 1328 356 1350 393 C 1372 429 1384 465 1384 500 C 1384 531 1373 560 1352 588 C 1331 615 1295 629 1245 629 C 1207 629 1175 617 1151 595 C 1126 572 1114 543 1114 508 C 1114 487 1117 462 1124 432 L 1014 467 Z" unicode="½" />
<glyph horiz-adv-x="1638" d="M 96 1229 C 115 1263 147 1291 191 1313 C 235 1335 290 1346 354 1346 C 434 1346 495 1328 535 1292 C 575 1256 596 1216 596 1172 C 596 1139 588 1112 574 1092 C 560 1071 544 1055 528 1045 C 507 1031 484 1021 460 1016 C 493 1009 523 998 549 983 C 571 969 592 950 611 925 C 629 899 639 865 639 822 C 639 784 630 752 612 724 C 594 696 571 672 544 654 C 516 636 486 622 454 613 C 421 604 390 600 362 600 C 333 598 302 601 268 608 C 234 615 205 624 183 635 C 160 646 138 658 118 672 C 98 686 83 699 75 713 L 157 807 C 168 782 190 757 224 732 C 257 707 297 695 344 695 C 365 695 386 697 407 702 C 427 706 446 713 462 723 C 478 733 492 745 502 761 C 512 777 518 796 518 820 C 518 859 506 889 482 910 C 458 931 415 942 354 942 C 344 942 332 941 318 940 C 304 938 290 937 276 936 C 260 933 243 931 225 930 L 229 1041 C 235 1039 249 1038 271 1038 C 292 1037 306 1037 313 1037 C 357 1037 395 1045 427 1061 C 459 1077 475 1110 475 1158 C 475 1183 463 1205 441 1225 C 418 1244 381 1254 331 1254 C 282 1254 244 1244 218 1224 C 191 1204 171 1178 159 1147 L 96 1229 Z M 510 0 L 379 0 L 1131 1333 L 1262 1333 L 510 0 Z M 1214 717 L 1401 717 L 1401 237 L 1536 237 L 1536 139 L 1401 139 L 1401 0 L 1288 0 L 1288 139 L 922 139 L 885 211 L 920 264 L 1214 717 Z M 1288 631 L 1036 237 L 1288 237 L 1288 631 Z" unicode="¾" />
<glyph horiz-adv-x="819" d="M 311 835 C 311 873 322 903 346 925 C 369 947 396 957 428 957 C 456 957 482 947 506 925 C 529 903 541 873 541 835 C 541 799 529 771 506 750 C 482 729 456 719 428 719 C 396 719 369 729 346 750 C 322 771 311 799 311 835 Z M 780 -204 C 757 -262 714 -310 652 -350 C 590 -390 515 -409 428 -409 C 373 -409 321 -402 273 -388 C 225 -374 182 -352 146 -323 C 110 -295 81 -258 60 -214 C 39 -170 29 -116 29 -54 C 29 -7 37 35 54 75 C 71 115 94 150 124 181 C 153 211 187 237 226 259 C 265 280 307 295 352 305 L 352 559 L 508 559 L 508 215 C 475 211 440 203 402 191 C 364 179 329 163 297 142 C 264 120 237 94 216 63 C 194 31 184 -6 184 -50 C 184 -82 188 -111 198 -139 C 208 -167 222 -192 242 -214 C 262 -236 287 -254 319 -266 C 351 -278 388 -284 430 -284 C 486 -284 531 -270 567 -240 C 603 -211 629 -176 647 -134 L 780 -204 Z" unicode="¿" />
<glyph horiz-adv-x="1229" d="M 61 0 L 510 1333 L 719 1333 L 1167 0 L 997 0 L 891 326 L 334 326 L 227 0 L 61 0 Z M 381 471 L 844 471 L 612 1204 L 381 471 Z M 702 1634 L 618 1550 L 321 1849 L 405 1933 L 702 1634 Z" unicode="À" />
<glyph horiz-adv-x="1229" d="M 61 0 L 510 1333 L 719 1333 L 1167 0 L 997 0 L 891 326 L 334 326 L 227 0 L 61 0 Z M 381 471 L 844 471 L 612 1204 L 381 471 Z M 832 1933 L 916 1849 L 619 1550 L 535 1634 L 832 1933 Z" unicode="Á" />
<glyph horiz-adv-x="1229" d="M 61 0 L 510 1333 L 719 1333 L 1167 0 L 997 0 L 891 326 L 334 326 L 227 0 L 61 0 Z M 381 471 L 844 471 L 612 1204 L 381 471 Z M 223 1553 L 549 1881 L 676 1881 L 1001 1553 L 833 1553 L 612 1791 L 391 1553 L 223 1553 Z" unicode="Â" />
<glyph horiz-adv-x="1229" d="M 61 0 L 510 1333 L 719 1333 L 1167 0 L 997 0 L 891 326 L 334 326 L 227 0 L 61 0 Z M 381 471 L 844 471 L 612 1204 L 381 471 Z M 472 1785 C 498 1785 524 1779 548 1769 C 572 1759 594 1747 616 1735 C 638 1722 658 1710 677 1700 C 696 1690 714 1685 732 1685 C 743 1685 752 1688 760 1694 C 767 1700 773 1707 777 1717 C 781 1726 785 1737 788 1749 C 790 1761 793 1774 795 1787 L 908 1744 C 910 1724 909 1702 904 1680 C 898 1658 889 1637 875 1619 C 861 1600 844 1584 823 1572 C 801 1560 776 1554 748 1554 C 720 1554 695 1559 671 1569 C 647 1579 625 1591 604 1604 C 583 1616 563 1628 544 1638 C 525 1648 507 1654 489 1654 C 479 1654 470 1651 463 1645 C 456 1639 450 1632 446 1623 C 441 1613 437 1602 434 1590 C 430 1578 427 1565 425 1552 L 313 1595 C 311 1621 314 1646 322 1670 C 330 1693 341 1713 355 1730 C 369 1747 387 1760 407 1770 C 427 1780 448 1785 472 1785 Z" unicode="Ã" />
<glyph horiz-adv-x="1229" d="M 61 0 L 510 1333 L 719 1333 L 1167 0 L 997 0 L 891 326 L 334 326 L 227 0 L 61 0 Z M 381 471 L 844 471 L 612 1204 L 381 471 Z M 520 1665 C 520 1632 509 1605 487 1583 C 463 1562 436 1552 405 1552 C 372 1552 345 1562 323 1583 C 303 1603 293 1631 293 1665 C 293 1700 303 1728 323 1749 C 346 1767 373 1777 405 1777 C 436 1777 463 1767 487 1749 C 509 1727 520 1699 520 1665 Z M 932 1665 C 932 1632 921 1605 899 1583 C 875 1562 849 1552 819 1552 C 785 1552 757 1562 735 1583 C 714 1603 704 1631 704 1665 C 704 1700 714 1728 735 1749 C 758 1767 786 1777 819 1777 C 849 1777 875 1767 899 1749 C 921 1727 932 1699 932 1665 Z" unicode="Ä" />
<glyph horiz-adv-x="1229" d="M 61 0 L 510 1333 L 719 1333 L 1167 0 L 997 0 L 891 326 L 334 326 L 227 0 L 61 0 Z M 381 471 L 844 471 L 612 1204 L 381 471 Z M 373 1787 C 373 1852 394 1907 437 1952 C 480 1997 539 2020 613 2020 C 648 2020 680 2013 710 2001 C 739 1989 764 1972 786 1951 C 807 1930 823 1906 835 1878 C 847 1850 853 1819 853 1787 C 853 1754 847 1723 835 1695 C 823 1666 807 1641 786 1621 C 764 1600 739 1583 710 1571 C 680 1559 648 1553 613 1553 C 539 1553 480 1575 437 1620 C 394 1665 373 1721 373 1787 Z M 476 1787 C 476 1747 489 1713 515 1686 C 541 1658 573 1645 613 1645 C 651 1645 683 1658 710 1686 C 736 1713 750 1747 750 1787 C 750 1825 736 1858 710 1886 C 683 1914 651 1928 613 1928 C 573 1928 541 1914 515 1886 C 489 1858 476 1825 476 1787 Z" unicode="Å" />
<glyph horiz-adv-x="1675" d="M 176 0 L 8 0 L 690 1333 L 1530 1333 L 1530 1198 L 950 1198 L 950 739 L 1491 739 L 1491 604 L 950 604 L 950 135 L 1556 135 L 1556 0 L 788 0 L 788 336 L 344 336 L 176 0 Z M 788 1214 L 412 469 L 788 469 L 788 1214 Z" unicode="Æ" />
<glyph horiz-adv-x="1266" d="M 1034 1020 C 1026 1047 1012 1073 992 1098 C 972 1122 948 1144 920 1162 C 891 1180 859 1195 824 1206 C 789 1217 752 1223 713 1223 C 639 1223 575 1208 522 1180 C 468 1151 425 1111 391 1061 C 357 1010 331 950 315 880 C 299 810 291 735 291 655 C 291 575 299 501 316 434 C 333 367 359 310 394 262 C 428 214 471 176 523 150 C 574 124 634 111 702 111 C 744 111 784 116 822 127 C 860 137 893 152 923 172 C 952 191 976 214 996 240 C 1016 266 1030 293 1040 322 L 1176 240 C 1160 202 1139 168 1111 136 C 1083 104 1048 76 1007 52 C 966 28 919 9 867 -4 C 814 -18 757 -25 696 -25 C 615 -25 540 -9 470 21 C 400 52 339 97 288 155 C 236 213 196 284 167 369 C 137 453 123 549 123 655 C 123 763 137 860 167 947 C 196 1033 237 1107 290 1168 C 342 1229 405 1276 477 1309 C 549 1341 628 1358 713 1358 C 771 1358 825 1351 875 1337 C 925 1323 969 1305 1008 1282 C 1047 1258 1081 1231 1109 1200 C 1137 1168 1158 1136 1174 1102 L 1034 1020 Z M 631 35 C 654 23 675 12 695 0 C 791 -60 840 -129 840 -207 C 840 -341 761 -408 605 -408 C 536 -408 479 -386 433 -344 L 484 -268 C 522 -296 564 -311 611 -311 C 679 -311 713 -273 713 -197 C 713 -116 646 -44 514 18 L 631 35 Z" unicode="Ç" />
<glyph horiz-adv-x="1137" d="M 346 1198 L 346 739 L 928 739 L 928 604 L 346 604 L 346 135 L 1014 135 L 1014 0 L 184 0 L 184 1333 L 987 1333 L 987 1198 L 346 1198 Z M 697 1634 L 613 1550 L 316 1849 L 400 1933 L 697 1634 Z" unicode="È" />
<glyph horiz-adv-x="1137" d="M 346 1198 L 346 739 L 928 739 L 928 604 L 346 604 L 346 135 L 1014 135 L 1014 0 L 184 0 L 184 1333 L 987 1333 L 987 1198 L 346 1198 Z M 818 1933 L 902 1849 L 605 1550 L 521 1634 L 818 1933 Z" unicode="É" />
<glyph horiz-adv-x="1137" d="M 346 1198 L 346 739 L 928 739 L 928 604 L 346 604 L 346 135 L 1014 135 L 1014 0 L 184 0 L 184 1333 L 987 1333 L 987 1198 L 346 1198 Z M 211 1552 L 537 1880 L 664 1880 L 989 1552 L 821 1552 L 600 1790 L 379 1552 L 211 1552 Z" unicode="Ê" />
<glyph horiz-adv-x="1137" d="M 346 1198 L 346 739 L 928 739 L 928 604 L 346 604 L 346 135 L 1014 135 L 1014 0 L 184 0 L 184 1333 L 987 1333 L 987 1198 L 346 1198 Z M 498 1665 C 498 1632 487 1605 465 1583 C 441 1562 414 1552 383 1552 C 350 1552 323 1562 301 1583 C 281 1603 271 1631 271 1665 C 271 1700 281 1728 301 1749 C 324 1767 351 1777 383 1777 C 414 1777 441 1767 465 1749 C 487 1727 498 1699 498 1665 Z M 910 1665 C 910 1632 899 1605 877 1583 C 853 1562 827 1552 797 1552 C 763 1552 735 1562 713 1583 C 692 1603 682 1631 682 1665 C 682 1700 692 1728 713 1749 C 736 1767 764 1777 797 1777 C 827 1777 853 1767 877 1749 C 899 1727 910 1699 910 1665 Z" unicode="Ë" />
<glyph horiz-adv-x="530" d="M 184 0 L 184 1333 L 346 1333 L 346 0 L 184 0 Z M 351 1634 L 267 1550 L -30 1849 L 54 1933 L 351 1634 Z" unicode="Ì" />
<glyph horiz-adv-x="530" d="M 184 0 L 184 1333 L 346 1333 L 346 0 L 184 0 Z M 480 1933 L 564 1849 L 267 1550 L 183 1634 L 480 1933 Z" unicode="Í" />
<glyph horiz-adv-x="530" d="M 184 0 L 184 1333 L 346 1333 L 346 0 L 184 0 Z M -118 1552 L 208 1880 L 335 1880 L 660 1552 L 492 1552 L 271 1790 L 50 1552 L -118 1552 Z" unicode="Î" />
<glyph horiz-adv-x="530" d="M 184 0 L 184 1333 L 346 1333 L 346 0 L 184 0 Z M 172 1665 C 172 1632 161 1605 139 1583 C 115 1562 88 1552 57 1552 C 24 1552 -3 1562 -25 1583 C -45 1603 -55 1631 -55 1665 C -55 1700 -45 1728 -25 1749 C -1 1767 25 1777 57 1777 C 88 1777 115 1767 139 1749 C 161 1727 172 1699 172 1665 Z M 584 1665 C 584 1632 573 1605 551 1583 C 527 1562 501 1552 471 1552 C 437 1552 409 1562 387 1583 C 366 1603 356 1631 356 1665 C 356 1700 366 1728 387 1749 C 410 1767 438 1777 471 1777 C 501 1777 527 1767 551 1749 C 573 1727 584 1699 584 1665 Z" unicode="Ï" />
<glyph horiz-adv-x="1368" d="M 61 729 L 246 729 L 246 1333 L 639 1333 C 831 1333 979 1275 1081 1161 C 1183 1046 1235 881 1235 666 C 1235 452 1183 288 1081 173 C 979 57 831 0 639 0 L 246 0 L 246 602 L 61 602 L 61 729 Z M 641 135 C 787 135 894 180 963 271 C 1032 362 1067 494 1067 666 C 1067 839 1032 971 963 1062 C 894 1152 787 1198 641 1198 L 408 1198 L 408 729 L 635 729 L 635 602 L 408 602 L 408 135 L 641 135 Z" unicode="Ð" />
<glyph horiz-adv-x="1374" d="M 340 0 L 184 0 L 184 1333 L 403 1333 L 1034 186 L 1034 1333 L 1190 1333 L 1190 0 L 969 0 L 340 1143 L 340 0 Z M 555 1785 C 581 1785 607 1779 631 1769 C 655 1759 677 1747 699 1735 C 721 1722 741 1710 760 1700 C 779 1690 797 1685 815 1685 C 826 1685 835 1688 843 1694 C 850 1700 856 1707 860 1717 C 864 1726 868 1737 871 1749 C 873 1761 876 1774 878 1787 L 991 1744 C 993 1724 992 1702 987 1680 C 981 1658 972 1637 958 1619 C 944 1600 927 1584 906 1572 C 884 1560 859 1554 831 1554 C 803 1554 778 1559 754 1569 C 730 1579 708 1591 687 1604 C 666 1616 646 1628 627 1638 C 608 1648 590 1654 572 1654 C 562 1654 553 1651 546 1645 C 539 1639 533 1632 529 1623 C 524 1613 520 1602 517 1590 C 513 1578 510 1565 508 1552 L 396 1595 C 394 1621 397 1646 405 1670 C 413 1693 424 1713 438 1730 C 452 1747 470 1760 490 1770 C 510 1780 531 1785 555 1785 Z" unicode="Ñ" />
<glyph horiz-adv-x="1444" d="M 1321 668 C 1321 560 1306 463 1276 377 C 1246 291 1204 218 1151 159 C 1097 99 1034 54 961 22 C 888 -9 809 -25 723 -25 C 637 -25 557 -9 483 22 C 409 54 346 99 293 159 C 239 218 198 291 168 377 C 138 463 123 560 123 668 C 123 776 138 873 168 959 C 198 1044 239 1116 293 1176 C 346 1236 409 1281 483 1312 C 557 1342 637 1358 723 1358 C 809 1358 888 1342 961 1312 C 1034 1281 1097 1236 1151 1176 C 1204 1116 1246 1044 1276 959 C 1306 873 1321 776 1321 668 Z M 1153 668 C 1153 758 1142 837 1122 907 C 1102 977 1072 1035 1034 1081 C 996 1127 950 1163 898 1187 C 845 1211 787 1223 723 1223 C 659 1223 600 1211 548 1187 C 495 1163 449 1127 410 1081 C 371 1035 341 977 320 907 C 299 837 289 758 289 668 C 289 577 299 497 320 428 C 341 358 371 300 410 253 C 449 205 495 170 548 146 C 600 122 659 111 723 111 C 787 111 845 122 898 146 C 950 170 996 205 1034 253 C 1072 300 1102 358 1122 428 C 1142 497 1153 577 1153 668 Z M 826 1634 L 742 1550 L 445 1849 L 529 1933 L 826 1634 Z" unicode="Ò" />
<glyph horiz-adv-x="1444" d="M 1321 668 C 1321 560 1306 463 1276 377 C 1246 291 1204 218 1151 159 C 1097 99 1034 54 961 22 C 888 -9 809 -25 723 -25 C 637 -25 557 -9 483 22 C 409 54 346 99 293 159 C 239 218 198 291 168 377 C 138 463 123 560 123 668 C 123 776 138 873 168 959 C 198 1044 239 1116 293 1176 C 346 1236 409 1281 483 1312 C 557 1342 637 1358 723 1358 C 809 1358 888 1342 961 1312 C 1034 1281 1097 1236 1151 1176 C 1204 1116 1246 1044 1276 959 C 1306 873 1321 776 1321 668 Z M 1153 668 C 1153 758 1142 837 1122 907 C 1102 977 1072 1035 1034 1081 C 996 1127 950 1163 898 1187 C 845 1211 787 1223 723 1223 C 659 1223 600 1211 548 1187 C 495 1163 449 1127 410 1081 C 371 1035 341 977 320 907 C 299 837 289 758 289 668 C 289 577 299 497 320 428 C 341 358 371 300 410 253 C 449 205 495 170 548 146 C 600 122 659 111 723 111 C 787 111 845 122 898 146 C 950 170 996 205 1034 253 C 1072 300 1102 358 1122 428 C 1142 497 1153 577 1153 668 Z M 932 1933 L 1016 1849 L 719 1550 L 635 1634 L 932 1933 Z" unicode="Ó" />
<glyph horiz-adv-x="1444" d="M 1321 668 C 1321 560 1306 463 1276 377 C 1246 291 1204 218 1151 159 C 1097 99 1034 54 961 22 C 888 -9 809 -25 723 -25 C 637 -25 557 -9 483 22 C 409 54 346 99 293 159 C 239 218 198 291 168 377 C 138 463 123 560 123 668 C 123 776 138 873 168 959 C 198 1044 239 1116 293 1176 C 346 1236 409 1281 483 1312 C 557 1342 637 1358 723 1358 C 809 1358 888 1342 961 1312 C 1034 1281 1097 1236 1151 1176 C 1204 1116 1246 1044 1276 959 C 1306 873 1321 776 1321 668 Z M 1153 668 C 1153 758 1142 837 1122 907 C 1102 977 1072 1035 1034 1081 C 996 1127 950 1163 898 1187 C 845 1211 787 1223 723 1223 C 659 1223 600 1211 548 1187 C 495 1163 449 1127 410 1081 C 371 1035 341 977 320 907 C 299 837 289 758 289 668 C 289 577 299 497 320 428 C 341 358 371 300 410 253 C 449 205 495 170 548 146 C 600 122 659 111 723 111 C 787 111 845 122 898 146 C 950 170 996 205 1034 253 C 1072 300 1102 358 1122 428 C 1142 497 1153 577 1153 668 Z M 344 1552 L 670 1880 L 797 1880 L 1122 1552 L 954 1552 L 733 1790 L 512 1552 L 344 1552 Z" unicode="Ô" />
<glyph horiz-adv-x="1444" d="M 1321 668 C 1321 560 1306 463 1276 377 C 1246 291 1204 218 1151 159 C 1097 99 1034 54 961 22 C 888 -9 809 -25 723 -25 C 637 -25 557 -9 483 22 C 409 54 346 99 293 159 C 239 218 198 291 168 377 C 138 463 123 560 123 668 C 123 776 138 873 168 959 C 198 1044 239 1116 293 1176 C 346 1236 409 1281 483 1312 C 557 1342 637 1358 723 1358 C 809 1358 888 1342 961 1312 C 1034 1281 1097 1236 1151 1176 C 1204 1116 1246 1044 1276 959 C 1306 873 1321 776 1321 668 Z M 1153 668 C 1153 758 1142 837 1122 907 C 1102 977 1072 1035 1034 1081 C 996 1127 950 1163 898 1187 C 845 1211 787 1223 723 1223 C 659 1223 600 1211 548 1187 C 495 1163 449 1127 410 1081 C 371 1035 341 977 320 907 C 299 837 289 758 289 668 C 289 577 299 497 320 428 C 341 358 371 300 410 253 C 449 205 495 170 548 146 C 600 122 659 111 723 111 C 787 111 845 122 898 146 C 950 170 996 205 1034 253 C 1072 300 1102 358 1122 428 C 1142 497 1153 577 1153 668 Z M 580 1785 C 606 1785 632 1779 656 1769 C 680 1759 702 1747 724 1735 C 746 1722 766 1710 785 1700 C 804 1690 822 1685 840 1685 C 851 1685 860 1688 868 1694 C 875 1700 881 1707 885 1717 C 889 1726 893 1737 896 1749 C 898 1761 901 1774 903 1787 L 1016 1744 C 1018 1724 1017 1702 1012 1680 C 1006 1658 997 1637 983 1619 C 969 1600 952 1584 931 1572 C 909 1560 884 1554 856 1554 C 828 1554 803 1559 779 1569 C 755 1579 733 1591 712 1604 C 691 1616 671 1628 652 1638 C 633 1648 615 1654 597 1654 C 587 1654 578 1651 571 1645 C 564 1639 558 1632 554 1623 C 549 1613 545 1602 542 1590 C 538 1578 535 1565 533 1552 L 421 1595 C 419 1621 422 1646 430 1670 C 438 1693 449 1713 463 1730 C 477 1747 495 1760 515 1770 C 535 1780 556 1785 580 1785 Z" unicode="Õ" />
<glyph horiz-adv-x="1444" d="M 1321 668 C 1321 560 1306 463 1276 377 C 1246 291 1204 218 1151 159 C 1097 99 1034 54 961 22 C 888 -9 809 -25 723 -25 C 637 -25 557 -9 483 22 C 409 54 346 99 293 159 C 239 218 198 291 168 377 C 138 463 123 560 123 668 C 123 776 138 873 168 959 C 198 1044 239 1116 293 1176 C 346 1236 409 1281 483 1312 C 557 1342 637 1358 723 1358 C 809 1358 888 1342 961 1312 C 1034 1281 1097 1236 1151 1176 C 1204 1116 1246 1044 1276 959 C 1306 873 1321 776 1321 668 Z M 1153 668 C 1153 758 1142 837 1122 907 C 1102 977 1072 1035 1034 1081 C 996 1127 950 1163 898 1187 C 845 1211 787 1223 723 1223 C 659 1223 600 1211 548 1187 C 495 1163 449 1127 410 1081 C 371 1035 341 977 320 907 C 299 837 289 758 289 668 C 289 577 299 497 320 428 C 341 358 371 300 410 253 C 449 205 495 170 548 146 C 600 122 659 111 723 111 C 787 111 845 122 898 146 C 950 170 996 205 1034 253 C 1072 300 1102 358 1122 428 C 1142 497 1153 577 1153 668 Z M 627 1665 C 627 1632 616 1605 594 1583 C 570 1562 543 1552 512 1552 C 479 1552 452 1562 430 1583 C 410 1603 400 1631 400 1665 C 400 1700 410 1728 430 1749 C 453 1767 480 1777 512 1777 C 543 1777 570 1767 594 1749 C 616 1727 627 1699 627 1665 Z M 1039 1665 C 1039 1632 1028 1605 1006 1583 C 982 1562 956 1552 926 1552 C 892 1552 864 1562 842 1583 C 821 1603 811 1631 811 1665 C 811 1700 821 1728 842 1749 C 865 1767 893 1777 926 1777 C 956 1777 982 1767 1006 1749 C 1028 1727 1039 1699 1039 1665 Z" unicode="Ö" />
<glyph horiz-adv-x="1044" d="M 788 834 L 883 739 L 608 463 L 883 186 L 788 92 L 512 367 L 236 92 L 141 186 L 416 463 L 141 739 L 236 834 L 512 559 L 788 834 L 788 834 Z" unicode="×" />
<glyph horiz-adv-x="1444" d="M 1321 668 C 1321 560 1306 463 1276 377 C 1246 291 1204 218 1151 159 C 1097 99 1034 54 961 22 C 888 -9 809 -25 723 -25 C 655 -25 590 -15 530 4 C 470 23 416 52 369 90 L 276 -33 L 174 41 L 276 178 C 228 238 191 309 164 391 C 136 473 123 565 123 668 C 123 776 138 873 168 959 C 198 1044 239 1116 293 1176 C 346 1236 409 1281 483 1312 C 557 1342 637 1358 723 1358 C 858 1358 975 1320 1075 1245 L 1167 1370 L 1270 1296 L 1167 1159 C 1215 1099 1252 1028 1280 946 C 1307 864 1321 771 1321 668 Z M 1153 668 C 1153 742 1145 810 1130 872 C 1115 934 1094 987 1067 1032 L 457 203 C 526 141 615 111 723 111 C 787 111 845 122 898 146 C 950 170 996 205 1034 253 C 1072 300 1102 358 1122 428 C 1142 497 1153 577 1153 668 Z M 289 668 C 289 517 317 395 375 303 L 985 1133 C 915 1193 828 1223 723 1223 C 659 1223 600 1211 548 1187 C 495 1163 449 1127 410 1081 C 371 1035 341 977 320 907 C 299 837 289 758 289 668 Z" unicode="Ø" />
<glyph horiz-adv-x="1307" d="M 725 -25 C 568 -25 450 15 370 96 C 290 176 250 295 250 451 L 250 1333 L 414 1333 L 414 440 C 414 384 422 335 438 294 C 454 253 477 219 506 192 C 534 165 568 145 606 131 C 644 117 685 111 729 111 C 773 111 814 117 852 131 C 890 145 924 165 953 192 C 981 219 1004 253 1020 294 C 1036 335 1045 384 1045 440 L 1045 1333 L 1209 1333 L 1209 451 C 1209 301 1167 185 1085 101 C 1002 17 882 -25 725 -25 Z M 824 1634 L 740 1550 L 443 1849 L 527 1933 L 824 1634 Z" unicode="Ù" />
<glyph horiz-adv-x="1307" d="M 725 -25 C 568 -25 450 15 370 96 C 290 176 250 295 250 451 L 250 1333 L 414 1333 L 414 440 C 414 384 422 335 438 294 C 454 253 477 219 506 192 C 534 165 568 145 606 131 C 644 117 685 111 729 111 C 773 111 814 117 852 131 C 890 145 924 165 953 192 C 981 219 1004 253 1020 294 C 1036 335 1045 384 1045 440 L 1045 1333 L 1209 1333 L 1209 451 C 1209 301 1167 185 1085 101 C 1002 17 882 -25 725 -25 Z M 928 1933 L 1012 1849 L 715 1550 L 631 1634 L 928 1933 Z" unicode="Ú" />
<glyph horiz-adv-x="1307" d="M 725 -25 C 568 -25 450 15 370 96 C 290 176 250 295 250 451 L 250 1333 L 414 1333 L 414 440 C 414 384 422 335 438 294 C 454 253 477 219 506 192 C 534 165 568 145 606 131 C 644 117 685 111 729 111 C 773 111 814 117 852 131 C 890 145 924 165 953 192 C 981 219 1004 253 1020 294 C 1036 335 1045 384 1045 440 L 1045 1333 L 1209 1333 L 1209 451 C 1209 301 1167 185 1085 101 C 1002 17 882 -25 725 -25 Z M 350 1552 L 676 1880 L 803 1880 L 1128 1552 L 960 1552 L 739 1790 L 518 1552 L 350 1552 Z" unicode="Û" />
<glyph horiz-adv-x="1307" d="M 725 -25 C 568 -25 450 15 370 96 C 290 176 250 295 250 451 L 250 1333 L 414 1333 L 414 440 C 414 384 422 335 438 294 C 454 253 477 219 506 192 C 534 165 568 145 606 131 C 644 117 685 111 729 111 C 773 111 814 117 852 131 C 890 145 924 165 953 192 C 981 219 1004 253 1020 294 C 1036 335 1045 384 1045 440 L 1045 1333 L 1209 1333 L 1209 451 C 1209 301 1167 185 1085 101 C 1002 17 882 -25 725 -25 Z M 635 1665 C 635 1632 624 1605 602 1583 C 578 1562 551 1552 520 1552 C 487 1552 460 1562 438 1583 C 418 1603 408 1631 408 1665 C 408 1700 418 1728 438 1749 C 461 1767 488 1777 520 1777 C 551 1777 578 1767 602 1749 C 624 1727 635 1699 635 1665 Z M 1047 1665 C 1047 1632 1036 1605 1014 1583 C 990 1562 964 1552 934 1552 C 900 1552 872 1562 850 1583 C 829 1603 819 1631 819 1665 C 819 1700 829 1728 850 1749 C 873 1767 901 1777 934 1777 C 964 1777 990 1767 1014 1749 C 1036 1727 1047 1699 1047 1665 Z" unicode="Ü" />
<glyph horiz-adv-x="1092" d="M 20 1333 L 195 1333 L 543 643 L 897 1333 L 1071 1333 L 623 512 L 623 0 L 461 0 L 461 512 L 20 1333 Z M 721 1933 L 805 1849 L 508 1550 L 424 1634 L 721 1933 Z" unicode="Ý" />
<glyph horiz-adv-x="1120" d="M 580 1106 C 724 1106 834 1071 910 1001 C 986 931 1024 830 1024 698 C 1024 635 1014 578 995 526 C 976 474 949 430 914 393 C 879 356 838 327 790 307 C 742 286 691 276 635 276 L 346 276 L 346 0 L 184 0 L 184 1333 L 346 1333 L 346 1106 L 580 1106 Z M 610 412 C 659 412 700 420 732 437 C 764 454 789 476 809 503 C 828 529 841 559 849 593 C 856 626 860 660 860 694 C 860 731 854 766 843 800 C 832 833 815 862 793 888 C 771 913 743 933 709 948 C 675 963 636 971 590 971 L 346 971 L 346 412 L 610 412 Z" unicode="Þ" />
<glyph horiz-adv-x="1137" d="M 319 0 L 164 0 L 164 1102 C 164 1152 172 1200 188 1245 C 204 1290 229 1330 262 1365 C 294 1399 335 1427 384 1449 C 432 1470 489 1481 553 1481 C 619 1481 677 1470 726 1450 C 774 1429 814 1402 846 1369 C 877 1335 900 1297 915 1254 C 930 1211 938 1166 938 1118 C 938 1081 931 1046 917 1013 C 903 979 886 948 864 920 C 842 891 816 866 788 845 C 759 823 730 807 700 797 L 700 788 C 748 780 793 765 837 743 C 881 721 919 694 952 660 C 984 626 1010 587 1030 541 C 1049 495 1059 445 1059 389 C 1059 333 1050 280 1034 231 C 1018 182 993 139 959 101 C 925 63 883 33 832 10 C 781 -13 721 -25 651 -25 C 611 -25 573 -21 535 -14 C 497 -7 466 0 442 10 L 442 156 C 464 142 494 129 532 118 C 570 107 609 102 649 102 C 725 102 786 126 832 176 C 878 225 901 294 901 383 C 901 432 895 475 883 513 C 871 550 852 582 826 609 C 799 635 763 656 719 671 C 675 686 621 694 557 694 C 549 694 539 693 529 693 C 519 692 510 692 502 692 L 471 692 L 471 815 C 532 815 583 824 623 843 C 663 862 695 887 718 917 C 740 947 756 980 765 1016 C 773 1051 778 1086 778 1122 C 778 1150 774 1178 766 1206 C 758 1233 745 1258 727 1280 C 709 1302 686 1319 658 1333 C 630 1347 595 1354 555 1354 C 511 1354 474 1346 444 1330 C 414 1314 389 1294 371 1268 C 353 1242 339 1213 331 1181 C 323 1149 319 1116 319 1083 L 319 0 Z" unicode="ß" />
<glyph horiz-adv-x="1047" d="M 434 98 C 476 98 514 104 546 117 C 578 130 604 148 626 170 C 648 192 665 216 677 244 C 689 271 696 299 696 328 L 696 410 C 674 407 644 403 606 398 C 568 393 531 388 496 383 C 468 379 441 373 415 366 C 388 359 365 350 346 340 C 308 316 287 281 285 233 C 285 188 297 154 323 132 C 349 109 386 98 434 98 Z M 135 756 C 153 795 179 830 213 862 C 241 889 279 913 325 935 C 371 956 428 967 494 967 C 559 967 614 958 659 942 C 704 926 741 903 769 874 C 797 845 817 810 829 768 C 841 726 848 681 848 635 L 848 250 C 848 202 853 170 864 155 C 875 140 892 133 915 133 C 930 133 941 133 948 135 C 954 136 961 137 969 139 L 977 18 C 966 11 953 6 939 2 C 925 -2 903 -4 874 -4 C 830 -4 795 10 768 40 C 740 69 724 107 719 154 C 690 103 648 60 594 26 C 539 -7 478 -25 410 -25 C 320 -25 251 -2 201 43 C 151 88 127 149 127 227 C 128 275 141 314 165 345 C 189 375 218 400 254 420 C 289 437 326 450 366 460 C 406 470 452 478 506 485 L 696 510 L 696 623 C 696 687 679 738 647 778 C 614 818 562 838 492 838 C 446 838 409 830 381 815 C 352 800 329 783 313 764 C 294 740 278 714 266 686 L 135 756 Z M 584 1243 L 500 1159 L 203 1458 L 287 1542 L 584 1243 Z" unicode="à" />
<glyph horiz-adv-x="1047" d="M 434 98 C 476 98 514 104 546 117 C 578 130 604 148 626 170 C 648 192 665 216 677 244 C 689 271 696 299 696 328 L 696 410 C 674 407 644 403 606 398 C 568 393 531 388 496 383 C 468 379 441 373 415 366 C 388 359 365 350 346 340 C 308 316 287 281 285 233 C 285 188 297 154 323 132 C 349 109 386 98 434 98 Z M 135 756 C 153 795 179 830 213 862 C 241 889 279 913 325 935 C 371 956 428 967 494 967 C 559 967 614 958 659 942 C 704 926 741 903 769 874 C 797 845 817 810 829 768 C 841 726 848 681 848 635 L 848 250 C 848 202 853 170 864 155 C 875 140 892 133 915 133 C 930 133 941 133 948 135 C 954 136 961 137 969 139 L 977 18 C 966 11 953 6 939 2 C 925 -2 903 -4 874 -4 C 830 -4 795 10 768 40 C 740 69 724 107 719 154 C 690 103 648 60 594 26 C 539 -7 478 -25 410 -25 C 320 -25 251 -2 201 43 C 151 88 127 149 127 227 C 128 275 141 314 165 345 C 189 375 218 400 254 420 C 289 437 326 450 366 460 C 406 470 452 478 506 485 L 696 510 L 696 623 C 696 687 679 738 647 778 C 614 818 562 838 492 838 C 446 838 409 830 381 815 C 352 800 329 783 313 764 C 294 740 278 714 266 686 L 135 756 Z M 686 1542 L 770 1458 L 473 1159 L 389 1243 L 686 1542 Z" unicode="á" />
<glyph horiz-adv-x="1047" d="M 434 98 C 476 98 514 104 546 117 C 578 130 604 148 626 170 C 648 192 665 216 677 244 C 689 271 696 299 696 328 L 696 410 C 674 407 644 403 606 398 C 568 393 531 388 496 383 C 468 379 441 373 415 366 C 388 359 365 350 346 340 C 308 316 287 281 285 233 C 285 188 297 154 323 132 C 349 109 386 98 434 98 Z M 135 756 C 153 795 179 830 213 862 C 241 889 279 913 325 935 C 371 956 428 967 494 967 C 559 967 614 958 659 942 C 704 926 741 903 769 874 C 797 845 817 810 829 768 C 841 726 848 681 848 635 L 848 250 C 848 202 853 170 864 155 C 875 140 892 133 915 133 C 930 133 941 133 948 135 C 954 136 961 137 969 139 L 977 18 C 966 11 953 6 939 2 C 925 -2 903 -4 874 -4 C 830 -4 795 10 768 40 C 740 69 724 107 719 154 C 690 103 648 60 594 26 C 539 -7 478 -25 410 -25 C 320 -25 251 -2 201 43 C 151 88 127 149 127 227 C 128 275 141 314 165 345 C 189 375 218 400 254 420 C 289 437 326 450 366 460 C 406 470 452 478 506 485 L 696 510 L 696 623 C 696 687 679 738 647 778 C 614 818 562 838 492 838 C 446 838 409 830 381 815 C 352 800 329 783 313 764 C 294 740 278 714 266 686 L 135 756 Z M 121 1161 L 447 1489 L 574 1489 L 899 1161 L 731 1161 L 510 1399 L 289 1161 L 121 1161 Z" unicode="â" />
<glyph horiz-adv-x="1047" d="M 434 98 C 476 98 514 104 546 117 C 578 130 604 148 626 170 C 648 192 665 216 677 244 C 689 271 696 299 696 328 L 696 410 C 674 407 644 403 606 398 C 568 393 531 388 496 383 C 468 379 441 373 415 366 C 388 359 365 350 346 340 C 308 316 287 281 285 233 C 285 188 297 154 323 132 C 349 109 386 98 434 98 Z M 135 756 C 153 795 179 830 213 862 C 241 889 279 913 325 935 C 371 956 428 967 494 967 C 559 967 614 958 659 942 C 704 926 741 903 769 874 C 797 845 817 810 829 768 C 841 726 848 681 848 635 L 848 250 C 848 202 853 170 864 155 C 875 140 892 133 915 133 C 930 133 941 133 948 135 C 954 136 961 137 969 139 L 977 18 C 966 11 953 6 939 2 C 925 -2 903 -4 874 -4 C 830 -4 795 10 768 40 C 740 69 724 107 719 154 C 690 103 648 60 594 26 C 539 -7 478 -25 410 -25 C 320 -25 251 -2 201 43 C 151 88 127 149 127 227 C 128 275 141 314 165 345 C 189 375 218 400 254 420 C 289 437 326 450 366 460 C 406 470 452 478 506 485 L 696 510 L 696 623 C 696 687 679 738 647 778 C 614 818 562 838 492 838 C 446 838 409 830 381 815 C 352 800 329 783 313 764 C 294 740 278 714 266 686 L 135 756 Z M 351 1394 C 377 1394 403 1388 427 1378 C 451 1368 473 1356 495 1344 C 517 1331 537 1319 556 1309 C 575 1299 593 1294 611 1294 C 622 1294 631 1297 639 1303 C 646 1309 652 1316 656 1326 C 660 1335 664 1346 667 1358 C 669 1370 672 1383 674 1396 L 787 1353 C 789 1333 788 1311 783 1289 C 777 1267 768 1246 754 1228 C 740 1209 723 1193 702 1181 C 680 1169 655 1163 627 1163 C 599 1163 574 1168 550 1178 C 526 1188 504 1200 483 1213 C 462 1225 442 1237 423 1247 C 404 1257 386 1263 368 1263 C 358 1263 349 1260 342 1254 C 335 1248 329 1241 325 1232 C 320 1222 316 1211 313 1199 C 309 1187 306 1174 304 1161 L 192 1204 C 190 1230 193 1255 201 1279 C 209 1302 220 1322 234 1339 C 248 1356 266 1369 286 1379 C 306 1389 327 1394 351 1394 Z" unicode="ã" />
<glyph horiz-adv-x="1047" d="M 434 98 C 476 98 514 104 546 117 C 578 130 604 148 626 170 C 648 192 665 216 677 244 C 689 271 696 299 696 328 L 696 410 C 674 407 644 403 606 398 C 568 393 531 388 496 383 C 468 379 441 373 415 366 C 388 359 365 350 346 340 C 308 316 287 281 285 233 C 285 188 297 154 323 132 C 349 109 386 98 434 98 Z M 135 756 C 153 795 179 830 213 862 C 241 889 279 913 325 935 C 371 956 428 967 494 967 C 559 967 614 958 659 942 C 704 926 741 903 769 874 C 797 845 817 810 829 768 C 841 726 848 681 848 635 L 848 250 C 848 202 853 170 864 155 C 875 140 892 133 915 133 C 930 133 941 133 948 135 C 954 136 961 137 969 139 L 977 18 C 966 11 953 6 939 2 C 925 -2 903 -4 874 -4 C 830 -4 795 10 768 40 C 740 69 724 107 719 154 C 690 103 648 60 594 26 C 539 -7 478 -25 410 -25 C 320 -25 251 -2 201 43 C 151 88 127 149 127 227 C 128 275 141 314 165 345 C 189 375 218 400 254 420 C 289 437 326 450 366 460 C 406 470 452 478 506 485 L 696 510 L 696 623 C 696 687 679 738 647 778 C 614 818 562 838 492 838 C 446 838 409 830 381 815 C 352 800 329 783 313 764 C 294 740 278 714 266 686 L 135 756 Z M 399 1274 C 399 1241 388 1214 366 1192 C 342 1171 315 1161 284 1161 C 251 1161 224 1171 202 1192 C 182 1212 172 1240 172 1274 C 172 1309 182 1337 202 1358 C 225 1376 252 1386 284 1386 C 315 1386 342 1376 366 1358 C 388 1336 399 1308 399 1274 Z M 811 1274 C 811 1241 800 1214 778 1192 C 754 1171 728 1161 698 1161 C 664 1161 636 1171 614 1192 C 593 1212 583 1240 583 1274 C 583 1309 593 1337 614 1358 C 637 1376 665 1386 698 1386 C 728 1386 754 1376 778 1358 C 800 1336 811 1308 811 1274 Z" unicode="ä" />
<glyph horiz-adv-x="1047" d="M 434 98 C 476 98 514 104 546 117 C 578 130 604 148 626 170 C 648 192 665 216 677 244 C 689 271 696 299 696 328 L 696 410 C 674 407 644 403 606 398 C 568 393 531 388 496 383 C 468 379 441 373 415 366 C 388 359 365 350 346 340 C 308 316 287 281 285 233 C 285 188 297 154 323 132 C 349 109 386 98 434 98 Z M 135 756 C 153 795 179 830 213 862 C 241 889 279 913 325 935 C 371 956 428 967 494 967 C 559 967 614 958 659 942 C 704 926 741 903 769 874 C 797 845 817 810 829 768 C 841 726 848 681 848 635 L 848 250 C 848 202 853 170 864 155 C 875 140 892 133 915 133 C 930 133 941 133 948 135 C 954 136 961 137 969 139 L 977 18 C 966 11 953 6 939 2 C 925 -2 903 -4 874 -4 C 830 -4 795 10 768 40 C 740 69 724 107 719 154 C 690 103 648 60 594 26 C 539 -7 478 -25 410 -25 C 320 -25 251 -2 201 43 C 151 88 127 149 127 227 C 128 275 141 314 165 345 C 189 375 218 400 254 420 C 289 437 326 450 366 460 C 406 470 452 478 506 485 L 696 510 L 696 623 C 696 687 679 738 647 778 C 614 818 562 838 492 838 C 446 838 409 830 381 815 C 352 800 329 783 313 764 C 294 740 278 714 266 686 L 135 756 Z M 262 1395 C 262 1460 283 1515 326 1560 C 369 1605 428 1628 502 1628 C 537 1628 569 1621 599 1609 C 628 1597 653 1580 675 1559 C 696 1538 712 1514 724 1486 C 736 1458 742 1427 742 1395 C 742 1362 736 1331 724 1303 C 712 1274 696 1249 675 1229 C 653 1208 628 1191 599 1179 C 569 1167 537 1161 502 1161 C 428 1161 369 1183 326 1228 C 283 1273 262 1329 262 1395 Z M 365 1395 C 365 1355 378 1321 404 1294 C 430 1266 462 1253 502 1253 C 540 1253 572 1266 599 1294 C 625 1321 639 1355 639 1395 C 639 1433 625 1466 599 1494 C 572 1522 540 1536 502 1536 C 462 1536 430 1522 404 1494 C 378 1466 365 1433 365 1395 Z" unicode="å" />
<glyph horiz-adv-x="1610" d="M 494 967 C 536 967 573 961 607 949 C 640 937 669 922 695 904 C 720 886 742 864 760 839 C 778 813 794 788 807 762 C 819 786 834 811 854 836 C 873 861 896 883 922 903 C 948 922 978 938 1012 950 C 1046 962 1084 969 1126 969 C 1179 969 1229 960 1276 943 C 1322 926 1362 899 1396 863 C 1429 827 1455 781 1475 727 C 1495 672 1505 608 1505 535 C 1505 518 1504 506 1503 499 C 1501 492 1501 483 1501 473 L 848 424 C 852 380 860 338 873 300 C 886 261 904 227 928 199 C 951 170 979 147 1012 130 C 1044 112 1082 104 1126 104 C 1184 104 1233 116 1271 141 C 1309 165 1336 195 1352 231 L 1491 164 C 1479 138 1461 113 1439 90 C 1416 66 1389 46 1359 29 C 1328 12 1293 0 1254 -10 C 1215 -20 1174 -25 1130 -25 C 1081 -25 1037 -18 998 -5 C 959 7 925 24 897 46 C 868 67 844 92 824 120 C 804 148 790 177 780 207 C 755 161 728 124 700 94 C 671 64 641 40 609 22 C 577 4 544 -7 512 -14 C 479 -21 446 -25 414 -25 C 332 -25 263 -1 209 46 C 154 93 127 155 127 233 C 127 275 135 312 151 344 C 167 375 191 402 222 425 C 252 447 286 465 323 477 C 360 489 401 498 446 502 L 696 522 L 696 631 C 696 695 679 745 647 782 C 614 819 562 838 492 838 C 446 838 409 830 381 814 C 352 798 329 781 313 762 C 294 738 280 713 270 686 L 135 756 C 155 794 183 828 217 860 C 245 887 282 912 327 934 C 372 956 428 967 494 967 Z M 1118 842 C 1036 842 971 814 925 760 C 879 705 853 629 848 532 L 1341 567 C 1341 569 1341 574 1342 580 C 1342 586 1343 591 1343 594 C 1343 666 1323 725 1283 772 C 1243 818 1188 842 1118 842 Z M 434 98 C 472 98 509 104 543 117 C 577 130 604 148 626 170 C 648 192 665 216 677 244 C 689 271 696 299 696 328 L 696 410 C 674 410 644 408 606 406 C 568 404 531 401 496 397 C 472 394 447 390 421 386 C 394 381 370 373 350 362 C 329 351 313 336 302 316 C 290 296 285 272 285 242 C 285 194 300 158 331 134 C 361 110 396 98 434 98 Z" unicode="æ" />
<glyph horiz-adv-x="958" d="M 766 707 C 752 739 726 768 690 793 C 653 818 603 831 539 831 C 439 831 367 798 323 732 C 279 666 258 579 258 473 C 258 363 280 276 324 210 C 368 144 440 111 539 111 C 600 111 650 122 690 146 C 730 170 755 200 766 236 L 891 164 C 871 110 831 65 769 29 C 707 -6 632 -25 545 -25 C 479 -25 418 -13 364 9 C 310 31 263 64 224 107 C 185 150 155 202 133 263 C 111 323 100 393 100 471 C 100 549 111 618 133 679 C 155 739 185 791 224 834 C 263 877 310 910 364 933 C 418 955 478 967 543 967 C 629 967 702 948 764 911 C 825 874 867 830 891 778 L 766 707 Z M 500 35 C 523 23 544 12 564 0 C 660 -60 709 -129 709 -207 C 709 -341 630 -408 474 -408 C 405 -408 348 -386 302 -344 L 353 -268 C 391 -296 433 -311 480 -311 C 548 -311 582 -273 582 -197 C 582 -116 515 -44 383 18 L 500 35 Z" unicode="ç" />
<glyph horiz-adv-x="1040" d="M 256 453 C 258 332 287 243 342 187 C 396 130 465 102 549 102 C 592 102 628 108 658 121 C 687 134 711 149 731 166 C 751 184 768 205 780 229 L 920 158 C 900 122 874 91 840 66 C 811 42 773 21 726 3 C 678 -15 620 -25 551 -25 C 473 -25 405 -12 349 14 C 292 40 245 75 209 120 C 172 165 145 218 127 278 C 109 338 100 402 100 469 C 100 547 111 617 133 679 C 155 741 185 793 225 835 C 265 877 312 910 367 933 C 421 955 481 967 545 967 C 610 967 667 955 717 933 C 766 910 807 878 839 837 C 871 796 895 748 911 693 C 927 637 936 577 936 512 C 936 501 936 491 936 482 C 936 473 935 463 934 453 L 256 453 Z M 537 840 C 459 840 396 815 348 766 C 300 716 272 654 264 578 L 770 578 L 770 594 C 770 622 765 651 756 681 C 747 710 733 737 715 761 C 697 785 673 804 644 818 C 614 832 579 840 537 840 Z M 624 1223 L 540 1139 L 243 1438 L 327 1522 L 624 1223 Z" unicode="è" />
<glyph horiz-adv-x="1040" d="M 256 453 C 258 332 287 243 342 187 C 396 130 465 102 549 102 C 592 102 628 108 658 121 C 687 134 711 149 731 166 C 751 184 768 205 780 229 L 920 158 C 900 122 874 91 840 66 C 811 42 773 21 726 3 C 678 -15 620 -25 551 -25 C 473 -25 405 -12 349 14 C 292 40 245 75 209 120 C 172 165 145 218 127 278 C 109 338 100 402 100 469 C 100 547 111 617 133 679 C 155 741 185 793 225 835 C 265 877 312 910 367 933 C 421 955 481 967 545 967 C 610 967 667 955 717 933 C 766 910 807 878 839 837 C 871 796 895 748 911 693 C 927 637 936 577 936 512 C 936 501 936 491 936 482 C 936 473 935 463 934 453 L 256 453 Z M 537 840 C 459 840 396 815 348 766 C 300 716 272 654 264 578 L 770 578 L 770 594 C 770 622 765 651 756 681 C 747 710 733 737 715 761 C 697 785 673 804 644 818 C 614 832 579 840 537 840 Z M 758 1542 L 842 1458 L 545 1159 L 461 1243 L 758 1542 Z" unicode="é" />
<glyph horiz-adv-x="1040" d="M 256 453 C 258 332 287 243 342 187 C 396 130 465 102 549 102 C 592 102 628 108 658 121 C 687 134 711 149 731 166 C 751 184 768 205 780 229 L 920 158 C 900 122 874 91 840 66 C 811 42 773 21 726 3 C 678 -15 620 -25 551 -25 C 473 -25 405 -12 349 14 C 292 40 245 75 209 120 C 172 165 145 218 127 278 C 109 338 100 402 100 469 C 100 547 111 617 133 679 C 155 741 185 793 225 835 C 265 877 312 910 367 933 C 421 955 481 967 545 967 C 610 967 667 955 717 933 C 766 910 807 878 839 837 C 871 796 895 748 911 693 C 927 637 936 577 936 512 C 936 501 936 491 936 482 C 936 473 935 463 934 453 L 256 453 Z M 537 840 C 459 840 396 815 348 766 C 300 716 272 654 264 578 L 770 578 L 770 594 C 770 622 765 651 756 681 C 747 710 733 737 715 761 C 697 785 673 804 644 818 C 614 832 579 840 537 840 Z M 156 1161 L 482 1489 L 609 1489 L 934 1161 L 766 1161 L 545 1399 L 324 1161 L 156 1161 Z" unicode="ê" />
<glyph horiz-adv-x="1040" d="M 256 453 C 258 332 287 243 342 187 C 396 130 465 102 549 102 C 592 102 628 108 658 121 C 687 134 711 149 731 166 C 751 184 768 205 780 229 L 920 158 C 900 122 874 91 840 66 C 811 42 773 21 726 3 C 678 -15 620 -25 551 -25 C 473 -25 405 -12 349 14 C 292 40 245 75 209 120 C 172 165 145 218 127 278 C 109 338 100 402 100 469 C 100 547 111 617 133 679 C 155 741 185 793 225 835 C 265 877 312 910 367 933 C 421 955 481 967 545 967 C 610 967 667 955 717 933 C 766 910 807 878 839 837 C 871 796 895 748 911 693 C 927 637 936 577 936 512 C 936 501 936 491 936 482 C 936 473 935 463 934 453 L 256 453 Z M 537 840 C 459 840 396 815 348 766 C 300 716 272 654 264 578 L 770 578 L 770 594 C 770 622 765 651 756 681 C 747 710 733 737 715 761 C 697 785 673 804 644 818 C 614 832 579 840 537 840 Z M 422 1274 C 422 1241 411 1214 389 1192 C 365 1171 338 1161 307 1161 C 274 1161 247 1171 225 1192 C 205 1212 195 1240 195 1274 C 195 1309 205 1337 225 1358 C 248 1376 275 1386 307 1386 C 338 1386 365 1376 389 1358 C 411 1336 422 1308 422 1274 Z M 834 1274 C 834 1241 823 1214 801 1192 C 777 1171 751 1161 721 1161 C 687 1161 659 1171 637 1192 C 616 1212 606 1240 606 1274 C 606 1309 616 1337 637 1358 C 660 1376 688 1386 721 1386 C 751 1386 777 1376 801 1358 C 823 1336 834 1308 834 1274 Z" unicode="ë" />
<glyph horiz-adv-x="524" d="M 407 1228 L 310 1159 L 70 1505 L 167 1574 L 407 1228 Z M 184 0 L 184 942 L 340 942 L 340 0 L 184 0 Z" unicode="ì" />
<glyph horiz-adv-x="524" d="M 408 1574 L 505 1505 L 265 1159 L 168 1228 L 408 1574 Z M 184 0 L 184 942 L 340 942 L 340 0 L 184 0 Z" unicode="í" />
<glyph horiz-adv-x="524" d="M 184 0 L 184 942 L 340 942 L 340 0 L 184 0 Z M 0 1161 L 203 1489 L 330 1489 L 532 1161 L 406 1161 L 266 1399 L 127 1161 L 0 1161 Z" unicode="î" />
<glyph horiz-adv-x="524" d="M 186 1274 C 186 1241 175 1214 153 1192 C 129 1171 102 1161 71 1161 C 38 1161 11 1171 -11 1192 C -31 1212 -41 1240 -41 1274 C -41 1309 -31 1337 -11 1358 C 12 1376 39 1386 71 1386 C 102 1386 129 1376 153 1358 C 175 1336 186 1308 186 1274 Z M 558 1274 C 558 1241 547 1214 525 1192 C 501 1171 475 1161 445 1161 C 411 1161 383 1171 361 1192 C 340 1212 330 1240 330 1274 C 330 1309 340 1337 361 1358 C 384 1376 412 1386 445 1386 C 475 1386 501 1376 525 1358 C 547 1336 558 1308 558 1274 Z M 184 0 L 184 942 L 340 942 L 340 0 L 184 0 Z" unicode="ï" />
<glyph horiz-adv-x="1122" d="M 590 1280 C 583 1285 574 1292 564 1301 C 554 1310 542 1319 530 1329 C 518 1338 505 1347 491 1356 C 477 1365 465 1372 453 1378 L 524 1481 C 560 1464 597 1441 635 1413 C 673 1384 702 1360 723 1341 L 920 1423 L 965 1317 L 813 1253 C 841 1219 869 1180 895 1138 C 921 1096 943 1048 961 996 C 979 944 994 885 1005 820 C 1016 755 1022 684 1022 606 C 1022 392 981 233 901 130 C 820 26 706 -25 559 -25 C 474 -25 402 -9 344 20 C 285 50 237 89 201 137 C 165 185 139 237 123 295 C 107 352 100 409 100 465 C 100 522 108 581 125 641 C 141 701 167 755 203 804 C 238 852 283 892 339 923 C 394 953 461 969 539 969 C 609 969 673 954 729 926 C 785 897 828 861 860 819 C 849 890 828 959 797 1026 C 765 1092 726 1151 678 1202 L 410 1092 L 362 1194 L 590 1280 Z M 557 102 C 647 102 718 130 772 186 C 825 242 852 331 852 455 C 852 509 846 560 834 607 C 822 654 805 695 781 730 C 757 764 726 792 689 812 C 651 832 607 842 555 842 C 501 842 456 832 418 812 C 380 792 350 764 326 730 C 302 695 285 655 274 609 C 263 563 258 515 258 463 C 258 411 263 362 274 318 C 285 274 303 236 328 204 C 352 172 383 147 421 129 C 458 111 503 102 557 102 Z" unicode="ð" />
<glyph horiz-adv-x="1143" d="M 834 621 C 834 649 829 677 820 703 C 811 729 798 753 781 773 C 764 793 742 809 716 821 C 689 833 657 840 621 840 C 574 840 533 829 498 809 C 463 788 434 761 410 729 C 386 696 369 659 357 618 C 345 577 340 536 340 496 L 340 0 L 184 0 L 184 748 C 184 768 183 796 181 834 C 179 872 176 908 174 942 L 326 942 C 327 934 328 922 329 906 C 329 890 330 874 331 857 C 331 839 332 821 332 803 C 332 785 332 769 332 756 L 342 756 C 352 782 368 807 389 832 C 409 857 433 880 461 900 C 488 920 518 936 552 948 C 585 960 622 967 662 967 C 708 967 750 960 790 947 C 830 934 864 914 894 887 C 923 859 946 824 963 780 C 980 736 989 684 989 623 L 989 0 L 834 0 L 834 621 Z M 467 1394 C 493 1394 519 1388 543 1378 C 567 1368 589 1356 611 1344 C 633 1331 653 1319 672 1309 C 691 1299 709 1294 727 1294 C 738 1294 747 1297 755 1303 C 762 1309 768 1316 772 1326 C 776 1335 780 1346 783 1358 C 785 1370 788 1383 790 1396 L 903 1353 C 905 1333 904 1311 899 1289 C 893 1267 884 1246 870 1228 C 856 1209 839 1193 818 1181 C 796 1169 771 1163 743 1163 C 715 1163 690 1168 666 1178 C 642 1188 620 1200 599 1213 C 578 1225 558 1237 539 1247 C 520 1257 502 1263 484 1263 C 474 1263 465 1260 458 1254 C 451 1248 445 1241 441 1232 C 436 1222 432 1211 429 1199 C 425 1187 422 1174 420 1161 L 308 1204 C 306 1230 309 1255 317 1279 C 325 1302 336 1322 350 1339 C 364 1356 382 1369 402 1379 C 422 1389 443 1394 467 1394 Z" unicode="ñ" />
<glyph horiz-adv-x="1100" d="M 999 471 C 999 393 987 323 965 262 C 943 200 912 148 872 106 C 832 64 785 31 731 9 C 676 -13 616 -25 551 -25 C 485 -25 425 -13 371 9 C 316 31 268 64 228 106 C 188 148 156 200 134 262 C 111 323 100 393 100 471 C 100 549 111 618 134 680 C 156 741 188 793 228 835 C 268 877 316 910 371 933 C 425 955 485 967 551 967 C 616 967 676 955 731 933 C 785 910 832 877 872 835 C 912 793 943 741 965 680 C 987 618 999 549 999 471 Z M 842 471 C 842 592 815 683 761 745 C 707 807 637 838 551 838 C 465 838 394 807 340 745 C 285 683 258 592 258 471 C 258 349 285 258 340 196 C 394 134 465 104 551 104 C 637 104 707 134 761 196 C 815 258 842 349 842 471 Z M 652 1243 L 568 1159 L 271 1458 L 355 1542 L 652 1243 Z" unicode="ò" />
<glyph horiz-adv-x="1100" d="M 999 471 C 999 393 987 323 965 262 C 943 200 912 148 872 106 C 832 64 785 31 731 9 C 676 -13 616 -25 551 -25 C 485 -25 425 -13 371 9 C 316 31 268 64 228 106 C 188 148 156 200 134 262 C 111 323 100 393 100 471 C 100 549 111 618 134 680 C 156 741 188 793 228 835 C 268 877 316 910 371 933 C 425 955 485 967 551 967 C 616 967 676 955 731 933 C 785 910 832 877 872 835 C 912 793 943 741 965 680 C 987 618 999 549 999 471 Z M 842 471 C 842 592 815 683 761 745 C 707 807 637 838 551 838 C 465 838 394 807 340 745 C 285 683 258 592 258 471 C 258 349 285 258 340 196 C 394 134 465 104 551 104 C 637 104 707 134 761 196 C 815 258 842 349 842 471 Z M 754 1542 L 838 1458 L 541 1159 L 457 1243 L 754 1542 Z" unicode="ó" />
<glyph horiz-adv-x="1100" d="M 999 471 C 999 393 987 323 965 262 C 943 200 912 148 872 106 C 832 64 785 31 731 9 C 676 -13 616 -25 551 -25 C 485 -25 425 -13 371 9 C 316 31 268 64 228 106 C 188 148 156 200 134 262 C 111 323 100 393 100 471 C 100 549 111 618 134 680 C 156 741 188 793 228 835 C 268 877 316 910 371 933 C 425 955 485 967 551 967 C 616 967 676 955 731 933 C 785 910 832 877 872 835 C 912 793 943 741 965 680 C 987 618 999 549 999 471 Z M 842 471 C 842 592 815 683 761 745 C 707 807 637 838 551 838 C 465 838 394 807 340 745 C 285 683 258 592 258 471 C 258 349 285 258 340 196 C 394 134 465 104 551 104 C 637 104 707 134 761 196 C 815 258 842 349 842 471 Z M 172 1161 L 498 1489 L 625 1489 L 950 1161 L 782 1161 L 561 1399 L 340 1161 L 172 1161 Z" unicode="ô" />
<glyph horiz-adv-x="1100" d="M 999 471 C 999 393 987 323 965 262 C 943 200 912 148 872 106 C 832 64 785 31 731 9 C 676 -13 616 -25 551 -25 C 485 -25 425 -13 371 9 C 316 31 268 64 228 106 C 188 148 156 200 134 262 C 111 323 100 393 100 471 C 100 549 111 618 134 680 C 156 741 188 793 228 835 C 268 877 316 910 371 933 C 425 955 485 967 551 967 C 616 967 676 955 731 933 C 785 910 832 877 872 835 C 912 793 943 741 965 680 C 987 618 999 549 999 471 Z M 842 471 C 842 592 815 683 761 745 C 707 807 637 838 551 838 C 465 838 394 807 340 745 C 285 683 258 592 258 471 C 258 349 285 258 340 196 C 394 134 465 104 551 104 C 637 104 707 134 761 196 C 815 258 842 349 842 471 Z M 406 1394 C 432 1394 458 1388 482 1378 C 506 1368 528 1356 550 1344 C 572 1331 592 1319 611 1309 C 630 1299 648 1294 666 1294 C 677 1294 686 1297 694 1303 C 701 1309 707 1316 711 1326 C 715 1335 719 1346 722 1358 C 724 1370 727 1383 729 1396 L 842 1353 C 844 1333 843 1311 838 1289 C 832 1267 823 1246 809 1228 C 795 1209 778 1193 757 1181 C 735 1169 710 1163 682 1163 C 654 1163 629 1168 605 1178 C 581 1188 559 1200 538 1213 C 517 1225 497 1237 478 1247 C 459 1257 441 1263 423 1263 C 413 1263 404 1260 397 1254 C 390 1248 384 1241 380 1232 C 375 1222 371 1211 368 1199 C 364 1187 361 1174 359 1161 L 247 1204 C 245 1230 248 1255 256 1279 C 264 1302 275 1322 289 1339 C 303 1356 321 1369 341 1379 C 361 1389 382 1394 406 1394 Z" unicode="õ" />
<glyph horiz-adv-x="1100" d="M 999 471 C 999 393 987 323 965 262 C 943 200 912 148 872 106 C 832 64 785 31 731 9 C 676 -13 616 -25 551 -25 C 485 -25 425 -13 371 9 C 316 31 268 64 228 106 C 188 148 156 200 134 262 C 111 323 100 393 100 471 C 100 549 111 618 134 680 C 156 741 188 793 228 835 C 268 877 316 910 371 933 C 425 955 485 967 551 967 C 616 967 676 955 731 933 C 785 910 832 877 872 835 C 912 793 943 741 965 680 C 987 618 999 549 999 471 Z M 842 471 C 842 592 815 683 761 745 C 707 807 637 838 551 838 C 465 838 394 807 340 745 C 285 683 258 592 258 471 C 258 349 285 258 340 196 C 394 134 465 104 551 104 C 637 104 707 134 761 196 C 815 258 842 349 842 471 Z M 459 1274 C 459 1241 448 1214 426 1192 C 402 1171 375 1161 344 1161 C 311 1161 284 1171 262 1192 C 242 1212 232 1240 232 1274 C 232 1309 242 1337 262 1358 C 285 1376 312 1386 344 1386 C 375 1386 402 1376 426 1358 C 448 1336 459 1308 459 1274 Z M 871 1274 C 871 1241 860 1214 838 1192 C 814 1171 788 1161 758 1161 C 724 1161 696 1171 674 1192 C 653 1212 643 1240 643 1274 C 643 1309 653 1337 674 1358 C 697 1376 725 1386 758 1386 C 788 1386 814 1376 838 1358 C 860 1336 871 1308 871 1274 Z" unicode="ö" />
<glyph horiz-adv-x="1044" d="M 952 526 L 952 399 L 72 399 L 72 526 L 952 526 L 952 526 Z M 637 164 C 637 125 625 95 602 73 C 579 51 552 41 521 41 C 492 41 466 51 443 73 C 419 95 408 125 408 164 C 408 199 419 227 443 248 C 466 269 492 280 521 280 C 552 280 579 269 602 248 C 625 227 637 199 637 164 Z M 637 789 C 637 750 625 720 602 698 C 579 676 552 666 521 666 C 492 666 466 676 443 698 C 419 720 408 750 408 789 C 408 824 419 852 443 873 C 466 894 492 905 521 905 C 552 905 579 894 602 873 C 625 852 637 824 637 789 Z" unicode="÷" />
<glyph horiz-adv-x="1100" d="M 178 170 C 153 209 134 254 120 304 C 106 354 100 409 100 471 C 100 549 111 618 134 680 C 156 741 188 793 228 835 C 268 877 316 910 371 933 C 425 955 485 967 551 967 C 673 967 776 928 858 850 L 993 987 L 1073 903 L 930 758 C 952 719 969 676 981 628 C 993 580 999 528 999 471 C 999 393 987 323 965 262 C 943 200 912 148 872 106 C 832 64 785 31 731 9 C 676 -13 616 -25 551 -25 C 431 -25 331 10 252 82 L 127 -47 L 49 41 L 178 170 Z M 254 451 C 254 415 256 382 262 353 C 267 323 275 296 285 270 L 752 754 C 727 781 697 802 663 818 C 629 834 591 842 551 842 C 507 842 467 832 431 814 C 395 795 364 769 338 736 C 312 702 291 661 276 613 C 261 565 254 511 254 451 Z M 846 492 C 846 526 842 557 836 587 C 830 616 822 644 813 670 L 348 188 C 374 160 404 139 438 123 C 472 107 509 100 551 100 C 593 100 632 109 668 127 C 704 145 736 171 763 205 C 789 239 810 280 824 328 C 838 376 846 431 846 492 Z" unicode="ø" />
<glyph horiz-adv-x="1124" d="M 319 326 C 319 296 322 267 330 240 C 338 212 350 188 366 168 C 382 147 403 131 428 119 C 452 107 482 102 516 102 C 558 102 596 111 629 129 C 661 147 689 171 713 203 C 736 234 754 270 766 311 C 778 352 784 396 784 444 L 784 942 L 940 942 L 940 195 C 940 175 941 146 943 108 C 945 70 947 34 950 0 L 799 0 C 797 8 796 19 796 35 C 795 51 794 67 794 85 C 793 102 792 119 792 137 C 791 155 791 171 791 186 L 782 186 C 770 158 754 132 734 107 C 714 82 692 60 667 40 C 641 20 612 4 580 -7 C 548 -19 513 -25 475 -25 C 434 -25 395 -18 357 -5 C 319 7 286 28 258 56 C 229 84 206 119 189 162 C 172 205 164 257 164 319 L 164 942 L 319 942 L 319 326 Z M 668 1243 L 584 1159 L 287 1458 L 371 1542 L 668 1243 Z" unicode="ù" />
<glyph horiz-adv-x="1124" d="M 319 326 C 319 296 322 267 330 240 C 338 212 350 188 366 168 C 382 147 403 131 428 119 C 452 107 482 102 516 102 C 558 102 596 111 629 129 C 661 147 689 171 713 203 C 736 234 754 270 766 311 C 778 352 784 396 784 444 L 784 942 L 940 942 L 940 195 C 940 175 941 146 943 108 C 945 70 947 34 950 0 L 799 0 C 797 8 796 19 796 35 C 795 51 794 67 794 85 C 793 102 792 119 792 137 C 791 155 791 171 791 186 L 782 186 C 770 158 754 132 734 107 C 714 82 692 60 667 40 C 641 20 612 4 580 -7 C 548 -19 513 -25 475 -25 C 434 -25 395 -18 357 -5 C 319 7 286 28 258 56 C 229 84 206 119 189 162 C 172 205 164 257 164 319 L 164 942 L 319 942 L 319 326 Z M 750 1542 L 834 1458 L 537 1159 L 453 1243 L 750 1542 Z" unicode="ú" />
<glyph horiz-adv-x="1124" d="M 319 326 C 319 296 322 267 330 240 C 338 212 350 188 366 168 C 382 147 403 131 428 119 C 452 107 482 102 516 102 C 558 102 596 111 629 129 C 661 147 689 171 713 203 C 736 234 754 270 766 311 C 778 352 784 396 784 444 L 784 942 L 940 942 L 940 195 C 940 175 941 146 943 108 C 945 70 947 34 950 0 L 799 0 C 797 8 796 19 796 35 C 795 51 794 67 794 85 C 793 102 792 119 792 137 C 791 155 791 171 791 186 L 782 186 C 770 158 754 132 734 107 C 714 82 692 60 667 40 C 641 20 612 4 580 -7 C 548 -19 513 -25 475 -25 C 434 -25 395 -18 357 -5 C 319 7 286 28 258 56 C 229 84 206 119 189 162 C 172 205 164 257 164 319 L 164 942 L 319 942 L 319 326 Z M 178 1161 L 504 1489 L 631 1489 L 956 1161 L 788 1161 L 567 1399 L 346 1161 L 178 1161 Z" unicode="û" />
<glyph horiz-adv-x="1124" d="M 319 326 C 319 296 322 267 330 240 C 338 212 350 188 366 168 C 382 147 403 131 428 119 C 452 107 482 102 516 102 C 558 102 596 111 629 129 C 661 147 689 171 713 203 C 736 234 754 270 766 311 C 778 352 784 396 784 444 L 784 942 L 940 942 L 940 195 C 940 175 941 146 943 108 C 945 70 947 34 950 0 L 799 0 C 797 8 796 19 796 35 C 795 51 794 67 794 85 C 793 102 792 119 792 137 C 791 155 791 171 791 186 L 782 186 C 770 158 754 132 734 107 C 714 82 692 60 667 40 C 641 20 612 4 580 -7 C 548 -19 513 -25 475 -25 C 434 -25 395 -18 357 -5 C 319 7 286 28 258 56 C 229 84 206 119 189 162 C 172 205 164 257 164 319 L 164 942 L 319 942 L 319 326 Z M 477 1274 C 477 1241 466 1214 444 1192 C 420 1171 393 1161 362 1161 C 329 1161 302 1171 280 1192 C 260 1212 250 1240 250 1274 C 250 1309 260 1337 280 1358 C 303 1376 330 1386 362 1386 C 393 1386 420 1376 444 1358 C 466 1336 477 1308 477 1274 Z M 889 1274 C 889 1241 878 1214 856 1192 C 832 1171 806 1161 776 1161 C 742 1161 714 1171 692 1192 C 671 1212 661 1240 661 1274 C 661 1309 671 1337 692 1358 C 715 1376 743 1386 776 1386 C 806 1386 832 1376 856 1358 C 878 1336 889 1308 889 1274 Z" unicode="ü" />
<glyph horiz-adv-x="969" d="M 489 -369 C 469 -429 436 -472 391 -498 C 346 -524 299 -537 250 -537 C 218 -537 191 -534 167 -528 C 143 -522 122 -516 104 -508 L 131 -383 C 149 -392 167 -398 185 -402 C 203 -406 221 -408 238 -408 C 270 -408 296 -399 315 -381 C 334 -363 348 -339 356 -309 L 424 -74 L 53 942 L 231 942 L 506 139 L 752 942 L 930 942 L 489 -369 L 489 -369 Z M 709 1542 L 793 1458 L 496 1159 L 412 1243 L 709 1542 Z" unicode="ý" />
<glyph horiz-adv-x="1186" d="M 664 965 C 718 965 770 954 822 932 C 873 910 918 877 957 835 C 996 793 1027 741 1050 680 C 1073 618 1085 548 1085 469 C 1085 389 1073 319 1050 258 C 1027 196 996 144 957 102 C 918 60 873 28 822 6 C 770 -16 718 -27 664 -27 C 586 -27 520 -9 466 26 C 412 62 371 100 344 141 L 334 141 C 334 130 334 118 336 104 C 337 93 338 81 339 67 C 339 53 340 39 340 25 L 340 -512 L 184 -512 L 184 1456 L 340 1456 L 340 913 C 340 899 339 886 339 872 C 338 858 337 846 336 836 C 334 822 334 809 334 797 L 344 797 C 371 837 412 875 466 911 C 520 947 586 965 664 965 Z M 621 102 C 709 102 782 132 840 194 C 897 256 926 347 926 469 C 926 530 918 583 903 629 C 888 675 867 713 840 744 C 812 775 780 798 742 813 C 704 828 664 836 621 836 C 535 836 464 804 408 741 C 352 678 324 587 324 469 C 324 351 352 261 408 197 C 464 133 535 102 621 102 Z" unicode="þ" />
<glyph horiz-adv-x="969" d="M 489 -369 C 469 -429 436 -472 391 -498 C 346 -524 299 -537 250 -537 C 218 -537 191 -534 167 -528 C 143 -522 122 -516 104 -508 L 131 -383 C 149 -392 167 -398 185 -402 C 203 -406 221 -408 238 -408 C 270 -408 296 -399 315 -381 C 334 -363 348 -339 356 -309 L 424 -74 L 53 942 L 231 942 L 506 139 L 752 942 L 930 942 L 489 -369 L 489 -369 Z M 385 1274 C 385 1241 374 1214 352 1192 C 328 1171 301 1161 270 1161 C 237 1161 210 1171 188 1192 C 168 1212 158 1240 158 1274 C 158 1309 168 1337 188 1358 C 211 1376 238 1386 270 1386 C 301 1386 328 1376 352 1358 C 374 1336 385 1308 385 1274 Z M 797 1274 C 797 1241 786 1214 764 1192 C 740 1171 714 1161 684 1161 C 650 1161 622 1171 600 1192 C 579 1212 569 1240 569 1274 C 569 1309 579 1337 600 1358 C 623 1376 651 1386 684 1386 C 714 1386 740 1376 764 1358 C 786 1336 797 1308 797 1274 Z" unicode="ÿ" />
<glyph horiz-adv-x="1229" d="M 61 0 L 510 1333 L 719 1333 L 1167 0 L 997 0 L 891 326 L 334 326 L 227 0 L 61 0 Z M 381 471 L 844 471 L 612 1204 L 381 471 Z M 305 1673 L 919 1673 L 919 1560 L 305 1560 L 305 1673 Z" unicode="Ā" />
<glyph horiz-adv-x="1047" d="M 434 98 C 476 98 514 104 546 117 C 578 130 604 148 626 170 C 648 192 665 216 677 244 C 689 271 696 299 696 328 L 696 410 C 674 407 644 403 606 398 C 568 393 531 388 496 383 C 468 379 441 373 415 366 C 388 359 365 350 346 340 C 308 316 287 281 285 233 C 285 188 297 154 323 132 C 349 109 386 98 434 98 Z M 135 756 C 153 795 179 830 213 862 C 241 889 279 913 325 935 C 371 956 428 967 494 967 C 559 967 614 958 659 942 C 704 926 741 903 769 874 C 797 845 817 810 829 768 C 841 726 848 681 848 635 L 848 250 C 848 202 853 170 864 155 C 875 140 892 133 915 133 C 930 133 941 133 948 135 C 954 136 961 137 969 139 L 977 18 C 966 11 953 6 939 2 C 925 -2 903 -4 874 -4 C 830 -4 795 10 768 40 C 740 69 724 107 719 154 C 690 103 648 60 594 26 C 539 -7 478 -25 410 -25 C 320 -25 251 -2 201 43 C 151 88 127 149 127 227 C 128 275 141 314 165 345 C 189 375 218 400 254 420 C 289 437 326 450 366 460 C 406 470 452 478 506 485 L 696 510 L 696 623 C 696 687 679 738 647 778 C 614 818 562 838 492 838 C 446 838 409 830 381 815 C 352 800 329 783 313 764 C 294 740 278 714 266 686 L 135 756 Z M 209 1274 L 823 1274 L 823 1161 L 209 1161 L 209 1274 Z" unicode="ā" />
<glyph horiz-adv-x="1229" d="M 61 0 L 510 1333 L 719 1333 L 1167 0 L 997 0 L 891 326 L 334 326 L 227 0 L 61 0 Z M 381 471 L 844 471 L 612 1204 L 381 471 Z M 614 1665 C 676 1665 724 1685 758 1726 C 792 1767 809 1818 809 1878 L 948 1878 C 948 1831 940 1788 926 1748 C 912 1708 891 1674 863 1645 C 835 1615 800 1592 758 1576 C 716 1560 668 1552 614 1552 C 503 1552 420 1582 364 1643 C 308 1703 280 1782 280 1878 L 417 1878 C 417 1818 434 1767 470 1726 C 506 1685 554 1665 614 1665 Z" unicode="Ă" />
<glyph horiz-adv-x="1047" d="M 434 98 C 476 98 514 104 546 117 C 578 130 604 148 626 170 C 648 192 665 216 677 244 C 689 271 696 299 696 328 L 696 410 C 674 407 644 403 606 398 C 568 393 531 388 496 383 C 468 379 441 373 415 366 C 388 359 365 350 346 340 C 308 316 287 281 285 233 C 285 188 297 154 323 132 C 349 109 386 98 434 98 Z M 135 756 C 153 795 179 830 213 862 C 241 889 279 913 325 935 C 371 956 428 967 494 967 C 559 967 614 958 659 942 C 704 926 741 903 769 874 C 797 845 817 810 829 768 C 841 726 848 681 848 635 L 848 250 C 848 202 853 170 864 155 C 875 140 892 133 915 133 C 930 133 941 133 948 135 C 954 136 961 137 969 139 L 977 18 C 966 11 953 6 939 2 C 925 -2 903 -4 874 -4 C 830 -4 795 10 768 40 C 740 69 724 107 719 154 C 690 103 648 60 594 26 C 539 -7 478 -25 410 -25 C 320 -25 251 -2 201 43 C 151 88 127 149 127 227 C 128 275 141 314 165 345 C 189 375 218 400 254 420 C 289 437 326 450 366 460 C 406 470 452 478 506 485 L 696 510 L 696 623 C 696 687 679 738 647 778 C 614 818 562 838 492 838 C 446 838 409 830 381 815 C 352 800 329 783 313 764 C 294 740 278 714 266 686 L 135 756 Z M 518 1274 C 580 1274 628 1294 662 1335 C 696 1376 713 1427 713 1487 L 852 1487 C 852 1440 844 1397 830 1357 C 816 1317 795 1283 767 1254 C 739 1224 704 1201 662 1185 C 620 1169 572 1161 518 1161 C 407 1161 324 1191 268 1252 C 212 1312 184 1391 184 1487 L 321 1487 C 321 1427 338 1376 374 1335 C 410 1294 458 1274 518 1274 Z" unicode="ă" />
<glyph horiz-adv-x="1229" d="M 61 0 L 510 1333 L 719 1333 L 1167 0 L 997 0 L 891 326 L 334 326 L 227 0 L 61 0 Z M 381 471 L 844 471 L 612 1204 L 381 471 Z M 1149 18 C 989 -59 909 -135 909 -209 C 909 -277 938 -311 998 -311 C 1037 -311 1074 -296 1108 -268 L 1159 -344 C 1107 -386 1051 -408 993 -408 C 852 -408 782 -347 782 -227 C 782 -146 844 -70 969 0 C 989 13 1010 25 1032 35 L 1149 18 Z" unicode="Ą" />
<glyph horiz-adv-x="1047" d="M 434 98 C 476 98 514 104 546 117 C 578 130 604 148 626 170 C 648 192 665 216 677 244 C 689 271 696 299 696 328 L 696 410 C 674 407 644 403 606 398 C 568 393 531 388 496 383 C 468 379 441 373 415 366 C 388 359 365 350 346 340 C 308 316 287 281 285 233 C 285 188 297 154 323 132 C 349 109 386 98 434 98 Z M 135 756 C 153 795 179 830 213 862 C 241 889 279 913 325 935 C 371 956 428 967 494 967 C 559 967 614 958 659 942 C 704 926 741 903 769 874 C 797 845 817 810 829 768 C 841 726 848 681 848 635 L 848 250 C 848 202 853 170 864 155 C 875 140 892 133 915 133 C 930 133 941 133 948 135 C 954 136 961 137 969 139 L 977 18 C 966 11 953 6 939 2 C 925 -2 903 -4 874 -4 C 830 -4 795 10 768 40 C 740 69 724 107 719 154 C 690 103 648 60 594 26 C 539 -7 478 -25 410 -25 C 320 -25 251 -2 201 43 C 151 88 127 149 127 227 C 128 275 141 314 165 345 C 189 375 218 400 254 420 C 289 437 326 450 366 460 C 406 470 452 478 506 485 L 696 510 L 696 623 C 696 687 679 738 647 778 C 614 818 562 838 492 838 C 446 838 409 830 381 815 C 352 800 329 783 313 764 C 294 740 278 714 266 686 L 135 756 Z M 973 18 C 813 -59 733 -135 733 -209 C 733 -277 762 -311 822 -311 C 861 -311 898 -296 932 -268 L 983 -344 C 931 -386 875 -408 817 -408 C 676 -408 606 -347 606 -227 C 606 -146 668 -70 793 0 C 813 13 834 25 856 35 L 973 18 Z" unicode="ą" />
<glyph horiz-adv-x="1266" d="M 1034 1020 C 1026 1047 1012 1073 992 1098 C 972 1122 948 1144 920 1162 C 891 1180 859 1195 824 1206 C 789 1217 752 1223 713 1223 C 639 1223 575 1208 522 1180 C 468 1151 425 1111 391 1061 C 357 1010 331 950 315 880 C 299 810 291 735 291 655 C 291 575 299 501 316 434 C 333 367 359 310 394 262 C 428 214 471 176 523 150 C 574 124 634 111 702 111 C 744 111 784 116 822 127 C 860 137 893 152 923 172 C 952 191 976 214 996 240 C 1016 266 1030 293 1040 322 L 1176 240 C 1160 202 1139 168 1111 136 C 1083 104 1048 76 1007 52 C 966 28 919 9 867 -4 C 814 -18 757 -25 696 -25 C 615 -25 540 -9 470 21 C 400 52 339 97 288 155 C 236 213 196 284 167 369 C 137 453 123 549 123 655 C 123 763 137 860 167 947 C 196 1033 237 1107 290 1168 C 342 1229 405 1276 477 1309 C 549 1341 628 1358 713 1358 C 771 1358 825 1351 875 1337 C 925 1323 969 1305 1008 1282 C 1047 1258 1081 1231 1109 1200 C 1137 1168 1158 1136 1174 1102 L 1034 1020 Z M 899 1933 L 983 1849 L 686 1550 L 602 1634 L 899 1933 Z" unicode="Ć" />
<glyph horiz-adv-x="958" d="M 766 707 C 752 739 726 768 690 793 C 653 818 603 831 539 831 C 439 831 367 798 323 732 C 279 666 258 579 258 473 C 258 363 280 276 324 210 C 368 144 440 111 539 111 C 600 111 650 122 690 146 C 730 170 755 200 766 236 L 891 164 C 871 110 831 65 769 29 C 707 -6 632 -25 545 -25 C 479 -25 418 -13 364 9 C 310 31 263 64 224 107 C 185 150 155 202 133 263 C 111 323 100 393 100 471 C 100 549 111 618 133 679 C 155 739 185 791 224 834 C 263 877 310 910 364 933 C 418 955 478 967 543 967 C 629 967 702 948 764 911 C 825 874 867 830 891 778 L 766 707 Z M 713 1542 L 797 1458 L 500 1159 L 416 1243 L 713 1542 Z" unicode="ć" />
<glyph horiz-adv-x="1266" d="M 1034 1020 C 1026 1047 1012 1073 992 1098 C 972 1122 948 1144 920 1162 C 891 1180 859 1195 824 1206 C 789 1217 752 1223 713 1223 C 639 1223 575 1208 522 1180 C 468 1151 425 1111 391 1061 C 357 1010 331 950 315 880 C 299 810 291 735 291 655 C 291 575 299 501 316 434 C 333 367 359 310 394 262 C 428 214 471 176 523 150 C 574 124 634 111 702 111 C 744 111 784 116 822 127 C 860 137 893 152 923 172 C 952 191 976 214 996 240 C 1016 266 1030 293 1040 322 L 1176 240 C 1160 202 1139 168 1111 136 C 1083 104 1048 76 1007 52 C 966 28 919 9 867 -4 C 814 -18 757 -25 696 -25 C 615 -25 540 -9 470 21 C 400 52 339 97 288 155 C 236 213 196 284 167 369 C 137 453 123 549 123 655 C 123 763 137 860 167 947 C 196 1033 237 1107 290 1168 C 342 1229 405 1276 477 1309 C 549 1341 628 1358 713 1358 C 771 1358 825 1351 875 1337 C 925 1323 969 1305 1008 1282 C 1047 1258 1081 1231 1109 1200 C 1137 1168 1158 1136 1174 1102 L 1034 1020 Z M 328 1552 L 654 1880 L 781 1880 L 1106 1552 L 938 1552 L 717 1790 L 496 1552 L 328 1552 Z" unicode="Ĉ" />
<glyph horiz-adv-x="958" d="M 766 707 C 752 739 726 768 690 793 C 653 818 603 831 539 831 C 439 831 367 798 323 732 C 279 666 258 579 258 473 C 258 363 280 276 324 210 C 368 144 440 111 539 111 C 600 111 650 122 690 146 C 730 170 755 200 766 236 L 891 164 C 871 110 831 65 769 29 C 707 -6 632 -25 545 -25 C 479 -25 418 -13 364 9 C 310 31 263 64 224 107 C 185 150 155 202 133 263 C 111 323 100 393 100 471 C 100 549 111 618 133 679 C 155 739 185 791 224 834 C 263 877 310 910 364 933 C 418 955 478 967 543 967 C 629 967 702 948 764 911 C 825 874 867 830 891 778 L 766 707 Z M 151 1161 L 477 1489 L 604 1489 L 929 1161 L 761 1161 L 540 1399 L 319 1161 L 151 1161 Z" unicode="ĉ" />
<glyph horiz-adv-x="1266" d="M 1034 1020 C 1026 1047 1012 1073 992 1098 C 972 1122 948 1144 920 1162 C 891 1180 859 1195 824 1206 C 789 1217 752 1223 713 1223 C 639 1223 575 1208 522 1180 C 468 1151 425 1111 391 1061 C 357 1010 331 950 315 880 C 299 810 291 735 291 655 C 291 575 299 501 316 434 C 333 367 359 310 394 262 C 428 214 471 176 523 150 C 574 124 634 111 702 111 C 744 111 784 116 822 127 C 860 137 893 152 923 172 C 952 191 976 214 996 240 C 1016 266 1030 293 1040 322 L 1176 240 C 1160 202 1139 168 1111 136 C 1083 104 1048 76 1007 52 C 966 28 919 9 867 -4 C 814 -18 757 -25 696 -25 C 615 -25 540 -9 470 21 C 400 52 339 97 288 155 C 236 213 196 284 167 369 C 137 453 123 549 123 655 C 123 763 137 860 167 947 C 196 1033 237 1107 290 1168 C 342 1229 405 1276 477 1309 C 549 1341 628 1358 713 1358 C 771 1358 825 1351 875 1337 C 925 1323 969 1305 1008 1282 C 1047 1258 1081 1231 1109 1200 C 1137 1168 1158 1136 1174 1102 L 1034 1020 Z M 817 1675 C 817 1638 805 1608 782 1585 C 756 1563 728 1552 700 1552 C 672 1552 646 1563 622 1585 C 598 1607 587 1637 587 1675 C 587 1713 598 1741 622 1761 C 644 1781 670 1792 700 1792 C 730 1792 757 1781 782 1761 C 805 1740 817 1711 817 1675 Z" unicode="Ċ" />
<glyph horiz-adv-x="958" d="M 766 707 C 752 739 726 768 690 793 C 653 818 603 831 539 831 C 439 831 367 798 323 732 C 279 666 258 579 258 473 C 258 363 280 276 324 210 C 368 144 440 111 539 111 C 600 111 650 122 690 146 C 730 170 755 200 766 236 L 891 164 C 871 110 831 65 769 29 C 707 -6 632 -25 545 -25 C 479 -25 418 -13 364 9 C 310 31 263 64 224 107 C 185 150 155 202 133 263 C 111 323 100 393 100 471 C 100 549 111 618 133 679 C 155 739 185 791 224 834 C 263 877 310 910 364 933 C 418 955 478 967 543 967 C 629 967 702 948 764 911 C 825 874 867 830 891 778 L 766 707 Z M 635 1284 C 635 1247 623 1217 600 1194 C 574 1172 546 1161 518 1161 C 490 1161 464 1172 440 1194 C 416 1216 405 1246 405 1284 C 405 1322 416 1350 440 1370 C 462 1390 488 1401 518 1401 C 548 1401 575 1390 600 1370 C 623 1349 635 1320 635 1284 Z" unicode="ċ" />
<glyph horiz-adv-x="1266" d="M 1034 1020 C 1026 1047 1012 1073 992 1098 C 972 1122 948 1144 920 1162 C 891 1180 859 1195 824 1206 C 789 1217 752 1223 713 1223 C 639 1223 575 1208 522 1180 C 468 1151 425 1111 391 1061 C 357 1010 331 950 315 880 C 299 810 291 735 291 655 C 291 575 299 501 316 434 C 333 367 359 310 394 262 C 428 214 471 176 523 150 C 574 124 634 111 702 111 C 744 111 784 116 822 127 C 860 137 893 152 923 172 C 952 191 976 214 996 240 C 1016 266 1030 293 1040 322 L 1176 240 C 1160 202 1139 168 1111 136 C 1083 104 1048 76 1007 52 C 966 28 919 9 867 -4 C 814 -18 757 -25 696 -25 C 615 -25 540 -9 470 21 C 400 52 339 97 288 155 C 236 213 196 284 167 369 C 137 453 123 549 123 655 C 123 763 137 860 167 947 C 196 1033 237 1107 290 1168 C 342 1229 405 1276 477 1309 C 549 1341 628 1358 713 1358 C 771 1358 825 1351 875 1337 C 925 1323 969 1305 1008 1282 C 1047 1258 1081 1231 1109 1200 C 1137 1168 1158 1136 1174 1102 L 1034 1020 Z M 1104 1880 L 779 1552 L 650 1552 L 326 1880 L 492 1880 L 715 1642 L 936 1880 L 1104 1880 Z" unicode="Č" />
<glyph horiz-adv-x="958" d="M 766 707 C 752 739 726 768 690 793 C 653 818 603 831 539 831 C 439 831 367 798 323 732 C 279 666 258 579 258 473 C 258 363 280 276 324 210 C 368 144 440 111 539 111 C 600 111 650 122 690 146 C 730 170 755 200 766 236 L 891 164 C 871 110 831 65 769 29 C 707 -6 632 -25 545 -25 C 479 -25 418 -13 364 9 C 310 31 263 64 224 107 C 185 150 155 202 133 263 C 111 323 100 393 100 471 C 100 549 111 618 133 679 C 155 739 185 791 224 834 C 263 877 310 910 364 933 C 418 955 478 967 543 967 C 629 967 702 948 764 911 C 825 874 867 830 891 778 L 766 707 Z M 942 1489 L 617 1161 L 488 1161 L 164 1489 L 330 1489 L 553 1251 L 774 1489 L 942 1489 Z" unicode="č" />
<glyph horiz-adv-x="1348" d="M 184 0 L 184 1333 L 629 1333 C 821 1333 970 1275 1076 1161 C 1182 1046 1235 881 1235 666 C 1235 452 1182 288 1076 173 C 970 57 821 0 629 0 L 184 0 Z M 631 135 C 777 135 886 180 958 271 C 1030 362 1067 494 1067 666 C 1067 839 1030 971 958 1062 C 886 1152 777 1198 631 1198 L 346 1198 L 346 135 L 631 135 Z M 1003 1880 L 678 1552 L 549 1552 L 225 1880 L 391 1880 L 614 1642 L 835 1880 L 1003 1880 Z" unicode="Ď" />
<glyph horiz-adv-x="1227" d="M 260 471 C 260 349 288 258 346 196 C 403 134 475 104 561 104 C 647 104 718 134 774 196 C 830 258 858 349 858 471 C 858 592 830 684 774 746 C 718 808 647 840 561 840 C 475 840 403 808 346 746 C 288 684 260 592 260 471 Z M 1001 1456 L 1001 193 C 1001 169 1002 139 1004 101 C 1006 63 1009 30 1012 0 L 870 0 C 868 6 867 16 866 29 C 864 42 863 56 863 71 C 862 86 861 101 860 116 C 858 131 858 145 858 158 L 848 158 C 834 134 816 112 794 91 C 772 69 748 50 720 32 C 692 14 661 0 628 -9 C 594 -19 560 -25 524 -25 C 464 -25 408 -13 356 10 C 304 33 260 66 222 109 C 184 152 155 204 133 264 C 111 324 100 391 100 465 C 100 538 111 606 134 668 C 156 730 187 784 226 828 C 265 872 311 907 364 932 C 417 956 475 969 537 969 C 571 969 603 964 635 954 C 666 944 695 931 722 915 C 748 899 772 881 792 861 C 812 841 829 821 842 801 L 852 801 C 849 819 847 840 847 863 C 846 885 846 904 846 918 L 846 1456 L 1001 1456 Z M 1174 1128 L 1219 1479 L 1369 1456 L 1285 1116 L 1174 1128 Z" unicode="ď" />
<glyph horiz-adv-x="1368" d="M 61 729 L 246 729 L 246 1333 L 639 1333 C 831 1333 979 1275 1081 1161 C 1183 1046 1235 881 1235 666 C 1235 452 1183 288 1081 173 C 979 57 831 0 639 0 L 246 0 L 246 602 L 61 602 L 61 729 Z M 641 135 C 787 135 894 180 963 271 C 1032 362 1067 494 1067 666 C 1067 839 1032 971 963 1062 C 894 1152 787 1198 641 1198 L 408 1198 L 408 729 L 635 729 L 635 602 L 408 602 L 408 135 L 641 135 Z" unicode="Đ" />
<glyph horiz-adv-x="1186" d="M 567 1243 L 846 1243 L 846 1456 L 1001 1456 L 1001 1243 L 1141 1243 L 1141 1126 L 1001 1126 L 1001 193 C 1001 169 1002 139 1004 101 C 1006 63 1009 30 1012 0 L 870 0 C 868 6 867 16 866 29 C 864 42 863 56 863 71 C 862 86 861 101 860 116 C 858 131 858 145 858 158 L 848 158 C 834 134 816 112 794 91 C 772 69 748 50 720 32 C 692 14 661 0 628 -9 C 594 -19 560 -25 524 -25 C 464 -25 408 -13 356 10 C 304 33 260 66 222 109 C 184 152 155 204 133 264 C 111 324 100 391 100 465 C 100 538 111 606 134 668 C 156 730 187 784 226 828 C 265 872 311 907 364 932 C 417 956 475 969 537 969 C 571 969 603 964 635 954 C 666 944 695 931 722 915 C 748 899 772 881 792 861 C 812 841 829 821 842 801 L 852 801 C 849 819 847 840 847 863 C 846 885 846 904 846 918 L 846 1126 L 567 1126 L 567 1243 Z M 260 471 C 260 349 288 258 346 196 C 403 134 475 104 561 104 C 647 104 718 134 774 196 C 830 258 858 349 858 471 C 858 592 830 684 774 746 C 718 808 647 840 561 840 C 475 840 403 808 346 746 C 288 684 260 592 260 471 Z" unicode="đ" />
<glyph horiz-adv-x="1137" d="M 346 1198 L 346 739 L 928 739 L 928 604 L 346 604 L 346 135 L 1014 135 L 1014 0 L 184 0 L 184 1333 L 987 1333 L 987 1198 L 346 1198 Z M 279 1665 L 893 1665 L 893 1552 L 279 1552 L 279 1665 Z" unicode="Ē" />
<glyph horiz-adv-x="1040" d="M 256 453 C 258 332 287 243 342 187 C 396 130 465 102 549 102 C 592 102 628 108 658 121 C 687 134 711 149 731 166 C 751 184 768 205 780 229 L 920 158 C 900 122 874 91 840 66 C 811 42 773 21 726 3 C 678 -15 620 -25 551 -25 C 473 -25 405 -12 349 14 C 292 40 245 75 209 120 C 172 165 145 218 127 278 C 109 338 100 402 100 469 C 100 547 111 617 133 679 C 155 741 185 793 225 835 C 265 877 312 910 367 933 C 421 955 481 967 545 967 C 610 967 667 955 717 933 C 766 910 807 878 839 837 C 871 796 895 748 911 693 C 927 637 936 577 936 512 C 936 501 936 491 936 482 C 936 473 935 463 934 453 L 256 453 Z M 537 840 C 459 840 396 815 348 766 C 300 716 272 654 264 578 L 770 578 L 770 594 C 770 622 765 651 756 681 C 747 710 733 737 715 761 C 697 785 673 804 644 818 C 614 832 579 840 537 840 Z M 213 1274 L 827 1274 L 827 1161 L 213 1161 L 213 1274 Z" unicode="ē" />
<glyph horiz-adv-x="1137" d="M 346 1198 L 346 739 L 928 739 L 928 604 L 346 604 L 346 135 L 1014 135 L 1014 0 L 184 0 L 184 1333 L 987 1333 L 987 1198 L 346 1198 Z M 584 1665 C 646 1665 694 1685 728 1726 C 762 1767 779 1818 779 1878 L 918 1878 C 918 1831 910 1788 896 1748 C 882 1708 861 1674 833 1645 C 805 1615 770 1592 728 1576 C 686 1560 638 1552 584 1552 C 473 1552 390 1582 334 1643 C 278 1703 250 1782 250 1878 L 387 1878 C 387 1818 404 1767 440 1726 C 476 1685 524 1665 584 1665 Z" unicode="Ĕ" />
<glyph horiz-adv-x="1040" d="M 256 453 C 258 332 287 243 342 187 C 396 130 465 102 549 102 C 592 102 628 108 658 121 C 687 134 711 149 731 166 C 751 184 768 205 780 229 L 920 158 C 900 122 874 91 840 66 C 811 42 773 21 726 3 C 678 -15 620 -25 551 -25 C 473 -25 405 -12 349 14 C 292 40 245 75 209 120 C 172 165 145 218 127 278 C 109 338 100 402 100 469 C 100 547 111 617 133 679 C 155 741 185 793 225 835 C 265 877 312 910 367 933 C 421 955 481 967 545 967 C 610 967 667 955 717 933 C 766 910 807 878 839 837 C 871 796 895 748 911 693 C 927 637 936 577 936 512 C 936 501 936 491 936 482 C 936 473 935 463 934 453 L 256 453 Z M 537 840 C 459 840 396 815 348 766 C 300 716 272 654 264 578 L 770 578 L 770 594 C 770 622 765 651 756 681 C 747 710 733 737 715 761 C 697 785 673 804 644 818 C 614 832 579 840 537 840 Z M 520 1274 C 582 1274 630 1294 664 1335 C 698 1376 715 1427 715 1487 L 854 1487 C 854 1440 846 1397 832 1357 C 818 1317 797 1283 769 1254 C 741 1224 706 1201 664 1185 C 622 1169 574 1161 520 1161 C 409 1161 326 1191 270 1252 C 214 1312 186 1391 186 1487 L 323 1487 C 323 1427 340 1376 376 1335 C 412 1294 460 1274 520 1274 Z" unicode="ĕ" />
<glyph horiz-adv-x="1137" d="M 346 1198 L 346 739 L 928 739 L 928 604 L 346 604 L 346 135 L 1014 135 L 1014 0 L 184 0 L 184 1333 L 987 1333 L 987 1198 L 346 1198 Z M 705 1675 C 705 1638 693 1608 670 1585 C 644 1563 616 1552 588 1552 C 560 1552 534 1563 510 1585 C 486 1607 475 1637 475 1675 C 475 1713 486 1741 510 1761 C 532 1781 558 1792 588 1792 C 618 1792 645 1781 670 1761 C 693 1740 705 1711 705 1675 Z" unicode="Ė" />
<glyph horiz-adv-x="1040" d="M 256 453 C 258 332 287 243 342 187 C 396 130 465 102 549 102 C 592 102 628 108 658 121 C 687 134 711 149 731 166 C 751 184 768 205 780 229 L 920 158 C 900 122 874 91 840 66 C 811 42 773 21 726 3 C 678 -15 620 -25 551 -25 C 473 -25 405 -12 349 14 C 292 40 245 75 209 120 C 172 165 145 218 127 278 C 109 338 100 402 100 469 C 100 547 111 617 133 679 C 155 741 185 793 225 835 C 265 877 312 910 367 933 C 421 955 481 967 545 967 C 610 967 667 955 717 933 C 766 910 807 878 839 837 C 871 796 895 748 911 693 C 927 637 936 577 936 512 C 936 501 936 491 936 482 C 936 473 935 463 934 453 L 256 453 Z M 537 840 C 459 840 396 815 348 766 C 300 716 272 654 264 578 L 770 578 L 770 594 C 770 622 765 651 756 681 C 747 710 733 737 715 761 C 697 785 673 804 644 818 C 614 832 579 840 537 840 Z M 654 1284 C 654 1247 642 1217 619 1194 C 593 1172 565 1161 537 1161 C 509 1161 483 1172 459 1194 C 435 1216 424 1246 424 1284 C 424 1322 435 1350 459 1370 C 481 1390 507 1401 537 1401 C 567 1401 594 1390 619 1370 C 642 1349 654 1320 654 1284 Z" unicode="ė" />
<glyph horiz-adv-x="1137" d="M 346 1198 L 346 739 L 928 739 L 928 604 L 346 604 L 346 135 L 1014 135 L 1014 0 L 184 0 L 184 1333 L 987 1333 L 987 1198 L 346 1198 Z M 956 18 C 796 -59 716 -135 716 -209 C 716 -277 745 -311 805 -311 C 844 -311 881 -296 915 -268 L 966 -344 C 914 -386 858 -408 800 -408 C 659 -408 589 -347 589 -227 C 589 -146 651 -70 776 0 C 796 13 817 25 839 35 L 956 18 Z" unicode="Ę" />
<glyph horiz-adv-x="1040" d="M 256 453 C 258 332 287 243 342 187 C 396 130 465 102 549 102 C 592 102 628 108 658 121 C 687 134 711 149 731 166 C 751 184 768 205 780 229 L 920 158 C 900 122 874 91 840 66 C 811 42 773 21 726 3 C 678 -15 620 -25 551 -25 C 473 -25 405 -12 349 14 C 292 40 245 75 209 120 C 172 165 145 218 127 278 C 109 338 100 402 100 469 C 100 547 111 617 133 679 C 155 741 185 793 225 835 C 265 877 312 910 367 933 C 421 955 481 967 545 967 C 610 967 667 955 717 933 C 766 910 807 878 839 837 C 871 796 895 748 911 693 C 927 637 936 577 936 512 C 936 501 936 491 936 482 C 936 473 935 463 934 453 L 256 453 Z M 537 840 C 459 840 396 815 348 766 C 300 716 272 654 264 578 L 770 578 L 770 594 C 770 622 765 651 756 681 C 747 710 733 737 715 761 C 697 785 673 804 644 818 C 614 832 579 840 537 840 Z M 758 18 C 598 -59 518 -135 518 -209 C 518 -277 547 -311 607 -311 C 646 -311 683 -296 717 -268 L 768 -344 C 716 -386 660 -408 602 -408 C 461 -408 391 -347 391 -227 C 391 -146 453 -70 578 0 C 598 13 619 25 641 35 L 758 18 Z" unicode="ę" />
<glyph horiz-adv-x="1137" d="M 346 1198 L 346 739 L 928 739 L 928 604 L 346 604 L 346 135 L 1014 135 L 1014 0 L 184 0 L 184 1333 L 987 1333 L 987 1198 L 346 1198 Z M 971 1880 L 646 1552 L 517 1552 L 193 1880 L 359 1880 L 582 1642 L 803 1880 L 971 1880 Z" unicode="Ě" />
<glyph horiz-adv-x="1040" d="M 256 453 C 258 332 287 243 342 187 C 396 130 465 102 549 102 C 592 102 628 108 658 121 C 687 134 711 149 731 166 C 751 184 768 205 780 229 L 920 158 C 900 122 874 91 840 66 C 811 42 773 21 726 3 C 678 -15 620 -25 551 -25 C 473 -25 405 -12 349 14 C 292 40 245 75 209 120 C 172 165 145 218 127 278 C 109 338 100 402 100 469 C 100 547 111 617 133 679 C 155 741 185 793 225 835 C 265 877 312 910 367 933 C 421 955 481 967 545 967 C 610 967 667 955 717 933 C 766 910 807 878 839 837 C 871 796 895 748 911 693 C 927 637 936 577 936 512 C 936 501 936 491 936 482 C 936 473 935 463 934 453 L 256 453 Z M 537 840 C 459 840 396 815 348 766 C 300 716 272 654 264 578 L 770 578 L 770 594 C 770 622 765 651 756 681 C 747 710 733 737 715 761 C 697 785 673 804 644 818 C 614 832 579 840 537 840 Z M 942 1489 L 617 1161 L 488 1161 L 164 1489 L 330 1489 L 553 1251 L 774 1489 L 942 1489 Z" unicode="ě" />
<glyph horiz-adv-x="1382" d="M 1219 670 L 1219 0 L 1100 0 L 1079 203 L 1071 203 C 1060 174 1043 146 1021 119 C 998 91 971 67 939 46 C 907 24 871 7 831 -5 C 791 -18 750 -25 707 -25 C 621 -25 542 -9 471 21 C 400 52 339 97 287 155 C 235 213 194 284 166 369 C 137 453 123 549 123 655 C 123 763 137 860 166 947 C 194 1033 235 1107 288 1168 C 340 1229 403 1276 477 1309 C 551 1341 632 1358 721 1358 C 782 1358 839 1351 891 1338 C 943 1325 989 1308 1029 1286 C 1069 1264 1104 1238 1132 1209 C 1160 1179 1180 1148 1194 1116 L 1055 1034 C 1041 1086 1004 1130 944 1167 C 884 1204 809 1223 721 1223 C 640 1223 572 1208 518 1180 C 463 1151 419 1111 386 1061 C 352 1010 328 950 313 880 C 298 810 291 735 291 655 C 291 575 299 501 316 434 C 333 367 359 310 395 262 C 431 214 475 176 529 150 C 583 124 647 111 721 111 C 775 111 824 119 866 136 C 908 153 944 175 974 203 C 1003 230 1025 261 1040 296 C 1055 330 1063 366 1063 403 L 1063 535 L 702 535 L 702 670 L 1219 670 Z M 326 1552 L 652 1880 L 779 1880 L 1104 1552 L 936 1552 L 715 1790 L 494 1552 L 326 1552 Z" unicode="Ĝ" />
<glyph horiz-adv-x="1100" d="M 438 -100 C 370 -100 318 -112 283 -138 C 248 -163 231 -204 231 -262 C 231 -290 236 -315 246 -336 C 256 -356 273 -373 296 -385 C 318 -397 348 -406 385 -412 C 421 -418 467 -422 522 -422 C 635 -422 717 -408 769 -382 C 820 -355 846 -311 846 -250 C 846 -198 827 -160 791 -136 C 755 -112 696 -100 614 -100 L 438 -100 Z M 510 356 C 582 356 637 376 676 416 C 715 456 735 518 735 600 C 735 764 660 846 512 846 C 438 846 379 825 337 783 C 295 741 274 680 274 600 C 274 518 294 456 336 416 C 378 376 436 356 510 356 Z M 1077 821 C 1070 822 1062 823 1053 824 C 1044 824 1034 825 1024 825 C 980 825 943 817 914 802 C 884 787 864 776 852 768 C 866 740 877 715 883 693 C 889 670 893 640 893 604 C 893 488 862 400 801 342 C 739 283 643 247 512 233 C 472 229 438 220 409 207 C 379 194 365 168 365 129 C 365 63 402 31 477 31 L 709 31 C 805 31 880 9 934 -33 C 987 -76 1014 -135 1014 -209 C 1014 -307 969 -386 881 -446 C 792 -506 666 -537 504 -537 C 359 -537 250 -515 178 -472 C 106 -429 70 -369 70 -291 C 70 -255 77 -224 91 -196 C 105 -168 125 -143 150 -123 C 175 -102 205 -86 239 -74 C 273 -62 311 -55 352 -53 C 316 -43 287 -26 265 0 C 242 26 231 56 231 90 C 231 130 244 164 272 193 C 299 221 335 241 379 252 C 346 261 314 275 283 295 C 251 314 224 338 200 366 C 176 394 156 426 141 464 C 126 501 119 544 119 592 C 119 649 129 700 149 746 C 169 792 197 831 233 864 C 269 896 310 922 358 940 C 406 958 457 967 512 967 C 574 967 632 953 684 927 C 736 900 776 867 805 827 C 813 842 824 858 838 876 C 852 894 870 910 891 926 C 911 942 934 955 959 965 C 984 975 1012 981 1042 981 C 1052 981 1060 980 1066 980 C 1072 979 1079 978 1087 977 L 1077 821 Z M 283 1161 L 486 1489 L 613 1489 L 815 1161 L 689 1161 L 549 1399 L 410 1161 L 283 1161 Z" unicode="ĝ" />
<glyph horiz-adv-x="1382" d="M 1219 670 L 1219 0 L 1100 0 L 1079 203 L 1071 203 C 1060 174 1043 146 1021 119 C 998 91 971 67 939 46 C 907 24 871 7 831 -5 C 791 -18 750 -25 707 -25 C 621 -25 542 -9 471 21 C 400 52 339 97 287 155 C 235 213 194 284 166 369 C 137 453 123 549 123 655 C 123 763 137 860 166 947 C 194 1033 235 1107 288 1168 C 340 1229 403 1276 477 1309 C 551 1341 632 1358 721 1358 C 782 1358 839 1351 891 1338 C 943 1325 989 1308 1029 1286 C 1069 1264 1104 1238 1132 1209 C 1160 1179 1180 1148 1194 1116 L 1055 1034 C 1041 1086 1004 1130 944 1167 C 884 1204 809 1223 721 1223 C 640 1223 572 1208 518 1180 C 463 1151 419 1111 386 1061 C 352 1010 328 950 313 880 C 298 810 291 735 291 655 C 291 575 299 501 316 434 C 333 367 359 310 395 262 C 431 214 475 176 529 150 C 583 124 647 111 721 111 C 775 111 824 119 866 136 C 908 153 944 175 974 203 C 1003 230 1025 261 1040 296 C 1055 330 1063 366 1063 403 L 1063 535 L 702 535 L 702 670 L 1219 670 Z M 705 1665 C 767 1665 815 1685 849 1726 C 883 1767 900 1818 900 1878 L 1039 1878 C 1039 1831 1031 1788 1017 1748 C 1003 1708 982 1674 954 1645 C 926 1615 891 1592 849 1576 C 807 1560 759 1552 705 1552 C 594 1552 511 1582 455 1643 C 399 1703 371 1782 371 1878 L 508 1878 C 508 1818 525 1767 561 1726 C 597 1685 645 1665 705 1665 Z" unicode="Ğ" />
<glyph horiz-adv-x="1100" d="M 438 -100 C 370 -100 318 -112 283 -138 C 248 -163 231 -204 231 -262 C 231 -290 236 -315 246 -336 C 256 -356 273 -373 296 -385 C 318 -397 348 -406 385 -412 C 421 -418 467 -422 522 -422 C 635 -422 717 -408 769 -382 C 820 -355 846 -311 846 -250 C 846 -198 827 -160 791 -136 C 755 -112 696 -100 614 -100 L 438 -100 Z M 510 356 C 582 356 637 376 676 416 C 715 456 735 518 735 600 C 735 764 660 846 512 846 C 438 846 379 825 337 783 C 295 741 274 680 274 600 C 274 518 294 456 336 416 C 378 376 436 356 510 356 Z M 1077 821 C 1070 822 1062 823 1053 824 C 1044 824 1034 825 1024 825 C 980 825 943 817 914 802 C 884 787 864 776 852 768 C 866 740 877 715 883 693 C 889 670 893 640 893 604 C 893 488 862 400 801 342 C 739 283 643 247 512 233 C 472 229 438 220 409 207 C 379 194 365 168 365 129 C 365 63 402 31 477 31 L 709 31 C 805 31 880 9 934 -33 C 987 -76 1014 -135 1014 -209 C 1014 -307 969 -386 881 -446 C 792 -506 666 -537 504 -537 C 359 -537 250 -515 178 -472 C 106 -429 70 -369 70 -291 C 70 -255 77 -224 91 -196 C 105 -168 125 -143 150 -123 C 175 -102 205 -86 239 -74 C 273 -62 311 -55 352 -53 C 316 -43 287 -26 265 0 C 242 26 231 56 231 90 C 231 130 244 164 272 193 C 299 221 335 241 379 252 C 346 261 314 275 283 295 C 251 314 224 338 200 366 C 176 394 156 426 141 464 C 126 501 119 544 119 592 C 119 649 129 700 149 746 C 169 792 197 831 233 864 C 269 896 310 922 358 940 C 406 958 457 967 512 967 C 574 967 632 953 684 927 C 736 900 776 867 805 827 C 813 842 824 858 838 876 C 852 894 870 910 891 926 C 911 942 934 955 959 965 C 984 975 1012 981 1042 981 C 1052 981 1060 980 1066 980 C 1072 979 1079 978 1087 977 L 1077 821 Z M 537 1274 C 599 1274 647 1294 681 1335 C 715 1376 732 1427 732 1487 L 871 1487 C 871 1440 863 1397 849 1357 C 835 1317 814 1283 786 1254 C 758 1224 723 1201 681 1185 C 639 1169 591 1161 537 1161 C 426 1161 343 1191 287 1252 C 231 1312 203 1391 203 1487 L 340 1487 C 340 1427 357 1376 393 1335 C 429 1294 477 1274 537 1274 Z" unicode="ğ" />
<glyph horiz-adv-x="1382" d="M 1219 670 L 1219 0 L 1100 0 L 1079 203 L 1071 203 C 1060 174 1043 146 1021 119 C 998 91 971 67 939 46 C 907 24 871 7 831 -5 C 791 -18 750 -25 707 -25 C 621 -25 542 -9 471 21 C 400 52 339 97 287 155 C 235 213 194 284 166 369 C 137 453 123 549 123 655 C 123 763 137 860 166 947 C 194 1033 235 1107 288 1168 C 340 1229 403 1276 477 1309 C 551 1341 632 1358 721 1358 C 782 1358 839 1351 891 1338 C 943 1325 989 1308 1029 1286 C 1069 1264 1104 1238 1132 1209 C 1160 1179 1180 1148 1194 1116 L 1055 1034 C 1041 1086 1004 1130 944 1167 C 884 1204 809 1223 721 1223 C 640 1223 572 1208 518 1180 C 463 1151 419 1111 386 1061 C 352 1010 328 950 313 880 C 298 810 291 735 291 655 C 291 575 299 501 316 434 C 333 367 359 310 395 262 C 431 214 475 176 529 150 C 583 124 647 111 721 111 C 775 111 824 119 866 136 C 908 153 944 175 974 203 C 1003 230 1025 261 1040 296 C 1055 330 1063 366 1063 403 L 1063 535 L 702 535 L 702 670 L 1219 670 Z M 842 1675 C 842 1638 830 1608 807 1585 C 781 1563 753 1552 725 1552 C 697 1552 671 1563 647 1585 C 623 1607 612 1637 612 1675 C 612 1713 623 1741 647 1761 C 669 1781 695 1792 725 1792 C 755 1792 782 1781 807 1761 C 830 1740 842 1711 842 1675 Z" unicode="Ġ" />
<glyph horiz-adv-x="1100" d="M 438 -100 C 370 -100 318 -112 283 -138 C 248 -163 231 -204 231 -262 C 231 -290 236 -315 246 -336 C 256 -356 273 -373 296 -385 C 318 -397 348 -406 385 -412 C 421 -418 467 -422 522 -422 C 635 -422 717 -408 769 -382 C 820 -355 846 -311 846 -250 C 846 -198 827 -160 791 -136 C 755 -112 696 -100 614 -100 L 438 -100 Z M 510 356 C 582 356 637 376 676 416 C 715 456 735 518 735 600 C 735 764 660 846 512 846 C 438 846 379 825 337 783 C 295 741 274 680 274 600 C 274 518 294 456 336 416 C 378 376 436 356 510 356 Z M 1077 821 C 1070 822 1062 823 1053 824 C 1044 824 1034 825 1024 825 C 980 825 943 817 914 802 C 884 787 864 776 852 768 C 866 740 877 715 883 693 C 889 670 893 640 893 604 C 893 488 862 400 801 342 C 739 283 643 247 512 233 C 472 229 438 220 409 207 C 379 194 365 168 365 129 C 365 63 402 31 477 31 L 709 31 C 805 31 880 9 934 -33 C 987 -76 1014 -135 1014 -209 C 1014 -307 969 -386 881 -446 C 792 -506 666 -537 504 -537 C 359 -537 250 -515 178 -472 C 106 -429 70 -369 70 -291 C 70 -255 77 -224 91 -196 C 105 -168 125 -143 150 -123 C 175 -102 205 -86 239 -74 C 273 -62 311 -55 352 -53 C 316 -43 287 -26 265 0 C 242 26 231 56 231 90 C 231 130 244 164 272 193 C 299 221 335 241 379 252 C 346 261 314 275 283 295 C 251 314 224 338 200 366 C 176 394 156 426 141 464 C 126 501 119 544 119 592 C 119 649 129 700 149 746 C 169 792 197 831 233 864 C 269 896 310 922 358 940 C 406 958 457 967 512 967 C 574 967 632 953 684 927 C 736 900 776 867 805 827 C 813 842 824 858 838 876 C 852 894 870 910 891 926 C 911 942 934 955 959 965 C 984 975 1012 981 1042 981 C 1052 981 1060 980 1066 980 C 1072 979 1079 978 1087 977 L 1077 821 Z M 664 1284 C 664 1247 652 1217 629 1194 C 603 1172 575 1161 547 1161 C 519 1161 493 1172 469 1194 C 445 1216 434 1246 434 1284 C 434 1322 445 1350 469 1370 C 491 1390 517 1401 547 1401 C 577 1401 604 1390 629 1370 C 652 1349 664 1320 664 1284 Z" unicode="ġ" />
<glyph horiz-adv-x="1382" d="M 1219 670 L 1219 0 L 1100 0 L 1079 203 L 1071 203 C 1060 174 1043 146 1021 119 C 998 91 971 67 939 46 C 907 24 871 7 831 -5 C 791 -18 750 -25 707 -25 C 621 -25 542 -9 471 21 C 400 52 339 97 287 155 C 235 213 194 284 166 369 C 137 453 123 549 123 655 C 123 763 137 860 166 947 C 194 1033 235 1107 288 1168 C 340 1229 403 1276 477 1309 C 551 1341 632 1358 721 1358 C 782 1358 839 1351 891 1338 C 943 1325 989 1308 1029 1286 C 1069 1264 1104 1238 1132 1209 C 1160 1179 1180 1148 1194 1116 L 1055 1034 C 1041 1086 1004 1130 944 1167 C 884 1204 809 1223 721 1223 C 640 1223 572 1208 518 1180 C 463 1151 419 1111 386 1061 C 352 1010 328 950 313 880 C 298 810 291 735 291 655 C 291 575 299 501 316 434 C 333 367 359 310 395 262 C 431 214 475 176 529 150 C 583 124 647 111 721 111 C 775 111 824 119 866 136 C 908 153 944 175 974 203 C 1003 230 1025 261 1040 296 C 1055 330 1063 366 1063 403 L 1063 535 L 702 535 L 702 670 L 1219 670 Z M 600 -510 L 637 -201 L 786 -223 L 711 -522 L 600 -510 Z" unicode="Ģ" />
<glyph horiz-adv-x="1100" d="M 438 -100 C 370 -100 318 -112 283 -138 C 248 -163 231 -204 231 -262 C 231 -290 236 -315 246 -336 C 256 -356 273 -373 296 -385 C 318 -397 348 -406 385 -412 C 421 -418 467 -422 522 -422 C 635 -422 717 -408 769 -382 C 820 -355 846 -311 846 -250 C 846 -198 827 -160 791 -136 C 755 -112 696 -100 614 -100 L 438 -100 Z M 510 356 C 582 356 637 376 676 416 C 715 456 735 518 735 600 C 735 764 660 846 512 846 C 438 846 379 825 337 783 C 295 741 274 680 274 600 C 274 518 294 456 336 416 C 378 376 436 356 510 356 Z M 1077 821 C 1070 822 1062 823 1053 824 C 1044 824 1034 825 1024 825 C 980 825 943 817 914 802 C 884 787 864 776 852 768 C 866 740 877 715 883 693 C 889 670 893 640 893 604 C 893 488 862 400 801 342 C 739 283 643 247 512 233 C 472 229 438 220 409 207 C 379 194 365 168 365 129 C 365 63 402 31 477 31 L 709 31 C 805 31 880 9 934 -33 C 987 -76 1014 -135 1014 -209 C 1014 -307 969 -386 881 -446 C 792 -506 666 -537 504 -537 C 359 -537 250 -515 178 -472 C 106 -429 70 -369 70 -291 C 70 -255 77 -224 91 -196 C 105 -168 125 -143 150 -123 C 175 -102 205 -86 239 -74 C 273 -62 311 -55 352 -53 C 316 -43 287 -26 265 0 C 242 26 231 56 231 90 C 231 130 244 164 272 193 C 299 221 335 241 379 252 C 346 261 314 275 283 295 C 251 314 224 338 200 366 C 176 394 156 426 141 464 C 126 501 119 544 119 592 C 119 649 129 700 149 746 C 169 792 197 831 233 864 C 269 896 310 922 358 940 C 406 958 457 967 512 967 C 574 967 632 953 684 927 C 736 900 776 867 805 827 C 813 842 824 858 838 876 C 852 894 870 910 891 926 C 911 942 934 955 959 965 C 984 975 1012 981 1042 981 C 1052 981 1060 980 1066 980 C 1072 979 1079 978 1087 977 L 1077 821 Z M 666 1487 L 629 1178 L 480 1200 L 555 1499 L 666 1487 Z" unicode="ģ" />
<glyph horiz-adv-x="1403" d="M 1219 1333 L 1219 0 L 1057 0 L 1057 602 L 346 602 L 346 0 L 184 0 L 184 1333 L 346 1333 L 346 737 L 1057 737 L 1057 1333 L 1219 1333 Z M 321 1552 L 647 1880 L 774 1880 L 1099 1552 L 931 1552 L 710 1790 L 489 1552 L 321 1552 Z" unicode="Ĥ" />
<glyph horiz-adv-x="1133" d="M 330 1333 L 330 756 C 350 794 376 828 408 860 C 435 887 469 912 511 934 C 552 956 602 967 662 967 C 706 967 748 960 786 947 C 824 934 858 913 887 885 C 915 856 938 820 954 776 C 970 732 979 680 979 618 L 979 0 L 823 0 L 823 621 C 823 649 818 677 810 703 C 801 729 788 753 771 773 C 753 793 731 809 705 821 C 679 833 648 840 612 840 C 564 840 523 829 487 808 C 451 786 422 759 399 726 C 376 692 359 655 347 615 C 335 575 330 536 330 498 L 330 0 L 174 0 L 174 1333 L 330 1333 Z M 156 1560 L 482 1888 L 609 1888 L 934 1560 L 766 1560 L 545 1798 L 324 1560 L 156 1560 Z" unicode="ĥ" />
<glyph horiz-adv-x="1444" d="M 1239 1333 L 1239 1047 L 1403 1047 L 1403 920 L 1239 920 L 1239 0 L 1077 0 L 1077 520 L 367 520 L 367 0 L 205 0 L 205 920 L 41 920 L 41 1047 L 205 1047 L 205 1333 L 367 1333 L 367 1047 L 1077 1047 L 1077 1333 L 1239 1333 Z M 1077 655 L 1077 920 L 367 920 L 367 655 L 1077 655 Z" unicode="Ħ" />
<glyph horiz-adv-x="1133" d="M 330 1456 L 330 1243 L 608 1243 L 608 1126 L 330 1126 L 330 756 C 350 794 376 828 408 860 C 435 887 469 912 511 934 C 552 956 602 967 662 967 C 706 967 748 960 786 947 C 824 934 858 913 887 885 C 915 856 938 820 954 776 C 970 732 979 680 979 618 L 979 0 L 823 0 L 823 621 C 823 649 818 677 810 703 C 801 729 788 753 771 773 C 753 793 731 809 705 821 C 679 833 648 840 612 840 C 564 840 523 829 487 808 C 451 786 422 759 399 726 C 376 692 359 655 347 615 C 335 575 330 536 330 498 L 330 0 L 174 0 L 174 1126 L 35 1126 L 35 1243 L 174 1243 L 174 1456 L 330 1456 Z" unicode="ħ" />
<glyph horiz-adv-x="530" d="M 184 0 L 184 1333 L 346 1333 L 346 0 L 184 0 Z M 119 1785 C 145 1785 171 1779 195 1769 C 219 1759 241 1747 263 1735 C 285 1722 305 1710 324 1700 C 343 1690 361 1685 379 1685 C 390 1685 399 1688 407 1694 C 414 1700 420 1707 424 1717 C 428 1726 432 1737 435 1749 C 437 1761 440 1774 442 1787 L 555 1744 C 557 1724 556 1702 551 1680 C 545 1658 536 1637 522 1619 C 508 1600 491 1584 470 1572 C 448 1560 423 1554 395 1554 C 367 1554 342 1559 318 1569 C 294 1579 272 1591 251 1604 C 230 1616 210 1628 191 1638 C 172 1648 154 1654 136 1654 C 126 1654 117 1651 110 1645 C 103 1639 97 1632 93 1623 C 88 1613 84 1602 81 1590 C 77 1578 74 1565 72 1552 L -40 1595 C -41 1621 -38 1646 -30 1670 C -22 1693 -11 1713 2 1730 C 16 1747 34 1760 54 1770 C 74 1780 95 1785 119 1785 Z" unicode="Ĩ" />
<glyph horiz-adv-x="524" d="M 184 0 L 184 942 L 340 942 L 340 0 L 184 0 Z M 133 1394 C 157 1394 179 1388 201 1378 C 222 1368 242 1356 261 1344 C 279 1331 296 1319 312 1309 C 327 1299 341 1294 353 1294 C 364 1294 373 1297 381 1303 C 388 1309 394 1316 398 1326 C 402 1335 406 1346 409 1358 C 411 1370 414 1383 416 1396 L 529 1353 C 531 1333 530 1311 525 1289 C 519 1267 510 1246 496 1228 C 482 1209 465 1193 444 1181 C 422 1169 397 1163 369 1163 C 344 1163 321 1168 300 1178 C 279 1188 260 1200 242 1213 C 224 1225 207 1237 192 1247 C 176 1257 162 1263 150 1263 C 140 1263 131 1260 124 1254 C 117 1248 111 1241 107 1232 C 102 1222 98 1211 95 1199 C 91 1187 88 1174 86 1161 L -26 1204 C -27 1230 -24 1255 -16 1279 C -8 1302 2 1322 16 1339 C 30 1356 48 1369 68 1379 C 88 1389 109 1394 133 1394 Z" unicode="ĩ" />
<glyph horiz-adv-x="530" d="M 184 0 L 184 1333 L 346 1333 L 346 0 L 184 0 Z M -45 1665 L 569 1665 L 569 1552 L -45 1552 L -45 1665 Z" unicode="Ī" />
<glyph horiz-adv-x="524" d="M 184 0 L 184 942 L 340 942 L 340 0 L 184 0 Z M -11 1274 L 523 1274 L 523 1161 L -11 1161 L -11 1274 Z" unicode="ī" />
<glyph horiz-adv-x="530" d="M 184 0 L 184 1333 L 346 1333 L 346 0 L 184 0 Z M 262 1665 C 324 1665 372 1685 406 1726 C 440 1767 457 1818 457 1878 L 596 1878 C 596 1831 588 1788 574 1748 C 560 1708 539 1674 511 1645 C 483 1615 448 1592 406 1576 C 364 1560 316 1552 262 1552 C 151 1552 68 1582 12 1643 C -44 1703 -72 1782 -72 1878 L 65 1878 C 65 1818 82 1767 118 1726 C 154 1685 202 1665 262 1665 Z" unicode="Ĭ" />
<glyph horiz-adv-x="524" d="M 184 0 L 184 942 L 340 942 L 340 0 L 184 0 Z M 256 1274 C 308 1274 349 1291 378 1327 C 406 1362 421 1405 421 1457 L 560 1457 C 560 1414 553 1375 540 1339 C 527 1303 508 1271 482 1245 C 456 1218 425 1197 387 1183 C 349 1168 306 1161 256 1161 C 155 1161 79 1188 28 1243 C -22 1298 -48 1369 -48 1457 L 89 1457 C 89 1405 104 1362 134 1327 C 164 1291 205 1274 256 1274 Z" unicode="ĭ" />
<glyph horiz-adv-x="530" d="M 184 0 L 184 1333 L 346 1333 L 346 0 L 184 0 Z M 342 18 C 182 -59 102 -135 102 -209 C 102 -277 131 -311 191 -311 C 230 -311 267 -296 301 -268 L 352 -344 C 300 -386 244 -408 186 -408 C 45 -408 -25 -347 -25 -227 C -25 -146 37 -70 162 0 C 182 13 203 25 225 35 L 342 18 Z" unicode="Į" />
<glyph horiz-adv-x="524" d="M 340 18 C 180 -59 100 -135 100 -209 C 100 -277 129 -311 189 -311 C 228 -311 265 -296 299 -268 L 350 -344 C 298 -386 242 -408 184 -408 C 43 -408 -27 -347 -27 -227 C -27 -146 35 -70 160 0 C 180 13 201 25 223 35 L 340 18 Z M 377 1284 C 377 1247 365 1217 342 1194 C 316 1172 288 1161 260 1161 C 232 1161 206 1172 182 1194 C 158 1216 147 1246 147 1284 C 147 1322 158 1350 182 1370 C 204 1390 230 1401 260 1401 C 290 1401 317 1390 342 1370 C 365 1349 377 1320 377 1284 Z M 184 0 L 184 942 L 340 942 L 340 0 L 184 0 Z" unicode="į" />
<glyph horiz-adv-x="530" d="M 184 0 L 184 1333 L 346 1333 L 346 0 L 184 0 Z M 377 1675 C 377 1638 365 1608 342 1585 C 316 1563 288 1552 260 1552 C 232 1552 206 1563 182 1585 C 158 1607 147 1637 147 1675 C 147 1713 158 1741 182 1761 C 204 1781 230 1792 260 1792 C 290 1792 317 1781 342 1761 C 365 1740 377 1711 377 1675 Z" unicode="İ" />
<glyph horiz-adv-x="524" d="M 184 0 L 184 942 L 340 942 L 340 0 L 184 0 Z" unicode="ı" />
<glyph horiz-adv-x="1448" d="M 184 0 L 184 1333 L 346 1333 L 346 0 L 184 0 Z M 1273 1333 L 1273 422 C 1273 278 1242 168 1180 91 C 1118 13 1020 -25 888 -25 C 813 -25 747 -11 689 16 C 631 43 588 77 561 117 L 677 213 C 696 184 724 160 761 140 C 798 120 839 111 884 111 C 962 111 1019 135 1055 183 C 1091 231 1110 309 1110 416 L 1110 1333 L 1273 1333 Z" unicode="Ĳ" />
<glyph horiz-adv-x="1049" d="M 377 1284 C 377 1247 365 1217 342 1194 C 316 1172 288 1161 260 1161 C 232 1161 206 1172 182 1194 C 158 1216 147 1246 147 1284 C 147 1322 158 1350 182 1370 C 204 1390 230 1401 260 1401 C 290 1401 317 1390 342 1370 C 365 1349 377 1320 377 1284 Z M 184 0 L 184 942 L 340 942 L 340 0 L 184 0 Z M 864 942 L 864 -233 C 864 -329 837 -403 785 -457 C 732 -510 664 -537 581 -537 C 562 -537 542 -535 521 -532 C 499 -529 481 -526 467 -522 L 487 -397 C 510 -404 534 -408 559 -408 C 576 -408 594 -405 612 -399 C 630 -393 646 -383 660 -369 C 674 -355 686 -335 695 -311 C 703 -286 708 -255 708 -217 L 708 942 L 864 942 Z M 903 1284 C 903 1247 891 1217 868 1194 C 842 1172 814 1161 786 1161 C 758 1161 732 1172 708 1194 C 684 1216 673 1246 673 1284 C 673 1322 684 1350 708 1370 C 730 1390 756 1401 786 1401 C 816 1401 843 1390 868 1370 C 891 1349 903 1320 903 1284 Z" unicode="ĳ" />
<glyph horiz-adv-x="918" d="M 743 1333 L 743 422 C 743 278 712 168 650 91 C 588 13 490 -25 358 -25 C 283 -25 217 -11 159 16 C 101 43 58 77 31 117 L 147 213 C 166 184 194 160 231 140 C 268 120 309 111 354 111 C 432 111 489 135 525 183 C 561 231 580 309 580 416 L 580 1333 L 743 1333 Z M 273 1552 L 599 1880 L 726 1880 L 1051 1552 L 883 1552 L 662 1790 L 441 1552 L 273 1552 Z" unicode="Ĵ" />
<glyph horiz-adv-x="524" d="M 340 942 L 340 -233 C 340 -329 313 -403 261 -457 C 208 -510 140 -537 57 -537 C 38 -537 18 -535 -3 -532 C -24 -529 -42 -526 -57 -522 L -37 -397 C -13 -404 10 -408 35 -408 C 52 -408 70 -405 88 -399 C 106 -393 122 -383 136 -369 C 150 -355 162 -335 171 -311 C 179 -286 184 -255 184 -217 L 184 942 L 340 942 Z M 0 1161 L 203 1489 L 330 1489 L 532 1161 L 406 1161 L 266 1399 L 127 1161 L 0 1161 Z" unicode="ĵ" />
<glyph horiz-adv-x="1192" d="M 346 705 L 907 1333 L 1104 1333 L 596 758 L 1141 0 L 932 0 L 483 639 L 346 498 L 346 0 L 184 0 L 184 1333 L 346 1333 L 346 705 Z M 502 -510 L 539 -201 L 688 -223 L 613 -522 L 502 -510 Z" unicode="Ķ" />
<glyph horiz-adv-x="1036" d="M 737 942 L 950 942 L 567 547 L 985 0 L 780 0 L 459 440 L 330 309 L 330 0 L 174 0 L 174 1456 L 330 1456 L 330 487 L 737 942 Z M 424 -510 L 461 -201 L 610 -223 L 535 -522 L 424 -510 Z" unicode="ķ" />
<glyph horiz-adv-x="1036" d="M 745 942 L 950 942 L 567 547 L 985 0 L 791 0 L 459 440 L 330 309 L 330 0 L 174 0 L 174 942 L 330 942 L 330 498 L 745 942 Z" unicode="ĸ" />
<glyph horiz-adv-x="1034" d="M 346 1333 L 346 135 L 973 135 L 973 0 L 184 0 L 184 1333 L 346 1333 Z M 736 1933 L 820 1849 L 523 1550 L 439 1634 L 736 1933 Z" unicode="Ĺ" />
<glyph horiz-adv-x="524" d="M 184 1333 L 340 1333 L 340 0 L 184 0 L 184 1333 Z M 476 1941 L 560 1857 L 263 1558 L 179 1642 L 476 1941 Z" unicode="ĺ" />
<glyph horiz-adv-x="1034" d="M 346 1333 L 346 135 L 973 135 L 973 0 L 184 0 L 184 1333 L 346 1333 Z M 424 -510 L 461 -201 L 610 -223 L 535 -522 L 424 -510 Z" unicode="Ļ" />
<glyph horiz-adv-x="524" d="M 184 1456 L 340 1456 L 340 0 L 184 0 L 184 1456 Z M 156 -510 L 193 -201 L 342 -223 L 267 -522 L 156 -510 Z" unicode="ļ" />
<glyph horiz-adv-x="1034" d="M 346 1333 L 346 135 L 973 135 L 973 0 L 184 0 L 184 1333 L 346 1333 Z M 762 1004 L 807 1355 L 957 1332 L 873 992 L 762 1004 Z" unicode="Ľ" />
<glyph horiz-adv-x="565" d="M 184 1456 L 340 1456 L 340 0 L 184 0 L 184 1456 Z M 512 1128 L 557 1479 L 707 1456 L 623 1116 L 512 1128 Z" unicode="ľ" />
<glyph horiz-adv-x="1034" d="M 346 1333 L 346 135 L 973 135 L 973 0 L 184 0 L 184 1333 L 346 1333 Z M 811 727 C 811 688 799 658 776 636 C 753 614 726 604 695 604 C 666 604 640 614 617 636 C 593 658 582 688 582 727 C 582 762 593 790 617 811 C 640 832 666 843 695 843 C 726 843 753 832 776 811 C 799 790 811 762 811 727 Z" unicode="Ŀ" />
<glyph horiz-adv-x="805" d="M 184 1456 L 340 1456 L 340 0 L 184 0 L 184 1456 Z M 762 727 C 762 688 750 658 727 636 C 704 614 677 604 646 604 C 617 604 591 614 568 636 C 544 658 533 688 533 727 C 533 762 544 790 568 811 C 591 832 617 843 646 843 C 677 843 704 832 727 811 C 750 790 762 762 762 727 Z" unicode="ŀ" />
<glyph horiz-adv-x="1055" d="M 61 688 L 205 727 L 205 1333 L 367 1333 L 367 772 L 584 838 L 584 709 L 367 647 L 367 135 L 993 135 L 993 0 L 205 0 L 205 600 L 61 559 L 61 688 Z" unicode="Ł" />
<glyph horiz-adv-x="565" d="M 20 676 L 205 727 L 205 1456 L 360 1456 L 360 770 L 545 825 L 545 696 L 360 645 L 360 0 L 205 0 L 205 600 L 20 547 L 20 676 Z" unicode="ł" />
<glyph horiz-adv-x="1374" d="M 340 0 L 184 0 L 184 1333 L 403 1333 L 1034 186 L 1034 1333 L 1190 1333 L 1190 0 L 969 0 L 340 1143 L 340 0 Z M 887 1933 L 971 1849 L 674 1550 L 590 1634 L 887 1933 Z" unicode="Ń" />
<glyph horiz-adv-x="1143" d="M 834 621 C 834 649 829 677 820 703 C 811 729 798 753 781 773 C 764 793 742 809 716 821 C 689 833 657 840 621 840 C 574 840 533 829 498 809 C 463 788 434 761 410 729 C 386 696 369 659 357 618 C 345 577 340 536 340 496 L 340 0 L 184 0 L 184 748 C 184 768 183 796 181 834 C 179 872 176 908 174 942 L 326 942 C 327 934 328 922 329 906 C 329 890 330 874 331 857 C 331 839 332 821 332 803 C 332 785 332 769 332 756 L 342 756 C 352 782 368 807 389 832 C 409 857 433 880 461 900 C 488 920 518 936 552 948 C 585 960 622 967 662 967 C 708 967 750 960 790 947 C 830 934 864 914 894 887 C 923 859 946 824 963 780 C 980 736 989 684 989 623 L 989 0 L 834 0 L 834 621 Z M 764 1542 L 848 1458 L 551 1159 L 467 1243 L 764 1542 Z" unicode="ń" />
<glyph horiz-adv-x="1374" d="M 340 0 L 184 0 L 184 1333 L 403 1333 L 1034 186 L 1034 1333 L 1190 1333 L 1190 0 L 969 0 L 340 1143 L 340 0 Z M 573 -510 L 610 -201 L 759 -223 L 684 -522 L 573 -510 Z" unicode="Ņ" />
<glyph horiz-adv-x="1143" d="M 834 621 C 834 649 829 677 820 703 C 811 729 798 753 781 773 C 764 793 742 809 716 821 C 689 833 657 840 621 840 C 574 840 533 829 498 809 C 463 788 434 761 410 729 C 386 696 369 659 357 618 C 345 577 340 536 340 496 L 340 0 L 184 0 L 184 748 C 184 768 183 796 181 834 C 179 872 176 908 174 942 L 326 942 C 327 934 328 922 329 906 C 329 890 330 874 331 857 C 331 839 332 821 332 803 C 332 785 332 769 332 756 L 342 756 C 352 782 368 807 389 832 C 409 857 433 880 461 900 C 488 920 518 936 552 948 C 585 960 622 967 662 967 C 708 967 750 960 790 947 C 830 934 864 914 894 887 C 923 859 946 824 963 780 C 980 736 989 684 989 623 L 989 0 L 834 0 L 834 621 Z M 483 -510 L 520 -201 L 669 -223 L 594 -522 L 483 -510 Z" unicode="ņ" />
<glyph horiz-adv-x="1374" d="M 340 0 L 184 0 L 184 1333 L 403 1333 L 1034 186 L 1034 1333 L 1190 1333 L 1190 0 L 969 0 L 340 1143 L 340 0 Z M 1095 1880 L 770 1552 L 641 1552 L 317 1880 L 483 1880 L 706 1642 L 927 1880 L 1095 1880 Z" unicode="Ň" />
<glyph horiz-adv-x="1143" d="M 834 621 C 834 649 829 677 820 703 C 811 729 798 753 781 773 C 764 793 742 809 716 821 C 689 833 657 840 621 840 C 574 840 533 829 498 809 C 463 788 434 761 410 729 C 386 696 369 659 357 618 C 345 577 340 536 340 496 L 340 0 L 184 0 L 184 748 C 184 768 183 796 181 834 C 179 872 176 908 174 942 L 326 942 C 327 934 328 922 329 906 C 329 890 330 874 331 857 C 331 839 332 821 332 803 C 332 785 332 769 332 756 L 342 756 C 352 782 368 807 389 832 C 409 857 433 880 461 900 C 488 920 518 936 552 948 C 585 960 622 967 662 967 C 708 967 750 960 790 947 C 830 934 864 914 894 887 C 923 859 946 824 963 780 C 980 736 989 684 989 623 L 989 0 L 834 0 L 834 621 Z M 993 1489 L 668 1161 L 539 1161 L 215 1489 L 381 1489 L 604 1251 L 825 1489 L 993 1489 Z" unicode="ň" />
<glyph horiz-adv-x="1409" d="M 1100 621 C 1100 649 1095 677 1086 703 C 1077 729 1064 753 1047 773 C 1030 793 1008 809 982 821 C 955 833 923 840 887 840 C 840 840 799 829 764 809 C 729 788 700 761 676 729 C 652 696 635 659 623 618 C 611 577 606 536 606 496 L 606 0 L 450 0 L 450 748 C 450 768 449 796 447 834 C 445 872 442 908 440 942 L 592 942 C 593 934 594 922 595 906 C 595 890 596 874 597 857 C 597 839 598 821 598 803 C 598 785 598 769 598 756 L 608 756 C 618 782 634 807 655 832 C 675 857 699 880 727 900 C 754 920 784 936 818 948 C 851 960 888 967 928 967 C 974 967 1016 960 1056 947 C 1096 934 1130 914 1160 887 C 1189 859 1212 824 1229 780 C 1246 736 1255 684 1255 623 L 1255 0 L 1100 0 L 1100 621 Z M 141 1333 L 297 1333 L 297 1114 C 297 1044 282 987 252 943 C 222 898 185 866 141 848 L 41 932 C 68 942 91 962 111 992 C 131 1021 141 1062 141 1114 L 141 1333 Z" unicode="ŉ" />
<glyph horiz-adv-x="1374" d="M 340 0 L 184 0 L 184 1333 L 403 1333 L 1034 371 L 1034 1333 L 1190 1333 L 1190 16 C 1190 -79 1164 -153 1112 -207 C 1060 -260 992 -287 909 -287 C 890 -287 870 -285 849 -283 C 827 -280 809 -276 795 -272 L 815 -147 C 842 -154 868 -158 893 -158 C 929 -158 962 -141 990 -109 C 1018 -77 1032 -23 1032 53 L 1032 78 L 340 1143 L 340 0 Z" unicode="Ŋ" />
<glyph horiz-adv-x="1143" d="M 834 621 C 834 649 829 677 820 703 C 811 729 798 753 781 773 C 764 793 742 809 716 821 C 689 833 657 840 621 840 C 574 840 533 829 498 809 C 463 788 434 761 410 729 C 386 696 369 659 357 618 C 345 577 340 536 340 496 L 340 0 L 184 0 L 184 748 C 184 768 183 796 181 834 C 179 872 176 908 174 942 L 326 942 C 327 934 328 922 329 906 C 329 890 330 874 331 857 C 331 839 332 821 332 803 L 332 756 L 342 756 C 352 782 368 807 389 832 C 409 857 433 880 461 900 C 488 920 518 936 552 948 C 585 960 622 967 662 967 C 708 967 750 960 790 947 C 830 934 864 914 894 887 C 923 859 946 824 963 780 C 980 736 989 684 989 623 L 989 -233 C 989 -329 962 -403 910 -457 C 857 -510 789 -537 707 -537 C 687 -537 667 -535 646 -532 C 624 -529 606 -526 592 -522 L 612 -397 C 635 -404 659 -408 684 -408 C 702 -408 719 -405 737 -399 C 755 -393 771 -383 785 -369 C 799 -355 811 -335 820 -311 C 829 -286 834 -255 834 -217 L 834 621 Z" unicode="ŋ" />
<glyph horiz-adv-x="1444" d="M 1321 668 C 1321 560 1306 463 1276 377 C 1246 291 1204 218 1151 159 C 1097 99 1034 54 961 22 C 888 -9 809 -25 723 -25 C 637 -25 557 -9 483 22 C 409 54 346 99 293 159 C 239 218 198 291 168 377 C 138 463 123 560 123 668 C 123 776 138 873 168 959 C 198 1044 239 1116 293 1176 C 346 1236 409 1281 483 1312 C 557 1342 637 1358 723 1358 C 809 1358 888 1342 961 1312 C 1034 1281 1097 1236 1151 1176 C 1204 1116 1246 1044 1276 959 C 1306 873 1321 776 1321 668 Z M 1153 668 C 1153 758 1142 837 1122 907 C 1102 977 1072 1035 1034 1081 C 996 1127 950 1163 898 1187 C 845 1211 787 1223 723 1223 C 659 1223 600 1211 548 1187 C 495 1163 449 1127 410 1081 C 371 1035 341 977 320 907 C 299 837 289 758 289 668 C 289 577 299 497 320 428 C 341 358 371 300 410 253 C 449 205 495 170 548 146 C 600 122 659 111 723 111 C 787 111 845 122 898 146 C 950 170 996 205 1034 253 C 1072 300 1102 358 1122 428 C 1142 497 1153 577 1153 668 Z M 418 1665 L 1032 1665 L 1032 1552 L 418 1552 L 418 1665 Z" unicode="Ō" />
<glyph horiz-adv-x="1100" d="M 999 471 C 999 393 987 323 965 262 C 943 200 912 148 872 106 C 832 64 785 31 731 9 C 676 -13 616 -25 551 -25 C 485 -25 425 -13 371 9 C 316 31 268 64 228 106 C 188 148 156 200 134 262 C 111 323 100 393 100 471 C 100 549 111 618 134 680 C 156 741 188 793 228 835 C 268 877 316 910 371 933 C 425 955 485 967 551 967 C 616 967 676 955 731 933 C 785 910 832 877 872 835 C 912 793 943 741 965 680 C 987 618 999 549 999 471 Z M 842 471 C 842 592 815 683 761 745 C 707 807 637 838 551 838 C 465 838 394 807 340 745 C 285 683 258 592 258 471 C 258 349 285 258 340 196 C 394 134 465 104 551 104 C 637 104 707 134 761 196 C 815 258 842 349 842 471 Z M 244 1274 L 858 1274 L 858 1161 L 244 1161 L 244 1274 Z" unicode="ō" />
<glyph horiz-adv-x="1444" d="M 1321 668 C 1321 560 1306 463 1276 377 C 1246 291 1204 218 1151 159 C 1097 99 1034 54 961 22 C 888 -9 809 -25 723 -25 C 637 -25 557 -9 483 22 C 409 54 346 99 293 159 C 239 218 198 291 168 377 C 138 463 123 560 123 668 C 123 776 138 873 168 959 C 198 1044 239 1116 293 1176 C 346 1236 409 1281 483 1312 C 557 1342 637 1358 723 1358 C 809 1358 888 1342 961 1312 C 1034 1281 1097 1236 1151 1176 C 1204 1116 1246 1044 1276 959 C 1306 873 1321 776 1321 668 Z M 1153 668 C 1153 758 1142 837 1122 907 C 1102 977 1072 1035 1034 1081 C 996 1127 950 1163 898 1187 C 845 1211 787 1223 723 1223 C 659 1223 600 1211 548 1187 C 495 1163 449 1127 410 1081 C 371 1035 341 977 320 907 C 299 837 289 758 289 668 C 289 577 299 497 320 428 C 341 358 371 300 410 253 C 449 205 495 170 548 146 C 600 122 659 111 723 111 C 787 111 845 122 898 146 C 950 170 996 205 1034 253 C 1072 300 1102 358 1122 428 C 1142 497 1153 577 1153 668 Z M 727 1665 C 789 1665 837 1685 871 1726 C 905 1767 922 1818 922 1878 L 1061 1878 C 1061 1831 1053 1788 1039 1748 C 1025 1708 1004 1674 976 1645 C 948 1615 913 1592 871 1576 C 829 1560 781 1552 727 1552 C 616 1552 533 1582 477 1643 C 421 1703 393 1782 393 1878 L 530 1878 C 530 1818 547 1767 583 1726 C 619 1685 667 1665 727 1665 Z" unicode="Ŏ" />
<glyph horiz-adv-x="1100" d="M 999 471 C 999 393 987 323 965 262 C 943 200 912 148 872 106 C 832 64 785 31 731 9 C 676 -13 616 -25 551 -25 C 485 -25 425 -13 371 9 C 316 31 268 64 228 106 C 188 148 156 200 134 262 C 111 323 100 393 100 471 C 100 549 111 618 134 680 C 156 741 188 793 228 835 C 268 877 316 910 371 933 C 425 955 485 967 551 967 C 616 967 676 955 731 933 C 785 910 832 877 872 835 C 912 793 943 741 965 680 C 987 618 999 549 999 471 Z M 842 471 C 842 592 815 683 761 745 C 707 807 637 838 551 838 C 465 838 394 807 340 745 C 285 683 258 592 258 471 C 258 349 285 258 340 196 C 394 134 465 104 551 104 C 637 104 707 134 761 196 C 815 258 842 349 842 471 Z M 549 1274 C 611 1274 659 1294 693 1335 C 727 1376 744 1427 744 1487 L 883 1487 C 883 1440 875 1397 861 1357 C 847 1317 826 1283 798 1254 C 770 1224 735 1201 693 1185 C 651 1169 603 1161 549 1161 C 438 1161 355 1191 299 1252 C 243 1312 215 1391 215 1487 L 352 1487 C 352 1427 369 1376 405 1335 C 441 1294 489 1274 549 1274 Z" unicode="ŏ" />
<glyph horiz-adv-x="1444" d="M 1321 668 C 1321 560 1306 463 1276 377 C 1246 291 1204 218 1151 159 C 1097 99 1034 54 961 22 C 888 -9 809 -25 723 -25 C 637 -25 557 -9 483 22 C 409 54 346 99 293 159 C 239 218 198 291 168 377 C 138 463 123 560 123 668 C 123 776 138 873 168 959 C 198 1044 239 1116 293 1176 C 346 1236 409 1281 483 1312 C 557 1342 637 1358 723 1358 C 809 1358 888 1342 961 1312 C 1034 1281 1097 1236 1151 1176 C 1204 1116 1246 1044 1276 959 C 1306 873 1321 776 1321 668 Z M 1153 668 C 1153 758 1142 837 1122 907 C 1102 977 1072 1035 1034 1081 C 996 1127 950 1163 898 1187 C 845 1211 787 1223 723 1223 C 659 1223 600 1211 548 1187 C 495 1163 449 1127 410 1081 C 371 1035 341 977 320 907 C 299 837 289 758 289 668 C 289 577 299 497 320 428 C 341 358 371 300 410 253 C 449 205 495 170 548 146 C 600 122 659 111 723 111 C 787 111 845 122 898 146 C 950 170 996 205 1034 253 C 1072 300 1102 358 1122 428 C 1142 497 1153 577 1153 668 Z M 775 1945 L 856 1868 L 582 1550 L 500 1628 L 775 1945 Z M 1106 1945 L 1188 1868 L 914 1550 L 832 1628 L 1106 1945 Z" unicode="Ő" />
<glyph horiz-adv-x="1100" d="M 999 471 C 999 393 987 323 965 262 C 943 200 912 148 872 106 C 832 64 785 31 731 9 C 676 -13 616 -25 551 -25 C 485 -25 425 -13 371 9 C 316 31 268 64 228 106 C 188 148 156 200 134 262 C 111 323 100 393 100 471 C 100 549 111 618 134 680 C 156 741 188 793 228 835 C 268 877 316 910 371 933 C 425 955 485 967 551 967 C 616 967 676 955 731 933 C 785 910 832 877 872 835 C 912 793 943 741 965 680 C 987 618 999 549 999 471 Z M 842 471 C 842 592 815 683 761 745 C 707 807 637 838 551 838 C 465 838 394 807 340 745 C 285 683 258 592 258 471 C 258 349 285 258 340 196 C 394 134 465 104 551 104 C 637 104 707 134 761 196 C 815 258 842 349 842 471 Z M 606 1554 L 687 1477 L 413 1159 L 331 1237 L 606 1554 Z M 937 1554 L 1019 1477 L 745 1159 L 663 1237 L 937 1554 Z" unicode="ő" />
<glyph horiz-adv-x="2034" d="M 1145 1333 L 1884 1333 L 1884 1198 L 1305 1198 L 1305 739 L 1845 739 L 1845 604 L 1305 604 L 1305 135 L 1911 135 L 1911 0 L 1145 0 L 1145 203 C 1124 174 1098 146 1067 119 C 1035 91 1001 67 963 46 C 925 24 886 7 844 -5 C 802 -18 761 -25 719 -25 C 634 -25 555 -9 482 22 C 409 54 346 99 293 158 C 239 216 198 288 168 374 C 138 459 123 556 123 664 C 123 772 138 870 168 956 C 198 1042 239 1114 292 1174 C 344 1234 407 1279 479 1311 C 551 1342 630 1358 715 1358 C 758 1358 801 1351 843 1338 C 885 1325 926 1308 964 1286 C 1002 1264 1037 1239 1068 1213 C 1098 1187 1124 1159 1145 1130 L 1145 1333 Z M 1151 664 C 1151 754 1140 833 1119 903 C 1097 973 1068 1031 1030 1078 C 992 1125 946 1161 893 1186 C 839 1210 781 1223 717 1223 C 653 1223 594 1210 542 1186 C 489 1161 444 1125 406 1078 C 368 1031 339 973 318 903 C 297 833 287 754 287 664 C 287 573 297 493 318 425 C 339 356 369 298 408 252 C 447 205 493 170 546 146 C 598 122 657 111 721 111 C 785 111 843 122 896 146 C 948 170 994 205 1032 252 C 1070 298 1100 356 1120 425 C 1140 493 1151 573 1151 664 Z" unicode="Œ" />
<glyph horiz-adv-x="1784" d="M 999 453 C 1002 332 1031 243 1085 187 C 1139 130 1208 102 1292 102 C 1336 102 1372 108 1402 121 C 1431 134 1455 149 1475 166 C 1495 184 1511 205 1524 229 L 1663 158 C 1643 122 1617 91 1583 66 C 1554 42 1516 21 1469 3 C 1422 -15 1364 -25 1294 -25 C 1246 -25 1202 -18 1162 -6 C 1122 5 1086 22 1055 44 C 1023 65 995 90 971 118 C 946 146 925 176 909 209 L 901 209 C 887 179 869 150 847 122 C 824 94 797 69 767 48 C 736 26 702 9 665 -3 C 628 -16 589 -23 547 -23 C 483 -23 423 -11 369 11 C 314 33 267 66 227 108 C 187 150 156 202 134 264 C 111 325 100 395 100 473 C 100 551 111 620 134 682 C 156 743 187 795 227 837 C 267 879 314 912 369 935 C 423 957 483 969 547 969 C 593 969 635 962 673 949 C 711 936 746 918 776 896 C 806 873 831 847 853 819 C 874 790 891 760 903 729 L 911 729 C 948 799 999 856 1064 900 C 1128 944 1203 967 1288 967 C 1353 967 1410 955 1460 933 C 1509 910 1550 878 1582 837 C 1614 796 1638 748 1654 693 C 1670 637 1679 577 1679 512 C 1679 501 1679 491 1679 482 C 1679 473 1678 463 1677 453 L 999 453 Z M 551 106 C 637 106 707 136 761 198 C 815 260 842 351 842 473 C 842 594 815 685 761 747 C 707 809 637 840 551 840 C 465 840 394 809 340 747 C 285 685 258 594 258 473 C 258 351 285 260 340 198 C 394 136 465 106 551 106 Z M 1272 840 C 1194 840 1131 815 1083 766 C 1035 716 1007 654 999 578 L 1505 578 L 1505 594 C 1505 622 1500 651 1492 681 C 1483 710 1469 737 1451 761 C 1432 785 1408 804 1379 818 C 1349 832 1314 840 1272 840 Z" unicode="œ" />
<glyph horiz-adv-x="1198" d="M 346 659 L 596 659 C 654 659 703 665 742 678 C 781 691 812 710 834 735 C 856 759 872 789 881 823 C 890 857 895 895 895 938 C 895 1018 874 1082 833 1128 C 792 1174 720 1198 618 1198 L 346 1198 L 346 659 Z M 901 0 L 649 532 L 346 532 L 346 0 L 184 0 L 184 1333 L 600 1333 C 751 1333 866 1298 944 1230 C 1022 1162 1061 1065 1061 940 C 1061 888 1052 840 1035 798 C 1018 756 996 719 970 687 C 943 655 914 629 884 609 C 853 589 824 575 797 567 L 1085 0 L 901 0 Z M 756 1933 L 840 1849 L 543 1550 L 459 1634 L 756 1933 Z" unicode="Ŕ" />
<glyph horiz-adv-x="700" d="M 645 791 C 631 793 615 795 596 795 C 516 795 454 766 408 708 C 362 650 340 571 340 473 L 340 0 L 184 0 L 184 768 C 184 791 183 820 181 854 C 179 888 176 917 174 942 L 322 942 C 324 909 327 874 329 836 C 331 798 332 770 332 750 L 342 750 C 348 777 361 803 381 828 C 400 853 422 876 447 896 C 472 916 499 932 528 944 C 556 956 584 963 612 963 C 619 963 627 962 637 962 C 646 961 652 960 655 958 L 645 791 Z M 564 1542 L 648 1458 L 351 1159 L 267 1243 L 564 1542 Z" unicode="ŕ" />
<glyph horiz-adv-x="1198" d="M 346 659 L 596 659 C 654 659 703 665 742 678 C 781 691 812 710 834 735 C 856 759 872 789 881 823 C 890 857 895 895 895 938 C 895 1018 874 1082 833 1128 C 792 1174 720 1198 618 1198 L 346 1198 L 346 659 Z M 901 0 L 649 532 L 346 532 L 346 0 L 184 0 L 184 1333 L 600 1333 C 751 1333 866 1298 944 1230 C 1022 1162 1061 1065 1061 940 C 1061 888 1052 840 1035 798 C 1018 756 996 719 970 687 C 943 655 914 629 884 609 C 853 589 824 575 797 567 L 1085 0 L 901 0 Z M 485 -510 L 522 -201 L 671 -223 L 596 -522 L 485 -510 Z" unicode="Ŗ" />
<glyph horiz-adv-x="700" d="M 645 791 C 631 793 615 795 596 795 C 516 795 454 766 408 708 C 362 650 340 571 340 473 L 340 0 L 184 0 L 184 768 C 184 791 183 820 181 854 C 179 888 176 917 174 942 L 322 942 C 324 909 327 874 329 836 C 331 798 332 770 332 750 L 342 750 C 348 777 361 803 381 828 C 400 853 422 876 447 896 C 472 916 499 932 528 944 C 556 956 584 963 612 963 C 619 963 627 962 637 962 C 646 961 652 960 655 958 L 645 791 Z M 158 -510 L 195 -201 L 344 -223 L 269 -522 L 158 -510 Z" unicode="ŗ" />
<glyph horiz-adv-x="1198" d="M 346 659 L 596 659 C 654 659 703 665 742 678 C 781 691 812 710 834 735 C 856 759 872 789 881 823 C 890 857 895 895 895 938 C 895 1018 874 1082 833 1128 C 792 1174 720 1198 618 1198 L 346 1198 L 346 659 Z M 901 0 L 649 532 L 346 532 L 346 0 L 184 0 L 184 1333 L 600 1333 C 751 1333 866 1298 944 1230 C 1022 1162 1061 1065 1061 940 C 1061 888 1052 840 1035 798 C 1018 756 996 719 970 687 C 943 655 914 629 884 609 C 853 589 824 575 797 567 L 1085 0 L 901 0 Z M 966 1880 L 641 1552 L 512 1552 L 188 1880 L 354 1880 L 577 1642 L 798 1880 L 966 1880 Z" unicode="Ř" />
<glyph horiz-adv-x="700" d="M 645 791 C 631 793 615 795 596 795 C 516 795 454 766 408 708 C 362 650 340 571 340 473 L 340 0 L 184 0 L 184 768 C 184 791 183 820 181 854 C 179 888 176 917 174 942 L 322 942 C 324 909 327 874 329 836 C 331 798 332 770 332 750 L 342 750 C 348 777 361 803 381 828 C 400 853 422 876 447 896 C 472 916 499 932 528 944 C 556 956 584 963 612 963 C 619 963 627 962 637 962 C 646 961 652 960 655 958 L 645 791 Z M 792 1489 L 467 1161 L 338 1161 L 14 1489 L 180 1489 L 403 1251 L 624 1489 L 792 1489 Z" unicode="ř" />
<glyph horiz-adv-x="1110" d="M 836 1051 C 819 1097 788 1137 743 1173 C 698 1209 636 1227 557 1227 C 511 1227 473 1220 441 1208 C 409 1196 383 1179 364 1159 C 345 1138 331 1115 322 1089 C 313 1063 309 1038 309 1012 C 309 974 316 942 332 915 C 348 887 369 864 396 844 C 422 824 454 807 490 791 C 526 775 564 760 604 745 C 654 726 703 706 751 686 C 799 665 841 640 878 611 C 915 581 945 547 967 508 C 989 468 1001 420 1001 362 C 1001 306 990 255 969 208 C 948 160 918 120 878 86 C 838 52 791 25 736 5 C 680 -15 619 -25 553 -25 C 497 -25 444 -18 395 -4 C 346 9 302 27 263 51 C 224 74 191 101 165 132 C 138 162 120 195 111 231 L 242 313 C 260 255 297 207 351 168 C 405 128 474 109 559 109 C 643 109 712 129 764 170 C 816 210 842 266 842 336 C 842 372 833 404 817 432 C 801 459 779 483 752 505 C 724 526 693 544 657 560 C 621 576 584 591 545 606 C 493 626 443 647 395 667 C 347 687 305 712 269 741 C 233 769 204 803 182 843 C 160 883 150 931 150 989 C 150 1046 160 1097 182 1143 C 204 1189 233 1227 271 1259 C 309 1291 353 1315 405 1332 C 457 1349 513 1358 573 1358 C 625 1358 673 1351 718 1339 C 763 1327 803 1310 837 1289 C 871 1267 900 1242 922 1214 C 944 1185 959 1155 967 1124 L 836 1051 Z M 785 1933 L 869 1849 L 572 1550 L 488 1634 L 785 1933 Z" unicode="Ś" />
<glyph horiz-adv-x="936" d="M 688 715 C 673 750 646 780 608 805 C 570 829 522 842 465 842 C 407 842 363 829 332 803 C 300 777 285 744 285 705 C 285 680 290 659 301 643 C 311 626 327 612 347 600 C 367 588 390 577 416 568 C 442 559 470 551 500 543 C 540 531 581 519 623 506 C 665 493 702 477 735 457 C 767 437 794 413 815 383 C 835 353 846 314 846 268 C 846 227 837 189 821 153 C 805 117 780 86 748 60 C 716 33 677 12 632 -2 C 587 -17 536 -25 479 -25 C 405 -25 345 -14 298 7 C 250 28 212 52 182 78 C 146 108 119 142 100 180 L 225 254 C 237 225 256 199 281 176 C 299 156 325 139 359 123 C 393 107 434 100 483 100 C 509 100 534 102 560 108 C 585 114 607 123 626 135 C 645 147 660 162 672 180 C 684 198 690 219 690 244 C 690 290 668 324 626 346 C 584 368 527 389 457 410 C 418 420 379 432 341 446 C 302 460 267 477 236 497 C 205 517 180 543 161 573 C 142 603 133 640 133 684 C 133 726 141 765 159 800 C 177 834 201 864 233 889 C 265 913 301 932 343 946 C 385 960 430 967 479 967 C 562 967 634 949 696 913 C 757 877 797 835 817 786 L 688 715 Z M 641 1542 L 725 1458 L 428 1159 L 344 1243 L 641 1542 Z" unicode="ś" />
<glyph horiz-adv-x="1110" d="M 836 1051 C 819 1097 788 1137 743 1173 C 698 1209 636 1227 557 1227 C 511 1227 473 1220 441 1208 C 409 1196 383 1179 364 1159 C 345 1138 331 1115 322 1089 C 313 1063 309 1038 309 1012 C 309 974 316 942 332 915 C 348 887 369 864 396 844 C 422 824 454 807 490 791 C 526 775 564 760 604 745 C 654 726 703 706 751 686 C 799 665 841 640 878 611 C 915 581 945 547 967 508 C 989 468 1001 420 1001 362 C 1001 306 990 255 969 208 C 948 160 918 120 878 86 C 838 52 791 25 736 5 C 680 -15 619 -25 553 -25 C 497 -25 444 -18 395 -4 C 346 9 302 27 263 51 C 224 74 191 101 165 132 C 138 162 120 195 111 231 L 242 313 C 260 255 297 207 351 168 C 405 128 474 109 559 109 C 643 109 712 129 764 170 C 816 210 842 266 842 336 C 842 372 833 404 817 432 C 801 459 779 483 752 505 C 724 526 693 544 657 560 C 621 576 584 591 545 606 C 493 626 443 647 395 667 C 347 687 305 712 269 741 C 233 769 204 803 182 843 C 160 883 150 931 150 989 C 150 1046 160 1097 182 1143 C 204 1189 233 1227 271 1259 C 309 1291 353 1315 405 1332 C 457 1349 513 1358 573 1358 C 625 1358 673 1351 718 1339 C 763 1327 803 1310 837 1289 C 871 1267 900 1242 922 1214 C 944 1185 959 1155 967 1124 L 836 1051 Z M 186 1552 L 512 1880 L 639 1880 L 964 1552 L 796 1552 L 575 1790 L 354 1552 L 186 1552 Z" unicode="Ŝ" />
<glyph horiz-adv-x="936" d="M 688 715 C 673 750 646 780 608 805 C 570 829 522 842 465 842 C 407 842 363 829 332 803 C 300 777 285 744 285 705 C 285 680 290 659 301 643 C 311 626 327 612 347 600 C 367 588 390 577 416 568 C 442 559 470 551 500 543 C 540 531 581 519 623 506 C 665 493 702 477 735 457 C 767 437 794 413 815 383 C 835 353 846 314 846 268 C 846 227 837 189 821 153 C 805 117 780 86 748 60 C 716 33 677 12 632 -2 C 587 -17 536 -25 479 -25 C 405 -25 345 -14 298 7 C 250 28 212 52 182 78 C 146 108 119 142 100 180 L 225 254 C 237 225 256 199 281 176 C 299 156 325 139 359 123 C 393 107 434 100 483 100 C 509 100 534 102 560 108 C 585 114 607 123 626 135 C 645 147 660 162 672 180 C 684 198 690 219 690 244 C 690 290 668 324 626 346 C 584 368 527 389 457 410 C 418 420 379 432 341 446 C 302 460 267 477 236 497 C 205 517 180 543 161 573 C 142 603 133 640 133 684 C 133 726 141 765 159 800 C 177 834 201 864 233 889 C 265 913 301 932 343 946 C 385 960 430 967 479 967 C 562 967 634 949 696 913 C 757 877 797 835 817 786 L 688 715 Z M 78 1161 L 404 1489 L 531 1489 L 856 1161 L 688 1161 L 467 1399 L 246 1161 L 78 1161 Z" unicode="ŝ" />
<glyph horiz-adv-x="1110" d="M 836 1051 C 819 1097 788 1137 743 1173 C 698 1209 636 1227 557 1227 C 511 1227 473 1220 441 1208 C 409 1196 383 1179 364 1159 C 345 1138 331 1115 322 1089 C 313 1063 309 1038 309 1012 C 309 974 316 942 332 915 C 348 887 369 864 396 844 C 422 824 454 807 490 791 C 526 775 564 760 604 745 C 654 726 703 706 751 686 C 799 665 841 640 878 611 C 915 581 945 547 967 508 C 989 468 1001 420 1001 362 C 1001 306 990 255 969 208 C 948 160 918 120 878 86 C 838 52 791 25 736 5 C 680 -15 619 -25 553 -25 C 497 -25 444 -18 395 -4 C 346 9 302 27 263 51 C 224 74 191 101 165 132 C 138 162 120 195 111 231 L 242 313 C 260 255 297 207 351 168 C 405 128 474 109 559 109 C 643 109 712 129 764 170 C 816 210 842 266 842 336 C 842 372 833 404 817 432 C 801 459 779 483 752 505 C 724 526 693 544 657 560 C 621 576 584 591 545 606 C 493 626 443 647 395 667 C 347 687 305 712 269 741 C 233 769 204 803 182 843 C 160 883 150 931 150 989 C 150 1046 160 1097 182 1143 C 204 1189 233 1227 271 1259 C 309 1291 353 1315 405 1332 C 457 1349 513 1358 573 1358 C 625 1358 673 1351 718 1339 C 763 1327 803 1310 837 1289 C 871 1267 900 1242 922 1214 C 944 1185 959 1155 967 1124 L 836 1051 Z M 520 35 C 543 23 564 12 584 0 C 680 -60 729 -129 729 -207 C 729 -341 650 -408 494 -408 C 425 -408 368 -386 322 -344 L 373 -268 C 411 -296 453 -311 500 -311 C 568 -311 602 -273 602 -197 C 602 -116 535 -44 403 18 L 520 35 Z" unicode="Ş" />
<glyph horiz-adv-x="936" d="M 688 715 C 673 750 646 780 608 805 C 570 829 522 842 465 842 C 407 842 363 829 332 803 C 300 777 285 744 285 705 C 285 680 290 659 301 643 C 311 626 327 612 347 600 C 367 588 390 577 416 568 C 442 559 470 551 500 543 C 540 531 581 519 623 506 C 665 493 702 477 735 457 C 767 437 794 413 815 383 C 835 353 846 314 846 268 C 846 227 837 189 821 153 C 805 117 780 86 748 60 C 716 33 677 12 632 -2 C 587 -17 536 -25 479 -25 C 405 -25 345 -14 298 7 C 250 28 212 52 182 78 C 146 108 119 142 100 180 L 225 254 C 237 225 256 199 281 176 C 299 156 325 139 359 123 C 393 107 434 100 483 100 C 509 100 534 102 560 108 C 585 114 607 123 626 135 C 645 147 660 162 672 180 C 684 198 690 219 690 244 C 690 290 668 324 626 346 C 584 368 527 389 457 410 C 418 420 379 432 341 446 C 302 460 267 477 236 497 C 205 517 180 543 161 573 C 142 603 133 640 133 684 C 133 726 141 765 159 800 C 177 834 201 864 233 889 C 265 913 301 932 343 946 C 385 960 430 967 479 967 C 562 967 634 949 696 913 C 757 877 797 835 817 786 L 688 715 Z M 428 35 C 451 23 472 12 492 0 C 588 -60 637 -129 637 -207 C 637 -341 558 -408 402 -408 C 333 -408 276 -386 230 -344 L 281 -268 C 319 -296 361 -311 408 -311 C 476 -311 510 -273 510 -197 C 510 -116 443 -44 311 18 L 428 35 Z" unicode="ş" />
<glyph horiz-adv-x="1110" d="M 836 1051 C 819 1097 788 1137 743 1173 C 698 1209 636 1227 557 1227 C 511 1227 473 1220 441 1208 C 409 1196 383 1179 364 1159 C 345 1138 331 1115 322 1089 C 313 1063 309 1038 309 1012 C 309 974 316 942 332 915 C 348 887 369 864 396 844 C 422 824 454 807 490 791 C 526 775 564 760 604 745 C 654 726 703 706 751 686 C 799 665 841 640 878 611 C 915 581 945 547 967 508 C 989 468 1001 420 1001 362 C 1001 306 990 255 969 208 C 948 160 918 120 878 86 C 838 52 791 25 736 5 C 680 -15 619 -25 553 -25 C 497 -25 444 -18 395 -4 C 346 9 302 27 263 51 C 224 74 191 101 165 132 C 138 162 120 195 111 231 L 242 313 C 260 255 297 207 351 168 C 405 128 474 109 559 109 C 643 109 712 129 764 170 C 816 210 842 266 842 336 C 842 372 833 404 817 432 C 801 459 779 483 752 505 C 724 526 693 544 657 560 C 621 576 584 591 545 606 C 493 626 443 647 395 667 C 347 687 305 712 269 741 C 233 769 204 803 182 843 C 160 883 150 931 150 989 C 150 1046 160 1097 182 1143 C 204 1189 233 1227 271 1259 C 309 1291 353 1315 405 1332 C 457 1349 513 1358 573 1358 C 625 1358 673 1351 718 1339 C 763 1327 803 1310 837 1289 C 871 1267 900 1242 922 1214 C 944 1185 959 1155 967 1124 L 836 1051 Z M 952 1880 L 627 1552 L 498 1552 L 174 1880 L 340 1880 L 563 1642 L 784 1880 L 952 1880 Z" unicode="Š" />
<glyph horiz-adv-x="936" d="M 688 715 C 673 750 646 780 608 805 C 570 829 522 842 465 842 C 407 842 363 829 332 803 C 300 777 285 744 285 705 C 285 680 290 659 301 643 C 311 626 327 612 347 600 C 367 588 390 577 416 568 C 442 559 470 551 500 543 C 540 531 581 519 623 506 C 665 493 702 477 735 457 C 767 437 794 413 815 383 C 835 353 846 314 846 268 C 846 227 837 189 821 153 C 805 117 780 86 748 60 C 716 33 677 12 632 -2 C 587 -17 536 -25 479 -25 C 405 -25 345 -14 298 7 C 250 28 212 52 182 78 C 146 108 119 142 100 180 L 225 254 C 237 225 256 199 281 176 C 299 156 325 139 359 123 C 393 107 434 100 483 100 C 509 100 534 102 560 108 C 585 114 607 123 626 135 C 645 147 660 162 672 180 C 684 198 690 219 690 244 C 690 290 668 324 626 346 C 584 368 527 389 457 410 C 418 420 379 432 341 446 C 302 460 267 477 236 497 C 205 517 180 543 161 573 C 142 603 133 640 133 684 C 133 726 141 765 159 800 C 177 834 201 864 233 889 C 265 913 301 932 343 946 C 385 960 430 967 479 967 C 562 967 634 949 696 913 C 757 877 797 835 817 786 L 688 715 Z M 864 1489 L 539 1161 L 410 1161 L 86 1489 L 252 1489 L 475 1251 L 696 1489 L 864 1489 Z" unicode="š" />
<glyph horiz-adv-x="1120" d="M 61 1333 L 1059 1333 L 1059 1196 L 641 1196 L 641 0 L 479 0 L 479 1196 L 61 1196 L 61 1333 Z M 457 -510 L 494 -201 L 643 -223 L 568 -522 L 457 -510 Z" unicode="Ţ" />
<glyph horiz-adv-x="762" d="M 221 942 L 221 1139 L 377 1159 L 377 942 L 659 942 L 659 813 L 377 813 L 377 260 C 377 238 378 217 382 199 C 385 181 391 164 401 150 C 411 136 424 124 442 116 C 460 108 482 104 510 104 C 541 104 565 106 582 112 C 599 118 616 126 633 137 L 659 14 C 639 3 615 -6 588 -14 C 560 -22 529 -27 494 -27 C 414 -27 349 -6 298 34 C 246 75 221 143 221 238 L 221 813 L 72 813 L 72 942 L 221 942 Z M 272 -510 L 309 -201 L 458 -223 L 383 -522 L 272 -510 Z" unicode="ţ" />
<glyph horiz-adv-x="1120" d="M 61 1333 L 1059 1333 L 1059 1196 L 641 1196 L 641 0 L 479 0 L 479 1196 L 61 1196 L 61 1333 Z M 950 1880 L 625 1552 L 496 1552 L 172 1880 L 338 1880 L 561 1642 L 782 1880 L 950 1880 Z" unicode="Ť" />
<glyph horiz-adv-x="731" d="M 221 942 L 221 1139 L 377 1159 L 377 942 L 659 942 L 659 813 L 377 813 L 377 260 C 377 238 378 217 382 199 C 385 181 391 164 401 150 C 411 136 424 124 442 116 C 460 108 482 104 510 104 C 541 104 565 106 582 112 C 599 118 616 126 633 137 L 659 14 C 639 3 615 -6 588 -14 C 560 -22 529 -27 494 -27 C 414 -27 349 -6 298 34 C 246 75 221 143 221 238 L 221 813 L 72 813 L 72 942 L 221 942 Z M 549 1128 L 594 1479 L 744 1456 L 660 1116 L 549 1128 Z" unicode="ť" />
<glyph horiz-adv-x="1161" d="M 82 1333 L 1079 1333 L 1079 1196 L 662 1196 L 662 780 L 977 780 L 977 653 L 662 653 L 662 0 L 500 0 L 500 653 L 184 653 L 184 780 L 500 780 L 500 1196 L 82 1196 L 82 1333 Z" unicode="Ŧ" />
<glyph horiz-adv-x="731" d="M 90 571 L 221 571 L 221 813 L 72 813 L 72 942 L 221 942 L 221 1139 L 377 1159 L 377 942 L 659 942 L 659 813 L 377 813 L 377 571 L 639 571 L 639 455 L 377 455 L 377 260 C 377 238 378 217 382 199 C 385 181 391 164 401 150 C 411 136 424 124 442 116 C 460 108 482 104 510 104 C 541 104 565 106 582 112 C 599 118 616 126 633 137 L 659 14 C 639 3 615 -6 588 -14 C 560 -22 529 -27 494 -27 C 414 -27 349 -6 298 34 C 246 75 221 143 221 238 L 221 455 L 90 455 L 90 571 Z" unicode="ŧ" />
<glyph horiz-adv-x="1307" d="M 725 -25 C 568 -25 450 15 370 96 C 290 176 250 295 250 451 L 250 1333 L 414 1333 L 414 440 C 414 384 422 335 438 294 C 454 253 477 219 506 192 C 534 165 568 145 606 131 C 644 117 685 111 729 111 C 773 111 814 117 852 131 C 890 145 924 165 953 192 C 981 219 1004 253 1020 294 C 1036 335 1045 384 1045 440 L 1045 1333 L 1209 1333 L 1209 451 C 1209 301 1167 185 1085 101 C 1002 17 882 -25 725 -25 Z M 590 1785 C 616 1785 642 1779 666 1769 C 690 1759 712 1747 734 1735 C 756 1722 776 1710 795 1700 C 814 1690 832 1685 850 1685 C 861 1685 870 1688 878 1694 C 885 1700 891 1707 895 1717 C 899 1726 903 1737 906 1749 C 908 1761 911 1774 913 1787 L 1026 1744 C 1028 1724 1027 1702 1022 1680 C 1016 1658 1007 1637 993 1619 C 979 1600 962 1584 941 1572 C 919 1560 894 1554 866 1554 C 838 1554 813 1559 789 1569 C 765 1579 743 1591 722 1604 C 701 1616 681 1628 662 1638 C 643 1648 625 1654 607 1654 C 597 1654 588 1651 581 1645 C 574 1639 568 1632 564 1623 C 559 1613 555 1602 552 1590 C 548 1578 545 1565 543 1552 L 431 1595 C 429 1621 432 1646 440 1670 C 448 1693 459 1713 473 1730 C 487 1747 505 1760 525 1770 C 545 1780 566 1785 590 1785 Z" unicode="Ũ" />
<glyph horiz-adv-x="1124" d="M 319 326 C 319 296 322 267 330 240 C 338 212 350 188 366 168 C 382 147 403 131 428 119 C 452 107 482 102 516 102 C 558 102 596 111 629 129 C 661 147 689 171 713 203 C 736 234 754 270 766 311 C 778 352 784 396 784 444 L 784 942 L 940 942 L 940 195 C 940 175 941 146 943 108 C 945 70 947 34 950 0 L 799 0 C 797 8 796 19 796 35 C 795 51 794 67 794 85 C 793 102 792 119 792 137 C 791 155 791 171 791 186 L 782 186 C 770 158 754 132 734 107 C 714 82 692 60 667 40 C 641 20 612 4 580 -7 C 548 -19 513 -25 475 -25 C 434 -25 395 -18 357 -5 C 319 7 286 28 258 56 C 229 84 206 119 189 162 C 172 205 164 257 164 319 L 164 942 L 319 942 L 319 326 Z M 418 1394 C 444 1394 470 1388 494 1378 C 518 1368 540 1356 562 1344 C 584 1331 604 1319 623 1309 C 642 1299 660 1294 678 1294 C 689 1294 698 1297 706 1303 C 713 1309 719 1316 723 1326 C 727 1335 731 1346 734 1358 C 736 1370 739 1383 741 1396 L 854 1353 C 856 1333 855 1311 850 1289 C 844 1267 835 1246 821 1228 C 807 1209 790 1193 769 1181 C 747 1169 722 1163 694 1163 C 666 1163 641 1168 617 1178 C 593 1188 571 1200 550 1213 C 529 1225 509 1237 490 1247 C 471 1257 453 1263 435 1263 C 425 1263 416 1260 409 1254 C 402 1248 396 1241 392 1232 C 387 1222 383 1211 380 1199 C 376 1187 373 1174 371 1161 L 259 1204 C 257 1230 260 1255 268 1279 C 276 1302 287 1322 301 1339 C 315 1356 333 1369 353 1379 C 373 1389 394 1394 418 1394 Z" unicode="ũ" />
<glyph horiz-adv-x="1307" d="M 725 -25 C 568 -25 450 15 370 96 C 290 176 250 295 250 451 L 250 1333 L 414 1333 L 414 440 C 414 384 422 335 438 294 C 454 253 477 219 506 192 C 534 165 568 145 606 131 C 644 117 685 111 729 111 C 773 111 814 117 852 131 C 890 145 924 165 953 192 C 981 219 1004 253 1020 294 C 1036 335 1045 384 1045 440 L 1045 1333 L 1209 1333 L 1209 451 C 1209 301 1167 185 1085 101 C 1002 17 882 -25 725 -25 Z M 416 1665 L 1030 1665 L 1030 1552 L 416 1552 L 416 1665 Z" unicode="Ū" />
<glyph horiz-adv-x="1124" d="M 319 326 C 319 296 322 267 330 240 C 338 212 350 188 366 168 C 382 147 403 131 428 119 C 452 107 482 102 516 102 C 558 102 596 111 629 129 C 661 147 689 171 713 203 C 736 234 754 270 766 311 C 778 352 784 396 784 444 L 784 942 L 940 942 L 940 195 C 940 175 941 146 943 108 C 945 70 947 34 950 0 L 799 0 C 797 8 796 19 796 35 C 795 51 794 67 794 85 C 793 102 792 119 792 137 C 791 155 791 171 791 186 L 782 186 C 770 158 754 132 734 107 C 714 82 692 60 667 40 C 641 20 612 4 580 -7 C 548 -19 513 -25 475 -25 C 434 -25 395 -18 357 -5 C 319 7 286 28 258 56 C 229 84 206 119 189 162 C 172 205 164 257 164 319 L 164 942 L 319 942 L 319 326 Z M 256 1274 L 870 1274 L 870 1161 L 256 1161 L 256 1274 Z" unicode="ū" />
<glyph horiz-adv-x="1307" d="M 725 -25 C 568 -25 450 15 370 96 C 290 176 250 295 250 451 L 250 1333 L 414 1333 L 414 440 C 414 384 422 335 438 294 C 454 253 477 219 506 192 C 534 165 568 145 606 131 C 644 117 685 111 729 111 C 773 111 814 117 852 131 C 890 145 924 165 953 192 C 981 219 1004 253 1020 294 C 1036 335 1045 384 1045 440 L 1045 1333 L 1209 1333 L 1209 451 C 1209 301 1167 185 1085 101 C 1002 17 882 -25 725 -25 Z M 725 1665 C 787 1665 835 1685 869 1726 C 903 1767 920 1818 920 1878 L 1059 1878 C 1059 1831 1051 1788 1037 1748 C 1023 1708 1002 1674 974 1645 C 946 1615 911 1592 869 1576 C 827 1560 779 1552 725 1552 C 614 1552 531 1582 475 1643 C 419 1703 391 1782 391 1878 L 528 1878 C 528 1818 545 1767 581 1726 C 617 1685 665 1665 725 1665 Z" unicode="Ŭ" />
</font>
</defs>
</svg>
