<?xml version="1.0" encoding="utf-8" ?><svg version="1.1" xmlns = 'http://www.w3.org/2000/svg'><defs><font id='web' horiz-adv-x="1000">
<font-face font-family="web" descent="-436" cap-height="1516" units-per-em="2048" bbox="-184,-602,3095,2031" x-height="1092" ascent="1612" />
<missing-glyph horiz-adv-x="1024" d="M 0 1434 L 1024 1434 L 1024 0 L 0 0 L 0 1434 Z M 102 102 L 922 102 L 922 1331 L 102 1331 L 102 102 Z" /><glyph horiz-adv-x="551" d="" unicode=" " />
<glyph horiz-adv-x="731" d="M 250 479 L 166 1516 L 580 1516 L 498 479 L 250 479 Z M 197 0 L 197 303 L 549 303 L 549 0 L 197 0 Z" unicode="!" />
<glyph horiz-adv-x="942" d="M 164 963 L 129 1364 L 129 1516 L 410 1516 L 410 1364 L 375 963 L 164 963 Z M 567 963 L 532 1364 L 532 1516 L 811 1516 L 811 1364 L 776 963 L 567 963 Z" unicode="&#x22;" />
<glyph horiz-adv-x="1563" d="M 197 0 L 276 381 L 51 381 L 51 625 L 328 625 L 383 891 L 139 891 L 139 1135 L 434 1135 L 514 1516 L 809 1516 L 729 1135 L 958 1135 L 1038 1516 L 1333 1516 L 1253 1135 L 1509 1135 L 1509 891 L 1202 891 L 1147 625 L 1421 625 L 1421 381 L 1096 381 L 1016 0 L 721 0 L 801 381 L 573 381 L 492 0 L 197 0 Z M 623 625 L 852 625 L 907 891 L 680 891 L 623 625 Z" unicode="#" />
<glyph horiz-adv-x="1399" d="M 602 -18 C 536 -11 476 1 424 21 C 372 40 325 64 284 93 C 242 121 205 154 173 190 C 141 226 112 265 88 307 L 311 451 C 331 421 352 394 374 368 C 395 342 418 318 442 298 C 465 277 491 259 519 245 C 547 230 578 219 612 213 L 612 647 C 550 662 490 680 432 701 C 374 722 322 749 278 783 C 232 816 196 857 169 907 C 142 956 129 1017 129 1090 C 129 1154 140 1213 162 1265 C 184 1317 216 1363 258 1401 C 298 1439 348 1469 406 1492 C 464 1515 530 1530 602 1536 L 602 1677 L 799 1677 L 799 1530 C 855 1522 906 1509 951 1492 C 995 1475 1035 1455 1071 1432 C 1105 1408 1136 1381 1164 1352 C 1191 1322 1216 1292 1239 1260 L 1018 1100 C 1002 1121 987 1141 972 1161 C 956 1180 940 1198 922 1214 C 904 1230 884 1244 863 1256 C 842 1268 819 1278 793 1286 L 793 887 C 840 875 885 863 928 850 C 971 836 1011 821 1049 804 C 1085 786 1119 765 1149 742 C 1179 719 1204 693 1226 663 C 1247 633 1263 599 1275 561 C 1286 523 1292 480 1292 432 C 1292 376 1282 322 1264 271 C 1245 219 1216 174 1176 134 C 1136 93 1084 59 1022 33 C 960 6 885 -10 799 -18 L 799 -190 L 602 -190 L 602 -18 Z M 793 211 C 859 220 908 240 940 270 C 972 300 989 344 989 401 C 989 452 973 493 941 523 C 909 553 859 579 793 600 L 793 211 Z M 612 1298 C 550 1290 504 1269 475 1236 C 446 1203 432 1164 432 1118 C 432 1092 435 1070 443 1052 C 451 1033 462 1017 478 1003 C 492 988 511 975 534 964 C 556 953 582 943 612 934 L 612 1298 Z" unicode="$" />
<glyph horiz-adv-x="2269" d="M 1772 -20 C 1708 -20 1650 -8 1600 15 C 1549 39 1506 72 1471 116 C 1435 159 1408 211 1390 272 C 1371 333 1362 401 1362 475 C 1362 550 1371 618 1390 680 C 1409 741 1437 793 1473 837 C 1508 880 1551 913 1602 937 C 1653 961 1710 973 1774 973 C 1836 973 1893 961 1943 937 C 1993 913 2036 880 2072 837 C 2106 793 2133 741 2152 680 C 2171 619 2181 551 2181 477 C 2181 403 2171 335 2153 274 C 2134 212 2107 160 2073 117 C 2037 73 1994 40 1944 16 C 1893 -8 1836 -20 1772 -20 Z M 500 549 C 435 549 377 560 326 584 C 275 608 232 641 197 685 C 161 727 134 779 116 840 C 97 901 88 969 88 1044 C 88 1119 97 1187 116 1249 C 135 1310 163 1362 199 1406 C 234 1448 277 1481 328 1505 C 379 1528 436 1540 500 1540 C 562 1540 619 1528 669 1505 C 719 1481 762 1448 798 1406 C 833 1362 860 1310 879 1250 C 897 1189 907 1121 907 1047 C 907 972 897 904 879 843 C 860 781 833 729 799 686 C 763 642 720 609 670 585 C 620 561 563 549 500 549 Z M 541 0 L 1446 1516 L 1729 1516 L 823 0 L 541 0 Z M 500 756 C 524 756 545 762 563 776 C 580 789 594 808 606 834 C 616 858 624 888 629 924 C 634 959 637 999 637 1044 C 637 1135 626 1205 604 1255 C 582 1304 548 1329 500 1329 C 448 1329 412 1304 390 1254 C 368 1204 358 1135 358 1047 C 358 955 369 884 391 833 C 413 781 449 756 500 756 Z M 1774 188 C 1798 188 1819 194 1837 208 C 1854 221 1868 240 1880 266 C 1890 290 1898 320 1903 356 C 1908 392 1911 432 1911 477 C 1911 567 1900 637 1878 686 C 1856 735 1821 760 1772 760 C 1746 760 1725 753 1707 740 C 1689 727 1675 709 1664 685 C 1652 660 1644 630 1639 595 C 1634 560 1632 521 1632 477 C 1632 385 1643 314 1665 264 C 1687 213 1723 188 1774 188 Z" unicode="%" />
<glyph horiz-adv-x="1522" d="M 604 -29 C 510 -29 427 -19 356 0 C 284 18 225 45 177 81 C 129 115 93 158 69 208 C 45 258 33 313 33 375 C 33 436 42 490 61 537 C 80 583 106 625 138 661 C 170 696 207 727 249 754 C 291 780 335 805 381 827 C 351 885 327 941 310 997 C 293 1052 285 1107 285 1161 C 285 1211 293 1259 310 1305 C 327 1351 353 1391 389 1427 C 423 1462 468 1490 522 1512 C 576 1533 641 1544 715 1544 C 783 1544 842 1534 892 1516 C 942 1497 983 1472 1015 1442 C 1047 1410 1070 1375 1085 1335 C 1100 1295 1108 1254 1108 1212 C 1108 1155 1098 1105 1079 1061 C 1059 1017 1034 979 1002 945 C 970 910 932 879 890 852 C 848 825 804 800 758 778 C 771 758 785 739 801 719 C 817 699 833 679 850 659 C 880 622 908 588 936 557 C 964 525 990 497 1016 473 C 1040 515 1061 561 1077 612 C 1093 663 1104 719 1112 780 L 1393 780 C 1381 700 1363 620 1339 540 C 1314 460 1280 385 1237 315 C 1280 291 1324 274 1370 264 C 1415 253 1464 248 1516 248 L 1516 -20 C 1417 -19 1329 -9 1251 9 C 1173 27 1100 56 1032 96 C 975 56 912 26 842 4 C 772 -18 692 -29 604 -29 Z M 653 952 C 679 966 703 982 725 999 C 747 1016 767 1035 783 1055 C 799 1075 811 1097 820 1121 C 829 1145 834 1171 834 1200 C 834 1215 832 1230 828 1246 C 824 1261 817 1275 809 1288 C 800 1300 788 1309 774 1317 C 759 1325 741 1329 721 1329 C 702 1329 685 1326 669 1320 C 653 1314 639 1304 627 1292 C 615 1279 605 1263 598 1245 C 591 1226 588 1204 588 1180 C 588 1142 593 1105 604 1068 C 615 1030 631 992 653 952 Z M 606 201 C 644 201 681 206 715 216 C 749 226 782 240 813 260 C 781 292 747 327 713 366 C 679 405 643 448 606 494 C 587 517 569 541 551 565 C 533 589 516 612 500 635 C 458 607 426 575 402 540 C 378 505 367 466 367 422 C 367 386 372 355 384 328 C 395 300 411 277 433 259 C 453 239 478 225 508 215 C 537 205 570 201 606 201 Z" unicode="&#x26;" />
<glyph horiz-adv-x="541" d="M 164 963 L 129 1364 L 129 1516 L 410 1516 L 410 1364 L 375 963 L 164 963 Z" unicode="'" />
<glyph horiz-adv-x="827" d="M 614 -420 C 530 -350 456 -277 391 -202 C 326 -127 271 -49 227 33 C 182 115 148 201 125 292 C 101 383 90 480 90 584 C 90 686 101 783 125 874 C 148 965 182 1052 227 1135 C 271 1217 326 1295 391 1370 C 456 1444 530 1517 614 1587 L 766 1427 C 716 1371 670 1312 630 1249 C 589 1186 554 1120 526 1050 C 496 979 474 905 458 827 C 442 749 434 668 434 584 C 434 498 442 416 458 337 C 474 258 498 183 528 112 C 557 40 593 -27 635 -91 C 677 -155 724 -214 776 -270 L 614 -420 Z" unicode="(" />
<glyph horiz-adv-x="827" d="M 51 -270 C 102 -214 148 -155 190 -91 C 232 -27 268 40 298 112 C 327 183 350 258 366 337 C 382 416 391 498 391 584 C 391 668 383 749 367 827 C 351 905 329 979 301 1050 C 271 1120 236 1186 195 1249 C 154 1312 109 1371 59 1427 L 213 1587 C 296 1517 370 1444 435 1370 C 500 1295 555 1217 600 1135 C 644 1052 677 965 700 874 C 723 783 735 686 735 584 C 735 480 723 383 700 292 C 677 201 644 115 600 33 C 555 -49 500 -127 435 -202 C 370 -277 296 -350 213 -420 L 51 -270 Z" unicode=")" />
<glyph horiz-adv-x="1040" d="M 375 618 L 203 721 L 393 997 L 55 975 L 55 1167 L 395 1143 L 203 1421 L 375 1524 L 520 1219 L 666 1524 L 840 1421 L 647 1143 L 985 1167 L 985 975 L 647 997 L 840 721 L 668 618 L 520 924 L 375 618 Z" unicode="*" />
<glyph horiz-adv-x="1323" d="M 530 178 L 530 588 L 137 588 L 137 848 L 530 848 L 530 1257 L 793 1257 L 793 848 L 1186 848 L 1186 588 L 793 588 L 793 178 L 530 178 Z" unicode="+" />
<glyph horiz-adv-x="578" d="M 160 -246 L 246 0 L 113 0 L 113 317 L 465 317 L 465 45 L 313 -246 L 160 -246 Z" unicode="," />
<glyph horiz-adv-x="731" d="M 96 532 L 96 754 L 635 754 L 635 532 L 96 532 Z" unicode="-" />
<glyph horiz-adv-x="578" d="M 113 0 L 113 317 L 465 317 L 465 0 L 113 0 Z" unicode="." />
<glyph horiz-adv-x="1313" d="M 47 0 L 928 1516 L 1266 1516 L 385 0 L 47 0 Z" unicode="/" />
<glyph horiz-adv-x="1425" d="M 713 -29 C 613 -29 524 -10 446 27 C 368 65 302 118 248 187 C 194 255 152 338 124 435 C 96 532 82 640 82 758 C 82 876 96 983 124 1080 C 152 1176 194 1259 248 1328 C 302 1396 368 1449 446 1487 C 524 1525 613 1544 713 1544 C 813 1544 901 1525 979 1487 C 1057 1449 1123 1396 1177 1328 C 1230 1259 1271 1176 1299 1080 C 1327 983 1341 876 1341 758 C 1341 640 1327 532 1299 435 C 1271 338 1230 255 1177 187 C 1123 118 1057 65 979 27 C 901 -10 813 -29 713 -29 Z M 713 231 C 810 231 884 275 935 364 C 986 452 1012 584 1012 758 C 1012 930 985 1060 933 1147 C 881 1234 807 1278 713 1278 C 613 1278 539 1234 489 1148 C 439 1062 414 932 414 758 C 414 584 439 452 491 364 C 543 275 617 231 713 231 Z" unicode="0" />
<glyph horiz-adv-x="938" d="M 66 0 L 66 260 L 340 260 L 340 1214 C 321 1204 301 1195 279 1187 C 257 1179 234 1172 211 1166 C 187 1159 163 1154 139 1150 C 115 1146 92 1145 70 1145 L 70 1417 C 128 1419 181 1428 227 1444 C 273 1460 314 1484 348 1516 L 662 1516 L 662 260 L 901 260 L 901 0 L 66 0 Z" unicode="1" />
<glyph horiz-adv-x="1257" d="M 53 0 L 53 33 C 53 87 57 142 67 197 C 77 251 98 307 130 364 C 161 420 206 477 266 536 C 326 595 406 657 506 721 C 564 758 614 790 656 818 C 698 846 732 873 759 900 C 785 926 804 953 816 981 C 828 1009 834 1043 834 1081 C 834 1137 816 1182 782 1216 C 748 1249 699 1266 635 1266 C 605 1266 575 1261 545 1251 C 515 1241 486 1228 458 1210 C 429 1191 401 1168 375 1141 C 349 1114 325 1083 303 1049 L 68 1214 C 100 1264 136 1309 175 1350 C 214 1390 257 1425 305 1454 C 352 1482 404 1504 460 1520 C 516 1536 577 1544 645 1544 C 726 1544 798 1533 862 1513 C 926 1492 980 1463 1024 1425 C 1067 1386 1100 1339 1123 1285 C 1145 1231 1157 1170 1157 1104 C 1157 1062 1153 1020 1145 980 C 1137 940 1122 899 1098 859 C 1074 818 1040 776 996 734 C 952 692 893 648 821 602 C 766 567 716 534 671 502 C 626 470 588 441 556 413 C 523 384 497 357 479 332 C 461 306 451 282 449 260 L 1167 260 L 1167 0 L 53 0 Z" unicode="2" />
<glyph horiz-adv-x="1276" d="M 612 -29 C 482 -29 369 -7 273 36 C 177 80 93 145 23 231 L 229 416 C 254 385 281 358 311 336 C 341 313 372 294 404 280 C 436 265 468 254 501 247 C 534 239 566 236 598 236 C 683 236 748 254 792 290 C 836 326 858 378 858 446 C 858 488 850 523 835 552 C 819 580 797 603 767 621 C 736 638 698 650 653 658 C 608 666 556 670 496 670 L 420 670 L 420 913 L 502 913 C 571 913 627 918 670 929 C 712 939 745 954 769 972 C 792 989 807 1009 815 1032 C 823 1055 827 1079 827 1104 C 827 1128 823 1151 816 1172 C 808 1192 796 1210 779 1226 C 761 1240 739 1252 711 1260 C 683 1268 648 1272 608 1272 C 552 1272 495 1261 437 1240 C 378 1218 321 1181 266 1128 L 84 1337 C 118 1369 156 1397 199 1423 C 241 1449 287 1470 336 1488 C 384 1505 434 1518 487 1528 C 539 1537 593 1542 647 1542 C 729 1542 802 1533 866 1516 C 929 1498 982 1473 1026 1441 C 1068 1407 1101 1367 1123 1319 C 1145 1271 1157 1216 1157 1155 C 1157 1111 1150 1069 1137 1031 C 1124 993 1105 959 1081 929 C 1055 898 1024 872 987 850 C 950 828 908 813 860 803 C 916 793 966 777 1010 755 C 1053 733 1089 705 1119 673 C 1147 639 1169 602 1184 560 C 1198 518 1206 474 1206 426 C 1206 354 1191 290 1163 234 C 1134 178 1094 130 1042 92 C 990 52 927 22 854 2 C 781 -18 700 -29 612 -29 Z" unicode="3" />
<glyph horiz-adv-x="1384" d="M 780 0 L 780 297 L 45 297 L 45 539 L 735 1516 L 1102 1516 L 1102 559 L 1358 559 L 1358 297 L 1102 297 L 1102 0 L 780 0 Z M 389 559 L 780 559 L 780 1118 L 776 1118 L 389 559 Z" unicode="4" />
<glyph horiz-adv-x="1247" d="M 600 -29 C 537 -29 479 -24 425 -15 C 371 -5 320 8 274 26 C 227 43 184 64 144 89 C 104 113 67 141 33 172 L 201 391 C 225 368 252 347 281 328 C 310 309 341 293 374 280 C 406 266 440 255 475 247 C 509 239 544 236 580 236 C 630 236 673 242 709 256 C 745 269 775 288 799 312 C 822 335 839 363 851 396 C 862 428 868 464 868 504 C 868 590 846 658 802 706 C 758 754 692 778 606 778 C 554 778 505 765 458 741 C 410 717 367 681 328 633 L 113 700 L 174 1516 L 1094 1516 L 1077 1264 L 430 1264 L 401 928 C 413 940 429 951 449 963 C 468 974 490 984 516 993 C 541 1001 569 1008 601 1014 C 633 1019 668 1022 707 1022 C 787 1022 858 1009 920 984 C 981 959 1033 924 1075 880 C 1116 834 1147 781 1168 719 C 1189 657 1200 590 1200 516 C 1200 435 1186 361 1158 294 C 1130 227 1091 170 1040 122 C 988 74 925 36 851 10 C 777 -15 693 -29 600 -29 Z" unicode="5" />
<glyph horiz-adv-x="1339" d="M 700 -29 C 609 -29 526 -12 450 20 C 374 52 309 101 255 165 C 200 229 157 308 127 403 C 97 497 82 607 82 731 C 82 828 91 915 109 993 C 127 1071 153 1140 185 1201 C 216 1261 253 1312 296 1356 C 338 1399 385 1435 435 1463 C 484 1490 535 1510 589 1524 C 643 1537 696 1544 750 1544 C 807 1544 858 1540 903 1533 C 947 1525 987 1516 1023 1505 C 1057 1493 1088 1479 1115 1464 C 1142 1448 1167 1433 1190 1417 L 1049 1192 C 1027 1206 1005 1219 984 1230 C 963 1241 941 1250 919 1258 C 896 1265 872 1270 847 1274 C 821 1278 794 1280 764 1280 C 715 1280 670 1270 629 1250 C 587 1230 551 1202 521 1165 C 489 1127 464 1080 444 1026 C 424 971 412 909 408 840 C 461 881 519 914 581 939 C 643 964 711 977 786 977 C 853 977 916 967 976 949 C 1035 931 1087 902 1132 864 C 1176 824 1211 774 1237 714 C 1263 653 1276 580 1276 496 C 1276 416 1262 344 1234 280 C 1206 216 1167 161 1117 115 C 1066 69 1005 33 935 8 C 864 -16 786 -29 700 -29 Z M 715 223 C 755 223 791 230 822 244 C 852 258 878 277 900 301 C 920 324 936 351 947 383 C 957 414 963 447 963 481 C 963 513 959 544 951 574 C 943 604 930 630 912 654 C 892 677 867 696 836 710 C 804 724 765 731 719 731 C 654 731 596 719 544 696 C 492 672 446 642 408 604 C 416 476 445 380 497 317 C 549 254 621 223 715 223 Z" unicode="6" />
<glyph horiz-adv-x="1104" d="M 166 0 L 745 1247 L 25 1247 L 25 1516 L 1085 1516 L 1085 1270 L 502 0 L 166 0 Z" unicode="7" />
<glyph horiz-adv-x="1307" d="M 653 -29 C 557 -29 472 -19 397 0 C 321 19 257 47 205 83 C 152 119 112 163 84 215 C 56 267 43 325 43 391 C 43 439 51 483 69 523 C 87 563 111 600 142 634 C 172 667 208 697 249 723 C 289 749 333 771 379 791 C 337 812 300 834 267 858 C 234 881 206 907 184 937 C 160 965 143 998 131 1034 C 119 1070 113 1113 113 1161 C 113 1209 124 1256 147 1302 C 169 1348 203 1389 249 1425 C 293 1461 349 1489 417 1511 C 485 1533 563 1544 653 1544 C 745 1544 824 1533 892 1511 C 960 1489 1016 1460 1061 1424 C 1105 1388 1137 1347 1159 1301 C 1181 1255 1192 1209 1192 1161 C 1192 1080 1169 1009 1123 948 C 1077 886 1012 837 930 801 C 978 779 1023 756 1064 732 C 1104 708 1139 680 1169 649 C 1198 617 1221 580 1237 538 C 1253 496 1262 447 1262 391 C 1262 325 1248 267 1220 215 C 1192 163 1153 120 1101 84 C 1048 47 984 19 909 0 C 833 -19 748 -29 653 -29 Z M 676 909 C 710 925 739 942 764 958 C 788 974 809 991 825 1009 C 840 1026 851 1044 859 1064 C 866 1084 870 1106 870 1130 C 870 1150 866 1170 858 1191 C 850 1212 838 1232 822 1250 C 804 1267 782 1281 755 1292 C 727 1303 694 1309 655 1309 C 615 1309 582 1304 554 1294 C 526 1284 504 1271 487 1255 C 469 1238 456 1219 448 1199 C 440 1178 436 1157 436 1137 C 436 1108 441 1083 452 1061 C 462 1039 478 1020 499 1003 C 519 985 544 968 574 953 C 604 938 638 923 676 909 Z M 653 199 C 696 199 735 204 769 215 C 803 226 832 241 856 261 C 879 279 897 301 909 327 C 921 353 928 380 928 410 C 928 438 922 464 910 488 C 898 511 880 533 856 554 C 831 574 800 594 763 613 C 725 632 681 652 629 674 C 551 636 489 596 445 554 C 401 512 379 464 379 410 C 379 381 385 354 397 328 C 409 302 427 280 451 262 C 474 242 503 227 537 216 C 571 204 609 199 653 199 Z" unicode="8" />
<glyph horiz-adv-x="1339" d="M 590 -29 C 531 -29 479 -25 433 -17 C 387 -9 347 0 311 13 C 275 25 243 39 215 55 C 187 71 161 87 139 104 L 283 322 C 305 306 327 293 349 281 C 370 269 392 259 416 251 C 438 243 463 237 489 233 C 515 229 543 227 575 227 C 623 227 668 237 709 258 C 750 278 786 308 818 347 C 848 385 873 432 893 488 C 912 543 924 606 930 676 C 876 634 818 601 756 576 C 694 551 625 539 551 539 C 484 539 421 548 362 566 C 303 584 252 613 208 653 C 163 691 128 741 102 802 C 76 862 63 935 63 1020 C 63 1098 76 1170 104 1234 C 132 1298 171 1354 222 1400 C 272 1446 333 1481 404 1506 C 474 1531 553 1544 639 1544 C 729 1544 812 1527 888 1495 C 963 1462 1028 1414 1083 1350 C 1137 1286 1179 1206 1209 1112 C 1239 1017 1255 908 1255 784 C 1255 687 1246 600 1228 522 C 1210 444 1185 375 1154 315 C 1122 255 1084 203 1042 160 C 999 116 953 81 904 53 C 854 25 803 4 750 -9 C 696 -22 643 -29 590 -29 Z M 621 784 C 685 784 743 795 795 819 C 847 842 892 873 930 911 C 922 1037 892 1131 840 1192 C 787 1253 715 1284 625 1284 C 583 1284 547 1277 517 1264 C 486 1250 460 1232 440 1210 C 418 1187 402 1160 392 1130 C 382 1100 377 1068 377 1034 C 377 1002 380 971 388 941 C 396 911 409 884 428 861 C 446 837 470 819 502 805 C 533 791 573 784 621 784 Z" unicode="9" />
<glyph horiz-adv-x="604" d="M 125 774 L 125 1092 L 479 1092 L 479 774 L 125 774 Z M 125 0 L 125 317 L 479 317 L 479 0 L 125 0 Z" unicode=":" />
<glyph horiz-adv-x="604" d="M 168 -246 L 256 0 L 125 0 L 125 317 L 479 317 L 479 53 L 322 -246 L 168 -246 Z M 125 774 L 125 1092 L 479 1092 L 479 774 L 125 774 Z" unicode=";" />
<glyph horiz-adv-x="1323" d="M 1206 98 L 123 573 L 123 754 L 1206 1229 L 1206 958 L 475 664 L 1206 369 L 1206 98 Z" unicode="&#x3C;" />
<glyph horiz-adv-x="1323" d="M 143 788 L 143 1022 L 1178 1022 L 1178 788 L 143 788 Z M 143 322 L 143 555 L 1178 555 L 1178 322 L 143 322 Z" unicode="=" />
<glyph horiz-adv-x="1323" d="M 127 98 L 127 369 L 858 664 L 127 958 L 127 1229 L 1210 754 L 1210 573 L 127 98 Z" unicode="&#x3E;" />
<glyph horiz-adv-x="1217" d="M 432 475 C 428 503 426 528 425 550 C 424 572 424 597 424 623 C 424 661 429 696 441 727 C 452 758 467 786 487 812 C 506 836 529 859 556 879 C 582 899 611 917 641 934 C 669 950 693 965 714 979 C 734 993 752 1008 766 1024 C 779 1040 789 1057 795 1076 C 801 1095 805 1117 805 1143 C 805 1184 788 1217 755 1243 C 721 1269 674 1282 612 1282 C 578 1282 544 1277 511 1267 C 477 1257 446 1245 416 1229 C 385 1212 356 1193 330 1171 C 303 1149 280 1127 260 1104 L 61 1290 C 92 1324 127 1357 167 1388 C 207 1419 251 1446 300 1470 C 348 1492 401 1510 459 1524 C 517 1537 579 1544 647 1544 C 725 1544 793 1534 853 1516 C 913 1497 963 1471 1004 1438 C 1044 1404 1075 1365 1096 1319 C 1117 1273 1128 1223 1128 1169 C 1128 1121 1121 1080 1109 1044 C 1096 1008 1079 976 1058 948 C 1036 920 1010 895 981 874 C 951 852 920 833 887 815 C 855 799 829 784 808 770 C 786 756 769 743 756 729 C 742 715 731 700 724 685 C 716 669 711 652 708 632 C 704 612 702 589 702 564 C 702 538 702 509 702 475 L 432 475 Z M 391 0 L 391 303 L 743 303 L 743 0 L 391 0 Z" unicode="?" />
<glyph horiz-adv-x="1778" d="M 870 -29 C 749 -29 640 -9 544 29 C 447 68 365 123 297 193 C 229 262 176 344 140 440 C 104 536 86 640 86 754 C 86 867 105 972 144 1069 C 183 1165 238 1249 309 1320 C 379 1390 464 1444 564 1484 C 663 1524 773 1544 893 1544 C 1013 1544 1122 1525 1220 1487 C 1318 1449 1402 1396 1472 1329 C 1542 1261 1596 1180 1634 1086 C 1672 992 1692 890 1692 778 C 1692 709 1683 646 1665 589 C 1647 532 1621 483 1587 442 C 1552 400 1510 368 1460 345 C 1410 322 1352 311 1288 311 C 1247 311 1212 315 1182 324 C 1152 333 1126 346 1105 362 C 1083 378 1064 397 1050 419 C 1036 441 1024 466 1016 494 C 997 474 977 455 955 437 C 933 418 910 401 884 387 C 857 372 828 360 797 351 C 765 342 731 338 694 338 C 652 338 614 345 580 359 C 546 373 518 393 494 420 C 470 446 451 479 439 518 C 426 557 420 602 420 653 C 420 737 430 813 451 881 C 471 949 500 1006 536 1054 C 571 1101 612 1137 660 1163 C 707 1189 757 1202 811 1202 C 843 1202 872 1199 896 1194 C 920 1188 942 1181 961 1172 C 979 1162 996 1150 1010 1138 C 1024 1125 1037 1112 1049 1098 L 1063 1186 L 1313 1186 L 1212 575 C 1204 533 1208 501 1226 479 C 1244 457 1277 446 1325 446 C 1357 446 1386 453 1414 467 C 1441 481 1464 503 1484 531 C 1503 558 1518 592 1529 632 C 1540 672 1546 718 1546 770 C 1546 864 1530 949 1499 1027 C 1468 1105 1424 1172 1368 1228 C 1310 1283 1241 1326 1161 1357 C 1080 1387 990 1403 891 1403 C 791 1403 701 1387 621 1355 C 541 1323 473 1278 417 1221 C 361 1163 317 1095 287 1016 C 257 936 242 849 242 754 C 242 659 256 571 286 491 C 315 411 357 342 413 284 C 467 225 534 179 613 147 C 692 114 781 98 881 98 C 957 98 1026 106 1090 123 C 1153 140 1212 167 1266 203 L 1335 102 C 1275 60 1206 27 1126 5 C 1046 -17 961 -29 870 -29 Z M 803 528 C 833 528 862 535 891 551 C 919 567 945 586 969 610 L 1020 926 C 997 950 975 968 953 979 C 931 989 904 995 872 995 C 838 995 808 986 783 968 C 758 950 738 926 722 897 C 705 867 692 833 684 795 C 676 757 672 719 672 680 C 672 656 674 634 678 615 C 682 596 690 580 700 568 C 710 554 723 544 740 538 C 756 531 777 528 803 528 Z" unicode="@" />
<glyph horiz-adv-x="1460" d="M 35 0 L 571 1522 L 889 1522 L 1425 0 L 1087 0 L 975 338 L 459 338 L 342 0 L 35 0 Z M 541 580 L 897 580 L 723 1096 L 719 1096 L 541 580 Z" unicode="A" />
<glyph horiz-adv-x="1460" d="M 156 0 L 156 1516 L 762 1516 C 808 1516 853 1513 898 1509 C 943 1505 986 1497 1026 1487 C 1066 1476 1103 1461 1137 1443 C 1171 1425 1200 1402 1225 1375 C 1249 1347 1268 1313 1282 1275 C 1296 1237 1303 1192 1303 1141 C 1303 1087 1295 1040 1279 1000 C 1263 960 1242 926 1216 898 C 1189 869 1158 846 1123 829 C 1088 812 1052 800 1014 793 L 1014 788 C 1060 780 1103 767 1143 750 C 1183 733 1218 710 1248 682 C 1277 652 1300 616 1317 573 C 1334 529 1343 478 1343 418 C 1343 342 1327 277 1296 224 C 1265 170 1224 127 1174 95 C 1122 61 1064 37 998 22 C 932 7 863 0 793 0 L 156 0 Z M 483 254 L 752 254 C 844 254 911 271 954 307 C 996 342 1018 392 1018 457 C 1018 523 994 573 947 606 C 900 638 830 655 737 655 L 483 655 L 483 254 Z M 483 891 L 729 891 C 816 891 880 906 921 938 C 962 969 983 1014 983 1073 C 983 1132 963 1177 924 1209 C 885 1241 821 1257 733 1257 L 483 1257 L 483 891 Z" unicode="B" />
<glyph horiz-adv-x="1493" d="M 772 -29 C 673 -29 582 -13 498 19 C 414 51 341 99 280 165 C 218 230 170 312 136 411 C 101 509 84 626 84 760 C 84 891 101 1006 137 1104 C 173 1202 222 1284 284 1350 C 346 1414 418 1463 502 1495 C 586 1527 676 1544 772 1544 C 868 1544 950 1531 1020 1507 C 1090 1483 1149 1450 1198 1408 C 1246 1365 1286 1314 1316 1256 C 1346 1198 1370 1135 1386 1067 L 1071 975 C 1059 1018 1044 1058 1028 1094 C 1012 1130 992 1161 969 1187 C 945 1212 917 1232 885 1246 C 853 1260 814 1268 770 1268 C 712 1268 662 1256 618 1232 C 574 1208 538 1175 509 1131 C 479 1087 456 1033 441 971 C 425 908 418 838 418 760 C 418 680 425 607 441 543 C 457 479 480 424 510 380 C 540 334 577 300 621 276 C 665 252 716 240 774 240 C 818 240 857 246 891 260 C 925 274 955 294 981 322 C 1006 348 1028 381 1046 421 C 1064 461 1080 507 1094 559 L 1407 489 C 1388 413 1362 343 1330 279 C 1297 215 1255 161 1205 116 C 1153 70 1092 34 1021 9 C 950 -16 867 -29 772 -29 Z" unicode="C" />
<glyph horiz-adv-x="1516" d="M 156 0 L 156 1516 L 621 1516 C 736 1516 843 1502 942 1476 C 1041 1450 1127 1407 1200 1349 C 1272 1289 1328 1212 1370 1116 C 1411 1020 1432 904 1432 766 C 1432 624 1411 504 1369 406 C 1327 308 1270 230 1198 170 C 1124 109 1038 65 940 39 C 841 13 735 0 621 0 L 156 0 Z M 487 270 L 643 270 C 725 270 795 279 853 298 C 911 317 958 347 995 387 C 1031 427 1057 478 1073 540 C 1089 602 1098 676 1098 762 C 1098 842 1089 912 1073 972 C 1056 1032 1029 1081 993 1121 C 956 1159 908 1188 850 1208 C 792 1227 721 1237 639 1237 L 487 1237 L 487 270 Z" unicode="D" />
<glyph horiz-adv-x="1296" d="M 156 0 L 156 1516 L 1188 1516 L 1188 1237 L 489 1237 L 489 911 L 995 911 L 995 647 L 489 647 L 489 270 L 1225 270 L 1225 0 L 156 0 Z" unicode="E" />
<glyph horiz-adv-x="1200" d="M 156 0 L 156 1516 L 1157 1516 L 1157 1237 L 489 1237 L 489 868 L 965 868 L 965 604 L 489 604 L 489 0 L 156 0 Z" unicode="F" />
<glyph horiz-adv-x="1559" d="M 748 -29 C 633 -29 534 -9 450 30 C 366 70 298 125 244 196 C 189 266 149 350 123 447 C 97 544 84 650 84 764 C 84 882 100 990 132 1086 C 164 1182 210 1264 270 1332 C 329 1400 401 1452 486 1489 C 571 1525 667 1544 774 1544 C 846 1544 913 1536 977 1520 C 1041 1504 1099 1478 1152 1441 C 1204 1403 1250 1353 1290 1291 C 1330 1229 1362 1151 1386 1059 L 1081 975 C 1065 1027 1047 1072 1027 1109 C 1007 1146 984 1177 959 1201 C 933 1224 905 1241 874 1252 C 843 1262 809 1268 772 1268 C 751 1268 728 1265 703 1260 C 677 1255 652 1246 626 1234 C 600 1220 574 1202 550 1179 C 525 1155 503 1125 484 1089 C 464 1051 449 1006 437 954 C 425 902 420 840 420 770 C 420 699 425 637 436 583 C 446 529 461 483 479 444 C 497 404 518 372 542 346 C 566 320 592 299 620 284 C 646 268 674 256 703 250 C 731 243 759 240 786 240 C 827 240 865 246 900 259 C 935 271 966 289 993 313 C 1019 336 1041 364 1059 398 C 1077 432 1090 470 1098 512 L 834 512 L 834 760 L 1415 760 L 1415 0 L 1147 0 L 1147 209 L 1143 209 C 1135 186 1120 161 1099 133 C 1078 105 1051 80 1019 56 C 985 32 946 11 901 -4 C 856 -20 805 -29 748 -29 Z" unicode="G" />
<glyph horiz-adv-x="1575" d="M 156 0 L 156 1516 L 489 1516 L 489 928 L 1085 928 L 1085 1516 L 1419 1516 L 1419 0 L 1085 0 L 1085 647 L 489 647 L 489 0 L 156 0 Z" unicode="H" />
<glyph horiz-adv-x="676" d="M 172 0 L 172 1516 L 504 1516 L 504 0 L 172 0 Z" unicode="I" />
<glyph horiz-adv-x="1096" d="M 463 -29 C 410 -29 362 -24 319 -15 C 275 -6 236 5 200 21 C 164 35 131 53 102 73 C 72 93 45 115 20 139 L 207 348 C 223 334 240 320 258 307 C 276 293 295 282 316 272 C 336 261 356 253 378 247 C 400 241 422 238 446 238 C 476 238 502 242 526 252 C 549 262 569 277 585 298 C 601 318 613 345 622 378 C 630 411 635 451 635 498 L 635 1516 L 969 1516 L 969 446 C 969 375 959 310 941 252 C 922 194 892 144 852 103 C 811 61 759 28 695 5 C 631 -17 553 -29 463 -29 Z" unicode="J" />
<glyph horiz-adv-x="1470" d="M 156 0 L 156 1516 L 489 1516 L 489 889 L 997 1516 L 1386 1516 L 872 924 L 1440 0 L 1063 0 L 655 672 L 489 485 L 489 0 L 156 0 Z" unicode="K" />
<glyph horiz-adv-x="1200" d="M 156 0 L 156 1516 L 489 1516 L 489 270 L 1157 270 L 1157 0 L 156 0 Z" unicode="L" />
<glyph horiz-adv-x="1860" d="M 156 0 L 156 1516 L 596 1516 L 934 401 L 938 401 L 1253 1516 L 1704 1516 L 1704 0 L 1382 0 L 1382 1034 L 1378 1034 C 1372 1001 1366 970 1360 941 C 1354 912 1347 884 1341 858 C 1333 830 1326 803 1318 777 C 1310 751 1302 724 1294 696 L 1067 0 L 772 0 L 547 696 C 538 724 530 751 523 775 C 515 799 508 825 502 852 C 495 878 488 906 481 938 C 474 970 467 1007 459 1051 L 455 1051 L 455 0 L 156 0 Z" unicode="M" />
<glyph horiz-adv-x="1591" d="M 156 0 L 156 1516 L 489 1516 L 1124 549 L 1128 549 L 1128 1516 L 1436 1516 L 1436 0 L 1128 0 L 467 975 L 463 975 L 463 0 L 156 0 Z" unicode="N" />
<glyph horiz-adv-x="1597" d="M 799 -29 C 707 -29 618 -13 532 19 C 446 51 370 99 304 165 C 237 229 184 311 144 410 C 104 508 84 624 84 758 C 84 890 104 1006 144 1105 C 184 1203 237 1285 304 1351 C 370 1415 446 1464 532 1496 C 618 1528 707 1544 799 1544 C 859 1544 919 1536 978 1522 C 1036 1508 1092 1486 1145 1458 C 1197 1429 1246 1393 1291 1350 C 1336 1307 1375 1257 1408 1199 C 1440 1140 1465 1074 1483 1001 C 1501 927 1511 846 1511 758 C 1511 669 1501 588 1483 515 C 1465 441 1440 376 1408 318 C 1375 259 1336 208 1291 165 C 1246 121 1197 85 1145 57 C 1092 28 1036 6 978 -7 C 919 -21 859 -29 799 -29 Z M 799 240 C 857 240 909 252 956 276 C 1003 300 1043 334 1077 380 C 1109 424 1135 479 1153 543 C 1171 607 1180 678 1180 758 C 1180 837 1171 908 1153 971 C 1135 1034 1109 1088 1077 1132 C 1043 1176 1003 1209 956 1233 C 909 1256 857 1268 799 1268 C 739 1268 686 1256 639 1233 C 592 1209 552 1176 520 1132 C 487 1088 462 1034 444 971 C 426 908 418 837 418 758 C 418 678 426 607 444 543 C 462 479 487 424 520 380 C 552 334 592 300 639 276 C 686 252 739 240 799 240 Z" unicode="O" />
<glyph horiz-adv-x="1384" d="M 156 0 L 156 1516 L 707 1516 C 761 1516 813 1513 865 1508 C 916 1502 965 1493 1011 1479 C 1056 1465 1098 1446 1137 1423 C 1175 1399 1209 1370 1237 1334 C 1264 1298 1285 1255 1301 1205 C 1317 1155 1325 1096 1325 1030 C 1325 962 1316 902 1300 852 C 1283 801 1260 758 1231 722 C 1201 685 1167 655 1127 631 C 1087 607 1045 589 999 576 C 952 562 903 552 853 547 C 803 541 752 539 702 539 L 487 539 L 487 0 L 156 0 Z M 487 797 L 715 797 C 767 797 811 802 847 812 C 883 822 912 836 935 856 C 957 874 973 898 983 926 C 993 954 999 986 999 1022 C 999 1057 994 1088 984 1116 C 974 1143 958 1166 936 1186 C 913 1204 883 1218 847 1228 C 811 1238 767 1243 715 1243 L 487 1243 L 487 797 Z" unicode="P" />
<glyph horiz-adv-x="1597" d="M 1106 -406 C 1029 -406 960 -396 900 -376 C 839 -356 787 -328 745 -292 C 702 -256 669 -213 646 -164 C 622 -115 610 -62 608 -4 C 534 12 466 41 402 81 C 338 121 282 174 235 238 C 187 301 150 376 123 463 C 95 549 82 648 82 758 C 82 890 102 1006 142 1105 C 182 1203 235 1285 302 1351 C 368 1415 444 1464 530 1496 C 616 1528 705 1544 797 1544 C 857 1544 917 1536 976 1522 C 1034 1508 1090 1486 1143 1458 C 1195 1429 1244 1393 1289 1350 C 1334 1307 1373 1257 1406 1199 C 1438 1140 1463 1074 1481 1001 C 1499 927 1509 846 1509 758 C 1509 644 1494 542 1464 453 C 1434 363 1393 287 1343 223 C 1291 159 1231 107 1163 68 C 1095 28 1022 2 946 -12 C 956 -42 971 -66 991 -84 C 1011 -101 1034 -114 1062 -123 C 1089 -131 1119 -136 1153 -138 C 1187 -140 1223 -141 1262 -141 L 1366 -141 L 1366 -406 L 1106 -406 Z M 797 240 C 855 240 907 252 954 276 C 1001 300 1041 334 1074 380 C 1106 424 1131 479 1149 543 C 1167 607 1176 678 1176 758 C 1176 837 1167 908 1149 971 C 1131 1034 1106 1088 1074 1132 C 1041 1176 1001 1209 954 1233 C 907 1256 855 1268 797 1268 C 737 1268 684 1256 637 1233 C 590 1209 550 1176 517 1132 C 483 1088 458 1034 440 971 C 422 908 414 837 414 758 C 414 678 422 607 440 543 C 458 479 483 424 517 380 C 550 334 590 300 637 276 C 684 252 737 240 797 240 Z" unicode="Q" />
<glyph horiz-adv-x="1444" d="M 156 0 L 156 1516 L 725 1516 C 818 1516 901 1507 975 1490 C 1049 1472 1111 1445 1163 1408 C 1214 1370 1253 1321 1280 1262 C 1307 1202 1321 1131 1321 1047 C 1321 987 1314 933 1300 887 C 1286 840 1265 799 1239 764 C 1212 728 1179 698 1140 674 C 1101 649 1056 629 1006 614 L 1343 0 L 991 0 L 676 571 L 483 571 L 483 0 L 156 0 Z M 483 829 L 711 829 C 759 829 800 832 836 840 C 872 847 901 859 925 876 C 948 892 965 914 977 941 C 989 967 995 1000 995 1038 C 995 1112 971 1165 925 1196 C 878 1227 807 1243 711 1243 L 483 1243 L 483 829 Z" unicode="R" />
<glyph horiz-adv-x="1417" d="M 719 -29 C 637 -29 562 -19 495 -1 C 428 17 368 43 316 77 C 262 109 216 148 176 194 C 136 240 102 290 74 344 L 326 494 C 346 452 371 416 400 384 C 429 352 461 325 497 303 C 531 281 569 264 609 253 C 649 241 691 236 735 236 C 773 236 809 239 841 246 C 873 253 901 264 925 279 C 948 293 966 311 979 333 C 992 355 999 380 999 410 C 999 438 992 463 979 484 C 965 505 946 524 920 541 C 894 557 862 573 824 587 C 786 601 742 615 692 629 C 646 641 601 654 557 667 C 512 680 469 695 429 712 C 387 728 349 747 314 769 C 278 791 248 817 222 848 C 196 878 175 912 161 952 C 146 992 139 1038 139 1092 C 139 1162 152 1225 178 1281 C 204 1337 242 1384 290 1424 C 338 1462 395 1492 463 1513 C 530 1533 604 1544 686 1544 C 764 1544 834 1535 896 1518 C 958 1500 1014 1477 1064 1449 C 1113 1420 1156 1387 1193 1350 C 1229 1312 1261 1273 1288 1233 L 1057 1057 C 1037 1089 1013 1118 985 1145 C 957 1171 928 1194 896 1213 C 863 1231 829 1246 793 1256 C 757 1266 720 1272 684 1272 C 613 1272 559 1258 521 1230 C 483 1202 465 1165 465 1120 C 465 1090 471 1064 485 1042 C 499 1020 519 1002 546 986 C 572 969 605 954 644 941 C 682 928 726 915 776 901 C 820 889 864 876 909 863 C 953 849 996 834 1037 817 C 1077 799 1115 779 1150 757 C 1185 734 1216 707 1242 677 C 1268 646 1288 610 1303 570 C 1317 530 1325 484 1325 432 C 1325 370 1313 312 1289 257 C 1265 201 1229 152 1180 110 C 1130 67 1067 33 991 8 C 915 -16 824 -29 719 -29 Z" unicode="S" />
<glyph horiz-adv-x="1327" d="M 496 0 L 496 1237 L 45 1237 L 45 1516 L 1282 1516 L 1282 1237 L 829 1237 L 829 0 L 496 0 Z" unicode="T" />
<glyph horiz-adv-x="1485" d="M 743 -25 C 637 -25 546 -10 469 17 C 392 45 329 86 279 139 C 229 191 191 254 167 329 C 143 403 131 487 131 580 L 131 1516 L 465 1516 L 465 588 C 465 533 470 484 481 442 C 491 399 508 363 532 335 C 554 305 583 283 619 268 C 655 253 698 246 748 246 C 846 246 916 275 960 334 C 1004 392 1026 477 1026 588 L 1026 1516 L 1354 1516 L 1354 582 C 1354 488 1342 404 1318 329 C 1294 254 1257 191 1207 139 C 1157 86 1093 45 1016 17 C 939 -10 848 -25 743 -25 Z" unicode="U" />
<glyph horiz-adv-x="1430" d="M 557 -6 L 35 1516 L 373 1516 L 719 432 L 723 432 L 1081 1516 L 1395 1516 L 872 -6 L 557 -6 Z" unicode="V" />
<glyph horiz-adv-x="1958" d="M 446 0 L 43 1516 L 379 1516 L 539 825 C 545 797 552 771 559 745 C 565 719 572 693 579 667 C 585 640 590 612 596 584 C 601 556 606 526 612 494 L 616 494 C 625 556 636 612 648 664 C 660 716 672 769 686 823 L 840 1516 L 1147 1516 L 1311 819 C 1317 789 1324 761 1331 736 C 1337 711 1344 686 1350 662 C 1355 637 1360 611 1366 585 C 1371 558 1376 528 1382 494 L 1386 494 C 1391 528 1396 558 1401 584 C 1406 610 1411 636 1417 660 C 1422 684 1428 708 1434 732 C 1440 756 1446 784 1454 815 L 1608 1516 L 1915 1516 L 1520 0 L 1235 0 L 995 1055 L 991 1055 L 735 0 L 446 0 Z" unicode="W" />
<glyph horiz-adv-x="1485" d="M 66 0 L 551 801 L 109 1516 L 489 1516 L 760 1061 L 1016 1516 L 1360 1516 L 928 799 L 1419 0 L 1049 0 L 727 530 L 416 0 L 66 0 Z" unicode="X" />
<glyph horiz-adv-x="1415" d="M 541 0 L 541 643 L 18 1516 L 362 1516 L 709 926 L 1057 1516 L 1397 1516 L 872 643 L 872 0 L 541 0 Z" unicode="Y" />
<glyph horiz-adv-x="1352" d="M 61 0 L 61 229 L 852 1239 L 113 1239 L 113 1516 L 1272 1516 L 1272 1278 L 498 270 L 1272 270 L 1272 0 L 61 0 Z" unicode="Z" />
<glyph horiz-adv-x="909" d="M 141 -410 L 141 1516 L 850 1516 L 850 1286 L 473 1286 L 473 -180 L 850 -180 L 850 -410 L 141 -410 Z" unicode="[" />
<glyph horiz-adv-x="1251" d="M 897 0 L 16 1516 L 354 1516 L 1235 0 L 897 0 Z" unicode="\" />
<glyph horiz-adv-x="909" d="M 57 -410 L 57 -180 L 434 -180 L 434 1286 L 57 1286 L 57 1516 L 766 1516 L 766 -410 L 57 -410 Z" unicode="]" />
<glyph horiz-adv-x="1323" d="M 578 1516 L 756 1516 L 1231 668 L 963 668 L 666 1184 L 371 668 L 100 668 L 578 1516 Z" unicode="^" />
<glyph horiz-adv-x="1024" d="M 0 -324 L 0 -94 L 1024 -94 L 1024 -324 L 0 -324 Z" unicode="_" />
<glyph horiz-adv-x="1024" d="M 201 1563 L 530 1563 L 721 1208 L 504 1208 L 201 1563 Z" unicode="`" />
<glyph horiz-adv-x="1182" d="M 365 -16 C 323 -16 283 -9 245 4 C 207 17 174 36 146 62 C 117 86 94 117 78 154 C 61 190 53 232 53 279 C 53 341 66 397 94 446 C 121 495 163 538 220 574 C 276 609 347 638 434 660 C 521 682 625 699 745 709 L 745 735 C 745 775 733 806 711 830 C 689 854 651 866 598 866 C 528 866 463 853 404 828 C 344 802 290 770 240 731 L 100 920 C 127 944 158 968 193 992 C 227 1015 267 1036 312 1054 C 356 1072 405 1086 460 1097 C 515 1108 577 1114 645 1114 C 719 1114 783 1104 837 1086 C 890 1068 934 1041 968 1005 C 1002 969 1027 924 1043 871 C 1059 817 1067 756 1067 686 L 1067 266 C 1067 200 1069 146 1074 104 C 1078 62 1086 28 1098 0 L 770 0 C 762 22 756 47 752 73 C 747 99 745 128 745 160 C 695 103 639 59 578 29 C 516 0 445 -16 365 -16 Z M 496 231 C 553 231 602 239 642 257 C 682 275 717 298 745 326 L 745 528 C 615 514 520 491 462 459 C 404 427 375 386 375 336 C 375 300 386 274 408 257 C 430 239 460 231 496 231 Z" unicode="a" />
<glyph horiz-adv-x="1278" d="M 786 -16 C 712 -16 648 -3 596 22 C 543 47 496 83 455 129 L 455 0 L 125 0 L 125 1516 L 455 1516 L 455 924 C 473 948 493 972 515 995 C 537 1018 561 1039 589 1057 C 616 1074 646 1088 680 1098 C 713 1108 750 1114 791 1114 C 853 1114 909 1102 961 1078 C 1012 1054 1056 1019 1094 972 C 1130 924 1159 865 1179 794 C 1199 723 1210 641 1210 547 C 1210 453 1199 370 1179 300 C 1158 229 1129 170 1092 124 C 1054 77 1010 42 958 19 C 906 -4 848 -16 786 -16 Z M 674 231 C 742 231 794 258 829 313 C 863 367 881 445 881 545 C 881 590 876 631 868 668 C 860 704 847 736 831 762 C 813 787 791 807 765 821 C 738 835 706 842 670 842 C 648 842 628 839 608 833 C 588 827 570 819 552 810 C 533 800 516 788 500 775 C 484 762 469 749 455 735 L 455 332 C 490 298 524 272 558 256 C 591 239 630 231 674 231 Z" unicode="b" />
<glyph horiz-adv-x="1137" d="M 602 -23 C 559 -23 516 -18 473 -10 C 430 -2 389 11 350 30 C 310 48 272 72 238 102 C 203 131 173 167 148 209 C 122 251 102 299 88 355 C 73 411 66 474 66 545 C 66 617 74 682 90 738 C 106 794 127 844 155 887 C 182 929 214 964 250 993 C 286 1021 325 1045 366 1063 C 406 1081 448 1094 491 1102 C 534 1110 576 1114 616 1114 C 690 1114 753 1104 806 1086 C 859 1068 904 1043 942 1013 C 978 982 1008 946 1032 906 C 1056 866 1076 824 1092 780 L 815 688 C 804 722 792 751 779 775 C 765 799 750 818 734 833 C 717 847 698 857 678 863 C 658 869 636 872 612 872 C 545 872 492 844 453 789 C 414 734 395 652 395 543 C 395 494 399 449 407 408 C 415 367 427 332 445 303 C 462 273 484 250 511 234 C 537 217 570 209 608 209 C 630 209 651 212 672 218 C 692 224 712 235 731 251 C 749 265 766 285 782 310 C 797 335 811 366 823 403 L 1096 309 C 1078 266 1056 225 1030 185 C 1003 145 970 110 931 80 C 891 48 845 23 791 5 C 737 -13 674 -23 602 -23 Z" unicode="c" />
<glyph horiz-adv-x="1278" d="M 485 -16 C 423 -16 366 -4 315 17 C 263 39 219 73 183 119 C 145 164 116 221 96 291 C 76 361 66 443 66 537 C 66 631 76 714 97 786 C 117 858 146 918 184 967 C 221 1015 266 1051 318 1076 C 370 1101 427 1114 489 1114 C 563 1114 627 1100 681 1074 C 735 1048 781 1008 821 954 L 821 1516 L 1151 1516 L 1151 266 C 1151 200 1153 146 1158 104 C 1162 62 1171 28 1184 0 L 846 0 C 842 6 838 16 835 29 C 832 41 830 56 828 72 C 826 87 824 103 823 119 C 821 135 821 150 821 164 C 803 139 783 116 761 94 C 739 72 714 54 687 38 C 659 21 629 8 596 -1 C 562 -11 525 -16 485 -16 Z M 608 231 C 628 231 649 234 669 240 C 689 246 708 254 726 264 C 744 274 761 285 777 298 C 793 310 807 324 821 338 L 821 741 C 785 775 751 800 718 817 C 684 833 646 842 604 842 C 535 842 483 816 448 765 C 412 713 395 638 395 539 C 395 493 399 451 407 413 C 415 375 429 343 447 317 C 464 289 486 268 513 253 C 539 238 571 231 608 231 Z" unicode="d" />
<glyph horiz-adv-x="1182" d="M 623 -23 C 551 -23 482 -13 415 6 C 348 26 289 58 238 103 C 186 147 144 206 113 278 C 81 350 66 439 66 545 C 66 615 74 678 91 734 C 107 790 130 839 158 881 C 186 923 218 958 255 988 C 292 1018 331 1042 372 1061 C 412 1079 453 1093 495 1101 C 537 1109 576 1114 614 1114 C 651 1114 689 1110 729 1103 C 769 1096 807 1084 845 1067 C 881 1049 916 1025 949 995 C 982 965 1011 928 1036 884 C 1060 838 1080 785 1094 723 C 1108 661 1116 588 1116 506 L 1116 457 L 393 457 C 397 411 406 373 420 341 C 434 309 453 284 475 264 C 497 244 522 229 552 220 C 581 211 613 207 647 207 C 679 207 710 210 741 218 C 772 225 802 235 830 247 C 857 259 883 272 907 288 C 931 304 952 320 971 338 L 1098 141 C 1034 87 962 46 884 18 C 805 -9 718 -23 623 -23 Z M 821 651 C 813 728 791 785 757 823 C 722 860 674 879 612 879 C 586 879 562 874 539 866 C 515 857 494 843 476 825 C 456 806 440 782 426 754 C 412 725 403 691 397 651 L 821 651 Z" unicode="e" />
<glyph horiz-adv-x="829" d="M 223 0 L 223 852 L 41 852 L 41 1092 L 223 1092 L 223 1167 C 223 1213 227 1257 237 1300 C 246 1342 264 1380 292 1414 C 318 1447 356 1474 406 1494 C 456 1514 521 1524 602 1524 C 618 1524 636 1523 657 1522 C 678 1520 699 1519 719 1518 C 738 1516 755 1515 771 1513 C 786 1511 796 1509 801 1509 L 801 1280 C 797 1280 791 1281 783 1282 C 775 1283 767 1284 759 1286 C 749 1286 740 1287 731 1287 C 721 1287 713 1288 705 1288 C 685 1288 665 1286 647 1284 C 628 1281 612 1275 598 1267 C 584 1257 572 1244 564 1227 C 555 1209 551 1186 551 1157 L 551 1092 L 788 1092 L 788 852 L 551 852 L 551 0 L 223 0 Z" unicode="f" />
<glyph horiz-adv-x="1260" d="M 555 -410 C 448 -410 359 -404 287 -393 C 215 -381 157 -365 113 -345 C 69 -323 37 -297 18 -267 C 0 -236 -10 -202 -10 -164 C -10 -137 -4 -112 5 -90 C 15 -68 29 -48 47 -30 C 63 -12 83 4 106 18 C 128 32 152 45 178 55 C 154 70 136 88 123 110 C 110 132 104 157 104 186 C 104 208 108 230 116 251 C 124 271 136 291 151 311 C 165 329 181 347 201 364 C 220 380 240 396 262 410 C 202 444 157 489 127 543 C 97 597 82 657 82 723 C 82 777 92 828 114 876 C 136 924 168 965 210 1001 C 251 1035 302 1063 363 1083 C 424 1103 494 1114 573 1114 C 654 1114 725 1103 786 1082 C 847 1061 898 1032 940 995 C 958 1011 979 1025 1002 1039 C 1025 1052 1049 1064 1074 1074 C 1098 1083 1123 1091 1149 1097 C 1174 1103 1198 1106 1221 1108 L 1221 856 C 1201 856 1175 854 1143 851 C 1111 848 1075 841 1036 831 C 1042 817 1047 800 1051 782 C 1055 764 1057 744 1057 723 C 1057 667 1046 616 1025 569 C 1004 521 973 480 933 446 C 891 410 841 383 781 363 C 721 343 651 334 573 334 C 542 334 513 335 485 339 C 457 342 430 346 406 352 C 394 342 385 333 379 325 C 372 316 369 307 369 297 C 369 276 379 262 400 256 C 421 250 452 246 492 244 L 655 233 C 749 229 829 221 895 208 C 961 194 1016 175 1059 151 C 1101 125 1132 94 1152 57 C 1172 19 1182 -24 1182 -76 C 1182 -132 1166 -181 1135 -223 C 1103 -265 1060 -300 1005 -328 C 949 -355 882 -375 806 -389 C 729 -403 645 -410 555 -410 Z M 578 516 C 608 516 634 521 657 531 C 680 541 700 554 716 572 C 732 589 744 609 752 633 C 760 657 764 683 764 711 C 764 738 760 763 752 787 C 744 811 732 831 717 849 C 701 866 681 880 658 890 C 635 900 608 905 578 905 C 548 905 521 900 498 890 C 474 880 455 866 439 849 C 423 831 411 811 403 787 C 395 763 391 738 391 711 C 391 683 395 657 403 633 C 411 609 424 589 440 572 C 456 554 475 541 498 531 C 521 521 548 516 578 516 Z M 608 -244 C 650 -244 688 -241 723 -236 C 758 -231 788 -224 814 -215 C 838 -205 858 -193 872 -179 C 886 -165 893 -149 893 -131 C 893 -114 890 -99 884 -87 C 878 -74 865 -63 845 -55 C 824 -46 794 -39 756 -33 C 718 -27 666 -23 602 -20 L 430 -12 L 358 -6 C 337 -19 322 -34 312 -51 C 302 -68 297 -86 297 -104 C 297 -128 302 -148 314 -166 C 325 -183 343 -198 369 -210 C 393 -221 425 -229 465 -235 C 504 -241 552 -244 608 -244 Z" unicode="g" />
<glyph horiz-adv-x="1266" d="M 125 0 L 125 1516 L 455 1516 L 455 920 C 471 941 490 963 514 986 C 538 1009 565 1030 597 1050 C 627 1068 662 1084 701 1096 C 740 1108 783 1114 831 1114 C 877 1114 920 1108 960 1096 C 999 1084 1033 1065 1062 1040 C 1090 1014 1111 981 1127 941 C 1143 901 1151 853 1151 797 L 1151 0 L 821 0 L 821 692 C 821 742 811 779 791 804 C 771 829 739 842 694 842 C 648 842 606 831 568 811 C 529 791 491 765 455 733 L 455 0 L 125 0 Z" unicode="h" />
<glyph horiz-adv-x="602" d="M 137 0 L 137 1092 L 465 1092 L 465 0 L 137 0 Z M 135 1241 L 135 1505 L 467 1505 L 467 1241 L 135 1241 Z" unicode="i" />
<glyph horiz-adv-x="602" d="M 111 -416 C 95 -416 76 -415 55 -414 C 33 -413 13 -412 -7 -411 C -27 -409 -44 -407 -60 -405 C -75 -403 -85 -402 -90 -401 L -90 -178 C -85 -179 -79 -180 -72 -182 C -64 -184 -56 -185 -48 -187 C -39 -187 -30 -188 -21 -189 C -12 -189 -4 -190 4 -190 C 49 -190 82 -178 104 -155 C 126 -132 137 -94 137 -41 L 137 1092 L 465 1092 L 465 -104 C 465 -129 463 -154 460 -180 C 457 -205 451 -229 443 -253 C 434 -275 421 -297 405 -317 C 389 -337 368 -354 342 -369 C 316 -383 284 -395 246 -403 C 208 -411 163 -416 111 -416 Z M 135 1241 L 135 1505 L 467 1505 L 467 1241 L 135 1241 Z" unicode="j" />
<glyph horiz-adv-x="1198" d="M 125 0 L 125 1516 L 455 1516 L 455 684 L 795 1092 L 1149 1092 L 793 684 L 1169 0 L 829 0 L 588 444 L 455 295 L 455 0 L 125 0 Z" unicode="k" />
<glyph horiz-adv-x="602" d="M 137 0 L 137 1516 L 465 1516 L 465 0 L 137 0 Z" unicode="l" />
<glyph horiz-adv-x="1909" d="M 125 0 L 125 1092 L 455 1092 L 455 920 C 471 941 490 963 514 986 C 537 1009 564 1030 594 1050 C 624 1068 657 1084 693 1096 C 729 1108 769 1114 813 1114 C 858 1114 898 1109 932 1100 C 966 1091 995 1078 1019 1062 C 1043 1044 1062 1024 1077 1000 C 1092 976 1104 949 1112 920 C 1128 940 1148 962 1172 985 C 1195 1008 1222 1029 1253 1049 C 1283 1067 1316 1083 1353 1095 C 1389 1107 1429 1114 1473 1114 C 1528 1114 1576 1105 1616 1089 C 1656 1072 1689 1049 1715 1020 C 1741 990 1760 955 1773 914 C 1785 873 1792 828 1792 780 L 1792 0 L 1462 0 L 1462 692 C 1462 716 1460 738 1457 757 C 1453 775 1447 791 1439 804 C 1430 816 1418 826 1402 832 C 1386 838 1367 842 1343 842 C 1302 842 1264 831 1230 811 C 1195 791 1160 765 1124 733 L 1124 0 L 795 0 L 795 692 C 795 716 793 738 790 757 C 786 775 780 791 772 804 C 762 816 750 826 735 832 C 719 838 700 842 676 842 C 634 842 596 831 562 811 C 527 791 491 765 455 733 L 455 0 L 125 0 Z" unicode="m" />
<glyph horiz-adv-x="1266" d="M 127 0 L 127 1092 L 457 1092 L 457 920 C 473 941 492 963 516 986 C 540 1009 567 1030 599 1050 C 629 1068 664 1084 703 1096 C 742 1108 786 1114 834 1114 C 880 1114 922 1108 961 1096 C 999 1084 1033 1065 1062 1040 C 1090 1014 1111 981 1127 941 C 1143 901 1151 853 1151 797 L 1151 0 L 823 0 L 823 692 C 823 742 813 779 793 804 C 773 829 740 842 694 842 C 650 842 608 831 570 811 C 531 791 493 765 457 733 L 457 0 L 127 0 Z" unicode="n" />
<glyph horiz-adv-x="1247" d="M 625 -23 C 581 -23 536 -18 491 -10 C 446 -2 403 11 362 30 C 320 48 282 72 246 102 C 210 131 178 167 152 209 C 125 251 104 299 89 355 C 73 411 66 474 66 545 C 66 616 73 680 89 736 C 104 792 125 841 152 883 C 178 925 209 960 245 990 C 281 1019 320 1043 362 1062 C 403 1080 446 1093 491 1101 C 535 1109 580 1114 625 1114 C 669 1114 713 1109 758 1101 C 802 1093 845 1080 887 1062 C 928 1043 966 1019 1002 990 C 1038 960 1069 925 1096 883 C 1122 841 1143 792 1159 736 C 1174 680 1182 616 1182 545 C 1182 474 1174 411 1159 355 C 1143 299 1122 251 1096 209 C 1069 167 1038 131 1002 102 C 966 72 928 48 887 30 C 845 11 802 -2 758 -10 C 713 -18 669 -23 625 -23 Z M 625 209 C 663 209 697 217 726 233 C 754 249 778 271 797 301 C 815 330 829 365 838 406 C 847 447 852 493 852 543 C 852 588 847 631 839 671 C 831 711 818 746 800 776 C 781 805 757 828 729 846 C 700 863 665 872 625 872 C 585 872 551 864 522 848 C 493 832 469 809 451 781 C 431 752 417 717 408 677 C 399 636 395 591 395 543 C 395 497 399 453 407 413 C 415 373 429 338 447 308 C 465 277 488 253 518 235 C 547 217 583 209 625 209 Z" unicode="o" />
<glyph horiz-adv-x="1278" d="M 125 -410 L 125 1092 L 455 1092 L 455 926 C 473 950 493 974 515 997 C 537 1019 561 1039 589 1057 C 616 1074 646 1088 680 1098 C 713 1108 750 1114 791 1114 C 853 1114 909 1102 961 1078 C 1012 1054 1056 1019 1094 972 C 1130 924 1159 865 1179 794 C 1199 723 1210 641 1210 547 C 1210 453 1199 370 1179 300 C 1158 229 1129 170 1092 124 C 1054 77 1010 42 958 19 C 906 -4 848 -16 786 -16 C 712 -16 648 -3 596 22 C 543 47 496 83 455 129 L 455 -410 L 125 -410 Z M 674 231 C 742 231 794 258 829 313 C 863 367 881 445 881 545 C 881 590 876 631 868 668 C 860 704 847 736 831 762 C 813 787 791 807 765 821 C 738 835 706 842 670 842 C 648 842 628 839 608 833 C 588 827 570 819 552 810 C 533 800 516 788 500 775 C 484 762 469 749 455 735 L 455 332 C 490 298 524 272 558 256 C 591 239 630 231 674 231 Z" unicode="p" />
<glyph horiz-adv-x="1278" d="M 821 -410 L 821 156 C 803 133 783 111 761 91 C 739 70 714 52 687 36 C 659 20 629 7 596 -2 C 562 -11 525 -16 485 -16 C 423 -16 366 -4 315 17 C 263 39 219 73 183 119 C 145 164 116 221 96 291 C 76 361 66 443 66 537 C 66 631 76 714 97 786 C 117 858 146 918 184 967 C 221 1015 266 1051 318 1076 C 370 1101 427 1114 489 1114 C 563 1114 626 1101 679 1075 C 732 1049 779 1009 821 956 L 821 1092 L 1151 1092 L 1151 -410 L 821 -410 Z M 608 231 C 628 231 649 234 669 240 C 689 246 708 254 726 264 C 744 274 761 285 777 298 C 793 310 807 324 821 338 L 821 741 C 785 775 751 800 718 817 C 684 833 646 842 604 842 C 535 842 483 816 448 765 C 412 713 395 638 395 539 C 395 493 399 451 407 413 C 415 375 429 343 447 317 C 464 289 486 268 513 253 C 539 238 571 231 608 231 Z" unicode="q" />
<glyph horiz-adv-x="866" d="M 125 0 L 125 1092 L 455 1092 L 455 909 L 457 909 C 471 931 489 955 510 979 C 531 1003 557 1026 587 1046 C 616 1066 650 1082 689 1095 C 728 1107 773 1114 825 1114 L 836 1114 L 831 821 C 827 821 822 822 815 823 C 807 823 799 824 791 825 C 782 825 773 826 765 826 C 757 826 750 827 745 827 C 712 827 681 823 653 815 C 624 807 598 796 574 783 C 549 769 527 753 507 735 C 487 717 470 698 455 678 L 455 0 L 125 0 Z" unicode="r" />
<glyph horiz-adv-x="1094" d="M 555 -23 C 495 -23 439 -18 389 -10 C 339 -1 293 10 252 26 C 210 40 172 58 138 79 C 104 99 73 121 45 145 L 176 330 C 200 308 228 289 258 271 C 288 253 319 239 353 227 C 385 214 419 204 453 198 C 487 191 521 188 555 188 C 580 188 603 190 625 194 C 646 198 664 205 680 215 C 695 223 707 234 716 248 C 724 261 729 277 729 295 C 729 313 725 329 717 343 C 709 357 698 369 682 379 C 665 389 643 397 617 405 C 591 412 559 419 522 426 C 487 432 452 438 418 446 C 384 454 351 463 319 475 C 287 485 257 499 230 515 C 202 531 179 550 159 574 C 139 597 123 624 111 656 C 99 688 94 725 94 768 C 94 822 104 871 126 914 C 147 957 177 993 215 1023 C 252 1052 296 1074 348 1090 C 400 1106 456 1114 518 1114 C 574 1114 624 1110 670 1103 C 715 1096 757 1086 796 1074 C 834 1060 870 1044 903 1025 C 935 1006 967 985 997 961 L 868 774 C 812 812 758 841 704 862 C 650 882 598 893 547 893 C 499 893 463 884 437 867 C 411 850 399 827 399 797 C 399 780 402 766 410 754 C 418 742 430 732 446 724 C 462 714 482 706 506 699 C 530 692 560 686 594 680 C 630 674 665 667 701 660 C 737 652 771 643 804 633 C 836 621 867 608 895 592 C 923 576 948 557 969 535 C 989 512 1006 485 1018 454 C 1030 423 1036 387 1036 346 C 1036 280 1022 223 996 177 C 970 130 934 92 890 63 C 845 33 794 11 736 -2 C 678 -16 617 -23 555 -23 Z" unicode="s" />
<glyph horiz-adv-x="874" d="M 584 -14 C 502 -14 437 -6 389 7 C 340 21 303 42 277 70 C 251 97 233 130 225 170 C 217 210 213 255 213 307 L 213 852 L 31 852 L 31 1092 L 213 1092 L 213 1466 L 541 1466 L 541 1092 L 821 1092 L 821 852 L 541 852 L 541 379 C 541 349 543 325 548 305 C 552 285 560 270 572 258 C 583 246 598 237 618 232 C 637 227 662 225 692 225 C 701 225 711 225 721 226 C 731 226 742 227 752 229 C 762 229 771 230 779 232 C 787 234 795 236 801 238 L 801 2 C 795 0 783 -1 766 -3 C 749 -5 730 -7 710 -9 C 688 -10 666 -11 644 -12 C 622 -13 602 -14 584 -14 Z" unicode="t" />
<glyph horiz-adv-x="1266" d="M 434 -23 C 387 -23 344 -17 305 -5 C 266 7 233 26 205 52 C 176 77 154 110 138 150 C 122 190 115 239 115 295 L 115 1092 L 444 1092 L 444 391 C 444 341 454 304 474 278 C 494 252 527 240 573 240 C 617 240 659 250 697 271 C 735 291 773 318 811 350 L 811 1092 L 1141 1092 L 1141 0 L 811 0 L 811 170 C 794 148 774 126 751 104 C 727 81 700 60 670 42 C 638 23 603 7 564 -4 C 525 -16 482 -23 434 -23 Z" unicode="u" />
<glyph horiz-adv-x="1106" d="M 387 -2 L -4 1092 L 336 1092 L 565 365 L 569 365 L 799 1092 L 1108 1092 L 719 -2 L 387 -2 Z" unicode="v" />
<glyph horiz-adv-x="1587" d="M 324 0 L 4 1092 L 336 1092 L 430 700 C 437 671 444 644 450 619 C 456 594 462 569 468 544 C 473 518 478 490 484 462 C 490 434 496 402 502 367 L 506 367 C 512 403 518 435 524 464 C 530 492 536 520 542 547 C 548 573 554 599 560 625 C 566 651 574 679 582 709 L 676 1092 L 932 1092 L 1032 702 C 1040 673 1047 646 1054 621 C 1060 596 1067 571 1073 545 C 1078 519 1084 491 1090 463 C 1096 434 1102 402 1110 367 L 1114 367 C 1120 401 1127 433 1133 461 C 1139 489 1145 517 1151 543 C 1156 568 1162 593 1168 618 C 1174 643 1182 670 1190 698 L 1290 1092 L 1583 1092 L 1264 0 L 958 0 L 795 666 L 791 666 L 627 0 L 324 0 Z" unicode="w" />
<glyph horiz-adv-x="1122" d="M 23 0 L 397 563 L 49 1092 L 395 1092 L 584 791 L 762 1092 L 1094 1092 L 741 563 L 1110 0 L 766 0 L 557 330 L 354 0 L 23 0 Z" unicode="x" />
<glyph horiz-adv-x="1147" d="M 297 -418 C 256 -418 220 -416 188 -414 C 156 -411 127 -408 102 -405 C 76 -401 54 -396 35 -392 C 16 -387 0 -383 -14 -379 L 55 -125 C 63 -127 73 -129 87 -133 C 100 -136 116 -139 134 -143 C 151 -145 170 -148 192 -150 C 214 -152 237 -154 262 -154 C 298 -154 326 -146 348 -132 C 370 -117 387 -93 401 -59 L 422 -6 L 4 1092 L 344 1092 L 584 383 L 588 383 L 829 1092 L 1149 1092 L 690 -115 C 671 -162 650 -204 628 -242 C 605 -279 578 -311 548 -337 C 517 -363 481 -383 440 -397 C 399 -411 351 -418 297 -418 Z" unicode="y" />
<glyph horiz-adv-x="1085" d="M 59 0 L 59 170 L 588 852 L 98 852 L 98 1092 L 995 1092 L 995 918 L 465 233 L 1036 233 L 1036 0 L 59 0 Z" unicode="z" />
<glyph horiz-adv-x="903" d="M 569 -410 C 521 -410 480 -402 444 -387 C 408 -372 378 -351 354 -325 C 329 -298 310 -266 298 -229 C 285 -191 279 -150 279 -106 L 279 190 C 279 240 274 281 265 313 C 255 345 241 370 223 389 C 203 407 179 419 151 426 C 123 432 89 436 51 436 L 51 670 C 89 670 123 673 151 680 C 179 686 203 699 223 718 C 241 736 255 760 265 792 C 274 824 279 865 279 915 L 279 1212 C 279 1256 285 1297 298 1335 C 310 1372 329 1404 354 1431 C 378 1457 408 1478 444 1493 C 480 1508 521 1516 569 1516 L 860 1516 L 860 1286 L 770 1286 C 714 1286 673 1272 648 1244 C 622 1216 610 1176 610 1124 L 610 870 C 610 820 606 777 598 741 C 590 705 579 676 565 652 C 549 627 531 607 510 592 C 488 576 464 564 436 555 L 436 551 C 464 541 488 529 510 514 C 531 498 549 479 565 455 C 579 430 590 400 598 364 C 606 328 610 286 610 236 L 610 -18 C 610 -70 622 -110 648 -138 C 673 -166 714 -180 770 -180 L 860 -180 L 860 -410 L 569 -410 Z" unicode="{" />
<glyph horiz-adv-x="819" d="M 246 -410 L 246 1516 L 571 1516 L 571 -410 L 246 -410 Z" unicode="|" />
<glyph horiz-adv-x="903" d="M 43 -410 L 43 -180 L 133 -180 C 189 -180 229 -166 255 -138 C 280 -110 293 -70 293 -18 L 293 266 C 293 316 296 357 304 390 C 312 422 323 449 339 470 C 353 490 371 507 393 519 C 414 531 439 541 467 551 L 467 555 C 439 564 414 575 393 587 C 371 599 353 615 339 636 C 323 656 312 683 304 716 C 296 748 293 790 293 840 L 293 1124 C 293 1176 280 1217 256 1245 C 231 1273 191 1288 135 1288 L 45 1288 L 43 1516 L 365 1516 C 411 1516 451 1510 484 1498 C 517 1486 544 1469 566 1447 C 586 1423 601 1395 611 1361 C 620 1327 625 1287 625 1243 L 625 915 C 625 865 629 824 639 792 C 648 760 662 736 681 718 C 699 699 723 686 751 680 C 779 673 813 670 852 670 L 852 436 C 813 436 779 432 751 426 C 723 419 699 407 681 389 C 662 370 648 345 639 313 C 629 281 625 240 625 190 L 625 -137 C 625 -181 620 -221 611 -255 C 601 -289 586 -317 566 -341 C 544 -363 517 -380 484 -392 C 451 -404 411 -410 365 -410 L 43 -410 Z" unicode="}" />
<glyph horiz-adv-x="1323" d="M 932 528 C 902 528 870 531 837 538 C 803 544 770 553 737 563 C 703 573 669 583 636 595 C 603 606 572 617 543 627 C 513 636 485 644 460 651 C 435 657 414 661 397 662 C 373 662 354 656 339 644 C 324 632 314 607 309 569 L 117 602 C 123 658 134 705 150 745 C 166 785 185 817 209 843 C 232 867 259 885 289 897 C 319 908 353 913 389 913 C 421 913 454 909 488 902 C 522 895 557 887 591 878 C 625 868 658 857 690 845 C 722 833 753 823 783 814 C 812 804 839 795 863 788 C 887 781 908 778 926 778 C 949 778 968 784 984 797 C 1000 809 1010 834 1016 872 L 1206 848 C 1199 791 1188 742 1172 701 C 1156 660 1136 627 1113 601 C 1089 575 1061 556 1031 544 C 1001 532 968 526 932 528 Z" unicode="~" />
<glyph horiz-adv-x="551" d="" unicode=" " />
<glyph horiz-adv-x="731" d="M 152 0 L 233 1036 L 481 1036 L 565 0 L 152 0 Z M 182 1212 L 182 1516 L 535 1516 L 535 1212 L 182 1212 Z" unicode="¡" />
<glyph horiz-adv-x="1147" d="M 344 35 C 304 55 268 80 234 110 C 200 140 171 177 147 219 C 121 261 101 309 87 363 C 73 417 66 477 66 545 C 66 615 74 677 90 733 C 106 788 127 837 155 879 C 181 921 213 957 249 987 C 285 1017 324 1041 365 1060 C 405 1078 447 1092 490 1101 C 532 1109 574 1114 614 1114 C 622 1114 631 1114 639 1114 C 647 1114 654 1113 662 1112 L 719 1307 L 887 1307 L 819 1081 C 857 1067 892 1049 922 1028 C 952 1007 978 984 1001 958 C 1023 931 1041 903 1057 873 C 1073 843 1086 812 1098 780 L 844 688 C 832 725 818 756 800 781 C 782 806 761 826 739 842 L 553 207 C 561 205 569 204 578 204 C 587 203 596 203 606 203 C 628 203 651 206 675 213 C 699 220 722 232 744 248 C 766 264 786 284 805 310 C 823 335 839 366 852 403 L 1102 309 C 1084 266 1062 225 1035 185 C 1007 145 974 110 934 80 C 893 48 845 23 790 5 C 735 -13 672 -23 600 -23 C 582 -23 564 -22 547 -21 C 530 -19 514 -17 498 -14 L 424 -264 L 256 -264 L 344 35 Z M 602 879 C 570 877 539 870 511 856 C 483 842 458 821 438 794 C 416 766 399 732 387 690 C 375 648 369 599 369 543 C 369 487 374 438 384 396 C 394 354 408 319 428 291 L 602 879 Z" unicode="¢" />
<glyph horiz-adv-x="1411" d="M 184 684 L 184 862 L 356 862 C 334 901 316 942 301 984 C 286 1026 279 1072 279 1122 C 279 1181 289 1236 311 1288 C 333 1339 364 1384 404 1422 C 444 1460 492 1489 548 1511 C 604 1533 667 1544 737 1544 C 796 1544 849 1538 895 1528 C 941 1517 981 1502 1016 1484 C 1050 1464 1079 1442 1104 1416 C 1128 1390 1149 1363 1167 1333 C 1184 1303 1198 1271 1210 1238 C 1221 1205 1231 1172 1239 1139 L 952 1077 C 946 1105 939 1132 931 1158 C 923 1184 911 1206 896 1226 C 880 1245 861 1260 838 1272 C 814 1284 786 1290 752 1290 C 704 1290 666 1275 638 1246 C 610 1217 596 1176 596 1124 C 596 1100 598 1078 604 1056 C 609 1034 616 1012 626 992 C 634 970 645 949 657 928 C 669 906 681 884 694 862 L 1059 862 L 1059 684 L 782 684 C 793 652 802 617 810 581 C 817 544 821 504 821 461 C 821 423 816 386 808 350 C 799 314 786 280 770 248 C 794 234 819 223 844 215 C 869 207 896 203 924 203 C 948 203 971 206 991 212 C 1011 218 1028 230 1042 247 C 1056 263 1067 286 1075 314 C 1083 342 1088 378 1090 422 L 1370 422 C 1368 384 1364 347 1359 310 C 1353 273 1345 238 1334 205 C 1322 171 1307 140 1289 112 C 1270 83 1247 58 1219 38 C 1191 17 1157 1 1118 -11 C 1079 -23 1033 -29 981 -29 C 943 -29 908 -26 876 -20 C 844 -14 814 -5 786 5 C 758 15 731 26 707 40 C 683 54 660 68 639 84 C 595 48 545 21 491 1 C 437 -19 379 -29 317 -29 C 279 -29 243 -24 208 -15 C 173 -5 142 9 115 29 C 87 48 65 73 49 103 C 33 133 25 170 25 213 C 25 256 33 294 49 328 C 65 361 87 389 115 412 C 141 434 172 450 207 462 C 242 473 278 479 315 479 C 357 479 396 472 433 459 C 469 445 505 428 539 408 C 539 438 537 466 534 491 C 530 515 525 539 519 561 C 512 582 504 602 495 622 C 486 642 476 662 465 684 L 184 684 Z M 481 219 C 453 244 426 265 401 282 C 376 298 350 307 322 307 C 294 307 272 299 256 283 C 240 267 233 246 233 221 C 233 196 240 176 256 160 C 272 144 294 137 324 137 C 358 137 389 144 415 159 C 441 174 463 194 481 219 Z" unicode="£" />
<glyph horiz-adv-x="1323" d="M 661 342 C 629 342 599 345 570 351 C 541 357 513 367 487 379 L 290 182 L 99 373 L 294 568 C 280 594 270 621 263 651 C 256 680 253 711 253 744 C 253 776 256 806 263 836 C 269 865 279 892 291 918 L 99 1109 L 290 1300 L 486 1108 C 512 1120 539 1130 569 1136 C 598 1142 629 1146 661 1146 C 693 1146 723 1142 753 1136 C 782 1130 809 1121 835 1110 L 1026 1300 L 1218 1109 L 1030 921 C 1042 895 1052 868 1059 839 C 1065 810 1069 779 1069 747 C 1069 714 1065 683 1059 653 C 1052 623 1042 596 1029 570 L 1222 378 L 1031 186 L 837 380 C 810 367 782 357 753 351 C 723 345 693 342 661 342 Z M 661 522 C 691 522 719 527 744 537 C 769 547 791 563 809 583 C 827 602 840 625 850 653 C 860 680 865 711 865 745 C 865 779 860 809 850 836 C 840 863 827 886 809 906 C 791 925 769 940 744 950 C 719 960 691 966 661 966 C 630 966 602 960 577 950 C 552 940 531 925 513 906 C 495 886 481 863 471 836 C 461 809 457 779 457 745 C 457 711 461 680 471 653 C 481 625 495 602 513 583 C 531 563 552 547 577 537 C 602 527 630 522 661 522 Z" unicode="¤" />
<glyph horiz-adv-x="1401" d="M 532 0 L 532 188 L 166 188 L 166 367 L 532 367 L 532 506 L 166 506 L 166 682 L 526 682 L 29 1516 L 375 1516 L 702 956 L 1030 1516 L 1372 1516 L 870 682 L 1237 682 L 1237 506 L 866 506 L 866 367 L 1237 367 L 1237 188 L 866 188 L 866 0 L 532 0 Z" unicode="¥" />
<glyph horiz-adv-x="819" d="M 246 678 L 246 1516 L 571 1516 L 571 678 L 246 678 Z M 246 -410 L 246 428 L 571 428 L 571 -410 L 246 -410 Z" unicode="¦" />
<glyph horiz-adv-x="1194" d="M 592 -410 C 512 -410 446 -401 392 -384 C 338 -366 294 -344 259 -317 C 223 -289 196 -257 176 -223 C 156 -188 140 -153 129 -119 L 365 -14 C 373 -39 384 -62 397 -84 C 409 -106 424 -125 442 -141 C 458 -157 478 -169 500 -179 C 522 -188 548 -193 578 -193 C 606 -193 629 -189 647 -182 C 665 -174 680 -165 691 -153 C 701 -140 708 -126 712 -110 C 716 -94 719 -78 719 -61 C 719 -39 713 -18 701 0 C 689 19 673 38 651 56 C 629 74 602 92 571 110 C 540 128 505 148 467 170 C 423 194 379 220 337 247 C 294 273 256 303 222 337 C 188 369 160 406 140 447 C 119 488 109 536 109 590 C 109 627 114 662 126 694 C 138 726 153 755 172 782 C 190 808 210 832 233 853 C 256 874 279 892 303 907 C 255 947 221 988 200 1031 C 178 1073 168 1123 168 1180 C 168 1230 177 1277 196 1321 C 215 1365 243 1403 281 1437 C 317 1469 362 1495 416 1515 C 469 1534 530 1544 600 1544 C 679 1544 746 1535 801 1518 C 856 1500 902 1478 939 1451 C 975 1423 1003 1392 1024 1357 C 1044 1322 1060 1287 1071 1253 L 838 1149 C 828 1173 817 1196 804 1218 C 790 1240 774 1259 756 1275 C 737 1291 716 1303 693 1313 C 669 1322 643 1327 614 1327 C 585 1327 561 1323 542 1316 C 522 1308 507 1299 496 1287 C 484 1275 475 1261 470 1245 C 465 1229 463 1212 463 1196 C 463 1174 469 1153 482 1134 C 495 1115 513 1097 537 1079 C 559 1061 587 1042 619 1024 C 651 1005 686 985 725 965 C 769 940 812 914 855 888 C 897 861 936 831 970 799 C 1004 765 1031 728 1052 687 C 1072 646 1083 599 1083 545 C 1083 507 1077 471 1065 439 C 1053 407 1038 377 1020 351 C 1001 323 980 299 957 278 C 933 257 910 239 887 225 C 909 205 929 185 945 165 C 961 145 975 124 985 103 C 995 81 1002 57 1007 33 C 1011 9 1014 -17 1014 -45 C 1014 -95 1005 -142 987 -186 C 969 -230 942 -269 907 -303 C 871 -335 826 -361 774 -381 C 721 -400 660 -410 592 -410 Z M 725 340 C 753 359 776 381 792 405 C 808 429 817 453 817 479 C 817 503 813 525 806 545 C 799 564 786 584 768 604 C 748 623 721 644 687 666 C 653 688 609 714 555 745 C 539 753 524 762 509 770 C 494 778 480 786 467 795 C 438 775 415 754 399 730 C 383 706 375 681 375 655 C 375 630 378 608 385 589 C 392 570 405 551 425 532 C 443 512 470 490 504 468 C 538 446 583 419 637 389 C 653 381 669 372 683 364 C 697 356 711 348 725 340 Z" unicode="§" />
<glyph horiz-adv-x="1085" d="M 182 1499 L 461 1499 L 461 1196 L 182 1196 L 182 1499 Z M 616 1499 L 895 1499 L 895 1196 L 616 1196 L 616 1499 Z" unicode="¨" />
<glyph horiz-adv-x="1776" d="M 885 -29 C 773 -29 670 -9 575 31 C 479 71 397 126 327 197 C 257 267 202 349 162 445 C 122 540 102 643 102 754 C 102 828 111 898 129 966 C 147 1034 174 1097 208 1156 C 241 1214 281 1267 329 1315 C 377 1363 430 1404 489 1438 C 547 1472 610 1498 678 1516 C 746 1534 817 1544 891 1544 C 964 1544 1034 1535 1102 1517 C 1169 1499 1232 1473 1290 1440 C 1348 1406 1400 1365 1447 1318 C 1494 1271 1535 1219 1569 1161 C 1602 1103 1628 1040 1646 973 C 1664 905 1673 835 1673 762 C 1673 688 1663 617 1645 549 C 1627 481 1601 417 1567 359 C 1533 300 1492 247 1444 199 C 1396 151 1344 111 1286 77 C 1227 43 1164 16 1096 -1 C 1028 -19 958 -29 885 -29 Z M 891 115 C 981 115 1064 131 1140 163 C 1216 195 1283 239 1339 297 C 1394 353 1437 421 1469 499 C 1500 577 1516 662 1516 754 C 1516 846 1500 931 1468 1010 C 1436 1089 1393 1158 1337 1216 C 1280 1273 1213 1318 1136 1351 C 1059 1384 975 1401 885 1401 C 795 1401 711 1384 635 1352 C 558 1320 492 1275 437 1219 C 381 1161 338 1094 307 1016 C 275 938 260 853 260 762 C 260 670 275 584 307 505 C 339 426 383 358 440 300 C 496 242 562 196 639 164 C 716 131 800 115 891 115 Z M 881 317 C 827 317 777 326 732 346 C 687 366 649 395 617 433 C 585 470 560 516 542 572 C 524 627 516 690 516 762 C 516 832 524 894 541 949 C 558 1003 583 1050 615 1088 C 647 1126 686 1154 732 1174 C 778 1194 829 1204 887 1204 C 935 1204 979 1197 1017 1184 C 1055 1171 1088 1153 1116 1130 C 1143 1106 1166 1077 1184 1044 C 1202 1011 1215 974 1223 934 L 1040 887 C 1034 909 1027 929 1019 947 C 1011 965 1001 980 990 993 C 978 1005 964 1014 948 1021 C 931 1028 911 1032 889 1032 C 862 1032 838 1025 817 1013 C 796 1000 779 982 765 959 C 750 935 739 906 732 873 C 724 839 721 802 721 762 C 721 677 735 611 764 564 C 792 517 834 494 889 494 C 932 494 966 507 990 535 C 1014 562 1032 603 1044 657 C 1061 652 1077 647 1093 643 C 1109 639 1123 635 1137 631 C 1149 627 1160 624 1171 621 C 1182 618 1192 616 1202 614 C 1210 611 1217 609 1223 608 C 1229 606 1232 606 1233 606 C 1221 562 1205 523 1187 488 C 1169 452 1146 422 1119 397 C 1091 371 1057 352 1018 338 C 979 324 933 317 881 317 Z" unicode="©" />
<glyph horiz-adv-x="915" d="M 301 737 C 271 737 242 741 216 749 C 190 757 167 770 147 788 C 127 804 111 825 99 850 C 87 875 82 904 82 938 C 82 982 91 1021 110 1057 C 129 1092 158 1123 198 1150 C 237 1176 287 1197 348 1214 C 409 1230 481 1242 565 1249 L 565 1268 C 565 1294 557 1316 542 1332 C 526 1348 500 1356 463 1356 C 415 1356 370 1347 329 1330 C 288 1312 251 1290 217 1264 L 113 1395 C 132 1413 154 1430 178 1446 C 202 1462 230 1477 262 1490 C 293 1502 328 1512 367 1520 C 406 1528 450 1532 498 1532 C 603 1532 679 1507 726 1457 C 773 1407 797 1332 797 1233 L 797 940 C 797 894 798 857 801 828 C 803 799 809 774 819 754 L 584 754 C 578 770 574 786 570 804 C 566 822 565 841 565 862 C 531 822 492 792 449 770 C 406 748 357 737 301 737 Z M 393 913 C 433 913 467 920 495 934 C 523 948 546 964 565 983 L 565 1124 C 517 1119 477 1112 445 1104 C 413 1096 387 1086 367 1074 C 347 1062 332 1048 324 1033 C 315 1018 311 1002 311 985 C 311 961 318 943 333 931 C 348 919 368 913 393 913 Z" unicode="ª" />
<glyph horiz-adv-x="1296" d="M 924 0 L 582 547 L 924 1092 L 1237 1092 L 909 547 L 1237 0 L 924 0 Z M 389 0 L 49 547 L 389 1092 L 702 1092 L 377 547 L 702 0 L 389 0 Z" unicode="«" />
<glyph horiz-adv-x="1319" d="M 1182 180 L 922 180 L 922 592 L 137 592 L 137 848 L 1182 848 L 1182 180 Z" unicode="¬" />
<glyph horiz-adv-x="731" d="M 96 532 L 96 754 L 635 754 L 635 532 L 96 532 Z" unicode="­" />
<glyph horiz-adv-x="1083" d="M 539 600 C 472 600 410 612 353 636 C 295 660 246 693 204 736 C 162 778 129 827 105 885 C 81 942 70 1004 70 1071 C 70 1137 82 1200 106 1258 C 130 1316 164 1366 207 1409 C 249 1451 299 1485 357 1509 C 415 1533 477 1546 545 1546 C 611 1546 672 1534 729 1510 C 786 1486 836 1453 879 1411 C 921 1368 954 1318 978 1261 C 1002 1203 1014 1141 1014 1075 C 1014 1007 1001 945 977 887 C 953 829 919 779 877 737 C 834 694 784 660 726 636 C 668 612 605 600 539 600 Z M 545 690 C 598 690 647 699 693 718 C 738 737 777 764 811 798 C 844 832 870 872 889 919 C 908 965 918 1016 918 1071 C 918 1125 908 1176 889 1224 C 870 1271 844 1312 810 1347 C 776 1381 735 1408 689 1428 C 643 1448 593 1458 539 1458 C 485 1458 436 1448 391 1429 C 345 1409 306 1383 273 1349 C 239 1314 213 1273 194 1227 C 175 1180 166 1129 166 1075 C 166 1020 175 969 194 922 C 213 875 240 835 274 801 C 307 766 347 739 393 719 C 439 699 490 690 545 690 Z M 354 1341 L 555 1341 C 617 1341 666 1327 701 1299 C 736 1271 754 1229 754 1171 C 754 1131 745 1099 729 1076 C 713 1053 690 1035 662 1022 L 764 825 L 633 825 L 541 1008 L 479 1008 L 479 825 L 354 825 L 354 1341 Z M 547 1100 C 575 1100 596 1105 611 1115 C 625 1125 633 1141 633 1165 C 633 1187 625 1204 611 1215 C 596 1225 575 1231 547 1231 L 479 1231 L 479 1100 L 547 1100 Z" unicode="®" />
<glyph horiz-adv-x="1024" d="M 172 1430 L 852 1430 L 852 1196 L 172 1196 L 172 1430 Z" unicode="¯" />
<glyph horiz-adv-x="850" d="M 426 885 C 378 885 333 893 292 909 C 251 925 216 948 187 978 C 157 1006 133 1041 117 1081 C 100 1121 92 1164 92 1212 C 92 1260 100 1304 117 1344 C 133 1384 157 1418 187 1448 C 216 1476 251 1499 292 1515 C 333 1531 378 1540 426 1540 C 473 1540 517 1532 558 1516 C 598 1500 634 1477 664 1449 C 693 1419 716 1385 733 1345 C 749 1305 758 1262 758 1214 C 758 1166 749 1122 733 1082 C 716 1042 693 1007 664 978 C 634 948 598 925 558 909 C 517 893 473 885 426 885 Z M 426 1040 C 448 1040 469 1044 489 1052 C 508 1060 525 1072 539 1088 C 552 1103 562 1121 570 1143 C 578 1164 582 1188 582 1214 C 582 1266 567 1308 538 1338 C 509 1368 472 1384 426 1384 C 378 1384 340 1368 311 1338 C 282 1308 268 1266 268 1214 C 268 1188 271 1164 279 1143 C 287 1121 298 1103 312 1088 C 326 1072 342 1060 362 1052 C 381 1044 402 1040 426 1040 Z" unicode="°" />
<glyph horiz-adv-x="1323" d="M 137 270 L 532 270 L 532 606 L 137 606 L 137 860 L 532 860 L 532 1272 L 791 1272 L 791 860 L 1186 860 L 1186 606 L 791 606 L 791 270 L 1186 270 L 1186 31 L 137 31 L 137 270 Z" unicode="±" />
<glyph horiz-adv-x="979" d="M 115 594 C 115 629 117 664 123 700 C 128 736 141 772 161 809 C 180 845 208 882 246 920 C 284 958 335 996 401 1036 C 438 1058 469 1077 494 1093 C 519 1109 539 1123 554 1137 C 568 1150 579 1164 585 1178 C 591 1192 594 1210 594 1231 C 594 1259 585 1280 569 1295 C 552 1309 528 1317 498 1317 C 466 1317 432 1305 395 1282 C 357 1259 323 1221 291 1169 L 113 1298 C 162 1376 218 1436 280 1476 C 342 1516 416 1536 504 1536 C 562 1536 612 1529 655 1515 C 697 1501 733 1481 762 1455 C 790 1429 811 1397 825 1360 C 839 1323 846 1282 846 1237 C 846 1209 842 1181 836 1154 C 829 1126 817 1099 799 1072 C 780 1044 755 1017 723 990 C 691 963 650 936 600 909 C 568 891 542 875 521 861 C 499 846 482 832 469 820 C 455 806 444 794 436 783 C 428 772 423 762 420 752 L 852 752 L 852 541 L 115 541 L 115 594 Z" unicode="²" />
<glyph horiz-adv-x="979" d="M 481 524 C 397 524 321 541 253 575 C 184 609 128 659 84 725 L 244 864 C 262 839 280 818 298 802 C 316 786 335 773 354 764 C 372 754 390 747 408 743 C 426 739 443 737 459 737 C 485 737 508 739 527 745 C 545 750 560 757 572 767 C 583 776 591 787 596 801 C 601 814 604 828 604 844 C 604 886 589 916 559 934 C 529 952 480 961 412 961 L 334 961 L 334 1143 L 416 1143 C 448 1143 476 1145 498 1149 C 520 1153 537 1160 551 1169 C 563 1177 572 1187 578 1199 C 583 1211 586 1224 586 1239 C 586 1263 577 1283 559 1297 C 541 1311 515 1319 481 1319 C 450 1319 416 1312 378 1299 C 340 1286 300 1260 258 1221 L 119 1382 C 174 1436 235 1475 301 1499 C 367 1523 434 1536 502 1536 C 614 1536 699 1512 757 1465 C 815 1418 844 1353 844 1270 C 844 1248 841 1226 836 1205 C 830 1184 822 1165 811 1147 C 799 1129 783 1112 765 1098 C 746 1084 724 1072 698 1063 C 730 1053 757 1040 779 1025 C 801 1010 820 993 834 974 C 848 954 858 933 864 910 C 870 887 874 863 874 838 C 874 786 864 741 846 702 C 827 663 801 630 767 604 C 732 577 690 557 642 544 C 594 530 540 524 481 524 Z" unicode="³" />
<glyph horiz-adv-x="1024" d="M 494 1563 L 825 1563 L 520 1208 L 303 1208 L 494 1563 Z" unicode="´" />
<glyph horiz-adv-x="1276" d="M 125 -410 L 125 1092 L 455 1092 L 455 397 C 455 349 465 312 485 286 C 505 260 538 248 584 248 C 628 248 669 258 708 278 C 746 298 784 325 821 358 L 821 1092 L 1151 1092 L 1151 0 L 821 0 L 821 170 C 807 152 791 135 774 118 C 757 101 738 85 717 70 C 695 54 672 39 646 27 C 620 15 593 5 563 -2 C 542 -5 523 -6 505 -6 C 487 -5 470 -1 455 6 L 455 -410 L 125 -410 Z" unicode="µ" />
<glyph horiz-adv-x="1307" d="M 586 -410 L 586 641 C 424 644 300 683 215 757 C 130 831 88 937 88 1075 C 88 1135 98 1192 118 1246 C 138 1300 169 1347 209 1387 C 248 1427 297 1458 355 1481 C 413 1504 481 1516 557 1516 L 1204 1516 L 1204 -410 L 983 -410 L 983 1270 L 809 1270 L 809 -410 L 586 -410 Z" unicode="¶" />
<glyph horiz-adv-x="592" d="M 113 530 L 113 848 L 479 848 L 479 530 L 113 530 Z" unicode="·" />
<glyph horiz-adv-x="1024" d="M 539 -414 C 477 -414 420 -407 368 -393 C 316 -379 272 -361 236 -338 L 295 -240 C 325 -260 360 -276 400 -286 C 439 -296 476 -301 512 -301 C 544 -301 569 -295 587 -284 C 605 -272 614 -255 614 -231 C 614 -211 607 -197 595 -189 C 583 -180 567 -176 549 -176 C 531 -176 516 -179 502 -185 C 488 -191 475 -199 461 -211 L 379 -170 L 432 0 L 567 0 L 545 -94 C 559 -84 576 -77 598 -71 C 620 -65 646 -63 676 -63 C 695 -63 714 -66 732 -72 C 750 -78 766 -88 780 -100 C 793 -112 804 -127 812 -145 C 820 -163 825 -183 825 -207 C 825 -239 817 -267 802 -293 C 787 -319 767 -341 742 -359 C 716 -377 685 -390 651 -400 C 616 -409 579 -414 539 -414 Z" unicode="¸" />
<glyph horiz-adv-x="791" d="M 129 743 L 305 743 L 305 1309 C 280 1297 252 1288 222 1280 C 191 1272 161 1268 133 1268 L 133 1454 C 172 1455 206 1460 236 1470 C 265 1480 290 1495 311 1516 L 569 1516 L 569 743 L 723 743 L 723 537 L 129 537 L 129 743 Z" unicode="¹" />
<glyph horiz-adv-x="954" d="M 477 737 C 430 737 383 743 337 757 C 290 771 248 793 211 825 C 173 855 142 896 119 947 C 95 998 84 1061 84 1135 C 84 1211 95 1274 119 1325 C 142 1376 173 1417 211 1449 C 248 1479 290 1501 337 1514 C 383 1527 430 1534 477 1534 C 523 1534 570 1527 617 1514 C 663 1501 706 1479 744 1449 C 781 1417 811 1376 835 1325 C 858 1274 870 1211 870 1135 C 870 1061 858 998 835 947 C 811 896 781 855 744 825 C 706 793 663 771 617 757 C 570 743 523 737 477 737 Z M 477 905 C 504 905 527 910 547 922 C 567 933 583 949 597 969 C 609 989 619 1013 625 1041 C 631 1069 635 1101 635 1135 C 635 1166 632 1195 626 1223 C 620 1251 611 1275 599 1296 C 586 1316 570 1332 550 1344 C 530 1356 505 1362 477 1362 C 449 1362 426 1356 406 1345 C 386 1334 370 1319 358 1299 C 344 1279 334 1255 328 1227 C 322 1199 319 1169 319 1135 C 319 1103 321 1074 327 1046 C 332 1018 341 994 354 974 C 366 952 383 935 403 923 C 423 911 447 905 477 905 Z" unicode="º" />
<glyph horiz-adv-x="1296" d="M 594 0 L 922 547 L 594 1092 L 907 1092 L 1249 547 L 907 0 L 594 0 Z M 61 0 L 387 547 L 61 1092 L 375 1092 L 715 547 L 375 0 L 61 0 Z" unicode="»" />
<glyph horiz-adv-x="2169" d="M 152 745 L 315 745 L 315 1262 C 293 1253 269 1247 242 1243 C 215 1239 186 1237 154 1237 L 154 1454 C 177 1454 198 1456 216 1458 C 234 1460 251 1464 266 1469 C 280 1473 293 1479 305 1487 C 317 1494 328 1503 338 1513 L 578 1513 L 578 745 L 723 745 L 723 537 L 152 537 L 152 745 Z M 1665 203 L 1225 203 L 1225 369 L 1655 979 L 1927 979 L 1927 406 L 2081 406 L 2081 203 L 1927 203 L 1927 0 L 1665 0 L 1665 203 Z M 1411 1516 L 1694 1516 L 788 0 L 506 0 L 1411 1516 Z M 1681 389 L 1681 700 L 1468 389 L 1681 389 Z" unicode="¼" />
<glyph horiz-adv-x="2234" d="M 1374 53 C 1374 88 1377 123 1383 159 C 1389 194 1402 230 1422 267 C 1441 303 1470 339 1508 377 C 1546 415 1597 454 1661 496 C 1692 516 1719 533 1743 548 C 1766 563 1785 578 1801 593 C 1816 607 1827 622 1835 638 C 1843 653 1847 671 1847 692 C 1847 720 1838 741 1821 755 C 1804 769 1781 776 1753 776 C 1723 776 1689 764 1652 741 C 1615 718 1581 681 1550 629 L 1372 758 C 1420 835 1476 894 1538 934 C 1600 974 1675 995 1763 995 C 1817 995 1866 988 1909 974 C 1951 960 1987 940 2017 914 C 2045 888 2067 856 2082 820 C 2097 783 2105 742 2105 696 C 2105 668 2101 641 2095 614 C 2088 586 2076 559 2059 532 C 2041 504 2016 477 1985 450 C 1954 422 1914 395 1866 369 C 1809 337 1767 307 1739 280 C 1711 253 1693 230 1686 211 L 2111 211 L 2111 0 L 1374 0 L 1374 53 Z M 1411 1516 L 1694 1516 L 788 0 L 506 0 L 1411 1516 Z M 152 745 L 315 745 L 315 1262 C 293 1253 269 1247 242 1243 C 215 1239 186 1237 154 1237 L 154 1454 C 177 1454 198 1456 216 1458 C 234 1460 251 1464 266 1469 C 280 1473 293 1479 305 1487 C 317 1494 328 1503 338 1513 L 578 1513 L 578 745 L 723 745 L 723 537 L 152 537 L 152 745 Z" unicode="½" />
<glyph horiz-adv-x="2249" d="M 481 524 C 397 524 321 541 253 575 C 184 609 128 659 84 725 L 244 864 C 262 839 280 818 298 802 C 316 786 335 773 354 764 C 372 754 390 747 408 743 C 426 739 443 737 459 737 C 485 737 508 739 527 745 C 545 750 560 757 572 767 C 583 776 591 787 596 801 C 601 814 604 828 604 844 C 604 886 589 916 559 934 C 529 952 480 961 412 961 L 334 961 L 334 1143 L 416 1143 C 448 1143 476 1145 498 1149 C 520 1153 537 1160 551 1169 C 563 1177 572 1187 578 1199 C 583 1211 586 1224 586 1239 C 586 1263 577 1283 559 1297 C 541 1311 515 1319 481 1319 C 450 1319 416 1312 378 1299 C 340 1286 300 1260 258 1221 L 119 1382 C 174 1436 235 1475 301 1499 C 367 1523 434 1536 502 1536 C 614 1536 699 1512 757 1465 C 815 1418 844 1353 844 1270 C 844 1248 841 1226 836 1205 C 830 1184 822 1165 811 1147 C 799 1129 783 1112 765 1098 C 746 1084 724 1072 698 1063 C 730 1053 757 1040 779 1025 C 801 1010 820 993 834 974 C 848 954 858 933 864 910 C 870 887 874 863 874 838 C 874 786 864 741 846 702 C 827 663 801 630 767 604 C 732 577 690 557 642 544 C 594 530 540 524 481 524 Z M 1745 203 L 1305 203 L 1305 369 L 1735 979 L 2007 979 L 2007 406 L 2161 406 L 2161 203 L 2007 203 L 2007 0 L 1745 0 L 1745 203 Z M 1491 1516 L 1774 1516 L 868 0 L 586 0 L 1491 1516 Z M 1761 389 L 1761 700 L 1548 389 L 1761 389 Z" unicode="¾" />
<glyph horiz-adv-x="1217" d="M 569 -29 C 491 -29 423 -19 363 -1 C 303 17 253 43 213 77 C 171 110 140 150 119 196 C 98 242 88 292 88 346 C 88 394 94 436 107 472 C 119 508 137 540 159 568 C 181 596 206 620 236 641 C 265 662 296 682 330 700 C 376 724 412 745 437 765 C 462 785 480 807 492 831 C 503 854 509 882 511 915 C 513 947 514 989 514 1040 L 784 1040 C 788 1012 791 987 792 965 C 792 942 793 918 793 893 C 793 853 787 818 776 787 C 764 756 749 728 730 704 C 710 678 687 656 661 636 C 634 616 605 598 575 582 C 547 566 522 550 502 536 C 482 522 465 507 453 491 C 439 475 429 457 423 438 C 417 419 414 397 414 373 C 414 331 430 298 462 272 C 494 246 542 233 604 233 C 638 233 671 237 705 247 C 738 257 770 270 801 287 C 831 303 860 322 886 344 C 912 365 936 388 956 412 L 1155 225 C 1123 190 1088 157 1048 126 C 1008 95 965 68 917 46 C 868 22 815 4 757 -9 C 699 -22 637 -29 569 -29 Z M 473 1212 L 473 1516 L 825 1516 L 825 1212 L 473 1212 Z" unicode="¿" />
<glyph horiz-adv-x="1460" d="M 35 0 L 571 1522 L 889 1522 L 1425 0 L 1087 0 L 975 338 L 459 338 L 342 0 L 35 0 Z M 541 580 L 897 580 L 723 1096 L 719 1096 L 541 580 Z M 340 1958 L 669 1958 L 860 1603 L 643 1603 L 340 1958 Z" unicode="À" />
<glyph horiz-adv-x="1460" d="M 35 0 L 571 1522 L 889 1522 L 1425 0 L 1087 0 L 975 338 L 459 338 L 342 0 L 35 0 Z M 541 580 L 897 580 L 723 1096 L 719 1096 L 541 580 Z M 788 1958 L 1119 1958 L 814 1603 L 597 1603 L 788 1958 Z" unicode="Á" />
<glyph horiz-adv-x="1460" d="M 35 0 L 571 1522 L 889 1522 L 1425 0 L 1087 0 L 975 338 L 459 338 L 342 0 L 35 0 Z M 541 580 L 897 580 L 723 1096 L 719 1096 L 541 580 Z M 620 1958 L 839 1958 L 1103 1607 L 917 1607 L 726 1759 L 542 1607 L 356 1607 L 620 1958 Z" unicode="Â" />
<glyph horiz-adv-x="1460" d="M 35 0 L 571 1522 L 889 1522 L 1425 0 L 1087 0 L 975 338 L 459 338 L 342 0 L 35 0 Z M 541 580 L 897 580 L 723 1096 L 719 1096 L 541 580 Z M 886 1583 C 848 1583 816 1589 789 1601 C 762 1613 738 1626 716 1641 C 694 1655 673 1668 654 1680 C 634 1692 613 1698 591 1698 C 564 1698 543 1689 529 1672 C 514 1655 507 1627 507 1587 L 329 1587 C 329 1645 334 1694 346 1735 C 358 1776 374 1810 396 1837 C 416 1863 442 1882 472 1894 C 502 1906 535 1913 573 1913 C 610 1913 642 1907 669 1895 C 696 1883 721 1870 743 1856 C 765 1841 785 1828 805 1816 C 824 1804 845 1798 868 1798 C 894 1798 915 1806 930 1823 C 944 1839 952 1868 952 1908 L 1128 1908 C 1128 1850 1122 1800 1111 1759 C 1099 1718 1083 1685 1063 1659 C 1041 1633 1016 1613 986 1601 C 956 1589 922 1583 886 1583 Z" unicode="Ã" />
<glyph horiz-adv-x="1460" d="M 35 0 L 571 1522 L 889 1522 L 1425 0 L 1087 0 L 975 338 L 459 338 L 342 0 L 35 0 Z M 541 580 L 897 580 L 723 1096 L 719 1096 L 541 580 Z M 368 1894 L 647 1894 L 647 1591 L 368 1591 L 368 1894 Z M 802 1894 L 1081 1894 L 1081 1591 L 802 1591 L 802 1894 Z" unicode="Ä" />
<glyph horiz-adv-x="1460" d="M 559 1485 C 542 1502 529 1522 520 1546 C 510 1570 506 1596 506 1624 C 506 1656 511 1685 523 1712 C 534 1739 550 1763 570 1783 C 590 1803 613 1818 641 1830 C 669 1841 699 1847 731 1847 C 763 1847 792 1841 819 1830 C 846 1818 870 1803 890 1783 C 910 1763 925 1739 937 1712 C 948 1685 954 1656 954 1624 C 954 1596 949 1570 940 1547 C 931 1523 918 1503 901 1487 L 1425 0 L 1087 0 L 975 340 L 459 340 L 342 0 L 37 0 L 559 1485 Z M 897 580 L 723 1098 L 719 1098 L 541 580 L 897 580 Z M 731 1526 C 757 1526 780 1535 798 1553 C 816 1571 825 1595 825 1624 C 825 1652 816 1675 798 1694 C 780 1712 757 1722 731 1722 C 703 1722 680 1712 663 1694 C 645 1675 637 1652 637 1624 C 637 1595 645 1571 663 1553 C 680 1535 703 1526 731 1526 Z" unicode="Å" />
<glyph horiz-adv-x="2200" d="M 31 0 L 893 1516 L 2087 1516 L 2087 1237 L 1391 1237 L 1391 911 L 1894 911 L 1894 647 L 1391 647 L 1391 270 L 2124 270 L 2124 0 L 1061 0 L 1061 430 L 606 430 L 367 0 L 31 0 Z M 745 678 L 1061 678 L 1061 1235 L 1059 1235 L 745 678 Z" unicode="Æ" />
<glyph horiz-adv-x="1493" d="M 782 -414 C 720 -414 663 -407 611 -393 C 559 -379 515 -361 479 -338 L 539 -240 C 569 -260 604 -276 643 -286 C 681 -296 718 -301 754 -301 C 786 -301 811 -295 829 -284 C 847 -272 856 -255 856 -231 C 856 -211 849 -197 837 -189 C 824 -180 809 -176 791 -176 C 774 -176 759 -179 746 -185 C 732 -191 719 -199 705 -211 L 623 -170 L 670 -25 C 584 -14 506 9 434 47 C 362 85 301 136 249 202 C 197 266 156 345 127 438 C 98 531 84 638 84 760 C 84 891 101 1006 137 1104 C 173 1202 222 1284 284 1350 C 346 1414 418 1463 502 1495 C 586 1527 676 1544 772 1544 C 868 1544 950 1532 1020 1508 C 1090 1484 1149 1450 1198 1408 C 1246 1365 1286 1315 1316 1257 C 1346 1199 1370 1135 1386 1067 L 1071 975 C 1059 1018 1045 1058 1029 1094 C 1013 1130 993 1161 970 1187 C 946 1212 918 1232 886 1246 C 853 1260 814 1268 770 1268 C 712 1268 662 1256 618 1233 C 574 1209 538 1176 509 1133 C 479 1089 456 1035 441 973 C 425 910 418 840 418 762 C 418 681 425 608 441 544 C 457 480 480 425 510 381 C 540 335 577 300 621 276 C 665 252 716 240 774 240 C 818 240 857 246 891 260 C 925 274 955 294 981 322 C 1006 348 1028 381 1046 421 C 1064 461 1080 507 1094 559 L 1407 489 C 1389 415 1364 347 1333 285 C 1301 223 1262 169 1214 124 C 1165 78 1107 42 1040 16 C 972 -10 894 -25 805 -29 L 786 -94 C 800 -84 819 -77 841 -71 C 863 -65 890 -63 920 -63 C 939 -63 957 -66 975 -72 C 993 -78 1009 -88 1023 -100 C 1036 -112 1047 -127 1055 -145 C 1063 -163 1067 -183 1067 -207 C 1067 -239 1059 -267 1044 -293 C 1029 -319 1009 -341 984 -359 C 958 -377 927 -390 893 -400 C 858 -409 821 -414 782 -414 Z" unicode="Ç" />
<glyph horiz-adv-x="1296" d="M 156 0 L 156 1516 L 1188 1516 L 1188 1237 L 489 1237 L 489 911 L 995 911 L 995 647 L 489 647 L 489 270 L 1225 270 L 1225 0 L 156 0 Z M 321 1958 L 650 1958 L 841 1603 L 624 1603 L 321 1958 Z" unicode="È" />
<glyph horiz-adv-x="1296" d="M 156 0 L 156 1516 L 1188 1516 L 1188 1237 L 489 1237 L 489 911 L 995 911 L 995 647 L 489 647 L 489 270 L 1225 270 L 1225 0 L 156 0 Z M 674 1958 L 1005 1958 L 700 1603 L 483 1603 L 674 1958 Z" unicode="É" />
<glyph horiz-adv-x="1296" d="M 156 0 L 156 1516 L 1188 1516 L 1188 1237 L 489 1237 L 489 911 L 995 911 L 995 647 L 489 647 L 489 270 L 1225 270 L 1225 0 L 156 0 Z M 559 1958 L 778 1958 L 1042 1607 L 856 1607 L 665 1759 L 481 1607 L 295 1607 L 559 1958 Z" unicode="Ê" />
<glyph horiz-adv-x="1296" d="M 156 0 L 156 1516 L 1188 1516 L 1188 1237 L 489 1237 L 489 911 L 995 911 L 995 647 L 489 647 L 489 270 L 1225 270 L 1225 0 L 156 0 Z M 317 1894 L 596 1894 L 596 1591 L 317 1591 L 317 1894 Z M 751 1894 L 1030 1894 L 1030 1591 L 751 1591 L 751 1894 Z" unicode="Ë" />
<glyph horiz-adv-x="676" d="M 172 0 L 172 1516 L 504 1516 L 504 0 L 172 0 Z M -44 1958 L 285 1958 L 476 1603 L 259 1603 L -44 1958 Z" unicode="Ì" />
<glyph horiz-adv-x="676" d="M 172 0 L 172 1516 L 504 1516 L 504 0 L 172 0 Z M 400 1958 L 731 1958 L 426 1603 L 209 1603 L 400 1958 Z" unicode="Í" />
<glyph horiz-adv-x="676" d="M 172 0 L 172 1516 L 504 1516 L 504 0 L 172 0 Z M 230 1958 L 449 1958 L 713 1607 L 527 1607 L 336 1759 L 152 1607 L -34 1607 L 230 1958 Z" unicode="Î" />
<glyph horiz-adv-x="676" d="M 172 0 L 172 1516 L 504 1516 L 504 0 L 172 0 Z M -22 1894 L 257 1894 L 257 1591 L -22 1591 L -22 1894 Z M 412 1894 L 691 1894 L 691 1591 L 412 1591 L 412 1894 Z" unicode="Ï" />
<glyph horiz-adv-x="1516" d="M 156 0 L 156 649 L 20 649 L 20 899 L 156 899 L 156 1516 L 621 1516 C 697 1516 771 1510 841 1499 C 911 1487 976 1469 1037 1445 C 1097 1419 1151 1387 1200 1347 C 1248 1307 1290 1260 1325 1204 C 1359 1148 1385 1083 1404 1009 C 1422 935 1432 851 1432 758 C 1432 619 1411 501 1369 405 C 1327 309 1270 231 1198 171 C 1124 111 1038 67 940 40 C 841 13 735 0 621 0 L 156 0 Z M 487 270 L 643 270 C 725 270 795 279 853 298 C 911 317 958 347 995 387 C 1031 427 1057 478 1073 540 C 1089 602 1098 676 1098 762 C 1098 842 1089 912 1073 972 C 1056 1032 1029 1081 993 1121 C 956 1159 908 1188 850 1208 C 792 1227 721 1237 639 1237 L 487 1237 L 487 899 L 795 899 L 795 649 L 487 649 L 487 270 Z" unicode="Ð" />
<glyph horiz-adv-x="1591" d="M 156 0 L 156 1516 L 489 1516 L 1124 549 L 1128 549 L 1128 1516 L 1436 1516 L 1436 0 L 1128 0 L 467 975 L 463 975 L 463 0 L 156 0 Z M 960 1583 C 922 1583 890 1589 863 1601 C 836 1613 812 1626 790 1641 C 768 1655 747 1668 728 1680 C 708 1692 687 1698 665 1698 C 638 1698 617 1689 603 1672 C 588 1655 581 1627 581 1587 L 403 1587 C 403 1645 408 1694 420 1735 C 432 1776 448 1810 470 1837 C 490 1863 516 1882 546 1894 C 576 1906 609 1913 647 1913 C 684 1913 716 1907 743 1895 C 770 1883 795 1870 817 1856 C 839 1841 859 1828 879 1816 C 898 1804 919 1798 942 1798 C 968 1798 989 1806 1004 1823 C 1018 1839 1026 1868 1026 1908 L 1202 1908 C 1202 1850 1196 1800 1185 1759 C 1173 1718 1157 1685 1137 1659 C 1115 1633 1090 1613 1060 1601 C 1030 1589 996 1583 960 1583 Z" unicode="Ñ" />
<glyph horiz-adv-x="1597" d="M 799 -29 C 707 -29 618 -13 532 19 C 446 51 370 99 304 165 C 237 229 184 311 144 410 C 104 508 84 624 84 758 C 84 890 104 1006 144 1105 C 184 1203 237 1285 304 1351 C 370 1415 446 1464 532 1496 C 618 1528 707 1544 799 1544 C 859 1544 919 1536 978 1522 C 1036 1508 1092 1486 1145 1458 C 1197 1429 1246 1393 1291 1350 C 1336 1307 1375 1257 1408 1199 C 1440 1140 1465 1074 1483 1001 C 1501 927 1511 846 1511 758 C 1511 669 1501 588 1483 515 C 1465 441 1440 376 1408 318 C 1375 259 1336 208 1291 165 C 1246 121 1197 85 1145 57 C 1092 28 1036 6 978 -7 C 919 -21 859 -29 799 -29 Z M 799 240 C 857 240 909 252 956 276 C 1003 300 1043 334 1077 380 C 1109 424 1135 479 1153 543 C 1171 607 1180 678 1180 758 C 1180 837 1171 908 1153 971 C 1135 1034 1109 1088 1077 1132 C 1043 1176 1003 1209 956 1233 C 909 1256 857 1268 799 1268 C 739 1268 686 1256 639 1233 C 592 1209 552 1176 520 1132 C 487 1088 462 1034 444 971 C 426 908 418 837 418 758 C 418 678 426 607 444 543 C 462 479 487 424 520 380 C 552 334 592 300 639 276 C 686 252 739 240 799 240 Z M 442 1958 L 771 1958 L 962 1603 L 745 1603 L 442 1958 Z" unicode="Ò" />
<glyph horiz-adv-x="1597" d="M 799 -29 C 707 -29 618 -13 532 19 C 446 51 370 99 304 165 C 237 229 184 311 144 410 C 104 508 84 624 84 758 C 84 890 104 1006 144 1105 C 184 1203 237 1285 304 1351 C 370 1415 446 1464 532 1496 C 618 1528 707 1544 799 1544 C 859 1544 919 1536 978 1522 C 1036 1508 1092 1486 1145 1458 C 1197 1429 1246 1393 1291 1350 C 1336 1307 1375 1257 1408 1199 C 1440 1140 1465 1074 1483 1001 C 1501 927 1511 846 1511 758 C 1511 669 1501 588 1483 515 C 1465 441 1440 376 1408 318 C 1375 259 1336 208 1291 165 C 1246 121 1197 85 1145 57 C 1092 28 1036 6 978 -7 C 919 -21 859 -29 799 -29 Z M 799 240 C 857 240 909 252 956 276 C 1003 300 1043 334 1077 380 C 1109 424 1135 479 1153 543 C 1171 607 1180 678 1180 758 C 1180 837 1171 908 1153 971 C 1135 1034 1109 1088 1077 1132 C 1043 1176 1003 1209 956 1233 C 909 1256 857 1268 799 1268 C 739 1268 686 1256 639 1233 C 592 1209 552 1176 520 1132 C 487 1088 462 1034 444 971 C 426 908 418 837 418 758 C 418 678 426 607 444 543 C 462 479 487 424 520 380 C 552 334 592 300 639 276 C 686 252 739 240 799 240 Z M 819 1958 L 1150 1958 L 845 1603 L 628 1603 L 819 1958 Z" unicode="Ó" />
<glyph horiz-adv-x="1597" d="M 799 -29 C 707 -29 618 -13 532 19 C 446 51 370 99 304 165 C 237 229 184 311 144 410 C 104 508 84 624 84 758 C 84 890 104 1006 144 1105 C 184 1203 237 1285 304 1351 C 370 1415 446 1464 532 1496 C 618 1528 707 1544 799 1544 C 859 1544 919 1536 978 1522 C 1036 1508 1092 1486 1145 1458 C 1197 1429 1246 1393 1291 1350 C 1336 1307 1375 1257 1408 1199 C 1440 1140 1465 1074 1483 1001 C 1501 927 1511 846 1511 758 C 1511 669 1501 588 1483 515 C 1465 441 1440 376 1408 318 C 1375 259 1336 208 1291 165 C 1246 121 1197 85 1145 57 C 1092 28 1036 6 978 -7 C 919 -21 859 -29 799 -29 Z M 799 240 C 857 240 909 252 956 276 C 1003 300 1043 334 1077 380 C 1109 424 1135 479 1153 543 C 1171 607 1180 678 1180 758 C 1180 837 1171 908 1153 971 C 1135 1034 1109 1088 1077 1132 C 1043 1176 1003 1209 956 1233 C 909 1256 857 1268 799 1268 C 739 1268 686 1256 639 1233 C 592 1209 552 1176 520 1132 C 487 1088 462 1034 444 971 C 426 908 418 837 418 758 C 418 678 426 607 444 543 C 462 479 487 424 520 380 C 552 334 592 300 639 276 C 686 252 739 240 799 240 Z M 688 1958 L 907 1958 L 1171 1607 L 985 1607 L 794 1759 L 610 1607 L 424 1607 L 688 1958 Z" unicode="Ô" />
<glyph horiz-adv-x="1597" d="M 799 -29 C 707 -29 618 -13 532 19 C 446 51 370 99 304 165 C 237 229 184 311 144 410 C 104 508 84 624 84 758 C 84 890 104 1006 144 1105 C 184 1203 237 1285 304 1351 C 370 1415 446 1464 532 1496 C 618 1528 707 1544 799 1544 C 859 1544 919 1536 978 1522 C 1036 1508 1092 1486 1145 1458 C 1197 1429 1246 1393 1291 1350 C 1336 1307 1375 1257 1408 1199 C 1440 1140 1465 1074 1483 1001 C 1501 927 1511 846 1511 758 C 1511 669 1501 588 1483 515 C 1465 441 1440 376 1408 318 C 1375 259 1336 208 1291 165 C 1246 121 1197 85 1145 57 C 1092 28 1036 6 978 -7 C 919 -21 859 -29 799 -29 Z M 799 240 C 857 240 909 252 956 276 C 1003 300 1043 334 1077 380 C 1109 424 1135 479 1153 543 C 1171 607 1180 678 1180 758 C 1180 837 1171 908 1153 971 C 1135 1034 1109 1088 1077 1132 C 1043 1176 1003 1209 956 1233 C 909 1256 857 1268 799 1268 C 739 1268 686 1256 639 1233 C 592 1209 552 1176 520 1132 C 487 1088 462 1034 444 971 C 426 908 418 837 418 758 C 418 678 426 607 444 543 C 462 479 487 424 520 380 C 552 334 592 300 639 276 C 686 252 739 240 799 240 Z M 952 1583 C 914 1583 882 1589 855 1601 C 828 1613 804 1626 782 1641 C 760 1655 739 1668 720 1680 C 700 1692 679 1698 657 1698 C 630 1698 609 1689 595 1672 C 580 1655 573 1627 573 1587 L 395 1587 C 395 1645 400 1694 412 1735 C 424 1776 440 1810 462 1837 C 482 1863 508 1882 538 1894 C 568 1906 601 1913 639 1913 C 676 1913 708 1907 735 1895 C 762 1883 787 1870 809 1856 C 831 1841 851 1828 871 1816 C 890 1804 911 1798 934 1798 C 960 1798 981 1806 996 1823 C 1010 1839 1018 1868 1018 1908 L 1194 1908 C 1194 1850 1188 1800 1177 1759 C 1165 1718 1149 1685 1129 1659 C 1107 1633 1082 1613 1052 1601 C 1022 1589 988 1583 952 1583 Z" unicode="Õ" />
<glyph horiz-adv-x="1597" d="M 799 -29 C 707 -29 618 -13 532 19 C 446 51 370 99 304 165 C 237 229 184 311 144 410 C 104 508 84 624 84 758 C 84 890 104 1006 144 1105 C 184 1203 237 1285 304 1351 C 370 1415 446 1464 532 1496 C 618 1528 707 1544 799 1544 C 859 1544 919 1536 978 1522 C 1036 1508 1092 1486 1145 1458 C 1197 1429 1246 1393 1291 1350 C 1336 1307 1375 1257 1408 1199 C 1440 1140 1465 1074 1483 1001 C 1501 927 1511 846 1511 758 C 1511 669 1501 588 1483 515 C 1465 441 1440 376 1408 318 C 1375 259 1336 208 1291 165 C 1246 121 1197 85 1145 57 C 1092 28 1036 6 978 -7 C 919 -21 859 -29 799 -29 Z M 799 240 C 857 240 909 252 956 276 C 1003 300 1043 334 1077 380 C 1109 424 1135 479 1153 543 C 1171 607 1180 678 1180 758 C 1180 837 1171 908 1153 971 C 1135 1034 1109 1088 1077 1132 C 1043 1176 1003 1209 956 1233 C 909 1256 857 1268 799 1268 C 739 1268 686 1256 639 1233 C 592 1209 552 1176 520 1132 C 487 1088 462 1034 444 971 C 426 908 418 837 418 758 C 418 678 426 607 444 543 C 462 479 487 424 520 380 C 552 334 592 300 639 276 C 686 252 739 240 799 240 Z M 435 1894 L 714 1894 L 714 1591 L 435 1591 L 435 1894 Z M 869 1894 L 1148 1894 L 1148 1591 L 869 1591 L 869 1894 Z" unicode="Ö" />
<glyph horiz-adv-x="1323" d="M 336 145 L 145 338 L 467 662 L 145 981 L 336 1174 L 659 852 L 979 1174 L 1171 981 L 852 662 L 1176 342 L 985 150 L 662 471 L 336 145 Z" unicode="×" />
<glyph horiz-adv-x="1597" d="M 1364 1266 C 1410 1202 1446 1128 1472 1044 C 1498 960 1511 865 1511 758 C 1511 669 1501 588 1483 515 C 1465 441 1440 376 1408 318 C 1375 259 1336 208 1291 165 C 1246 121 1197 85 1145 57 C 1092 28 1036 6 978 -7 C 919 -21 859 -29 799 -29 C 722 -29 648 -18 576 3 C 504 25 437 58 375 104 L 231 -61 L 72 66 L 231 248 C 185 312 149 386 123 470 C 97 554 84 650 84 758 C 84 890 104 1006 144 1105 C 184 1203 237 1285 304 1351 C 370 1415 446 1464 532 1496 C 618 1528 707 1544 799 1544 C 875 1544 949 1533 1021 1511 C 1093 1489 1160 1456 1221 1411 L 1366 1577 L 1524 1450 L 1364 1266 Z M 559 328 C 591 297 627 274 667 259 C 707 243 751 236 799 236 C 858 236 911 248 959 272 C 1007 296 1048 331 1082 377 C 1115 422 1141 477 1159 541 C 1177 605 1186 678 1186 758 C 1186 808 1182 854 1175 898 C 1167 942 1157 982 1143 1020 L 559 328 Z M 1034 1186 C 1003 1214 968 1235 929 1250 C 889 1264 846 1272 799 1272 C 739 1272 686 1260 638 1236 C 590 1212 549 1179 516 1135 C 482 1090 455 1036 437 973 C 419 909 410 838 410 758 C 410 706 413 659 421 615 C 428 571 439 532 453 496 L 1034 1186 Z" unicode="Ø" />
<glyph horiz-adv-x="1485" d="M 743 -25 C 637 -25 546 -10 469 17 C 392 45 329 86 279 139 C 229 191 191 254 167 329 C 143 403 131 487 131 580 L 131 1516 L 465 1516 L 465 588 C 465 533 470 484 481 442 C 491 399 508 363 532 335 C 554 305 583 283 619 268 C 655 253 698 246 748 246 C 846 246 916 275 960 334 C 1004 392 1026 477 1026 588 L 1026 1516 L 1354 1516 L 1354 582 C 1354 488 1342 404 1318 329 C 1294 254 1257 191 1207 139 C 1157 86 1093 45 1016 17 C 939 -10 848 -25 743 -25 Z M 389 1958 L 718 1958 L 909 1603 L 692 1603 L 389 1958 Z" unicode="Ù" />
<glyph horiz-adv-x="1485" d="M 743 -25 C 637 -25 546 -10 469 17 C 392 45 329 86 279 139 C 229 191 191 254 167 329 C 143 403 131 487 131 580 L 131 1516 L 465 1516 L 465 588 C 465 533 470 484 481 442 C 491 399 508 363 532 335 C 554 305 583 283 619 268 C 655 253 698 246 748 246 C 846 246 916 275 960 334 C 1004 392 1026 477 1026 588 L 1026 1516 L 1354 1516 L 1354 582 C 1354 488 1342 404 1318 329 C 1294 254 1257 191 1207 139 C 1157 86 1093 45 1016 17 C 939 -10 848 -25 743 -25 Z M 743 1958 L 1074 1958 L 769 1603 L 552 1603 L 743 1958 Z" unicode="Ú" />
<glyph horiz-adv-x="1485" d="M 743 -25 C 637 -25 546 -10 469 17 C 392 45 329 86 279 139 C 229 191 191 254 167 329 C 143 403 131 487 131 580 L 131 1516 L 465 1516 L 465 588 C 465 533 470 484 481 442 C 491 399 508 363 532 335 C 554 305 583 283 619 268 C 655 253 698 246 748 246 C 846 246 916 275 960 334 C 1004 392 1026 477 1026 588 L 1026 1516 L 1354 1516 L 1354 582 C 1354 488 1342 404 1318 329 C 1294 254 1257 191 1207 139 C 1157 86 1093 45 1016 17 C 939 -10 848 -25 743 -25 Z M 631 1958 L 850 1958 L 1114 1607 L 928 1607 L 737 1759 L 553 1607 L 367 1607 L 631 1958 Z" unicode="Û" />
<glyph horiz-adv-x="1485" d="M 743 -25 C 637 -25 546 -10 469 17 C 392 45 329 86 279 139 C 229 191 191 254 167 329 C 143 403 131 487 131 580 L 131 1516 L 465 1516 L 465 588 C 465 533 470 484 481 442 C 491 399 508 363 532 335 C 554 305 583 283 619 268 C 655 253 698 246 748 246 C 846 246 916 275 960 334 C 1004 392 1026 477 1026 588 L 1026 1516 L 1354 1516 L 1354 582 C 1354 488 1342 404 1318 329 C 1294 254 1257 191 1207 139 C 1157 86 1093 45 1016 17 C 939 -10 848 -25 743 -25 Z M 380 1894 L 659 1894 L 659 1591 L 380 1591 L 380 1894 Z M 814 1894 L 1093 1894 L 1093 1591 L 814 1591 L 814 1894 Z" unicode="Ü" />
<glyph horiz-adv-x="1415" d="M 541 0 L 541 643 L 18 1516 L 362 1516 L 709 926 L 1057 1516 L 1397 1516 L 872 643 L 872 0 L 541 0 Z M 702 1964 L 1033 1964 L 728 1609 L 511 1609 L 702 1964 Z" unicode="Ý" />
<glyph horiz-adv-x="1389" d="M 156 0 L 156 1516 L 489 1516 L 489 1286 L 700 1286 C 754 1286 807 1283 859 1277 C 911 1271 960 1261 1006 1247 C 1052 1232 1094 1213 1134 1189 C 1173 1165 1207 1134 1235 1098 C 1263 1061 1285 1018 1301 968 C 1317 918 1325 859 1325 793 C 1325 725 1316 665 1299 615 C 1282 564 1259 520 1230 484 C 1200 446 1164 415 1124 391 C 1084 367 1040 348 994 334 C 947 319 898 309 848 303 C 797 297 746 295 696 295 L 489 295 L 489 0 L 156 0 Z M 489 559 L 702 559 C 754 559 798 564 834 574 C 870 584 899 598 922 618 C 944 637 961 660 971 688 C 981 716 987 748 987 784 C 987 819 982 851 972 879 C 962 907 945 930 923 950 C 900 968 870 983 834 993 C 798 1003 754 1008 702 1008 L 489 1008 L 489 559 Z" unicode="Þ" />
<glyph horiz-adv-x="1399" d="M 907 -23 C 855 -23 808 -18 766 -10 C 724 -1 688 10 656 24 C 624 37 596 52 574 69 C 552 85 534 101 520 117 L 664 291 C 690 268 721 249 757 235 C 792 220 832 213 877 213 C 903 213 927 217 949 227 C 970 237 988 250 1004 268 C 1018 284 1029 304 1037 328 C 1045 352 1049 378 1049 406 C 1049 458 1037 500 1014 533 C 991 565 960 591 920 611 C 880 629 833 643 779 651 C 725 659 667 664 606 666 L 606 885 C 663 885 710 891 748 902 C 785 913 815 928 837 948 C 858 966 873 989 882 1015 C 890 1041 895 1069 895 1100 C 895 1122 890 1144 882 1165 C 873 1186 860 1205 843 1221 C 825 1236 804 1248 778 1258 C 752 1267 722 1272 688 1272 C 611 1272 552 1251 512 1210 C 471 1169 451 1102 451 1008 L 451 0 L 125 0 L 125 999 C 125 1089 138 1167 165 1233 C 191 1298 229 1352 278 1394 C 326 1436 385 1466 453 1486 C 521 1506 596 1516 680 1516 C 759 1516 831 1507 895 1490 C 959 1472 1013 1447 1059 1415 C 1104 1381 1139 1341 1163 1293 C 1187 1245 1200 1190 1200 1128 C 1200 1084 1193 1045 1179 1011 C 1165 976 1146 946 1122 920 C 1098 894 1070 872 1039 854 C 1007 836 974 821 940 811 C 990 805 1039 793 1088 775 C 1137 757 1181 732 1221 701 C 1259 669 1291 629 1315 583 C 1339 537 1352 482 1352 420 C 1352 348 1341 284 1320 229 C 1298 173 1268 127 1230 90 C 1190 52 1143 24 1089 5 C 1034 -13 973 -23 907 -23 Z" unicode="ß" />
<glyph horiz-adv-x="1182" d="M 365 -16 C 323 -16 283 -9 245 4 C 207 17 174 36 146 62 C 117 86 94 117 78 154 C 61 190 53 232 53 279 C 53 341 66 397 94 446 C 121 495 163 538 220 574 C 276 609 347 638 434 660 C 521 682 625 699 745 709 L 745 735 C 745 775 733 806 711 830 C 689 854 651 866 598 866 C 528 866 463 853 404 828 C 344 802 290 770 240 731 L 100 920 C 127 944 158 968 193 992 C 227 1015 267 1036 312 1054 C 356 1072 405 1086 460 1097 C 515 1108 577 1114 645 1114 C 719 1114 783 1104 837 1086 C 890 1068 934 1041 968 1005 C 1002 969 1027 924 1043 871 C 1059 817 1067 756 1067 686 L 1067 266 C 1067 200 1069 146 1074 104 C 1078 62 1086 28 1098 0 L 770 0 C 762 22 756 47 752 73 C 747 99 745 128 745 160 C 695 103 639 59 578 29 C 516 0 445 -16 365 -16 Z M 496 231 C 553 231 602 239 642 257 C 682 275 717 298 745 326 L 745 528 C 615 514 520 491 462 459 C 404 427 375 386 375 336 C 375 300 386 274 408 257 C 430 239 460 231 496 231 Z M 246 1563 L 575 1563 L 766 1208 L 549 1208 L 246 1563 Z" unicode="à" />
<glyph horiz-adv-x="1182" d="M 365 -16 C 323 -16 283 -9 245 4 C 207 17 174 36 146 62 C 117 86 94 117 78 154 C 61 190 53 232 53 279 C 53 341 66 397 94 446 C 121 495 163 538 220 574 C 276 609 347 638 434 660 C 521 682 625 699 745 709 L 745 735 C 745 775 733 806 711 830 C 689 854 651 866 598 866 C 528 866 463 853 404 828 C 344 802 290 770 240 731 L 100 920 C 127 944 158 968 193 992 C 227 1015 267 1036 312 1054 C 356 1072 405 1086 460 1097 C 515 1108 577 1114 645 1114 C 719 1114 783 1104 837 1086 C 890 1068 934 1041 968 1005 C 1002 969 1027 924 1043 871 C 1059 817 1067 756 1067 686 L 1067 266 C 1067 200 1069 146 1074 104 C 1078 62 1086 28 1098 0 L 770 0 C 762 22 756 47 752 73 C 747 99 745 128 745 160 C 695 103 639 59 578 29 C 516 0 445 -16 365 -16 Z M 496 231 C 553 231 602 239 642 257 C 682 275 717 298 745 326 L 745 528 C 615 514 520 491 462 459 C 404 427 375 386 375 336 C 375 300 386 274 408 257 C 430 239 460 231 496 231 Z M 616 1563 L 947 1563 L 642 1208 L 425 1208 L 616 1563 Z" unicode="á" />
<glyph horiz-adv-x="1182" d="M 365 -16 C 323 -16 283 -9 245 4 C 207 17 174 36 146 62 C 117 86 94 117 78 154 C 61 190 53 232 53 279 C 53 341 66 397 94 446 C 121 495 163 538 220 574 C 276 609 347 638 434 660 C 521 682 625 699 745 709 L 745 735 C 745 775 733 806 711 830 C 689 854 651 866 598 866 C 528 866 463 853 404 828 C 344 802 290 770 240 731 L 100 920 C 127 944 158 968 193 992 C 227 1015 267 1036 312 1054 C 356 1072 405 1086 460 1097 C 515 1108 577 1114 645 1114 C 719 1114 783 1104 837 1086 C 890 1068 934 1041 968 1005 C 1002 969 1027 924 1043 871 C 1059 817 1067 756 1067 686 L 1067 266 C 1067 200 1069 146 1074 104 C 1078 62 1086 28 1098 0 L 770 0 C 762 22 756 47 752 73 C 747 99 745 128 745 160 C 695 103 639 59 578 29 C 516 0 445 -16 365 -16 Z M 496 231 C 553 231 602 239 642 257 C 682 275 717 298 745 326 L 745 528 C 615 514 520 491 462 459 C 404 427 375 386 375 336 C 375 300 386 274 408 257 C 430 239 460 231 496 231 Z M 483 1563 L 702 1563 L 966 1212 L 780 1212 L 589 1364 L 405 1212 L 219 1212 L 483 1563 Z" unicode="â" />
<glyph horiz-adv-x="1182" d="M 365 -16 C 323 -16 283 -9 245 4 C 207 17 174 36 146 62 C 117 86 94 117 78 154 C 61 190 53 232 53 279 C 53 341 66 397 94 446 C 121 495 163 538 220 574 C 276 609 347 638 434 660 C 521 682 625 699 745 709 L 745 735 C 745 775 733 806 711 830 C 689 854 651 866 598 866 C 528 866 463 853 404 828 C 344 802 290 770 240 731 L 100 920 C 127 944 158 968 193 992 C 227 1015 267 1036 312 1054 C 356 1072 405 1086 460 1097 C 515 1108 577 1114 645 1114 C 719 1114 783 1104 837 1086 C 890 1068 934 1041 968 1005 C 1002 969 1027 924 1043 871 C 1059 817 1067 756 1067 686 L 1067 266 C 1067 200 1069 146 1074 104 C 1078 62 1086 28 1098 0 L 770 0 C 762 22 756 47 752 73 C 747 99 745 128 745 160 C 695 103 639 59 578 29 C 516 0 445 -16 365 -16 Z M 496 231 C 553 231 602 239 642 257 C 682 275 717 298 745 326 L 745 528 C 615 514 520 491 462 459 C 404 427 375 386 375 336 C 375 300 386 274 408 257 C 430 239 460 231 496 231 Z M 749 1188 C 711 1188 679 1194 652 1206 C 625 1218 601 1231 579 1246 C 557 1260 536 1273 517 1285 C 497 1297 476 1303 454 1303 C 427 1303 406 1294 392 1277 C 377 1260 370 1232 370 1192 L 192 1192 C 192 1250 197 1299 209 1340 C 221 1381 237 1415 259 1442 C 279 1468 305 1487 335 1499 C 365 1511 398 1518 436 1518 C 473 1518 505 1512 532 1500 C 559 1488 584 1475 606 1461 C 628 1446 648 1433 668 1421 C 687 1409 708 1403 731 1403 C 757 1403 778 1411 793 1428 C 807 1444 815 1473 815 1513 L 991 1513 C 991 1455 985 1405 974 1364 C 962 1323 946 1290 926 1264 C 904 1238 879 1218 849 1206 C 819 1194 785 1188 749 1188 Z" unicode="ã" />
<glyph horiz-adv-x="1182" d="M 365 -16 C 323 -16 283 -9 245 4 C 207 17 174 36 146 62 C 117 86 94 117 78 154 C 61 190 53 232 53 279 C 53 341 66 397 94 446 C 121 495 163 538 220 574 C 276 609 347 638 434 660 C 521 682 625 699 745 709 L 745 735 C 745 775 733 806 711 830 C 689 854 651 866 598 866 C 528 866 463 853 404 828 C 344 802 290 770 240 731 L 100 920 C 127 944 158 968 193 992 C 227 1015 267 1036 312 1054 C 356 1072 405 1086 460 1097 C 515 1108 577 1114 645 1114 C 719 1114 783 1104 837 1086 C 890 1068 934 1041 968 1005 C 1002 969 1027 924 1043 871 C 1059 817 1067 756 1067 686 L 1067 266 C 1067 200 1069 146 1074 104 C 1078 62 1086 28 1098 0 L 770 0 C 762 22 756 47 752 73 C 747 99 745 128 745 160 C 695 103 639 59 578 29 C 516 0 445 -16 365 -16 Z M 496 231 C 553 231 602 239 642 257 C 682 275 717 298 745 326 L 745 528 C 615 514 520 491 462 459 C 404 427 375 386 375 336 C 375 300 386 274 408 257 C 430 239 460 231 496 231 Z M 235 1499 L 514 1499 L 514 1196 L 235 1196 L 235 1499 Z M 669 1499 L 948 1499 L 948 1196 L 669 1196 L 669 1499 Z" unicode="ä" />
<glyph horiz-adv-x="1182" d="M 365 -16 C 323 -16 283 -9 245 4 C 207 17 174 36 146 62 C 117 86 94 117 78 154 C 61 190 53 232 53 279 C 53 341 66 397 94 446 C 121 495 163 538 220 574 C 276 609 347 638 434 660 C 521 682 625 699 745 709 L 745 735 C 745 775 733 806 711 830 C 689 854 651 866 598 866 C 528 866 463 853 404 828 C 344 802 290 770 240 731 L 100 920 C 127 944 158 968 193 992 C 227 1015 267 1036 312 1054 C 356 1072 405 1086 460 1097 C 515 1108 577 1114 645 1114 C 719 1114 783 1104 837 1086 C 890 1068 934 1041 968 1005 C 1002 969 1027 924 1043 871 C 1059 817 1067 756 1067 686 L 1067 266 C 1067 200 1069 146 1074 104 C 1078 62 1086 28 1098 0 L 770 0 C 762 22 756 47 752 73 C 747 99 745 128 745 160 C 695 103 639 59 578 29 C 516 0 445 -16 365 -16 Z M 496 231 C 553 231 602 239 642 257 C 682 275 717 298 745 326 L 745 528 C 615 514 520 491 462 459 C 404 427 375 386 375 336 C 375 300 386 274 408 257 C 430 239 460 231 496 231 Z M 598 1190 C 566 1190 536 1195 509 1207 C 481 1218 458 1234 438 1254 C 418 1274 402 1297 391 1325 C 380 1353 375 1383 375 1415 C 375 1446 380 1475 391 1502 C 402 1529 418 1553 438 1573 C 458 1592 481 1607 509 1619 C 536 1630 566 1636 598 1636 C 630 1636 659 1630 687 1619 C 715 1607 739 1592 759 1573 C 779 1553 794 1529 806 1502 C 817 1475 823 1446 823 1415 C 823 1383 817 1353 806 1325 C 794 1297 779 1274 759 1254 C 739 1234 715 1218 687 1207 C 659 1195 630 1190 598 1190 Z M 598 1315 C 626 1315 648 1324 666 1342 C 683 1360 692 1385 692 1415 C 692 1443 683 1466 666 1484 C 648 1502 626 1511 598 1511 C 570 1511 547 1502 530 1484 C 512 1466 504 1443 504 1415 C 504 1385 512 1360 530 1342 C 547 1324 570 1315 598 1315 Z" unicode="å" />
<glyph horiz-adv-x="1835" d="M 362 -23 C 320 -23 281 -16 244 -4 C 206 7 174 26 146 50 C 117 74 94 103 78 139 C 61 174 53 215 53 262 C 53 324 66 381 94 432 C 121 483 163 528 220 566 C 276 603 347 634 434 658 C 521 682 625 699 745 709 L 745 735 C 745 775 733 806 711 830 C 689 854 650 866 596 866 C 526 866 461 853 402 828 C 343 802 289 770 240 731 L 100 920 C 127 944 158 968 192 992 C 226 1015 266 1036 311 1054 C 355 1072 404 1086 459 1097 C 514 1108 576 1114 645 1114 C 725 1114 791 1101 842 1075 C 893 1049 930 1017 954 977 C 972 997 994 1016 1018 1033 C 1042 1050 1069 1065 1097 1077 C 1124 1089 1152 1098 1182 1104 C 1211 1110 1240 1114 1268 1114 C 1307 1114 1347 1110 1387 1103 C 1427 1096 1465 1084 1503 1067 C 1539 1049 1574 1025 1606 995 C 1638 965 1667 928 1691 884 C 1715 838 1734 785 1748 723 C 1762 661 1769 588 1769 506 L 1769 457 L 1049 457 C 1052 411 1061 373 1075 342 C 1089 310 1107 285 1129 266 C 1151 246 1176 231 1206 222 C 1235 213 1267 209 1303 209 C 1335 209 1366 212 1396 219 C 1426 226 1456 236 1484 248 C 1511 260 1536 273 1560 289 C 1584 304 1605 320 1624 338 L 1751 141 C 1688 87 1617 46 1538 18 C 1459 -9 1372 -23 1278 -23 C 1230 -23 1185 -19 1141 -11 C 1097 -3 1055 10 1017 28 C 977 46 941 69 909 97 C 877 125 849 160 825 201 C 756 121 683 63 605 29 C 527 -5 446 -23 362 -23 Z M 1475 651 C 1467 728 1446 785 1411 822 C 1376 858 1328 877 1266 877 C 1240 877 1215 872 1192 864 C 1169 855 1148 842 1130 824 C 1111 806 1095 782 1082 754 C 1068 725 1059 691 1053 651 L 1475 651 Z M 496 225 C 548 225 595 234 639 253 C 683 271 726 302 768 344 C 762 361 758 380 755 401 C 751 421 749 443 748 467 C 746 478 745 489 744 501 C 743 512 743 523 745 535 C 674 527 615 517 568 504 C 520 491 482 476 454 459 C 425 441 405 422 393 400 C 381 378 375 354 375 330 C 375 294 386 268 408 251 C 430 233 460 225 496 225 Z" unicode="æ" />
<glyph horiz-adv-x="1151" d="M 608 -414 C 546 -414 489 -407 437 -393 C 385 -379 341 -361 305 -338 L 365 -240 C 395 -260 430 -276 469 -286 C 507 -296 544 -301 580 -301 C 612 -301 637 -295 655 -284 C 673 -272 682 -255 682 -231 C 682 -211 675 -197 663 -189 C 650 -180 634 -176 616 -176 C 600 -176 585 -179 572 -185 C 558 -191 544 -199 530 -211 L 449 -170 L 498 -10 C 442 -1 388 15 336 40 C 284 64 238 99 198 143 C 158 187 126 242 102 308 C 78 374 66 453 66 545 C 66 617 74 682 90 738 C 106 794 127 844 155 887 C 182 929 214 964 250 993 C 286 1021 325 1045 366 1063 C 406 1081 448 1094 491 1102 C 534 1110 576 1114 616 1114 C 690 1114 753 1104 806 1086 C 859 1068 904 1043 942 1013 C 978 982 1008 946 1032 906 C 1056 866 1076 824 1092 780 L 815 690 C 805 724 793 752 780 776 C 766 800 751 819 735 834 C 718 848 699 858 679 864 C 659 870 636 874 612 874 C 545 874 492 846 453 790 C 414 734 395 652 395 543 C 395 494 399 449 407 408 C 415 367 427 332 445 303 C 462 273 484 250 511 234 C 537 217 570 209 608 209 C 630 209 652 212 673 218 C 693 224 713 235 732 251 C 750 265 766 285 782 310 C 797 335 811 366 823 403 L 1096 309 C 1078 267 1057 228 1032 190 C 1006 152 975 119 939 90 C 901 60 858 35 808 16 C 758 -2 699 -13 633 -16 L 612 -94 C 626 -84 645 -77 667 -71 C 689 -65 715 -63 745 -63 C 764 -63 783 -66 801 -72 C 819 -78 835 -88 849 -100 C 862 -112 873 -127 881 -145 C 889 -163 893 -183 893 -207 C 893 -239 885 -267 870 -293 C 855 -319 835 -341 810 -359 C 784 -377 753 -390 719 -400 C 684 -409 647 -414 608 -414 Z" unicode="ç" />
<glyph horiz-adv-x="1182" d="M 623 -23 C 551 -23 482 -13 415 6 C 348 26 289 58 238 103 C 186 147 144 206 113 278 C 81 350 66 439 66 545 C 66 615 74 678 91 734 C 107 790 130 839 158 881 C 186 923 218 958 255 988 C 292 1018 331 1042 372 1061 C 412 1079 453 1093 495 1101 C 537 1109 576 1114 614 1114 C 651 1114 689 1110 729 1103 C 769 1096 807 1084 845 1067 C 881 1049 916 1025 949 995 C 982 965 1011 928 1036 884 C 1060 838 1080 785 1094 723 C 1108 661 1116 588 1116 506 L 1116 457 L 393 457 C 397 411 406 373 420 341 C 434 309 453 284 475 264 C 497 244 522 229 552 220 C 581 211 613 207 647 207 C 679 207 710 210 741 218 C 772 225 802 235 830 247 C 857 259 883 272 907 288 C 931 304 952 320 971 338 L 1098 141 C 1034 87 962 46 884 18 C 805 -9 718 -23 623 -23 Z M 821 651 C 813 728 791 785 757 823 C 722 860 674 879 612 879 C 586 879 562 874 539 866 C 515 857 494 843 476 825 C 456 806 440 782 426 754 C 412 725 403 691 397 651 L 821 651 Z M 235 1563 L 564 1563 L 755 1208 L 538 1208 L 235 1563 Z" unicode="è" />
<glyph horiz-adv-x="1182" d="M 623 -23 C 551 -23 482 -13 415 6 C 348 26 289 58 238 103 C 186 147 144 206 113 278 C 81 350 66 439 66 545 C 66 615 74 678 91 734 C 107 790 130 839 158 881 C 186 923 218 958 255 988 C 292 1018 331 1042 372 1061 C 412 1079 453 1093 495 1101 C 537 1109 576 1114 614 1114 C 651 1114 689 1110 729 1103 C 769 1096 807 1084 845 1067 C 881 1049 916 1025 949 995 C 982 965 1011 928 1036 884 C 1060 838 1080 785 1094 723 C 1108 661 1116 588 1116 506 L 1116 457 L 393 457 C 397 411 406 373 420 341 C 434 309 453 284 475 264 C 497 244 522 229 552 220 C 581 211 613 207 647 207 C 679 207 710 210 741 218 C 772 225 802 235 830 247 C 857 259 883 272 907 288 C 931 304 952 320 971 338 L 1098 141 C 1034 87 962 46 884 18 C 805 -9 718 -23 623 -23 Z M 821 651 C 813 728 791 785 757 823 C 722 860 674 879 612 879 C 586 879 562 874 539 866 C 515 857 494 843 476 825 C 456 806 440 782 426 754 C 412 725 403 691 397 651 L 821 651 Z M 616 1563 L 947 1563 L 642 1208 L 425 1208 L 616 1563 Z" unicode="é" />
<glyph horiz-adv-x="1182" d="M 623 -23 C 551 -23 482 -13 415 6 C 348 26 289 58 238 103 C 186 147 144 206 113 278 C 81 350 66 439 66 545 C 66 615 74 678 91 734 C 107 790 130 839 158 881 C 186 923 218 958 255 988 C 292 1018 331 1042 372 1061 C 412 1079 453 1093 495 1101 C 537 1109 576 1114 614 1114 C 651 1114 689 1110 729 1103 C 769 1096 807 1084 845 1067 C 881 1049 916 1025 949 995 C 982 965 1011 928 1036 884 C 1060 838 1080 785 1094 723 C 1108 661 1116 588 1116 506 L 1116 457 L 393 457 C 397 411 406 373 420 341 C 434 309 453 284 475 264 C 497 244 522 229 552 220 C 581 211 613 207 647 207 C 679 207 710 210 741 218 C 772 225 802 235 830 247 C 857 259 883 272 907 288 C 931 304 952 320 971 338 L 1098 141 C 1034 87 962 46 884 18 C 805 -9 718 -23 623 -23 Z M 821 651 C 813 728 791 785 757 823 C 722 860 674 879 612 879 C 586 879 562 874 539 866 C 515 857 494 843 476 825 C 456 806 440 782 426 754 C 412 725 403 691 397 651 L 821 651 Z M 483 1563 L 702 1563 L 966 1212 L 780 1212 L 589 1364 L 405 1212 L 219 1212 L 483 1563 Z" unicode="ê" />
<glyph horiz-adv-x="1182" d="M 623 -23 C 551 -23 482 -13 415 6 C 348 26 289 58 238 103 C 186 147 144 206 113 278 C 81 350 66 439 66 545 C 66 615 74 678 91 734 C 107 790 130 839 158 881 C 186 923 218 958 255 988 C 292 1018 331 1042 372 1061 C 412 1079 453 1093 495 1101 C 537 1109 576 1114 614 1114 C 651 1114 689 1110 729 1103 C 769 1096 807 1084 845 1067 C 881 1049 916 1025 949 995 C 982 965 1011 928 1036 884 C 1060 838 1080 785 1094 723 C 1108 661 1116 588 1116 506 L 1116 457 L 393 457 C 397 411 406 373 420 341 C 434 309 453 284 475 264 C 497 244 522 229 552 220 C 581 211 613 207 647 207 C 679 207 710 210 741 218 C 772 225 802 235 830 247 C 857 259 883 272 907 288 C 931 304 952 320 971 338 L 1098 141 C 1034 87 962 46 884 18 C 805 -9 718 -23 623 -23 Z M 821 651 C 813 728 791 785 757 823 C 722 860 674 879 612 879 C 586 879 562 874 539 866 C 515 857 494 843 476 825 C 456 806 440 782 426 754 C 412 725 403 691 397 651 L 821 651 Z M 231 1499 L 510 1499 L 510 1196 L 231 1196 L 231 1499 Z M 665 1499 L 944 1499 L 944 1196 L 665 1196 L 665 1499 Z" unicode="ë" />
<glyph horiz-adv-x="602" d="M 137 0 L 137 1092 L 465 1092 L 465 0 L 137 0 Z M -95 1563 L 234 1563 L 425 1208 L 208 1208 L -95 1563 Z" unicode="ì" />
<glyph horiz-adv-x="602" d="M 137 0 L 137 1092 L 465 1092 L 465 0 L 137 0 Z M 374 1563 L 705 1563 L 400 1208 L 183 1208 L 374 1563 Z" unicode="í" />
<glyph horiz-adv-x="602" d="M 137 0 L 137 1092 L 465 1092 L 465 0 L 137 0 Z M 193 1563 L 412 1563 L 676 1212 L 490 1212 L 299 1364 L 115 1212 L -71 1212 L 193 1563 Z" unicode="î" />
<glyph horiz-adv-x="602" d="M 137 0 L 137 1092 L 465 1092 L 465 0 L 137 0 Z M -59 1499 L 220 1499 L 220 1196 L -59 1196 L -59 1499 Z M 375 1499 L 654 1499 L 654 1196 L 375 1196 L 375 1499 Z" unicode="ï" />
<glyph horiz-adv-x="1245" d="M 623 -23 C 542 -23 468 -11 400 11 C 332 34 274 68 226 112 C 176 156 138 209 111 273 C 83 336 70 408 70 489 C 70 573 82 648 108 712 C 133 776 167 829 211 872 C 254 914 304 945 362 967 C 419 988 479 999 543 999 C 565 999 589 996 616 992 C 642 987 670 980 698 970 C 725 959 751 945 777 929 C 803 913 826 893 846 870 C 835 918 820 964 802 1008 C 784 1052 761 1095 733 1135 L 578 1059 L 483 1229 L 612 1290 C 592 1309 573 1328 553 1346 C 533 1364 512 1381 489 1399 L 645 1575 C 681 1551 715 1527 748 1501 C 781 1475 812 1448 842 1419 L 1008 1503 L 1100 1333 L 967 1264 C 1037 1162 1089 1051 1124 930 C 1158 809 1176 679 1176 539 C 1176 449 1162 370 1134 300 C 1106 230 1068 172 1020 124 C 970 76 912 39 844 14 C 776 -10 703 -23 623 -23 Z M 623 209 C 691 209 746 233 787 282 C 827 330 848 402 848 496 C 848 540 842 580 832 615 C 821 650 806 680 787 704 C 767 728 744 746 716 759 C 688 771 657 778 623 778 C 553 778 498 754 458 706 C 417 658 397 587 397 494 C 397 402 417 332 457 283 C 497 233 552 209 623 209 Z" unicode="ð" />
<glyph horiz-adv-x="1266" d="M 170 0 L 170 1092 L 500 1092 L 500 920 C 516 941 535 963 559 986 C 583 1009 610 1030 642 1050 C 672 1068 707 1084 746 1096 C 785 1108 829 1114 877 1114 C 923 1114 965 1108 1004 1096 C 1042 1084 1076 1065 1105 1040 C 1133 1014 1154 981 1170 941 C 1186 901 1194 853 1194 797 L 1194 0 L 866 0 L 866 692 C 866 742 856 779 836 804 C 816 829 783 842 737 842 C 693 842 651 831 613 811 C 574 791 536 765 500 733 L 500 0 L 170 0 Z M 792 1188 C 754 1188 722 1194 695 1206 C 668 1218 644 1231 622 1246 C 600 1260 579 1273 560 1285 C 540 1297 519 1303 497 1303 C 470 1303 449 1294 435 1277 C 420 1260 413 1232 413 1192 L 235 1192 C 235 1250 240 1299 252 1340 C 264 1381 280 1415 302 1442 C 322 1468 348 1487 378 1499 C 408 1511 441 1518 479 1518 C 516 1518 548 1512 575 1500 C 602 1488 627 1475 649 1461 C 671 1446 691 1433 711 1421 C 730 1409 751 1403 774 1403 C 800 1403 821 1411 836 1428 C 850 1444 858 1473 858 1513 L 1034 1513 C 1034 1455 1028 1405 1017 1364 C 1005 1323 989 1290 969 1264 C 947 1238 922 1218 892 1206 C 862 1194 828 1188 792 1188 Z" unicode="ñ" />
<glyph horiz-adv-x="1247" d="M 625 -23 C 581 -23 536 -18 491 -10 C 446 -2 403 11 362 30 C 320 48 282 72 246 102 C 210 131 178 167 152 209 C 125 251 104 299 89 355 C 73 411 66 474 66 545 C 66 616 73 680 89 736 C 104 792 125 841 152 883 C 178 925 209 960 245 990 C 281 1019 320 1043 362 1062 C 403 1080 446 1093 491 1101 C 535 1109 580 1114 625 1114 C 669 1114 713 1109 758 1101 C 802 1093 845 1080 887 1062 C 928 1043 966 1019 1002 990 C 1038 960 1069 925 1096 883 C 1122 841 1143 792 1159 736 C 1174 680 1182 616 1182 545 C 1182 474 1174 411 1159 355 C 1143 299 1122 251 1096 209 C 1069 167 1038 131 1002 102 C 966 72 928 48 887 30 C 845 11 802 -2 758 -10 C 713 -18 669 -23 625 -23 Z M 625 209 C 663 209 697 217 726 233 C 754 249 778 271 797 301 C 815 330 829 365 838 406 C 847 447 852 493 852 543 C 852 588 847 631 839 671 C 831 711 818 746 800 776 C 781 805 757 828 729 846 C 700 863 665 872 625 872 C 585 872 551 864 522 848 C 493 832 469 809 451 781 C 431 752 417 717 408 677 C 399 636 395 591 395 543 C 395 497 399 453 407 413 C 415 373 429 338 447 308 C 465 277 488 253 518 235 C 547 217 583 209 625 209 Z M 268 1563 L 597 1563 L 788 1208 L 571 1208 L 268 1563 Z" unicode="ò" />
<glyph horiz-adv-x="1247" d="M 625 -23 C 581 -23 536 -18 491 -10 C 446 -2 403 11 362 30 C 320 48 282 72 246 102 C 210 131 178 167 152 209 C 125 251 104 299 89 355 C 73 411 66 474 66 545 C 66 616 73 680 89 736 C 104 792 125 841 152 883 C 178 925 209 960 245 990 C 281 1019 320 1043 362 1062 C 403 1080 446 1093 491 1101 C 535 1109 580 1114 625 1114 C 669 1114 713 1109 758 1101 C 802 1093 845 1080 887 1062 C 928 1043 966 1019 1002 990 C 1038 960 1069 925 1096 883 C 1122 841 1143 792 1159 736 C 1174 680 1182 616 1182 545 C 1182 474 1174 411 1159 355 C 1143 299 1122 251 1096 209 C 1069 167 1038 131 1002 102 C 966 72 928 48 887 30 C 845 11 802 -2 758 -10 C 713 -18 669 -23 625 -23 Z M 625 209 C 663 209 697 217 726 233 C 754 249 778 271 797 301 C 815 330 829 365 838 406 C 847 447 852 493 852 543 C 852 588 847 631 839 671 C 831 711 818 746 800 776 C 781 805 757 828 729 846 C 700 863 665 872 625 872 C 585 872 551 864 522 848 C 493 832 469 809 451 781 C 431 752 417 717 408 677 C 399 636 395 591 395 543 C 395 497 399 453 407 413 C 415 373 429 338 447 308 C 465 277 488 253 518 235 C 547 217 583 209 625 209 Z M 647 1563 L 978 1563 L 673 1208 L 456 1208 L 647 1563 Z" unicode="ó" />
<glyph horiz-adv-x="1247" d="M 625 -23 C 581 -23 536 -18 491 -10 C 446 -2 403 11 362 30 C 320 48 282 72 246 102 C 210 131 178 167 152 209 C 125 251 104 299 89 355 C 73 411 66 474 66 545 C 66 616 73 680 89 736 C 104 792 125 841 152 883 C 178 925 209 960 245 990 C 281 1019 320 1043 362 1062 C 403 1080 446 1093 491 1101 C 535 1109 580 1114 625 1114 C 669 1114 713 1109 758 1101 C 802 1093 845 1080 887 1062 C 928 1043 966 1019 1002 990 C 1038 960 1069 925 1096 883 C 1122 841 1143 792 1159 736 C 1174 680 1182 616 1182 545 C 1182 474 1174 411 1159 355 C 1143 299 1122 251 1096 209 C 1069 167 1038 131 1002 102 C 966 72 928 48 887 30 C 845 11 802 -2 758 -10 C 713 -18 669 -23 625 -23 Z M 625 209 C 663 209 697 217 726 233 C 754 249 778 271 797 301 C 815 330 829 365 838 406 C 847 447 852 493 852 543 C 852 588 847 631 839 671 C 831 711 818 746 800 776 C 781 805 757 828 729 846 C 700 863 665 872 625 872 C 585 872 551 864 522 848 C 493 832 469 809 451 781 C 431 752 417 717 408 677 C 399 636 395 591 395 543 C 395 497 399 453 407 413 C 415 373 429 338 447 308 C 465 277 488 253 518 235 C 547 217 583 209 625 209 Z M 514 1563 L 733 1563 L 997 1212 L 811 1212 L 620 1364 L 436 1212 L 250 1212 L 514 1563 Z" unicode="ô" />
<glyph horiz-adv-x="1247" d="M 625 -23 C 581 -23 536 -18 491 -10 C 446 -2 403 11 362 30 C 320 48 282 72 246 102 C 210 131 178 167 152 209 C 125 251 104 299 89 355 C 73 411 66 474 66 545 C 66 616 73 680 89 736 C 104 792 125 841 152 883 C 178 925 209 960 245 990 C 281 1019 320 1043 362 1062 C 403 1080 446 1093 491 1101 C 535 1109 580 1114 625 1114 C 669 1114 713 1109 758 1101 C 802 1093 845 1080 887 1062 C 928 1043 966 1019 1002 990 C 1038 960 1069 925 1096 883 C 1122 841 1143 792 1159 736 C 1174 680 1182 616 1182 545 C 1182 474 1174 411 1159 355 C 1143 299 1122 251 1096 209 C 1069 167 1038 131 1002 102 C 966 72 928 48 887 30 C 845 11 802 -2 758 -10 C 713 -18 669 -23 625 -23 Z M 625 209 C 663 209 697 217 726 233 C 754 249 778 271 797 301 C 815 330 829 365 838 406 C 847 447 852 493 852 543 C 852 588 847 631 839 671 C 831 711 818 746 800 776 C 781 805 757 828 729 846 C 700 863 665 872 625 872 C 585 872 551 864 522 848 C 493 832 469 809 451 781 C 431 752 417 717 408 677 C 399 636 395 591 395 543 C 395 497 399 453 407 413 C 415 373 429 338 447 308 C 465 277 488 253 518 235 C 547 217 583 209 625 209 Z M 780 1188 C 742 1188 710 1194 683 1206 C 656 1218 632 1231 610 1246 C 588 1260 567 1273 548 1285 C 528 1297 507 1303 485 1303 C 458 1303 437 1294 423 1277 C 408 1260 401 1232 401 1192 L 223 1192 C 223 1250 228 1299 240 1340 C 252 1381 268 1415 290 1442 C 310 1468 336 1487 366 1499 C 396 1511 429 1518 467 1518 C 504 1518 536 1512 563 1500 C 590 1488 615 1475 637 1461 C 659 1446 679 1433 699 1421 C 718 1409 739 1403 762 1403 C 788 1403 809 1411 824 1428 C 838 1444 846 1473 846 1513 L 1022 1513 C 1022 1455 1016 1405 1005 1364 C 993 1323 977 1290 957 1264 C 935 1238 910 1218 880 1206 C 850 1194 816 1188 780 1188 Z" unicode="õ" />
<glyph horiz-adv-x="1247" d="M 625 -23 C 581 -23 536 -18 491 -10 C 446 -2 403 11 362 30 C 320 48 282 72 246 102 C 210 131 178 167 152 209 C 125 251 104 299 89 355 C 73 411 66 474 66 545 C 66 616 73 680 89 736 C 104 792 125 841 152 883 C 178 925 209 960 245 990 C 281 1019 320 1043 362 1062 C 403 1080 446 1093 491 1101 C 535 1109 580 1114 625 1114 C 669 1114 713 1109 758 1101 C 802 1093 845 1080 887 1062 C 928 1043 966 1019 1002 990 C 1038 960 1069 925 1096 883 C 1122 841 1143 792 1159 736 C 1174 680 1182 616 1182 545 C 1182 474 1174 411 1159 355 C 1143 299 1122 251 1096 209 C 1069 167 1038 131 1002 102 C 966 72 928 48 887 30 C 845 11 802 -2 758 -10 C 713 -18 669 -23 625 -23 Z M 625 209 C 663 209 697 217 726 233 C 754 249 778 271 797 301 C 815 330 829 365 838 406 C 847 447 852 493 852 543 C 852 588 847 631 839 671 C 831 711 818 746 800 776 C 781 805 757 828 729 846 C 700 863 665 872 625 872 C 585 872 551 864 522 848 C 493 832 469 809 451 781 C 431 752 417 717 408 677 C 399 636 395 591 395 543 C 395 497 399 453 407 413 C 415 373 429 338 447 308 C 465 277 488 253 518 235 C 547 217 583 209 625 209 Z M 261 1499 L 540 1499 L 540 1196 L 261 1196 L 261 1499 Z M 695 1499 L 974 1499 L 974 1196 L 695 1196 L 695 1499 Z" unicode="ö" />
<glyph horiz-adv-x="1323" d="M 137 588 L 137 848 L 1186 848 L 1186 588 L 137 588 Z M 522 197 L 522 440 L 799 440 L 799 197 L 522 197 Z M 522 991 L 522 1235 L 799 1235 L 799 991 L 522 991 Z" unicode="÷" />
<glyph horiz-adv-x="1247" d="M 1079 907 C 1111 863 1136 812 1154 752 C 1172 692 1182 623 1182 545 C 1182 474 1174 411 1159 355 C 1143 299 1122 251 1096 209 C 1069 167 1038 131 1002 102 C 966 72 928 48 887 30 C 845 11 802 -2 758 -10 C 713 -18 669 -23 625 -23 C 571 -23 517 -17 464 -5 C 410 7 359 27 311 55 L 180 -86 L 51 39 L 176 174 C 142 218 115 270 95 331 C 75 392 66 463 66 545 C 66 616 73 680 89 736 C 104 792 125 841 152 883 C 178 925 209 960 245 990 C 281 1019 320 1043 362 1062 C 403 1080 446 1093 491 1101 C 535 1109 580 1114 625 1114 C 680 1114 735 1107 791 1094 C 846 1081 898 1059 948 1028 L 1067 1159 L 1196 1036 L 1079 907 Z M 768 825 C 750 843 729 856 705 865 C 681 874 655 879 625 879 C 584 879 549 870 519 854 C 489 838 465 815 446 786 C 426 756 411 720 401 679 C 391 637 387 592 387 543 C 387 519 388 496 390 474 C 392 452 395 430 401 410 L 768 825 Z M 483 254 C 501 238 522 226 545 218 C 568 209 595 205 625 205 C 665 205 699 213 729 229 C 758 245 782 269 802 299 C 821 328 835 363 845 405 C 855 447 860 493 860 543 C 860 564 859 585 857 605 C 855 625 853 645 850 664 L 483 254 Z" unicode="ø" />
<glyph horiz-adv-x="1266" d="M 434 -23 C 387 -23 344 -17 305 -5 C 266 7 233 26 205 52 C 176 77 154 110 138 150 C 122 190 115 239 115 295 L 115 1092 L 444 1092 L 444 391 C 444 341 454 304 474 278 C 494 252 527 240 573 240 C 617 240 659 250 697 271 C 735 291 773 318 811 350 L 811 1092 L 1141 1092 L 1141 0 L 811 0 L 811 170 C 794 148 774 126 751 104 C 727 81 700 60 670 42 C 638 23 603 7 564 -4 C 525 -16 482 -23 434 -23 Z M 278 1563 L 607 1563 L 798 1208 L 581 1208 L 278 1563 Z" unicode="ù" />
<glyph horiz-adv-x="1266" d="M 434 -23 C 387 -23 344 -17 305 -5 C 266 7 233 26 205 52 C 176 77 154 110 138 150 C 122 190 115 239 115 295 L 115 1092 L 444 1092 L 444 391 C 444 341 454 304 474 278 C 494 252 527 240 573 240 C 617 240 659 250 697 271 C 735 291 773 318 811 350 L 811 1092 L 1141 1092 L 1141 0 L 811 0 L 811 170 C 794 148 774 126 751 104 C 727 81 700 60 670 42 C 638 23 603 7 564 -4 C 525 -16 482 -23 434 -23 Z M 639 1563 L 970 1563 L 665 1208 L 448 1208 L 639 1563 Z" unicode="ú" />
<glyph horiz-adv-x="1266" d="M 434 -23 C 387 -23 344 -17 305 -5 C 266 7 233 26 205 52 C 176 77 154 110 138 150 C 122 190 115 239 115 295 L 115 1092 L 444 1092 L 444 391 C 444 341 454 304 474 278 C 494 252 527 240 573 240 C 617 240 659 250 697 271 C 735 291 773 318 811 350 L 811 1092 L 1141 1092 L 1141 0 L 811 0 L 811 170 C 794 148 774 126 751 104 C 727 81 700 60 670 42 C 638 23 603 7 564 -4 C 525 -16 482 -23 434 -23 Z M 516 1563 L 735 1563 L 999 1212 L 813 1212 L 622 1364 L 438 1212 L 252 1212 L 516 1563 Z" unicode="û" />
<glyph horiz-adv-x="1266" d="M 434 -23 C 387 -23 344 -17 305 -5 C 266 7 233 26 205 52 C 176 77 154 110 138 150 C 122 190 115 239 115 295 L 115 1092 L 444 1092 L 444 391 C 444 341 454 304 474 278 C 494 252 527 240 573 240 C 617 240 659 250 697 271 C 735 291 773 318 811 350 L 811 1092 L 1141 1092 L 1141 0 L 811 0 L 811 170 C 794 148 774 126 751 104 C 727 81 700 60 670 42 C 638 23 603 7 564 -4 C 525 -16 482 -23 434 -23 Z M 265 1499 L 544 1499 L 544 1196 L 265 1196 L 265 1499 Z M 699 1499 L 978 1499 L 978 1196 L 699 1196 L 699 1499 Z" unicode="ü" />
<glyph horiz-adv-x="1147" d="M 297 -418 C 256 -418 220 -416 188 -414 C 156 -411 127 -408 102 -405 C 76 -401 54 -396 35 -392 C 16 -387 0 -383 -14 -379 L 55 -125 C 63 -127 73 -129 87 -133 C 100 -136 116 -139 134 -143 C 151 -145 170 -148 192 -150 C 214 -152 237 -154 262 -154 C 298 -154 326 -146 348 -132 C 370 -117 387 -93 401 -59 L 422 -6 L 4 1092 L 344 1092 L 584 383 L 588 383 L 829 1092 L 1149 1092 L 690 -115 C 671 -162 650 -204 628 -242 C 605 -279 578 -311 548 -337 C 517 -363 481 -383 440 -397 C 399 -411 351 -418 297 -418 Z M 569 1563 L 900 1563 L 595 1208 L 378 1208 L 569 1563 Z" unicode="ý" />
<glyph horiz-adv-x="1278" d="M 125 -410 L 125 1516 L 455 1516 L 455 926 C 473 950 493 974 515 997 C 537 1019 561 1039 589 1057 C 616 1074 646 1088 680 1098 C 713 1108 750 1114 791 1114 C 853 1114 909 1102 961 1078 C 1012 1054 1056 1019 1094 972 C 1130 924 1159 865 1179 794 C 1199 723 1210 641 1210 547 C 1210 453 1199 370 1179 300 C 1158 229 1129 170 1092 124 C 1054 77 1010 42 958 19 C 906 -4 848 -16 786 -16 C 712 -16 648 -3 596 22 C 543 47 496 83 455 129 L 455 -410 L 125 -410 Z M 674 231 C 742 231 794 258 829 313 C 863 367 881 445 881 545 C 881 590 876 631 868 668 C 860 704 847 736 831 762 C 813 787 791 807 765 821 C 738 835 706 842 670 842 C 648 842 628 839 608 833 C 588 827 570 819 552 810 C 533 800 516 788 500 775 C 484 762 469 749 455 735 L 455 332 C 490 298 524 272 558 256 C 591 239 630 231 674 231 Z" unicode="þ" />
<glyph horiz-adv-x="1147" d="M 297 -418 C 256 -418 220 -416 188 -414 C 156 -411 127 -408 102 -405 C 76 -401 54 -396 35 -392 C 16 -387 0 -383 -14 -379 L 55 -125 C 63 -127 73 -129 87 -133 C 100 -136 116 -139 134 -143 C 151 -145 170 -148 192 -150 C 214 -152 237 -154 262 -154 C 298 -154 326 -146 348 -132 C 370 -117 387 -93 401 -59 L 422 -6 L 4 1092 L 344 1092 L 584 383 L 588 383 L 829 1092 L 1149 1092 L 690 -115 C 671 -162 650 -204 628 -242 C 605 -279 578 -311 548 -337 C 517 -363 481 -383 440 -397 C 399 -411 351 -418 297 -418 Z M 225 1499 L 504 1499 L 504 1196 L 225 1196 L 225 1499 Z M 659 1499 L 938 1499 L 938 1196 L 659 1196 L 659 1499 Z" unicode="ÿ" />
<glyph horiz-adv-x="1460" d="M 35 0 L 571 1522 L 889 1522 L 1425 0 L 1087 0 L 975 338 L 459 338 L 342 0 L 35 0 Z M 541 580 L 897 580 L 723 1096 L 719 1096 L 541 580 Z M 389 1825 L 1069 1825 L 1069 1591 L 389 1591 L 389 1825 Z" unicode="Ā" />
<glyph horiz-adv-x="1182" d="M 365 -16 C 323 -16 283 -9 245 4 C 207 17 174 36 146 62 C 117 86 94 117 78 154 C 61 190 53 232 53 279 C 53 341 66 397 94 446 C 121 495 163 538 220 574 C 276 609 347 638 434 660 C 521 682 625 699 745 709 L 745 735 C 745 775 733 806 711 830 C 689 854 651 866 598 866 C 528 866 463 853 404 828 C 344 802 290 770 240 731 L 100 920 C 127 944 158 968 193 992 C 227 1015 267 1036 312 1054 C 356 1072 405 1086 460 1097 C 515 1108 577 1114 645 1114 C 719 1114 783 1104 837 1086 C 890 1068 934 1041 968 1005 C 1002 969 1027 924 1043 871 C 1059 817 1067 756 1067 686 L 1067 266 C 1067 200 1069 146 1074 104 C 1078 62 1086 28 1098 0 L 770 0 C 762 22 756 47 752 73 C 747 99 745 128 745 160 C 695 103 639 59 578 29 C 516 0 445 -16 365 -16 Z M 496 231 C 553 231 602 239 642 257 C 682 275 717 298 745 326 L 745 528 C 615 514 520 491 462 459 C 404 427 375 386 375 336 C 375 300 386 274 408 257 C 430 239 460 231 496 231 Z M 249 1430 L 929 1430 L 929 1196 L 249 1196 L 249 1430 Z" unicode="ā" />
<glyph horiz-adv-x="1460" d="M 35 0 L 571 1522 L 889 1522 L 1425 0 L 1087 0 L 975 338 L 459 338 L 342 0 L 35 0 Z M 541 580 L 897 580 L 723 1096 L 719 1096 L 541 580 Z M 729 1581 C 671 1581 620 1590 576 1610 C 532 1630 495 1657 465 1692 C 435 1726 411 1766 395 1812 C 379 1858 369 1907 367 1960 L 543 1960 C 547 1922 556 1892 569 1870 C 581 1848 596 1831 614 1819 C 630 1806 649 1798 669 1794 C 689 1790 709 1788 729 1788 C 749 1788 769 1790 789 1794 C 809 1798 828 1806 846 1819 C 862 1831 877 1848 889 1870 C 901 1892 910 1922 915 1960 L 1091 1960 C 1088 1907 1079 1858 1063 1812 C 1047 1766 1024 1726 994 1692 C 964 1657 926 1630 882 1610 C 838 1590 787 1581 729 1581 Z" unicode="Ă" />
<glyph horiz-adv-x="1182" d="M 365 -16 C 323 -16 283 -9 245 4 C 207 17 174 36 146 62 C 117 86 94 117 78 154 C 61 190 53 232 53 279 C 53 341 66 397 94 446 C 121 495 163 538 220 574 C 276 609 347 638 434 660 C 521 682 625 699 745 709 L 745 735 C 745 775 733 806 711 830 C 689 854 651 866 598 866 C 528 866 463 853 404 828 C 344 802 290 770 240 731 L 100 920 C 127 944 158 968 193 992 C 227 1015 267 1036 312 1054 C 356 1072 405 1086 460 1097 C 515 1108 577 1114 645 1114 C 719 1114 783 1104 837 1086 C 890 1068 934 1041 968 1005 C 1002 969 1027 924 1043 871 C 1059 817 1067 756 1067 686 L 1067 266 C 1067 200 1069 146 1074 104 C 1078 62 1086 28 1098 0 L 770 0 C 762 22 756 47 752 73 C 747 99 745 128 745 160 C 695 103 639 59 578 29 C 516 0 445 -16 365 -16 Z M 496 231 C 553 231 602 239 642 257 C 682 275 717 298 745 326 L 745 528 C 615 514 520 491 462 459 C 404 427 375 386 375 336 C 375 300 386 274 408 257 C 430 239 460 231 496 231 Z M 589 1186 C 531 1186 480 1195 436 1215 C 392 1235 355 1262 325 1297 C 295 1331 271 1371 255 1417 C 239 1463 229 1512 227 1565 L 403 1565 C 407 1527 416 1497 429 1475 C 441 1453 456 1436 474 1424 C 490 1411 509 1403 529 1399 C 549 1395 569 1393 589 1393 C 609 1393 629 1395 649 1399 C 669 1403 688 1411 706 1424 C 722 1436 737 1453 749 1475 C 761 1497 770 1527 775 1565 L 951 1565 C 948 1512 939 1463 923 1417 C 907 1371 884 1331 854 1297 C 824 1262 786 1235 742 1215 C 698 1195 647 1186 589 1186 Z" unicode="ă" />
<glyph horiz-adv-x="1460" d="M 35 0 L 571 1522 L 889 1522 L 1425 0 L 1087 0 L 975 338 L 459 338 L 342 0 L 35 0 Z M 541 580 L 897 580 L 723 1096 L 719 1096 L 541 580 Z M 1149 -383 C 1073 -383 1016 -369 977 -341 C 938 -313 919 -275 919 -225 C 919 -203 923 -181 933 -159 C 942 -137 955 -116 973 -96 C 989 -75 1009 -55 1032 -37 C 1055 -18 1080 -1 1108 14 L 1280 14 C 1227 -20 1190 -52 1170 -83 C 1149 -114 1139 -144 1139 -172 C 1139 -182 1140 -191 1143 -201 C 1145 -211 1150 -220 1158 -228 C 1164 -235 1174 -241 1186 -245 C 1198 -249 1213 -252 1233 -252 C 1253 -252 1271 -250 1287 -247 C 1303 -243 1318 -239 1332 -235 C 1345 -229 1357 -224 1369 -218 C 1381 -212 1392 -206 1403 -201 L 1466 -301 C 1424 -325 1377 -345 1325 -360 C 1273 -375 1215 -383 1149 -383 Z" unicode="Ą" />
<glyph horiz-adv-x="1182" d="M 365 -16 C 323 -16 283 -9 245 4 C 207 17 174 36 146 62 C 117 86 94 117 78 154 C 61 190 53 232 53 279 C 53 341 66 397 94 446 C 121 495 163 538 220 574 C 276 609 347 638 434 660 C 521 682 625 699 745 709 L 745 735 C 745 775 733 806 711 830 C 689 854 651 866 598 866 C 528 866 463 853 404 828 C 344 802 290 770 240 731 L 100 920 C 127 944 158 968 193 992 C 227 1015 267 1036 312 1054 C 356 1072 405 1086 460 1097 C 515 1108 577 1114 645 1114 C 719 1114 783 1104 837 1086 C 890 1068 934 1041 968 1005 C 1002 969 1027 924 1043 871 C 1059 817 1067 756 1067 686 L 1067 266 C 1067 200 1069 146 1074 104 C 1078 62 1086 28 1098 0 L 770 0 C 762 22 756 47 752 73 C 747 99 745 128 745 160 C 695 103 639 59 578 29 C 516 0 445 -16 365 -16 Z M 496 231 C 553 231 602 239 642 257 C 682 275 717 298 745 326 L 745 528 C 615 514 520 491 462 459 C 404 427 375 386 375 336 C 375 300 386 274 408 257 C 430 239 460 231 496 231 Z M 829 -383 C 753 -383 696 -369 657 -341 C 618 -313 599 -275 599 -225 C 599 -203 603 -181 613 -159 C 622 -137 635 -116 653 -96 C 669 -75 689 -55 712 -37 C 735 -18 760 -1 788 14 L 960 14 C 907 -20 870 -52 850 -83 C 829 -114 819 -144 819 -172 C 819 -182 820 -191 823 -201 C 825 -211 830 -220 838 -228 C 844 -235 854 -241 866 -245 C 878 -249 893 -252 913 -252 C 933 -252 951 -250 967 -247 C 983 -243 998 -239 1012 -235 C 1025 -229 1037 -224 1049 -218 C 1061 -212 1072 -206 1083 -201 L 1146 -301 C 1104 -325 1057 -345 1005 -360 C 953 -375 895 -383 829 -383 Z" unicode="ą" />
<glyph horiz-adv-x="1493" d="M 772 -29 C 673 -29 582 -13 498 19 C 414 51 341 99 280 165 C 218 230 170 312 136 411 C 101 509 84 626 84 760 C 84 891 101 1006 137 1104 C 173 1202 222 1284 284 1350 C 346 1414 418 1463 502 1495 C 586 1527 676 1544 772 1544 C 868 1544 950 1531 1020 1507 C 1090 1483 1149 1450 1198 1408 C 1246 1365 1286 1314 1316 1256 C 1346 1198 1370 1135 1386 1067 L 1071 975 C 1059 1018 1044 1058 1028 1094 C 1012 1130 992 1161 969 1187 C 945 1212 917 1232 885 1246 C 853 1260 814 1268 770 1268 C 712 1268 662 1256 618 1232 C 574 1208 538 1175 509 1131 C 479 1087 456 1033 441 971 C 425 908 418 838 418 760 C 418 680 425 607 441 543 C 457 479 480 424 510 380 C 540 334 577 300 621 276 C 665 252 716 240 774 240 C 818 240 857 246 891 260 C 925 274 955 294 981 322 C 1006 348 1028 381 1046 421 C 1064 461 1080 507 1094 559 L 1407 489 C 1388 413 1362 343 1330 279 C 1297 215 1255 161 1205 116 C 1153 70 1092 34 1021 9 C 950 -16 867 -29 772 -29 Z M 778 1958 L 1109 1958 L 804 1603 L 587 1603 L 778 1958 Z" unicode="Ć" />
<glyph horiz-adv-x="1137" d="M 602 -23 C 559 -23 516 -18 473 -10 C 430 -2 389 11 350 30 C 310 48 272 72 238 102 C 203 131 173 167 148 209 C 122 251 102 299 88 355 C 73 411 66 474 66 545 C 66 617 74 682 90 738 C 106 794 127 844 155 887 C 182 929 214 964 250 993 C 286 1021 325 1045 366 1063 C 406 1081 448 1094 491 1102 C 534 1110 576 1114 616 1114 C 690 1114 753 1104 806 1086 C 859 1068 904 1043 942 1013 C 978 982 1008 946 1032 906 C 1056 866 1076 824 1092 780 L 815 688 C 804 722 792 751 779 775 C 765 799 750 818 734 833 C 717 847 698 857 678 863 C 658 869 636 872 612 872 C 545 872 492 844 453 789 C 414 734 395 652 395 543 C 395 494 399 449 407 408 C 415 367 427 332 445 303 C 462 273 484 250 511 234 C 537 217 570 209 608 209 C 630 209 651 212 672 218 C 692 224 712 235 731 251 C 749 265 766 285 782 310 C 797 335 811 366 823 403 L 1096 309 C 1078 266 1056 225 1030 185 C 1003 145 970 110 931 80 C 891 48 845 23 791 5 C 737 -13 674 -23 602 -23 Z M 623 1563 L 954 1563 L 649 1208 L 432 1208 L 623 1563 Z" unicode="ć" />
<glyph horiz-adv-x="1493" d="M 772 -29 C 673 -29 582 -13 498 19 C 414 51 341 99 280 165 C 218 230 170 312 136 411 C 101 509 84 626 84 760 C 84 891 101 1006 137 1104 C 173 1202 222 1284 284 1350 C 346 1414 418 1463 502 1495 C 586 1527 676 1544 772 1544 C 868 1544 950 1531 1020 1507 C 1090 1483 1149 1450 1198 1408 C 1246 1365 1286 1314 1316 1256 C 1346 1198 1370 1135 1386 1067 L 1071 975 C 1059 1018 1044 1058 1028 1094 C 1012 1130 992 1161 969 1187 C 945 1212 917 1232 885 1246 C 853 1260 814 1268 770 1268 C 712 1268 662 1256 618 1232 C 574 1208 538 1175 509 1131 C 479 1087 456 1033 441 971 C 425 908 418 838 418 760 C 418 680 425 607 441 543 C 457 479 480 424 510 380 C 540 334 577 300 621 276 C 665 252 716 240 774 240 C 818 240 857 246 891 260 C 925 274 955 294 981 322 C 1006 348 1028 381 1046 421 C 1064 461 1080 507 1094 559 L 1407 489 C 1388 413 1362 343 1330 279 C 1297 215 1255 161 1205 116 C 1153 70 1092 34 1021 9 C 950 -16 867 -29 772 -29 Z M 655 1958 L 874 1958 L 1138 1607 L 952 1607 L 761 1759 L 577 1607 L 391 1607 L 655 1958 Z" unicode="Ĉ" />
<glyph horiz-adv-x="1137" d="M 602 -23 C 559 -23 516 -18 473 -10 C 430 -2 389 11 350 30 C 310 48 272 72 238 102 C 203 131 173 167 148 209 C 122 251 102 299 88 355 C 73 411 66 474 66 545 C 66 617 74 682 90 738 C 106 794 127 844 155 887 C 182 929 214 964 250 993 C 286 1021 325 1045 366 1063 C 406 1081 448 1094 491 1102 C 534 1110 576 1114 616 1114 C 690 1114 753 1104 806 1086 C 859 1068 904 1043 942 1013 C 978 982 1008 946 1032 906 C 1056 866 1076 824 1092 780 L 815 688 C 804 722 792 751 779 775 C 765 799 750 818 734 833 C 717 847 698 857 678 863 C 658 869 636 872 612 872 C 545 872 492 844 453 789 C 414 734 395 652 395 543 C 395 494 399 449 407 408 C 415 367 427 332 445 303 C 462 273 484 250 511 234 C 537 217 570 209 608 209 C 630 209 651 212 672 218 C 692 224 712 235 731 251 C 749 265 766 285 782 310 C 797 335 811 366 823 403 L 1096 309 C 1078 266 1056 225 1030 185 C 1003 145 970 110 931 80 C 891 48 845 23 791 5 C 737 -13 674 -23 602 -23 Z M 481 1563 L 700 1563 L 964 1212 L 778 1212 L 587 1364 L 403 1212 L 217 1212 L 481 1563 Z" unicode="ĉ" />
<glyph horiz-adv-x="1493" d="M 772 -29 C 673 -29 582 -13 498 19 C 414 51 341 99 280 165 C 218 230 170 312 136 411 C 101 509 84 626 84 760 C 84 891 101 1006 137 1104 C 173 1202 222 1284 284 1350 C 346 1414 418 1463 502 1495 C 586 1527 676 1544 772 1544 C 868 1544 950 1531 1020 1507 C 1090 1483 1149 1450 1198 1408 C 1246 1365 1286 1314 1316 1256 C 1346 1198 1370 1135 1386 1067 L 1071 975 C 1059 1018 1044 1058 1028 1094 C 1012 1130 992 1161 969 1187 C 945 1212 917 1232 885 1246 C 853 1260 814 1268 770 1268 C 712 1268 662 1256 618 1232 C 574 1208 538 1175 509 1131 C 479 1087 456 1033 441 971 C 425 908 418 838 418 760 C 418 680 425 607 441 543 C 457 479 480 424 510 380 C 540 334 577 300 621 276 C 665 252 716 240 774 240 C 818 240 857 246 891 260 C 925 274 955 294 981 322 C 1006 348 1028 381 1046 421 C 1064 461 1080 507 1094 559 L 1407 489 C 1388 413 1362 343 1330 279 C 1297 215 1255 161 1205 116 C 1153 70 1092 34 1021 9 C 950 -16 867 -29 772 -29 Z M 591 1896 L 929 1896 L 929 1628 L 591 1628 L 591 1896 Z" unicode="Ċ" />
<glyph horiz-adv-x="1137" d="M 602 -23 C 559 -23 516 -18 473 -10 C 430 -2 389 11 350 30 C 310 48 272 72 238 102 C 203 131 173 167 148 209 C 122 251 102 299 88 355 C 73 411 66 474 66 545 C 66 617 74 682 90 738 C 106 794 127 844 155 887 C 182 929 214 964 250 993 C 286 1021 325 1045 366 1063 C 406 1081 448 1094 491 1102 C 534 1110 576 1114 616 1114 C 690 1114 753 1104 806 1086 C 859 1068 904 1043 942 1013 C 978 982 1008 946 1032 906 C 1056 866 1076 824 1092 780 L 815 688 C 804 722 792 751 779 775 C 765 799 750 818 734 833 C 717 847 698 857 678 863 C 658 869 636 872 612 872 C 545 872 492 844 453 789 C 414 734 395 652 395 543 C 395 494 399 449 407 408 C 415 367 427 332 445 303 C 462 273 484 250 511 234 C 537 217 570 209 608 209 C 630 209 651 212 672 218 C 692 224 712 235 731 251 C 749 265 766 285 782 310 C 797 335 811 366 823 403 L 1096 309 C 1078 266 1056 225 1030 185 C 1003 145 970 110 931 80 C 891 48 845 23 791 5 C 737 -13 674 -23 602 -23 Z M 430 1501 L 768 1501 L 768 1233 L 430 1233 L 430 1501 Z" unicode="ċ" />
<glyph horiz-adv-x="1493" d="M 772 -29 C 673 -29 582 -13 498 19 C 414 51 341 99 280 165 C 218 230 170 312 136 411 C 101 509 84 626 84 760 C 84 891 101 1006 137 1104 C 173 1202 222 1284 284 1350 C 346 1414 418 1463 502 1495 C 586 1527 676 1544 772 1544 C 868 1544 950 1531 1020 1507 C 1090 1483 1149 1450 1198 1408 C 1246 1365 1286 1314 1316 1256 C 1346 1198 1370 1135 1386 1067 L 1071 975 C 1059 1018 1044 1058 1028 1094 C 1012 1130 992 1161 969 1187 C 945 1212 917 1232 885 1246 C 853 1260 814 1268 770 1268 C 712 1268 662 1256 618 1232 C 574 1208 538 1175 509 1131 C 479 1087 456 1033 441 971 C 425 908 418 838 418 760 C 418 680 425 607 441 543 C 457 479 480 424 510 380 C 540 334 577 300 621 276 C 665 252 716 240 774 240 C 818 240 857 246 891 260 C 925 274 955 294 981 322 C 1006 348 1028 381 1046 421 C 1064 461 1080 507 1094 559 L 1407 489 C 1388 413 1362 343 1330 279 C 1297 215 1255 161 1205 116 C 1153 70 1092 34 1021 9 C 950 -16 867 -29 772 -29 Z M 371 1960 L 557 1960 L 743 1808 L 932 1960 L 1118 1960 L 854 1609 L 635 1609 L 371 1960 Z" unicode="Č" />
<glyph horiz-adv-x="1137" d="M 602 -23 C 559 -23 516 -18 473 -10 C 430 -2 389 11 350 30 C 310 48 272 72 238 102 C 203 131 173 167 148 209 C 122 251 102 299 88 355 C 73 411 66 474 66 545 C 66 617 74 682 90 738 C 106 794 127 844 155 887 C 182 929 214 964 250 993 C 286 1021 325 1045 366 1063 C 406 1081 448 1094 491 1102 C 534 1110 576 1114 616 1114 C 690 1114 753 1104 806 1086 C 859 1068 904 1043 942 1013 C 978 982 1008 946 1032 906 C 1056 866 1076 824 1092 780 L 815 688 C 804 722 792 751 779 775 C 765 799 750 818 734 833 C 717 847 698 857 678 863 C 658 869 636 872 612 872 C 545 872 492 844 453 789 C 414 734 395 652 395 543 C 395 494 399 449 407 408 C 415 367 427 332 445 303 C 462 273 484 250 511 234 C 537 217 570 209 608 209 C 630 209 651 212 672 218 C 692 224 712 235 731 251 C 749 265 766 285 782 310 C 797 335 811 366 823 403 L 1096 309 C 1078 266 1056 225 1030 185 C 1003 145 970 110 931 80 C 891 48 845 23 791 5 C 737 -13 674 -23 602 -23 Z M 195 1565 L 381 1565 L 567 1413 L 756 1565 L 942 1565 L 678 1214 L 459 1214 L 195 1565 Z" unicode="č" />
<glyph horiz-adv-x="1516" d="M 156 0 L 156 1516 L 621 1516 C 736 1516 843 1502 942 1476 C 1041 1450 1127 1407 1200 1349 C 1272 1289 1328 1212 1370 1116 C 1411 1020 1432 904 1432 766 C 1432 624 1411 504 1369 406 C 1327 308 1270 230 1198 170 C 1124 109 1038 65 940 39 C 841 13 735 0 621 0 L 156 0 Z M 487 270 L 643 270 C 725 270 795 279 853 298 C 911 317 958 347 995 387 C 1031 427 1057 478 1073 540 C 1089 602 1098 676 1098 762 C 1098 842 1089 912 1073 972 C 1056 1032 1029 1081 993 1121 C 956 1159 908 1188 850 1208 C 792 1227 721 1237 639 1237 L 487 1237 L 487 270 Z M 383 1960 L 569 1960 L 755 1808 L 944 1960 L 1130 1960 L 866 1609 L 647 1609 L 383 1960 Z" unicode="Ď" />
<glyph horiz-adv-x="1278" d="M 1352 1423 L 1235 1423 L 1235 1702 L 1532 1702 L 1532 1464 L 1409 1208 L 1278 1208 L 1352 1423 Z M 485 -16 C 423 -16 366 -4 315 17 C 263 39 219 73 183 119 C 145 164 116 221 96 291 C 76 361 66 443 66 537 C 66 631 76 714 97 786 C 117 858 146 918 184 967 C 221 1015 266 1051 318 1076 C 370 1101 427 1114 489 1114 C 563 1114 627 1100 681 1074 C 735 1048 781 1008 821 954 L 821 1516 L 1151 1516 L 1151 266 C 1151 200 1153 146 1158 104 C 1162 62 1171 28 1184 0 L 846 0 C 842 6 838 16 835 29 C 832 41 830 56 828 72 C 826 87 824 103 823 119 C 821 135 821 150 821 164 C 803 139 783 116 761 94 C 739 72 714 54 687 38 C 659 21 629 8 596 -1 C 562 -11 525 -16 485 -16 Z M 608 231 C 628 231 649 234 669 240 C 689 246 708 254 726 264 C 744 274 761 285 777 298 C 793 310 807 324 821 338 L 821 741 C 785 775 751 800 718 817 C 684 833 646 842 604 842 C 535 842 483 816 448 765 C 412 713 395 638 395 539 C 395 493 399 451 407 413 C 415 375 429 343 447 317 C 464 289 486 268 513 253 C 539 238 571 231 608 231 Z" unicode="ď" />
<glyph horiz-adv-x="1516" d="M 156 0 L 156 649 L 20 649 L 20 899 L 156 899 L 156 1516 L 621 1516 C 697 1516 771 1510 841 1499 C 911 1487 976 1469 1037 1445 C 1097 1419 1151 1387 1200 1347 C 1248 1307 1290 1260 1325 1204 C 1359 1148 1385 1083 1404 1009 C 1422 935 1432 851 1432 758 C 1432 619 1411 501 1369 405 C 1327 309 1270 231 1198 171 C 1124 111 1038 67 940 40 C 841 13 735 0 621 0 L 156 0 Z M 487 270 L 643 270 C 725 270 795 279 853 298 C 911 317 958 347 995 387 C 1031 427 1057 478 1073 540 C 1089 602 1098 676 1098 762 C 1098 842 1089 912 1073 972 C 1056 1032 1029 1081 993 1121 C 956 1159 908 1188 850 1208 C 792 1227 721 1237 639 1237 L 487 1237 L 487 899 L 795 899 L 795 649 L 487 649 L 487 270 Z" unicode="Đ" />
<glyph horiz-adv-x="1278" d="M 647 1382 L 823 1382 L 823 1516 L 1151 1516 L 1151 1382 L 1282 1382 L 1282 1174 L 1151 1174 L 1151 266 C 1151 200 1153 146 1158 104 C 1162 62 1171 28 1184 0 L 848 0 C 844 6 840 16 837 29 C 833 41 831 56 829 72 C 827 87 825 103 824 119 C 823 135 823 150 823 164 C 805 139 784 116 762 94 C 740 72 715 54 688 38 C 660 21 630 8 597 -1 C 564 -11 527 -16 487 -16 C 425 -16 368 -4 317 17 C 265 39 221 73 185 119 C 147 164 118 221 98 291 C 78 361 68 443 68 537 C 68 631 78 714 99 786 C 119 858 148 918 186 967 C 223 1015 268 1051 320 1076 C 372 1101 429 1114 492 1114 C 566 1114 629 1100 683 1074 C 736 1048 783 1008 823 954 L 823 1174 L 647 1174 L 647 1382 Z M 608 231 C 628 231 649 234 669 240 C 689 246 708 254 727 264 C 745 274 762 285 778 298 C 794 310 809 324 823 338 L 823 743 C 787 777 753 802 720 819 C 686 835 648 844 604 844 C 535 844 483 818 448 766 C 412 714 395 638 395 539 C 395 493 399 451 407 413 C 415 375 429 343 447 317 C 464 289 486 268 513 253 C 539 238 571 231 608 231 Z" unicode="đ" />
<glyph horiz-adv-x="1296" d="M 156 0 L 156 1516 L 1188 1516 L 1188 1237 L 489 1237 L 489 911 L 995 911 L 995 647 L 489 647 L 489 270 L 1225 270 L 1225 0 L 156 0 Z M 348 1825 L 1028 1825 L 1028 1591 L 348 1591 L 348 1825 Z" unicode="Ē" />
<glyph horiz-adv-x="1182" d="M 623 -23 C 551 -23 482 -13 415 6 C 348 26 289 58 238 103 C 186 147 144 206 113 278 C 81 350 66 439 66 545 C 66 615 74 678 91 734 C 107 790 130 839 158 881 C 186 923 218 958 255 988 C 292 1018 331 1042 372 1061 C 412 1079 453 1093 495 1101 C 537 1109 576 1114 614 1114 C 651 1114 689 1110 729 1103 C 769 1096 807 1084 845 1067 C 881 1049 916 1025 949 995 C 982 965 1011 928 1036 884 C 1060 838 1080 785 1094 723 C 1108 661 1116 588 1116 506 L 1116 457 L 393 457 C 397 411 406 373 420 341 C 434 309 453 284 475 264 C 497 244 522 229 552 220 C 581 211 613 207 647 207 C 679 207 710 210 741 218 C 772 225 802 235 830 247 C 857 259 883 272 907 288 C 931 304 952 320 971 338 L 1098 141 C 1034 87 962 46 884 18 C 805 -9 718 -23 623 -23 Z M 821 651 C 813 728 791 785 757 823 C 722 860 674 879 612 879 C 586 879 562 874 539 866 C 515 857 494 843 476 825 C 456 806 440 782 426 754 C 412 725 403 691 397 651 L 821 651 Z M 247 1430 L 927 1430 L 927 1196 L 247 1196 L 247 1430 Z" unicode="ē" />
<glyph horiz-adv-x="1296" d="M 156 0 L 156 1516 L 1188 1516 L 1188 1237 L 489 1237 L 489 911 L 995 911 L 995 647 L 489 647 L 489 270 L 1225 270 L 1225 0 L 156 0 Z M 661 1581 C 603 1581 552 1590 508 1610 C 464 1630 427 1657 397 1692 C 367 1726 343 1766 327 1812 C 311 1858 301 1907 299 1960 L 475 1960 C 479 1922 488 1892 501 1870 C 513 1848 528 1831 546 1819 C 562 1806 581 1798 601 1794 C 621 1790 641 1788 661 1788 C 681 1788 701 1790 721 1794 C 741 1798 760 1806 778 1819 C 794 1831 809 1848 821 1870 C 833 1892 842 1922 847 1960 L 1023 1960 C 1020 1907 1011 1858 995 1812 C 979 1766 956 1726 926 1692 C 896 1657 858 1630 814 1610 C 770 1590 719 1581 661 1581 Z" unicode="Ĕ" />
<glyph horiz-adv-x="1182" d="M 623 -23 C 551 -23 482 -13 415 6 C 348 26 289 58 238 103 C 186 147 144 206 113 278 C 81 350 66 439 66 545 C 66 615 74 678 91 734 C 107 790 130 839 158 881 C 186 923 218 958 255 988 C 292 1018 331 1042 372 1061 C 412 1079 453 1093 495 1101 C 537 1109 576 1114 614 1114 C 651 1114 689 1110 729 1103 C 769 1096 807 1084 845 1067 C 881 1049 916 1025 949 995 C 982 965 1011 928 1036 884 C 1060 838 1080 785 1094 723 C 1108 661 1116 588 1116 506 L 1116 457 L 393 457 C 397 411 406 373 420 341 C 434 309 453 284 475 264 C 497 244 522 229 552 220 C 581 211 613 207 647 207 C 679 207 710 210 741 218 C 772 225 802 235 830 247 C 857 259 883 272 907 288 C 931 304 952 320 971 338 L 1098 141 C 1034 87 962 46 884 18 C 805 -9 718 -23 623 -23 Z M 821 651 C 813 728 791 785 757 823 C 722 860 674 879 612 879 C 586 879 562 874 539 866 C 515 857 494 843 476 825 C 456 806 440 782 426 754 C 412 725 403 691 397 651 L 821 651 Z M 604 1186 C 546 1186 495 1195 451 1215 C 407 1235 370 1262 340 1297 C 310 1331 286 1371 270 1417 C 254 1463 244 1512 242 1565 L 418 1565 C 422 1527 431 1497 444 1475 C 456 1453 471 1436 489 1424 C 505 1411 524 1403 544 1399 C 564 1395 584 1393 604 1393 C 624 1393 644 1395 664 1399 C 684 1403 703 1411 721 1424 C 737 1436 752 1453 764 1475 C 776 1497 785 1527 790 1565 L 966 1565 C 963 1512 954 1463 938 1417 C 922 1371 899 1331 869 1297 C 839 1262 801 1235 757 1215 C 713 1195 662 1186 604 1186 Z" unicode="ĕ" />
<glyph horiz-adv-x="1296" d="M 156 0 L 156 1516 L 1188 1516 L 1188 1237 L 489 1237 L 489 911 L 995 911 L 995 647 L 489 647 L 489 270 L 1225 270 L 1225 0 L 156 0 Z M 520 1896 L 858 1896 L 858 1628 L 520 1628 L 520 1896 Z" unicode="Ė" />
<glyph horiz-adv-x="1182" d="M 623 -23 C 551 -23 482 -13 415 6 C 348 26 289 58 238 103 C 186 147 144 206 113 278 C 81 350 66 439 66 545 C 66 615 74 678 91 734 C 107 790 130 839 158 881 C 186 923 218 958 255 988 C 292 1018 331 1042 372 1061 C 412 1079 453 1093 495 1101 C 537 1109 576 1114 614 1114 C 651 1114 689 1110 729 1103 C 769 1096 807 1084 845 1067 C 881 1049 916 1025 949 995 C 982 965 1011 928 1036 884 C 1060 838 1080 785 1094 723 C 1108 661 1116 588 1116 506 L 1116 457 L 393 457 C 397 411 406 373 420 341 C 434 309 453 284 475 264 C 497 244 522 229 552 220 C 581 211 613 207 647 207 C 679 207 710 210 741 218 C 772 225 802 235 830 247 C 857 259 883 272 907 288 C 931 304 952 320 971 338 L 1098 141 C 1034 87 962 46 884 18 C 805 -9 718 -23 623 -23 Z M 821 651 C 813 728 791 785 757 823 C 722 860 674 879 612 879 C 586 879 562 874 539 866 C 515 857 494 843 476 825 C 456 806 440 782 426 754 C 412 725 403 691 397 651 L 821 651 Z M 419 1501 L 757 1501 L 757 1233 L 419 1233 L 419 1501 Z" unicode="ė" />
<glyph horiz-adv-x="1296" d="M 958 -383 C 882 -383 825 -369 786 -341 C 747 -313 728 -275 728 -225 C 728 -203 732 -181 742 -159 C 751 -137 764 -116 782 -96 C 798 -75 818 -55 841 -37 C 864 -18 889 -1 917 14 L 1089 14 C 1036 -20 999 -52 979 -83 C 958 -114 948 -144 948 -172 C 948 -182 949 -191 952 -201 C 954 -211 959 -220 967 -228 C 973 -235 983 -241 995 -245 C 1007 -249 1022 -252 1042 -252 C 1062 -252 1080 -250 1096 -247 C 1112 -243 1127 -239 1141 -235 C 1154 -229 1166 -224 1178 -218 C 1190 -212 1201 -206 1212 -201 L 1275 -301 C 1233 -325 1186 -345 1134 -360 C 1082 -375 1024 -383 958 -383 Z M 156 0 L 156 1516 L 1188 1516 L 1188 1237 L 489 1237 L 489 911 L 995 911 L 995 647 L 489 647 L 489 270 L 1225 270 L 1225 0 L 156 0 Z" unicode="Ę" />
<glyph horiz-adv-x="1182" d="M 661 -383 C 585 -383 528 -369 489 -341 C 450 -313 431 -275 431 -225 C 431 -203 435 -181 445 -159 C 454 -137 467 -116 485 -96 C 501 -75 521 -55 544 -37 C 567 -18 592 -1 620 14 L 792 14 C 739 -20 702 -52 682 -83 C 661 -114 651 -144 651 -172 C 651 -182 652 -191 655 -201 C 657 -211 662 -220 670 -228 C 676 -235 686 -241 698 -245 C 710 -249 725 -252 745 -252 C 765 -252 783 -250 799 -247 C 815 -243 830 -239 844 -235 C 857 -229 869 -224 881 -218 C 893 -212 904 -206 915 -201 L 978 -301 C 936 -325 889 -345 837 -360 C 785 -375 727 -383 661 -383 Z M 623 -23 C 551 -23 482 -13 415 6 C 348 26 289 58 238 103 C 186 147 144 206 113 278 C 81 350 66 439 66 545 C 66 615 74 678 91 734 C 107 790 130 839 158 881 C 186 923 218 958 255 988 C 292 1018 331 1042 372 1061 C 412 1079 453 1093 495 1101 C 537 1109 576 1114 614 1114 C 651 1114 689 1110 729 1103 C 769 1096 807 1084 845 1067 C 881 1049 916 1025 949 995 C 982 965 1011 928 1036 884 C 1060 838 1080 785 1094 723 C 1108 661 1116 588 1116 506 L 1116 457 L 393 457 C 397 411 406 373 420 341 C 434 309 453 284 475 264 C 497 244 522 229 552 220 C 581 211 613 207 647 207 C 679 207 710 210 741 218 C 772 225 802 235 830 247 C 857 259 883 272 907 288 C 931 304 952 320 971 338 L 1098 141 C 1034 87 962 46 884 18 C 805 -9 718 -23 623 -23 Z M 821 651 C 813 728 791 785 757 823 C 722 860 674 879 612 879 C 586 879 562 874 539 866 C 515 857 494 843 476 825 C 456 806 440 782 426 754 C 412 725 403 691 397 651 L 821 651 Z" unicode="ę" />
<glyph horiz-adv-x="1296" d="M 156 0 L 156 1516 L 1188 1516 L 1188 1237 L 489 1237 L 489 911 L 995 911 L 995 647 L 489 647 L 489 270 L 1225 270 L 1225 0 L 156 0 Z M 313 1960 L 499 1960 L 685 1808 L 874 1960 L 1060 1960 L 796 1609 L 577 1609 L 313 1960 Z" unicode="Ě" />
<glyph horiz-adv-x="1182" d="M 623 -23 C 551 -23 482 -13 415 6 C 348 26 289 58 238 103 C 186 147 144 206 113 278 C 81 350 66 439 66 545 C 66 615 74 678 91 734 C 107 790 130 839 158 881 C 186 923 218 958 255 988 C 292 1018 331 1042 372 1061 C 412 1079 453 1093 495 1101 C 537 1109 576 1114 614 1114 C 651 1114 689 1110 729 1103 C 769 1096 807 1084 845 1067 C 881 1049 916 1025 949 995 C 982 965 1011 928 1036 884 C 1060 838 1080 785 1094 723 C 1108 661 1116 588 1116 506 L 1116 457 L 393 457 C 397 411 406 373 420 341 C 434 309 453 284 475 264 C 497 244 522 229 552 220 C 581 211 613 207 647 207 C 679 207 710 210 741 218 C 772 225 802 235 830 247 C 857 259 883 272 907 288 C 931 304 952 320 971 338 L 1098 141 C 1034 87 962 46 884 18 C 805 -9 718 -23 623 -23 Z M 821 651 C 813 728 791 785 757 823 C 722 860 674 879 612 879 C 586 879 562 874 539 866 C 515 857 494 843 476 825 C 456 806 440 782 426 754 C 412 725 403 691 397 651 L 821 651 Z M 215 1565 L 401 1565 L 587 1413 L 776 1565 L 962 1565 L 698 1214 L 479 1214 L 215 1565 Z" unicode="ě" />
<glyph horiz-adv-x="1559" d="M 748 -29 C 633 -29 534 -9 450 30 C 366 70 298 125 244 196 C 189 266 149 350 123 447 C 97 544 84 650 84 764 C 84 882 100 990 132 1086 C 164 1182 210 1264 270 1332 C 329 1400 401 1452 486 1489 C 571 1525 667 1544 774 1544 C 846 1544 913 1536 977 1520 C 1041 1504 1099 1478 1152 1441 C 1204 1403 1250 1353 1290 1291 C 1330 1229 1362 1151 1386 1059 L 1081 975 C 1065 1027 1047 1072 1027 1109 C 1007 1146 984 1177 959 1201 C 933 1224 905 1241 874 1252 C 843 1262 809 1268 772 1268 C 751 1268 728 1265 703 1260 C 677 1255 652 1246 626 1234 C 600 1220 574 1202 550 1179 C 525 1155 503 1125 484 1089 C 464 1051 449 1006 437 954 C 425 902 420 840 420 770 C 420 699 425 637 436 583 C 446 529 461 483 479 444 C 497 404 518 372 542 346 C 566 320 592 299 620 284 C 646 268 674 256 703 250 C 731 243 759 240 786 240 C 827 240 865 246 900 259 C 935 271 966 289 993 313 C 1019 336 1041 364 1059 398 C 1077 432 1090 470 1098 512 L 834 512 L 834 760 L 1415 760 L 1415 0 L 1147 0 L 1147 209 L 1143 209 C 1135 186 1120 161 1099 133 C 1078 105 1051 80 1019 56 C 985 32 946 11 901 -4 C 856 -20 805 -29 748 -29 Z M 663 1958 L 882 1958 L 1146 1607 L 960 1607 L 769 1759 L 585 1607 L 399 1607 L 663 1958 Z" unicode="Ĝ" />
<glyph horiz-adv-x="1260" d="M 555 -410 C 448 -410 359 -404 287 -393 C 215 -381 157 -365 113 -345 C 69 -323 37 -297 18 -267 C 0 -236 -10 -202 -10 -164 C -10 -137 -4 -112 5 -90 C 15 -68 29 -48 47 -30 C 63 -12 83 4 106 18 C 128 32 152 45 178 55 C 154 70 136 88 123 110 C 110 132 104 157 104 186 C 104 208 108 230 116 251 C 124 271 136 291 151 311 C 165 329 181 347 201 364 C 220 380 240 396 262 410 C 202 444 157 489 127 543 C 97 597 82 657 82 723 C 82 777 92 828 114 876 C 136 924 168 965 210 1001 C 251 1035 302 1063 363 1083 C 424 1103 494 1114 573 1114 C 654 1114 725 1103 786 1082 C 847 1061 898 1032 940 995 C 958 1011 979 1025 1002 1039 C 1025 1052 1049 1064 1074 1074 C 1098 1083 1123 1091 1149 1097 C 1174 1103 1198 1106 1221 1108 L 1221 856 C 1201 856 1175 854 1143 851 C 1111 848 1075 841 1036 831 C 1042 817 1047 800 1051 782 C 1055 764 1057 744 1057 723 C 1057 667 1046 616 1025 569 C 1004 521 973 480 933 446 C 891 410 841 383 781 363 C 721 343 651 334 573 334 C 542 334 513 335 485 339 C 457 342 430 346 406 352 C 394 342 385 333 379 325 C 372 316 369 307 369 297 C 369 276 379 262 400 256 C 421 250 452 246 492 244 L 655 233 C 749 229 829 221 895 208 C 961 194 1016 175 1059 151 C 1101 125 1132 94 1152 57 C 1172 19 1182 -24 1182 -76 C 1182 -132 1166 -181 1135 -223 C 1103 -265 1060 -300 1005 -328 C 949 -355 882 -375 806 -389 C 729 -403 645 -410 555 -410 Z M 578 516 C 608 516 634 521 657 531 C 680 541 700 554 716 572 C 732 589 744 609 752 633 C 760 657 764 683 764 711 C 764 738 760 763 752 787 C 744 811 732 831 717 849 C 701 866 681 880 658 890 C 635 900 608 905 578 905 C 548 905 521 900 498 890 C 474 880 455 866 439 849 C 423 831 411 811 403 787 C 395 763 391 738 391 711 C 391 683 395 657 403 633 C 411 609 424 589 440 572 C 456 554 475 541 498 531 C 521 521 548 516 578 516 Z M 608 -244 C 650 -244 688 -241 723 -236 C 758 -231 788 -224 814 -215 C 838 -205 858 -193 872 -179 C 886 -165 893 -149 893 -131 C 893 -114 890 -99 884 -87 C 878 -74 865 -63 845 -55 C 824 -46 794 -39 756 -33 C 718 -27 666 -23 602 -20 L 430 -12 L 358 -6 C 337 -19 322 -34 312 -51 C 302 -68 297 -86 297 -104 C 297 -128 302 -148 314 -166 C 325 -183 343 -198 369 -210 C 393 -221 425 -229 465 -235 C 504 -241 552 -244 608 -244 Z M 463 1563 L 682 1563 L 946 1212 L 760 1212 L 569 1364 L 385 1212 L 199 1212 L 463 1563 Z" unicode="ĝ" />
<glyph horiz-adv-x="1559" d="M 748 -29 C 633 -29 534 -9 450 30 C 366 70 298 125 244 196 C 189 266 149 350 123 447 C 97 544 84 650 84 764 C 84 882 100 990 132 1086 C 164 1182 210 1264 270 1332 C 329 1400 401 1452 486 1489 C 571 1525 667 1544 774 1544 C 846 1544 913 1536 977 1520 C 1041 1504 1099 1478 1152 1441 C 1204 1403 1250 1353 1290 1291 C 1330 1229 1362 1151 1386 1059 L 1081 975 C 1065 1027 1047 1072 1027 1109 C 1007 1146 984 1177 959 1201 C 933 1224 905 1241 874 1252 C 843 1262 809 1268 772 1268 C 751 1268 728 1265 703 1260 C 677 1255 652 1246 626 1234 C 600 1220 574 1202 550 1179 C 525 1155 503 1125 484 1089 C 464 1051 449 1006 437 954 C 425 902 420 840 420 770 C 420 699 425 637 436 583 C 446 529 461 483 479 444 C 497 404 518 372 542 346 C 566 320 592 299 620 284 C 646 268 674 256 703 250 C 731 243 759 240 786 240 C 827 240 865 246 900 259 C 935 271 966 289 993 313 C 1019 336 1041 364 1059 398 C 1077 432 1090 470 1098 512 L 834 512 L 834 760 L 1415 760 L 1415 0 L 1147 0 L 1147 209 L 1143 209 C 1135 186 1120 161 1099 133 C 1078 105 1051 80 1019 56 C 985 32 946 11 901 -4 C 856 -20 805 -29 748 -29 Z M 778 1581 C 720 1581 669 1590 625 1610 C 581 1630 544 1657 514 1692 C 484 1726 460 1766 444 1812 C 428 1858 418 1907 416 1960 L 592 1960 C 596 1922 605 1892 618 1870 C 630 1848 645 1831 663 1819 C 679 1806 698 1798 718 1794 C 738 1790 758 1788 778 1788 C 798 1788 818 1790 838 1794 C 858 1798 877 1806 895 1819 C 911 1831 926 1848 938 1870 C 950 1892 959 1922 964 1960 L 1140 1960 C 1137 1907 1128 1858 1112 1812 C 1096 1766 1073 1726 1043 1692 C 1013 1657 975 1630 931 1610 C 887 1590 836 1581 778 1581 Z" unicode="Ğ" />
<glyph horiz-adv-x="1260" d="M 555 -410 C 448 -410 359 -404 287 -393 C 215 -381 157 -365 113 -345 C 69 -323 37 -297 18 -267 C 0 -236 -10 -202 -10 -164 C -10 -137 -4 -112 5 -90 C 15 -68 29 -48 47 -30 C 63 -12 83 4 106 18 C 128 32 152 45 178 55 C 154 70 136 88 123 110 C 110 132 104 157 104 186 C 104 208 108 230 116 251 C 124 271 136 291 151 311 C 165 329 181 347 201 364 C 220 380 240 396 262 410 C 202 444 157 489 127 543 C 97 597 82 657 82 723 C 82 777 92 828 114 876 C 136 924 168 965 210 1001 C 251 1035 302 1063 363 1083 C 424 1103 494 1114 573 1114 C 654 1114 725 1103 786 1082 C 847 1061 898 1032 940 995 C 958 1011 979 1025 1002 1039 C 1025 1052 1049 1064 1074 1074 C 1098 1083 1123 1091 1149 1097 C 1174 1103 1198 1106 1221 1108 L 1221 856 C 1201 856 1175 854 1143 851 C 1111 848 1075 841 1036 831 C 1042 817 1047 800 1051 782 C 1055 764 1057 744 1057 723 C 1057 667 1046 616 1025 569 C 1004 521 973 480 933 446 C 891 410 841 383 781 363 C 721 343 651 334 573 334 C 542 334 513 335 485 339 C 457 342 430 346 406 352 C 394 342 385 333 379 325 C 372 316 369 307 369 297 C 369 276 379 262 400 256 C 421 250 452 246 492 244 L 655 233 C 749 229 829 221 895 208 C 961 194 1016 175 1059 151 C 1101 125 1132 94 1152 57 C 1172 19 1182 -24 1182 -76 C 1182 -132 1166 -181 1135 -223 C 1103 -265 1060 -300 1005 -328 C 949 -355 882 -375 806 -389 C 729 -403 645 -410 555 -410 Z M 578 516 C 608 516 634 521 657 531 C 680 541 700 554 716 572 C 732 589 744 609 752 633 C 760 657 764 683 764 711 C 764 738 760 763 752 787 C 744 811 732 831 717 849 C 701 866 681 880 658 890 C 635 900 608 905 578 905 C 548 905 521 900 498 890 C 474 880 455 866 439 849 C 423 831 411 811 403 787 C 395 763 391 738 391 711 C 391 683 395 657 403 633 C 411 609 424 589 440 572 C 456 554 475 541 498 531 C 521 521 548 516 578 516 Z M 608 -244 C 650 -244 688 -241 723 -236 C 758 -231 788 -224 814 -215 C 838 -205 858 -193 872 -179 C 886 -165 893 -149 893 -131 C 893 -114 890 -99 884 -87 C 878 -74 865 -63 845 -55 C 824 -46 794 -39 756 -33 C 718 -27 666 -23 602 -20 L 430 -12 L 358 -6 C 337 -19 322 -34 312 -51 C 302 -68 297 -86 297 -104 C 297 -128 302 -148 314 -166 C 325 -183 343 -198 369 -210 C 393 -221 425 -229 465 -235 C 504 -241 552 -244 608 -244 Z M 585 1186 C 527 1186 476 1195 432 1215 C 388 1235 351 1262 321 1297 C 291 1331 267 1371 251 1417 C 235 1463 225 1512 223 1565 L 399 1565 C 403 1527 412 1497 425 1475 C 437 1453 452 1436 470 1424 C 486 1411 505 1403 525 1399 C 545 1395 565 1393 585 1393 C 605 1393 625 1395 645 1399 C 665 1403 684 1411 702 1424 C 718 1436 733 1453 745 1475 C 757 1497 766 1527 771 1565 L 947 1565 C 944 1512 935 1463 919 1417 C 903 1371 880 1331 850 1297 C 820 1262 782 1235 738 1215 C 694 1195 643 1186 585 1186 Z" unicode="ğ" />
<glyph horiz-adv-x="1559" d="M 748 -29 C 633 -29 534 -9 450 30 C 366 70 298 125 244 196 C 189 266 149 350 123 447 C 97 544 84 650 84 764 C 84 882 100 990 132 1086 C 164 1182 210 1264 270 1332 C 329 1400 401 1452 486 1489 C 571 1525 667 1544 774 1544 C 846 1544 913 1536 977 1520 C 1041 1504 1099 1478 1152 1441 C 1204 1403 1250 1353 1290 1291 C 1330 1229 1362 1151 1386 1059 L 1081 975 C 1065 1027 1047 1072 1027 1109 C 1007 1146 984 1177 959 1201 C 933 1224 905 1241 874 1252 C 843 1262 809 1268 772 1268 C 751 1268 728 1265 703 1260 C 677 1255 652 1246 626 1234 C 600 1220 574 1202 550 1179 C 525 1155 503 1125 484 1089 C 464 1051 449 1006 437 954 C 425 902 420 840 420 770 C 420 699 425 637 436 583 C 446 529 461 483 479 444 C 497 404 518 372 542 346 C 566 320 592 299 620 284 C 646 268 674 256 703 250 C 731 243 759 240 786 240 C 827 240 865 246 900 259 C 935 271 966 289 993 313 C 1019 336 1041 364 1059 398 C 1077 432 1090 470 1098 512 L 834 512 L 834 760 L 1415 760 L 1415 0 L 1147 0 L 1147 209 L 1143 209 C 1135 186 1120 161 1099 133 C 1078 105 1051 80 1019 56 C 985 32 946 11 901 -4 C 856 -20 805 -29 748 -29 Z M 600 1896 L 938 1896 L 938 1628 L 600 1628 L 600 1896 Z" unicode="Ġ" />
<glyph horiz-adv-x="1260" d="M 555 -410 C 448 -410 359 -404 287 -393 C 215 -381 157 -365 113 -345 C 69 -323 37 -297 18 -267 C 0 -236 -10 -202 -10 -164 C -10 -137 -4 -112 5 -90 C 15 -68 29 -48 47 -30 C 63 -12 83 4 106 18 C 128 32 152 45 178 55 C 154 70 136 88 123 110 C 110 132 104 157 104 186 C 104 208 108 230 116 251 C 124 271 136 291 151 311 C 165 329 181 347 201 364 C 220 380 240 396 262 410 C 202 444 157 489 127 543 C 97 597 82 657 82 723 C 82 777 92 828 114 876 C 136 924 168 965 210 1001 C 251 1035 302 1063 363 1083 C 424 1103 494 1114 573 1114 C 654 1114 725 1103 786 1082 C 847 1061 898 1032 940 995 C 958 1011 979 1025 1002 1039 C 1025 1052 1049 1064 1074 1074 C 1098 1083 1123 1091 1149 1097 C 1174 1103 1198 1106 1221 1108 L 1221 856 C 1201 856 1175 854 1143 851 C 1111 848 1075 841 1036 831 C 1042 817 1047 800 1051 782 C 1055 764 1057 744 1057 723 C 1057 667 1046 616 1025 569 C 1004 521 973 480 933 446 C 891 410 841 383 781 363 C 721 343 651 334 573 334 C 542 334 513 335 485 339 C 457 342 430 346 406 352 C 394 342 385 333 379 325 C 372 316 369 307 369 297 C 369 276 379 262 400 256 C 421 250 452 246 492 244 L 655 233 C 749 229 829 221 895 208 C 961 194 1016 175 1059 151 C 1101 125 1132 94 1152 57 C 1172 19 1182 -24 1182 -76 C 1182 -132 1166 -181 1135 -223 C 1103 -265 1060 -300 1005 -328 C 949 -355 882 -375 806 -389 C 729 -403 645 -410 555 -410 Z M 578 516 C 608 516 634 521 657 531 C 680 541 700 554 716 572 C 732 589 744 609 752 633 C 760 657 764 683 764 711 C 764 738 760 763 752 787 C 744 811 732 831 717 849 C 701 866 681 880 658 890 C 635 900 608 905 578 905 C 548 905 521 900 498 890 C 474 880 455 866 439 849 C 423 831 411 811 403 787 C 395 763 391 738 391 711 C 391 683 395 657 403 633 C 411 609 424 589 440 572 C 456 554 475 541 498 531 C 521 521 548 516 578 516 Z M 608 -244 C 650 -244 688 -241 723 -236 C 758 -231 788 -224 814 -215 C 838 -205 858 -193 872 -179 C 886 -165 893 -149 893 -131 C 893 -114 890 -99 884 -87 C 878 -74 865 -63 845 -55 C 824 -46 794 -39 756 -33 C 718 -27 666 -23 602 -20 L 430 -12 L 358 -6 C 337 -19 322 -34 312 -51 C 302 -68 297 -86 297 -104 C 297 -128 302 -148 314 -166 C 325 -183 343 -198 369 -210 C 393 -221 425 -229 465 -235 C 504 -241 552 -244 608 -244 Z M 403 1501 L 741 1501 L 741 1233 L 403 1233 L 403 1501 Z" unicode="ġ" />
<glyph horiz-adv-x="1559" d="M 747 -377 L 624 -377 L 624 -88 L 933 -88 L 933 -336 L 806 -602 L 669 -602 L 747 -377 Z M 748 -29 C 633 -29 534 -9 450 30 C 366 70 298 125 244 196 C 189 266 149 350 123 447 C 97 544 84 650 84 764 C 84 882 100 990 132 1086 C 164 1182 210 1264 270 1332 C 329 1400 401 1452 486 1489 C 571 1525 667 1544 774 1544 C 846 1544 913 1536 977 1520 C 1041 1504 1099 1478 1152 1441 C 1204 1403 1250 1353 1290 1291 C 1330 1229 1362 1151 1386 1059 L 1081 975 C 1065 1027 1047 1072 1027 1109 C 1007 1146 984 1177 959 1201 C 933 1224 905 1241 874 1252 C 843 1262 809 1268 772 1268 C 751 1268 728 1265 703 1260 C 677 1255 652 1246 626 1234 C 600 1220 574 1202 550 1179 C 525 1155 503 1125 484 1089 C 464 1051 449 1006 437 954 C 425 902 420 840 420 770 C 420 699 425 637 436 583 C 446 529 461 483 479 444 C 497 404 518 372 542 346 C 566 320 592 299 620 284 C 646 268 674 256 703 250 C 731 243 759 240 786 240 C 827 240 865 246 900 259 C 935 271 966 289 993 313 C 1019 336 1041 364 1059 398 C 1077 432 1090 470 1098 512 L 834 512 L 834 760 L 1415 760 L 1415 0 L 1147 0 L 1147 209 L 1143 209 C 1135 186 1120 161 1099 133 C 1078 105 1051 80 1019 56 C 985 32 946 11 901 -4 C 856 -20 805 -29 748 -29 Z" unicode="Ģ" />
<glyph horiz-adv-x="1260" d="M 555 -410 C 448 -410 359 -404 287 -393 C 215 -381 157 -365 113 -345 C 69 -323 37 -297 18 -267 C 0 -236 -10 -202 -10 -164 C -10 -137 -4 -112 5 -90 C 15 -68 29 -48 47 -30 C 63 -12 83 4 106 18 C 128 32 152 45 178 55 C 154 70 136 88 123 110 C 110 132 104 157 104 186 C 104 208 108 230 116 251 C 124 271 136 291 151 311 C 165 329 181 347 201 364 C 220 380 240 396 262 410 C 202 444 157 489 127 543 C 97 597 82 657 82 723 C 82 777 92 828 114 876 C 136 924 168 965 210 1001 C 251 1035 302 1063 363 1083 C 424 1103 494 1114 573 1114 C 654 1114 725 1103 786 1082 C 847 1061 898 1032 940 995 C 958 1011 979 1025 1002 1039 C 1025 1052 1049 1064 1074 1074 C 1098 1083 1123 1091 1149 1097 C 1174 1103 1198 1106 1221 1108 L 1221 856 C 1201 856 1175 854 1143 851 C 1111 848 1075 841 1036 831 C 1042 817 1047 800 1051 782 C 1055 764 1057 744 1057 723 C 1057 667 1046 616 1025 569 C 1004 521 973 480 933 446 C 891 410 841 383 781 363 C 721 343 651 334 573 334 C 542 334 513 335 485 339 C 457 342 430 346 406 352 C 394 342 385 333 379 325 C 372 316 369 307 369 297 C 369 276 379 262 400 256 C 421 250 452 246 492 244 L 655 233 C 749 229 829 221 895 208 C 961 194 1016 175 1059 151 C 1101 125 1132 94 1152 57 C 1172 19 1182 -24 1182 -76 C 1182 -132 1166 -181 1135 -223 C 1103 -265 1060 -300 1005 -328 C 949 -355 882 -375 806 -389 C 729 -403 645 -410 555 -410 Z M 578 516 C 608 516 634 521 657 531 C 680 541 700 554 716 572 C 732 589 744 609 752 633 C 760 657 764 683 764 711 C 764 738 760 763 752 787 C 744 811 732 831 717 849 C 701 866 681 880 658 890 C 635 900 608 905 578 905 C 548 905 521 900 498 890 C 474 880 455 866 439 849 C 423 831 411 811 403 787 C 395 763 391 738 391 711 C 391 683 395 657 403 633 C 411 609 424 589 440 572 C 456 554 475 541 498 531 C 521 521 548 516 578 516 Z M 608 -244 C 650 -244 688 -241 723 -236 C 758 -231 788 -224 814 -215 C 838 -205 858 -193 872 -179 C 886 -165 893 -149 893 -131 C 893 -114 890 -99 884 -87 C 878 -74 865 -63 845 -55 C 824 -46 794 -39 756 -33 C 718 -27 666 -23 602 -20 L 430 -12 L 358 -6 C 337 -19 322 -34 312 -51 C 302 -68 297 -86 297 -104 C 297 -128 302 -148 314 -166 C 325 -183 343 -198 369 -210 C 393 -221 425 -229 465 -235 C 504 -241 552 -244 608 -244 Z M 429 1446 L 558 1712 L 695 1712 L 618 1489 L 738 1489 L 738 1198 L 429 1198 L 429 1446 Z" unicode="ģ" />
<glyph horiz-adv-x="1575" d="M 156 0 L 156 1516 L 489 1516 L 489 928 L 1085 928 L 1085 1516 L 1419 1516 L 1419 0 L 1085 0 L 1085 647 L 489 647 L 489 0 L 156 0 Z M 678 1958 L 897 1958 L 1161 1607 L 975 1607 L 784 1759 L 600 1607 L 414 1607 L 678 1958 Z" unicode="Ĥ" />
<glyph horiz-adv-x="1266" d="M 125 0 L 125 1516 L 455 1516 L 455 920 C 471 941 490 963 514 986 C 538 1009 565 1030 597 1050 C 627 1068 662 1084 701 1096 C 740 1108 783 1114 831 1114 C 877 1114 920 1108 960 1096 C 999 1084 1033 1065 1062 1040 C 1090 1014 1111 981 1127 941 C 1143 901 1151 853 1151 797 L 1151 0 L 821 0 L 821 692 C 821 742 811 779 791 804 C 771 829 739 842 694 842 C 648 842 606 831 568 811 C 529 791 491 765 455 733 L 455 0 L 125 0 Z M 179 1958 L 398 1958 L 662 1607 L 476 1607 L 285 1759 L 101 1607 L -85 1607 L 179 1958 Z" unicode="ĥ" />
<glyph horiz-adv-x="1575" d="M 23 1319 L 158 1319 L 158 1516 L 489 1516 L 489 1319 L 1085 1319 L 1085 1516 L 1419 1516 L 1419 1319 L 1552 1319 L 1552 1071 L 1419 1071 L 1419 0 L 1085 0 L 1085 618 L 489 618 L 489 0 L 158 0 L 158 1071 L 23 1071 L 23 1319 Z M 1085 897 L 1085 1071 L 489 1071 L 489 897 L 1085 897 Z" unicode="Ħ" />
<glyph horiz-adv-x="1266" d="M -4 1382 L 127 1382 L 127 1516 L 455 1516 L 455 1382 L 631 1382 L 631 1174 L 455 1174 L 455 920 C 471 941 490 963 514 986 C 538 1009 565 1030 597 1050 C 627 1068 662 1084 701 1096 C 740 1108 783 1114 831 1114 C 877 1114 920 1108 960 1096 C 999 1084 1033 1065 1062 1040 C 1090 1014 1111 981 1127 941 C 1143 901 1151 853 1151 797 L 1151 0 L 821 0 L 821 692 C 821 742 811 779 791 805 C 771 831 739 844 694 844 C 648 844 606 833 568 812 C 529 791 491 765 455 733 L 455 0 L 127 0 L 127 1174 L -4 1174 L -4 1382 Z" unicode="ħ" />
<glyph horiz-adv-x="676" d="M 172 0 L 172 1516 L 504 1516 L 504 0 L 172 0 Z M 496 1583 C 458 1583 426 1589 399 1601 C 372 1613 348 1626 326 1641 C 304 1655 283 1668 264 1680 C 244 1692 223 1698 201 1698 C 174 1698 153 1689 139 1672 C 124 1655 117 1627 117 1587 L -61 1587 C -61 1645 -55 1694 -43 1735 C -31 1776 -15 1810 6 1837 C 26 1863 52 1882 82 1894 C 112 1906 145 1913 183 1913 C 220 1913 252 1907 279 1895 C 306 1883 331 1870 353 1856 C 375 1841 395 1828 415 1816 C 434 1804 455 1798 478 1798 C 504 1798 525 1806 540 1823 C 554 1839 562 1868 562 1908 L 738 1908 C 738 1850 732 1800 721 1759 C 709 1718 693 1685 673 1659 C 651 1633 626 1613 596 1601 C 566 1589 532 1583 496 1583 Z" unicode="Ĩ" />
<glyph horiz-adv-x="602" d="M 137 0 L 137 1092 L 465 1092 L 465 0 L 137 0 Z M 459 1188 C 421 1188 389 1194 362 1206 C 335 1218 311 1231 289 1246 C 267 1260 246 1273 227 1285 C 207 1297 186 1303 164 1303 C 137 1303 116 1294 102 1277 C 87 1260 80 1232 80 1192 L -98 1192 C -98 1250 -92 1299 -80 1340 C -68 1381 -52 1415 -31 1442 C -10 1468 15 1487 45 1499 C 75 1511 108 1518 146 1518 C 183 1518 215 1512 242 1500 C 269 1488 294 1475 316 1461 C 338 1446 358 1433 378 1421 C 397 1409 418 1403 441 1403 C 467 1403 488 1411 503 1428 C 517 1444 525 1473 525 1513 L 701 1513 C 701 1455 695 1405 684 1364 C 672 1323 656 1290 636 1264 C 614 1238 589 1218 559 1206 C 529 1194 495 1188 459 1188 Z" unicode="ĩ" />
<glyph horiz-adv-x="676" d="M 172 0 L 172 1516 L 504 1516 L 504 0 L 172 0 Z M -2 1825 L 678 1825 L 678 1591 L -2 1591 L -2 1825 Z" unicode="Ī" />
<glyph horiz-adv-x="602" d="M 137 0 L 137 1092 L 465 1092 L 465 0 L 137 0 Z M -38 1430 L 642 1430 L 642 1196 L -38 1196 L -38 1430 Z" unicode="ī" />
<glyph horiz-adv-x="676" d="M 172 0 L 172 1516 L 504 1516 L 504 0 L 172 0 Z M 338 1581 C 280 1581 229 1590 185 1610 C 141 1630 104 1657 74 1692 C 44 1726 20 1766 4 1812 C -11 1858 -21 1907 -24 1960 L 152 1960 C 156 1922 165 1892 178 1870 C 190 1848 205 1831 223 1819 C 239 1806 258 1798 278 1794 C 298 1790 318 1788 338 1788 C 358 1788 378 1790 398 1794 C 418 1798 437 1806 455 1819 C 471 1831 486 1848 498 1870 C 510 1892 519 1922 524 1960 L 700 1960 C 697 1907 688 1858 672 1812 C 656 1766 633 1726 603 1692 C 573 1657 535 1630 491 1610 C 447 1590 396 1581 338 1581 Z" unicode="Ĭ" />
<glyph horiz-adv-x="602" d="M 137 0 L 137 1092 L 465 1092 L 465 0 L 137 0 Z M 302 1186 C 244 1186 193 1195 149 1215 C 105 1235 68 1262 38 1297 C 8 1331 -15 1371 -31 1417 C -47 1463 -57 1512 -60 1565 L 116 1565 C 120 1527 129 1497 142 1475 C 154 1453 169 1436 187 1424 C 203 1411 222 1403 242 1399 C 262 1395 282 1393 302 1393 C 322 1393 342 1395 362 1399 C 382 1403 401 1411 419 1424 C 435 1436 450 1453 462 1475 C 474 1497 483 1527 488 1565 L 664 1565 C 661 1512 652 1463 636 1417 C 620 1371 597 1331 567 1297 C 537 1262 499 1235 455 1215 C 411 1195 360 1186 302 1186 Z" unicode="ĭ" />
<glyph horiz-adv-x="676" d="M 172 0 L 172 1516 L 504 1516 L 504 0 L 172 0 Z M 232 -383 C 156 -383 99 -369 60 -341 C 21 -313 2 -275 2 -225 C 2 -203 6 -181 16 -159 C 25 -137 38 -116 56 -96 C 72 -75 92 -55 115 -37 C 138 -18 163 -1 191 14 L 363 14 C 310 -20 273 -52 253 -83 C 232 -114 222 -144 222 -172 C 222 -182 223 -191 226 -201 C 228 -211 233 -220 241 -228 C 247 -235 257 -241 269 -245 C 281 -249 296 -252 316 -252 C 336 -252 354 -250 370 -247 C 386 -243 401 -239 415 -235 C 428 -229 440 -224 452 -218 C 464 -212 475 -206 486 -201 L 549 -301 C 507 -325 460 -345 408 -360 C 356 -375 298 -383 232 -383 Z" unicode="Į" />
<glyph horiz-adv-x="602" d="M 137 0 L 137 1092 L 465 1092 L 465 0 L 137 0 Z M 135 1241 L 135 1505 L 467 1505 L 467 1241 L 135 1241 Z M 197 -383 C 121 -383 64 -369 25 -341 C -13 -313 -33 -275 -33 -225 C -33 -203 -28 -181 -19 -159 C -9 -137 3 -116 21 -96 C 37 -75 57 -55 80 -37 C 103 -18 128 -1 156 14 L 328 14 C 275 -20 238 -52 218 -83 C 197 -114 187 -144 187 -172 C 187 -182 188 -191 191 -201 C 193 -211 198 -220 206 -228 C 212 -235 222 -241 234 -245 C 246 -249 261 -252 281 -252 C 301 -252 319 -250 335 -247 C 351 -243 366 -239 380 -235 C 393 -229 405 -224 417 -218 C 429 -212 440 -206 451 -201 L 514 -301 C 472 -325 425 -345 373 -360 C 321 -375 263 -383 197 -383 Z" unicode="į" />
<glyph horiz-adv-x="676" d="M 172 0 L 172 1516 L 504 1516 L 504 0 L 172 0 Z M 170 1896 L 508 1896 L 508 1628 L 170 1628 L 170 1896 Z" unicode="İ" />
<glyph horiz-adv-x="602" d="M 137 0 L 137 1092 L 465 1092 L 465 0 L 137 0 Z" unicode="ı" />
<glyph horiz-adv-x="1690" d="M 172 0 L 172 1516 L 504 1516 L 504 0 L 172 0 Z M 1056 -21 C 1003 -21 955 -16 912 -7 C 868 1 829 13 793 29 C 757 43 724 61 695 81 C 665 101 638 123 613 147 L 800 356 C 816 342 833 328 851 315 C 869 301 888 290 909 280 C 929 269 949 261 971 255 C 993 249 1015 246 1039 246 C 1069 246 1095 250 1119 260 C 1142 270 1162 285 1178 306 C 1194 326 1206 353 1215 386 C 1223 419 1228 459 1228 506 L 1228 1524 L 1562 1524 L 1562 454 C 1562 383 1552 318 1534 260 C 1515 202 1485 152 1445 111 C 1404 69 1352 36 1288 13 C 1224 -9 1146 -21 1056 -21 Z" unicode="Ĳ" />
<glyph horiz-adv-x="1204" d="M 137 0 L 137 1092 L 465 1092 L 465 0 L 137 0 Z M 135 1241 L 135 1505 L 467 1505 L 467 1241 L 135 1241 Z M 713 -408 C 697 -408 678 -407 657 -406 C 635 -405 615 -404 595 -403 C 575 -401 557 -399 542 -397 C 526 -395 516 -394 512 -393 L 512 -170 C 516 -171 522 -172 530 -174 C 537 -176 545 -177 554 -179 C 562 -179 571 -180 580 -181 C 589 -181 598 -182 606 -182 C 651 -182 684 -170 706 -147 C 728 -124 739 -86 739 -33 L 739 1100 L 1067 1100 L 1067 -96 C 1067 -121 1065 -146 1062 -172 C 1059 -197 1053 -221 1045 -245 C 1036 -267 1023 -289 1007 -309 C 991 -329 970 -346 944 -361 C 918 -375 886 -387 848 -395 C 810 -403 765 -408 713 -408 Z M 737 1249 L 737 1513 L 1069 1513 L 1069 1249 L 737 1249 Z" unicode="ĳ" />
<glyph horiz-adv-x="1096" d="M 463 -29 C 410 -29 362 -24 319 -15 C 275 -6 236 5 200 21 C 164 35 131 53 102 73 C 72 93 45 115 20 139 L 207 348 C 223 334 240 320 258 307 C 276 293 295 282 316 272 C 336 261 356 253 378 247 C 400 241 422 238 446 238 C 476 238 502 242 526 252 C 549 262 569 277 585 298 C 601 318 613 345 622 378 C 630 411 635 451 635 498 L 635 1516 L 969 1516 L 969 446 C 969 375 959 310 941 252 C 922 194 892 144 852 103 C 811 61 759 28 695 5 C 631 -17 553 -29 463 -29 Z M 690 1958 L 909 1958 L 1173 1607 L 987 1607 L 796 1759 L 612 1607 L 426 1607 L 690 1958 Z" unicode="Ĵ" />
<glyph horiz-adv-x="602" d="M 111 -416 C 95 -416 76 -415 55 -414 C 33 -413 13 -412 -7 -411 C -27 -409 -44 -407 -60 -405 C -75 -403 -85 -402 -90 -401 L -90 -180 C -85 -181 -79 -182 -72 -183 C -64 -184 -56 -185 -48 -187 C -39 -187 -30 -188 -21 -189 C -12 -189 -4 -190 4 -190 C 49 -190 82 -178 104 -155 C 126 -132 137 -94 137 -41 L 137 1092 L 465 1092 L 465 -104 C 465 -129 463 -154 460 -180 C 457 -205 451 -229 443 -253 C 434 -275 421 -297 405 -317 C 389 -337 368 -354 342 -369 C 316 -383 284 -395 246 -403 C 208 -411 163 -416 111 -416 Z M 193 1563 L 412 1563 L 676 1212 L 490 1212 L 299 1364 L 115 1212 L -71 1212 L 193 1563 Z" unicode="ĵ" />
<glyph horiz-adv-x="1470" d="M 702 -377 L 579 -377 L 579 -88 L 888 -88 L 888 -336 L 761 -602 L 624 -602 L 702 -377 Z M 156 0 L 156 1516 L 489 1516 L 489 889 L 997 1516 L 1386 1516 L 872 924 L 1440 0 L 1063 0 L 655 672 L 489 485 L 489 0 L 156 0 Z" unicode="Ķ" />
<glyph horiz-adv-x="1198" d="M 567 -377 L 444 -377 L 444 -88 L 753 -88 L 753 -336 L 626 -602 L 489 -602 L 567 -377 Z M 125 0 L 125 1516 L 455 1516 L 455 684 L 795 1092 L 1149 1092 L 793 684 L 1169 0 L 829 0 L 588 444 L 455 295 L 455 0 L 125 0 Z" unicode="ķ" />
<glyph horiz-adv-x="1198" d="M 127 1092 L 455 1092 L 455 684 L 795 1092 L 1149 1092 L 793 686 L 1169 0 L 829 0 L 588 444 L 455 295 L 455 0 L 127 0 L 127 1092 Z" unicode="ĸ" />
<glyph horiz-adv-x="1200" d="M 156 0 L 156 1516 L 489 1516 L 489 270 L 1157 270 L 1157 0 L 156 0 Z M 408 1958 L 739 1958 L 434 1603 L 217 1603 L 408 1958 Z" unicode="Ĺ" />
<glyph horiz-adv-x="602" d="M 137 0 L 137 1516 L 465 1516 L 465 0 L 137 0 Z M 376 1958 L 707 1958 L 402 1603 L 185 1603 L 376 1958 Z" unicode="ĺ" />
<glyph horiz-adv-x="1200" d="M 567 -377 L 444 -377 L 444 -88 L 753 -88 L 753 -336 L 626 -602 L 489 -602 L 567 -377 Z M 156 0 L 156 1516 L 489 1516 L 489 270 L 1157 270 L 1157 0 L 156 0 Z" unicode="Ļ" />
<glyph horiz-adv-x="602" d="M 268 -377 L 145 -377 L 145 -88 L 454 -88 L 454 -336 L 327 -602 L 190 -602 L 268 -377 Z M 137 0 L 137 1516 L 465 1516 L 465 0 L 137 0 Z" unicode="ļ" />
<glyph horiz-adv-x="1200" d="M 778 1224 L 655 1224 L 655 1513 L 964 1513 L 964 1265 L 837 999 L 700 999 L 778 1224 Z M 156 0 L 156 1516 L 489 1516 L 489 270 L 1157 270 L 1157 0 L 156 0 Z" unicode="Ľ" />
<glyph horiz-adv-x="602" d="M 659 1423 L 543 1423 L 543 1702 L 840 1702 L 840 1464 L 717 1208 L 586 1208 L 659 1423 Z M 137 0 L 137 1516 L 465 1516 L 465 0 L 137 0 Z" unicode="ľ" />
<glyph horiz-adv-x="1278" d="M 803 979 L 1110 979 L 1110 711 L 803 711 L 803 979 Z M 156 0 L 156 1516 L 489 1516 L 489 270 L 1157 270 L 1157 0 L 156 0 Z" unicode="Ŀ" />
<glyph horiz-adv-x="899" d="M 598 827 L 905 827 L 905 557 L 598 557 L 598 827 Z M 137 0 L 137 1516 L 465 1516 L 465 0 L 137 0 Z" unicode="ŀ" />
<glyph horiz-adv-x="1200" d="M 158 0 L 158 657 L -8 614 L -8 862 L 158 907 L 158 1516 L 489 1516 L 489 995 L 780 1073 L 780 823 L 489 748 L 489 270 L 1157 270 L 1157 0 L 158 0 Z" unicode="Ł" />
<glyph horiz-adv-x="692" d="M 184 805 L 45 766 L 45 1006 L 184 1044 L 184 1516 L 512 1516 L 512 1133 L 647 1169 L 647 930 L 512 893 L 512 0 L 184 0 L 184 805 Z" unicode="ł" />
<glyph horiz-adv-x="1591" d="M 156 0 L 156 1516 L 489 1516 L 1124 549 L 1128 549 L 1128 1516 L 1436 1516 L 1436 0 L 1128 0 L 467 975 L 463 975 L 463 0 L 156 0 Z M 811 1958 L 1142 1958 L 837 1603 L 620 1603 L 811 1958 Z" unicode="Ń" />
<glyph horiz-adv-x="1266" d="M 127 0 L 127 1092 L 457 1092 L 457 920 C 473 941 492 963 516 986 C 540 1009 567 1030 599 1050 C 629 1068 664 1084 703 1096 C 742 1108 786 1114 834 1114 C 880 1114 922 1108 961 1096 C 999 1084 1033 1065 1062 1040 C 1090 1014 1111 981 1127 941 C 1143 901 1151 853 1151 797 L 1151 0 L 823 0 L 823 692 C 823 742 813 779 793 804 C 773 829 740 842 694 842 C 650 842 608 831 570 811 C 531 791 493 765 457 733 L 457 0 L 127 0 Z M 616 1563 L 947 1563 L 642 1208 L 425 1208 L 616 1563 Z" unicode="ń" />
<glyph horiz-adv-x="1591" d="M 761 -377 L 638 -377 L 638 -88 L 947 -88 L 947 -336 L 820 -602 L 683 -602 L 761 -377 Z M 156 0 L 156 1516 L 489 1516 L 1124 549 L 1128 549 L 1128 1516 L 1436 1516 L 1436 0 L 1128 0 L 467 975 L 463 975 L 463 0 L 156 0 Z" unicode="Ņ" />
<glyph horiz-adv-x="1266" d="M 604 -377 L 481 -377 L 481 -88 L 790 -88 L 790 -336 L 663 -602 L 526 -602 L 604 -377 Z M 127 0 L 127 1092 L 457 1092 L 457 920 C 473 941 492 963 516 986 C 540 1009 567 1030 599 1050 C 629 1068 664 1084 703 1096 C 742 1108 786 1114 834 1114 C 880 1114 922 1108 961 1096 C 999 1084 1033 1065 1062 1040 C 1090 1014 1111 981 1127 941 C 1143 901 1151 853 1151 797 L 1151 0 L 823 0 L 823 692 C 823 742 813 779 793 804 C 773 829 740 842 694 842 C 650 842 608 831 570 811 C 531 791 493 765 457 733 L 457 0 L 127 0 Z" unicode="ņ" />
<glyph horiz-adv-x="1591" d="M 156 0 L 156 1516 L 489 1516 L 1124 549 L 1128 549 L 1128 1516 L 1436 1516 L 1436 0 L 1128 0 L 467 975 L 463 975 L 463 0 L 156 0 Z M 420 1960 L 606 1960 L 792 1808 L 981 1960 L 1167 1960 L 903 1609 L 684 1609 L 420 1960 Z" unicode="Ň" />
<glyph horiz-adv-x="1266" d="M 127 0 L 127 1092 L 457 1092 L 457 920 C 473 941 492 963 516 986 C 540 1009 567 1030 599 1050 C 629 1068 664 1084 703 1096 C 742 1108 786 1114 834 1114 C 880 1114 922 1108 961 1096 C 999 1084 1033 1065 1062 1040 C 1090 1014 1111 981 1127 941 C 1143 901 1151 853 1151 797 L 1151 0 L 823 0 L 823 692 C 823 742 813 779 793 804 C 773 829 740 842 694 842 C 650 842 608 831 570 811 C 531 791 493 765 457 733 L 457 0 L 127 0 Z M 264 1565 L 450 1565 L 636 1413 L 825 1565 L 1011 1565 L 747 1214 L 528 1214 L 264 1565 Z" unicode="ň" />
<glyph horiz-adv-x="1591" d="M 158 1516 L 489 1516 L 1124 549 L 1128 549 L 1128 1516 L 1436 1516 L 1436 4 C 1436 -59 1426 -116 1408 -168 C 1389 -220 1360 -264 1321 -301 C 1281 -337 1231 -366 1171 -386 C 1110 -406 1038 -416 954 -416 C 898 -416 849 -411 806 -403 C 763 -394 724 -382 690 -368 C 655 -352 624 -335 597 -315 C 569 -295 544 -274 520 -252 L 694 -33 C 708 -48 724 -63 742 -77 C 760 -91 779 -103 799 -115 C 819 -125 840 -134 863 -140 C 886 -146 910 -150 936 -150 C 982 -150 1021 -137 1053 -112 C 1085 -87 1106 -46 1116 12 L 1116 18 L 467 977 L 463 977 L 463 0 L 158 0 L 158 1516 Z" unicode="Ŋ" />
<glyph horiz-adv-x="1266" d="M 127 1092 L 457 1092 L 457 920 C 473 941 492 963 516 986 C 540 1009 567 1030 599 1050 C 629 1068 664 1084 703 1096 C 742 1108 786 1114 834 1114 C 880 1114 922 1108 961 1096 C 999 1084 1033 1065 1062 1040 C 1090 1014 1111 981 1127 941 C 1143 901 1151 853 1151 797 L 1151 -104 C 1151 -129 1149 -154 1146 -180 C 1143 -205 1137 -229 1129 -253 C 1120 -275 1107 -297 1091 -317 C 1075 -337 1054 -354 1028 -369 C 1002 -383 970 -395 932 -403 C 894 -411 849 -416 797 -416 C 781 -416 762 -415 741 -414 C 719 -413 699 -412 679 -411 C 659 -409 641 -407 626 -405 C 610 -403 600 -402 596 -401 L 596 -180 C 600 -181 606 -182 614 -183 C 621 -184 629 -185 638 -187 C 646 -187 655 -188 664 -189 C 673 -189 682 -190 690 -190 C 733 -190 766 -179 789 -159 C 811 -138 823 -103 823 -53 L 823 692 C 823 742 813 779 793 805 C 773 831 740 844 694 844 C 650 844 608 833 570 812 C 531 791 493 765 457 733 L 457 0 L 127 0 L 127 1092 Z" unicode="ŋ" />
<glyph horiz-adv-x="1597" d="M 799 -29 C 707 -29 618 -13 532 19 C 446 51 370 99 304 165 C 237 229 184 311 144 410 C 104 508 84 624 84 758 C 84 890 104 1006 144 1105 C 184 1203 237 1285 304 1351 C 370 1415 446 1464 532 1496 C 618 1528 707 1544 799 1544 C 859 1544 919 1536 978 1522 C 1036 1508 1092 1486 1145 1458 C 1197 1429 1246 1393 1291 1350 C 1336 1307 1375 1257 1408 1199 C 1440 1140 1465 1074 1483 1001 C 1501 927 1511 846 1511 758 C 1511 669 1501 588 1483 515 C 1465 441 1440 376 1408 318 C 1375 259 1336 208 1291 165 C 1246 121 1197 85 1145 57 C 1092 28 1036 6 978 -7 C 919 -21 859 -29 799 -29 Z M 799 240 C 857 240 909 252 956 276 C 1003 300 1043 334 1077 380 C 1109 424 1135 479 1153 543 C 1171 607 1180 678 1180 758 C 1180 837 1171 908 1153 971 C 1135 1034 1109 1088 1077 1132 C 1043 1176 1003 1209 956 1233 C 909 1256 857 1268 799 1268 C 739 1268 686 1256 639 1233 C 592 1209 552 1176 520 1132 C 487 1088 462 1034 444 971 C 426 908 418 837 418 758 C 418 678 426 607 444 543 C 462 479 487 424 520 380 C 552 334 592 300 639 276 C 686 252 739 240 799 240 Z M 456 1825 L 1136 1825 L 1136 1591 L 456 1591 L 456 1825 Z" unicode="Ō" />
<glyph horiz-adv-x="1247" d="M 625 -23 C 581 -23 536 -18 491 -10 C 446 -2 403 11 362 30 C 320 48 282 72 246 102 C 210 131 178 167 152 209 C 125 251 104 299 89 355 C 73 411 66 474 66 545 C 66 616 73 680 89 736 C 104 792 125 841 152 883 C 178 925 209 960 245 990 C 281 1019 320 1043 362 1062 C 403 1080 446 1093 491 1101 C 535 1109 580 1114 625 1114 C 669 1114 713 1109 758 1101 C 802 1093 845 1080 887 1062 C 928 1043 966 1019 1002 990 C 1038 960 1069 925 1096 883 C 1122 841 1143 792 1159 736 C 1174 680 1182 616 1182 545 C 1182 474 1174 411 1159 355 C 1143 299 1122 251 1096 209 C 1069 167 1038 131 1002 102 C 966 72 928 48 887 30 C 845 11 802 -2 758 -10 C 713 -18 669 -23 625 -23 Z M 625 209 C 663 209 697 217 726 233 C 754 249 778 271 797 301 C 815 330 829 365 838 406 C 847 447 852 493 852 543 C 852 588 847 631 839 671 C 831 711 818 746 800 776 C 781 805 757 828 729 846 C 700 863 665 872 625 872 C 585 872 551 864 522 848 C 493 832 469 809 451 781 C 431 752 417 717 408 677 C 399 636 395 591 395 543 C 395 497 399 453 407 413 C 415 373 429 338 447 308 C 465 277 488 253 518 235 C 547 217 583 209 625 209 Z M 282 1430 L 962 1430 L 962 1196 L 282 1196 L 282 1430 Z" unicode="ō" />
<glyph horiz-adv-x="1597" d="M 799 -29 C 707 -29 618 -13 532 19 C 446 51 370 99 304 165 C 237 229 184 311 144 410 C 104 508 84 624 84 758 C 84 890 104 1006 144 1105 C 184 1203 237 1285 304 1351 C 370 1415 446 1464 532 1496 C 618 1528 707 1544 799 1544 C 859 1544 919 1536 978 1522 C 1036 1508 1092 1486 1145 1458 C 1197 1429 1246 1393 1291 1350 C 1336 1307 1375 1257 1408 1199 C 1440 1140 1465 1074 1483 1001 C 1501 927 1511 846 1511 758 C 1511 669 1501 588 1483 515 C 1465 441 1440 376 1408 318 C 1375 259 1336 208 1291 165 C 1246 121 1197 85 1145 57 C 1092 28 1036 6 978 -7 C 919 -21 859 -29 799 -29 Z M 799 240 C 857 240 909 252 956 276 C 1003 300 1043 334 1077 380 C 1109 424 1135 479 1153 543 C 1171 607 1180 678 1180 758 C 1180 837 1171 908 1153 971 C 1135 1034 1109 1088 1077 1132 C 1043 1176 1003 1209 956 1233 C 909 1256 857 1268 799 1268 C 739 1268 686 1256 639 1233 C 592 1209 552 1176 520 1132 C 487 1088 462 1034 444 971 C 426 908 418 837 418 758 C 418 678 426 607 444 543 C 462 479 487 424 520 380 C 552 334 592 300 639 276 C 686 252 739 240 799 240 Z M 796 1581 C 738 1581 687 1590 643 1610 C 599 1630 562 1657 532 1692 C 502 1726 478 1766 462 1812 C 446 1858 436 1907 434 1960 L 610 1960 C 614 1922 623 1892 636 1870 C 648 1848 663 1831 681 1819 C 697 1806 716 1798 736 1794 C 756 1790 776 1788 796 1788 C 816 1788 836 1790 856 1794 C 876 1798 895 1806 913 1819 C 929 1831 944 1848 956 1870 C 968 1892 977 1922 982 1960 L 1158 1960 C 1155 1907 1146 1858 1130 1812 C 1114 1766 1091 1726 1061 1692 C 1031 1657 993 1630 949 1610 C 905 1590 854 1581 796 1581 Z" unicode="Ŏ" />
<glyph horiz-adv-x="1247" d="M 625 -23 C 581 -23 536 -18 491 -10 C 446 -2 403 11 362 30 C 320 48 282 72 246 102 C 210 131 178 167 152 209 C 125 251 104 299 89 355 C 73 411 66 474 66 545 C 66 616 73 680 89 736 C 104 792 125 841 152 883 C 178 925 209 960 245 990 C 281 1019 320 1043 362 1062 C 403 1080 446 1093 491 1101 C 535 1109 580 1114 625 1114 C 669 1114 713 1109 758 1101 C 802 1093 845 1080 887 1062 C 928 1043 966 1019 1002 990 C 1038 960 1069 925 1096 883 C 1122 841 1143 792 1159 736 C 1174 680 1182 616 1182 545 C 1182 474 1174 411 1159 355 C 1143 299 1122 251 1096 209 C 1069 167 1038 131 1002 102 C 966 72 928 48 887 30 C 845 11 802 -2 758 -10 C 713 -18 669 -23 625 -23 Z M 625 209 C 663 209 697 217 726 233 C 754 249 778 271 797 301 C 815 330 829 365 838 406 C 847 447 852 493 852 543 C 852 588 847 631 839 671 C 831 711 818 746 800 776 C 781 805 757 828 729 846 C 700 863 665 872 625 872 C 585 872 551 864 522 848 C 493 832 469 809 451 781 C 431 752 417 717 408 677 C 399 636 395 591 395 543 C 395 497 399 453 407 413 C 415 373 429 338 447 308 C 465 277 488 253 518 235 C 547 217 583 209 625 209 Z M 622 1186 C 564 1186 513 1195 469 1215 C 425 1235 388 1262 358 1297 C 328 1331 304 1371 288 1417 C 272 1463 262 1512 260 1565 L 436 1565 C 440 1527 449 1497 462 1475 C 474 1453 489 1436 507 1424 C 523 1411 542 1403 562 1399 C 582 1395 602 1393 622 1393 C 642 1393 662 1395 682 1399 C 702 1403 721 1411 739 1424 C 755 1436 770 1453 782 1475 C 794 1497 803 1527 808 1565 L 984 1565 C 981 1512 972 1463 956 1417 C 940 1371 917 1331 887 1297 C 857 1262 819 1235 775 1215 C 731 1195 680 1186 622 1186 Z" unicode="ŏ" />
<glyph horiz-adv-x="1597" d="M 799 -29 C 707 -29 618 -13 532 19 C 446 51 370 99 304 165 C 237 229 184 311 144 410 C 104 508 84 624 84 758 C 84 890 104 1006 144 1105 C 184 1203 237 1285 304 1351 C 370 1415 446 1464 532 1496 C 618 1528 707 1544 799 1544 C 859 1544 919 1536 978 1522 C 1036 1508 1092 1486 1145 1458 C 1197 1429 1246 1393 1291 1350 C 1336 1307 1375 1257 1408 1199 C 1440 1140 1465 1074 1483 1001 C 1501 927 1511 846 1511 758 C 1511 669 1501 588 1483 515 C 1465 441 1440 376 1408 318 C 1375 259 1336 208 1291 165 C 1246 121 1197 85 1145 57 C 1092 28 1036 6 978 -7 C 919 -21 859 -29 799 -29 Z M 799 240 C 857 240 909 252 956 276 C 1003 300 1043 334 1077 380 C 1109 424 1135 479 1153 543 C 1171 607 1180 678 1180 758 C 1180 837 1171 908 1153 971 C 1135 1034 1109 1088 1077 1132 C 1043 1176 1003 1209 956 1233 C 909 1256 857 1268 799 1268 C 739 1268 686 1256 639 1233 C 592 1209 552 1176 520 1132 C 487 1088 462 1034 444 971 C 426 908 418 837 418 758 C 418 678 426 607 444 543 C 462 479 487 424 520 380 C 552 334 592 300 639 276 C 686 252 739 240 799 240 Z M 638 1958 L 970 1958 L 642 1603 L 425 1603 L 638 1958 Z M 1046 1958 L 1378 1958 L 1036 1603 L 817 1603 L 1046 1958 Z" unicode="Ő" />
<glyph horiz-adv-x="1247" d="M 625 -23 C 581 -23 536 -18 491 -10 C 446 -2 403 11 362 30 C 320 48 282 72 246 102 C 210 131 178 167 152 209 C 125 251 104 299 89 355 C 73 411 66 474 66 545 C 66 616 73 680 89 736 C 104 792 125 841 152 883 C 178 925 209 960 245 990 C 281 1019 320 1043 362 1062 C 403 1080 446 1093 491 1101 C 535 1109 580 1114 625 1114 C 669 1114 713 1109 758 1101 C 802 1093 845 1080 887 1062 C 928 1043 966 1019 1002 990 C 1038 960 1069 925 1096 883 C 1122 841 1143 792 1159 736 C 1174 680 1182 616 1182 545 C 1182 474 1174 411 1159 355 C 1143 299 1122 251 1096 209 C 1069 167 1038 131 1002 102 C 966 72 928 48 887 30 C 845 11 802 -2 758 -10 C 713 -18 669 -23 625 -23 Z M 625 209 C 663 209 697 217 726 233 C 754 249 778 271 797 301 C 815 330 829 365 838 406 C 847 447 852 493 852 543 C 852 588 847 631 839 671 C 831 711 818 746 800 776 C 781 805 757 828 729 846 C 700 863 665 872 625 872 C 585 872 551 864 522 848 C 493 832 469 809 451 781 C 431 752 417 717 408 677 C 399 636 395 591 395 543 C 395 497 399 453 407 413 C 415 373 429 338 447 308 C 465 277 488 253 518 235 C 547 217 583 209 625 209 Z M 482 1563 L 814 1563 L 486 1208 L 269 1208 L 482 1563 Z M 890 1563 L 1222 1563 L 880 1208 L 661 1208 L 890 1563 Z" unicode="ő" />
<glyph horiz-adv-x="2314" d="M 778 -29 C 718 -29 659 -21 601 -7 C 543 6 488 28 437 57 C 385 85 337 121 294 165 C 250 208 213 259 182 318 C 150 376 126 441 108 515 C 90 588 82 669 82 758 C 82 890 102 1006 142 1105 C 182 1203 235 1285 302 1351 C 368 1415 444 1464 530 1496 C 616 1528 705 1544 797 1544 C 877 1544 952 1530 1022 1503 C 1092 1475 1154 1436 1208 1386 L 1208 1516 L 2206 1516 L 2206 1237 L 1507 1237 L 1507 911 L 2013 911 L 2013 647 L 1507 647 L 1507 270 L 2243 270 L 2243 0 L 1208 0 L 1208 131 C 1154 81 1091 41 1019 13 C 947 -14 867 -29 778 -29 Z M 797 240 C 855 240 907 252 954 276 C 1001 300 1041 334 1074 380 C 1106 424 1131 479 1149 543 C 1167 607 1176 678 1176 758 C 1176 837 1167 908 1149 971 C 1131 1034 1106 1088 1074 1132 C 1041 1176 1001 1209 954 1233 C 907 1256 855 1268 797 1268 C 737 1268 684 1256 637 1233 C 590 1209 550 1176 517 1132 C 483 1088 458 1034 440 971 C 422 908 414 837 414 758 C 414 678 422 607 440 543 C 458 479 483 424 517 380 C 550 334 590 300 637 276 C 684 252 737 240 797 240 Z" unicode="Œ" />
<glyph horiz-adv-x="1952" d="M 623 -23 C 579 -23 534 -18 490 -10 C 445 -2 402 11 361 30 C 319 48 281 72 245 102 C 209 131 178 167 152 209 C 125 251 104 299 89 355 C 73 411 66 474 66 545 C 66 616 73 680 88 736 C 103 792 124 841 151 883 C 177 925 208 960 244 990 C 280 1019 318 1043 360 1062 C 401 1080 444 1093 489 1101 C 533 1109 578 1114 623 1114 C 699 1114 770 1097 836 1065 C 902 1032 960 980 1008 909 C 1032 944 1059 975 1089 1001 C 1118 1027 1149 1048 1182 1065 C 1214 1081 1248 1094 1282 1102 C 1316 1110 1350 1114 1384 1114 C 1423 1114 1463 1110 1503 1103 C 1543 1096 1582 1084 1620 1067 C 1657 1049 1692 1025 1724 995 C 1756 965 1785 928 1810 884 C 1834 838 1853 785 1867 723 C 1881 661 1888 588 1888 506 L 1888 457 L 1167 457 C 1171 411 1179 373 1193 342 C 1207 310 1225 285 1247 266 C 1269 246 1294 231 1324 222 C 1353 213 1385 209 1419 209 C 1451 209 1482 212 1513 219 C 1543 226 1573 236 1601 248 C 1628 260 1653 273 1677 289 C 1701 304 1722 320 1741 338 L 1870 141 C 1806 87 1734 46 1655 18 C 1576 -9 1489 -23 1395 -23 C 1316 -23 1243 -7 1175 24 C 1107 55 1049 104 1001 170 C 955 103 900 54 834 23 C 768 -7 697 -23 623 -23 Z M 1593 651 C 1585 728 1563 785 1528 822 C 1493 858 1444 877 1382 877 C 1356 877 1332 872 1310 864 C 1287 855 1266 842 1248 824 C 1229 806 1213 782 1199 754 C 1185 725 1175 691 1169 651 L 1593 651 Z M 623 217 C 662 217 696 224 725 240 C 753 255 777 277 796 306 C 814 334 827 368 836 408 C 845 448 850 493 850 543 C 850 588 845 630 837 670 C 829 709 816 743 798 773 C 780 801 756 824 728 841 C 699 857 664 866 623 866 C 583 866 549 858 521 843 C 492 827 468 806 450 778 C 431 750 417 716 408 676 C 399 636 395 591 395 543 C 395 497 399 454 407 414 C 415 374 428 340 446 311 C 464 281 487 258 516 242 C 545 225 581 217 623 217 Z" unicode="œ" />
<glyph horiz-adv-x="1444" d="M 156 0 L 156 1516 L 725 1516 C 818 1516 901 1507 975 1490 C 1049 1472 1111 1445 1163 1408 C 1214 1370 1253 1321 1280 1262 C 1307 1202 1321 1131 1321 1047 C 1321 987 1314 933 1300 887 C 1286 840 1265 799 1239 764 C 1212 728 1179 698 1140 674 C 1101 649 1056 629 1006 614 L 1343 0 L 991 0 L 676 571 L 483 571 L 483 0 L 156 0 Z M 483 829 L 711 829 C 759 829 800 832 836 840 C 872 847 901 859 925 876 C 948 892 965 914 977 941 C 989 967 995 1000 995 1038 C 995 1112 971 1165 925 1196 C 878 1227 807 1243 711 1243 L 483 1243 L 483 829 Z M 747 1958 L 1078 1958 L 773 1603 L 556 1603 L 747 1958 Z" unicode="Ŕ" />
<glyph horiz-adv-x="866" d="M 125 0 L 125 1092 L 455 1092 L 455 909 L 457 909 C 471 931 489 955 510 979 C 531 1003 557 1026 587 1046 C 616 1066 650 1082 689 1095 C 728 1107 773 1114 825 1114 L 836 1114 L 831 821 C 827 821 822 822 815 823 C 807 823 799 824 791 825 C 782 825 773 826 765 826 C 757 826 750 827 745 827 C 712 827 681 823 653 815 C 624 807 598 796 574 783 C 549 769 527 753 507 735 C 487 717 470 698 455 678 L 455 0 L 125 0 Z M 462 1563 L 793 1563 L 488 1208 L 271 1208 L 462 1563 Z" unicode="ŕ" />
<glyph horiz-adv-x="1444" d="M 688 -377 L 565 -377 L 565 -88 L 874 -88 L 874 -336 L 747 -602 L 610 -602 L 688 -377 Z M 156 0 L 156 1516 L 725 1516 C 818 1516 901 1507 975 1490 C 1049 1472 1111 1445 1163 1408 C 1214 1370 1253 1321 1280 1262 C 1307 1202 1321 1131 1321 1047 C 1321 987 1314 933 1300 887 C 1286 840 1265 799 1239 764 C 1212 728 1179 698 1140 674 C 1101 649 1056 629 1006 614 L 1343 0 L 991 0 L 676 571 L 483 571 L 483 0 L 156 0 Z M 483 829 L 711 829 C 759 829 800 832 836 840 C 872 847 901 859 925 876 C 948 892 965 914 977 941 C 989 967 995 1000 995 1038 C 995 1112 971 1165 925 1196 C 878 1227 807 1243 711 1243 L 483 1243 L 483 829 Z" unicode="Ŗ" />
<glyph horiz-adv-x="866" d="M 256 -377 L 133 -377 L 133 -88 L 442 -88 L 442 -336 L 315 -602 L 178 -602 L 256 -377 Z M 125 0 L 125 1092 L 455 1092 L 455 909 L 457 909 C 471 931 489 955 510 979 C 531 1003 557 1026 587 1046 C 616 1066 650 1082 689 1095 C 728 1107 773 1114 825 1114 L 836 1114 L 831 821 C 827 821 822 822 815 823 C 807 823 799 824 791 825 C 782 825 773 826 765 826 C 757 826 750 827 745 827 C 712 827 681 823 653 815 C 624 807 598 796 574 783 C 549 769 527 753 507 735 C 487 717 470 698 455 678 L 455 0 L 125 0 Z" unicode="ŗ" />
<glyph horiz-adv-x="1444" d="M 156 0 L 156 1516 L 725 1516 C 818 1516 901 1507 975 1490 C 1049 1472 1111 1445 1163 1408 C 1214 1370 1253 1321 1280 1262 C 1307 1202 1321 1131 1321 1047 C 1321 987 1314 933 1300 887 C 1286 840 1265 799 1239 764 C 1212 728 1179 698 1140 674 C 1101 649 1056 629 1006 614 L 1343 0 L 991 0 L 676 571 L 483 571 L 483 0 L 156 0 Z M 483 829 L 711 829 C 759 829 800 832 836 840 C 872 847 901 859 925 876 C 948 892 965 914 977 941 C 989 967 995 1000 995 1038 C 995 1112 971 1165 925 1196 C 878 1227 807 1243 711 1243 L 483 1243 L 483 829 Z M 346 1960 L 532 1960 L 718 1808 L 907 1960 L 1093 1960 L 829 1609 L 610 1609 L 346 1960 Z" unicode="Ř" />
<glyph horiz-adv-x="866" d="M 125 0 L 125 1092 L 455 1092 L 455 909 L 457 909 C 471 931 489 955 510 979 C 531 1003 557 1026 587 1046 C 616 1066 650 1082 689 1095 C 728 1107 773 1114 825 1114 L 836 1114 L 831 821 C 827 821 822 822 815 823 C 807 823 799 824 791 825 C 782 825 773 826 765 826 C 757 826 750 827 745 827 C 712 827 681 823 653 815 C 624 807 598 796 574 783 C 549 769 527 753 507 735 C 487 717 470 698 455 678 L 455 0 L 125 0 Z M 60 1565 L 246 1565 L 432 1413 L 621 1565 L 807 1565 L 543 1214 L 324 1214 L 60 1565 Z" unicode="ř" />
<glyph horiz-adv-x="1417" d="M 719 -29 C 637 -29 562 -19 495 -1 C 428 17 368 43 316 77 C 262 109 216 148 176 194 C 136 240 102 290 74 344 L 326 494 C 346 452 371 416 400 384 C 429 352 461 325 497 303 C 531 281 569 264 609 253 C 649 241 691 236 735 236 C 773 236 809 239 841 246 C 873 253 901 264 925 279 C 948 293 966 311 979 333 C 992 355 999 380 999 410 C 999 438 992 463 979 484 C 965 505 946 524 920 541 C 894 557 862 573 824 587 C 786 601 742 615 692 629 C 646 641 601 654 557 667 C 512 680 469 695 429 712 C 387 728 349 747 314 769 C 278 791 248 817 222 848 C 196 878 175 912 161 952 C 146 992 139 1038 139 1092 C 139 1162 152 1225 178 1281 C 204 1337 242 1384 290 1424 C 338 1462 395 1492 463 1513 C 530 1533 604 1544 686 1544 C 764 1544 834 1535 896 1518 C 958 1500 1014 1477 1064 1449 C 1113 1420 1156 1387 1193 1350 C 1229 1312 1261 1273 1288 1233 L 1057 1057 C 1037 1089 1013 1118 985 1145 C 957 1171 928 1194 896 1213 C 863 1231 829 1246 793 1256 C 757 1266 720 1272 684 1272 C 613 1272 559 1258 521 1230 C 483 1202 465 1165 465 1120 C 465 1090 471 1064 485 1042 C 499 1020 519 1002 546 986 C 572 969 605 954 644 941 C 682 928 726 915 776 901 C 820 889 864 876 909 863 C 953 849 996 834 1037 817 C 1077 799 1115 779 1150 757 C 1185 734 1216 707 1242 677 C 1268 646 1288 610 1303 570 C 1317 530 1325 484 1325 432 C 1325 370 1313 312 1289 257 C 1265 201 1229 152 1180 110 C 1130 67 1067 33 991 8 C 915 -16 824 -29 719 -29 Z M 733 1958 L 1064 1958 L 759 1603 L 542 1603 L 733 1958 Z" unicode="Ś" />
<glyph horiz-adv-x="1094" d="M 555 -23 C 495 -23 439 -18 389 -10 C 339 -1 293 10 252 26 C 210 40 172 58 138 79 C 104 99 73 121 45 145 L 176 330 C 200 308 228 289 258 271 C 288 253 319 239 353 227 C 385 214 419 204 453 198 C 487 191 521 188 555 188 C 580 188 603 190 625 194 C 646 198 664 205 680 215 C 695 223 707 234 716 248 C 724 261 729 277 729 295 C 729 313 725 329 717 343 C 709 357 698 369 682 379 C 665 389 643 397 617 405 C 591 412 559 419 522 426 C 487 432 452 438 418 446 C 384 454 351 463 319 475 C 287 485 257 499 230 515 C 202 531 179 550 159 574 C 139 597 123 624 111 656 C 99 688 94 725 94 768 C 94 822 104 871 126 914 C 147 957 177 993 215 1023 C 252 1052 296 1074 348 1090 C 400 1106 456 1114 518 1114 C 574 1114 624 1110 670 1103 C 715 1096 757 1086 796 1074 C 834 1060 870 1044 903 1025 C 935 1006 967 985 997 961 L 868 774 C 812 812 758 841 704 862 C 650 882 598 893 547 893 C 499 893 463 884 437 867 C 411 850 399 827 399 797 C 399 780 402 766 410 754 C 418 742 430 732 446 724 C 462 714 482 706 506 699 C 530 692 560 686 594 680 C 630 674 665 667 701 660 C 737 652 771 643 804 633 C 836 621 867 608 895 592 C 923 576 948 557 969 535 C 989 512 1006 485 1018 454 C 1030 423 1036 387 1036 346 C 1036 280 1022 223 996 177 C 970 130 934 92 890 63 C 845 33 794 11 736 -2 C 678 -16 617 -23 555 -23 Z M 573 1563 L 904 1563 L 599 1208 L 382 1208 L 573 1563 Z" unicode="ś" />
</font>
</defs>
</svg>
