<?xml version="1.0" encoding="utf-8" ?><svg version="1.1" xmlns = 'http://www.w3.org/2000/svg'><defs><font id='web' horiz-adv-x="1000">
<font-face font-family="web" descent="-436" cap-height="1516" units-per-em="2048" bbox="-197,-485,2697,1965" x-height="1079" ascent="1612" />
<missing-glyph horiz-adv-x="1024" d="M 0 1434 L 1024 1434 L 1024 0 L 0 0 L 0 1434 Z M 102 102 L 922 102 L 922 1331 L 102 1331 L 102 102 Z" /><glyph horiz-adv-x="463" d="" unicode=" " />
<glyph horiz-adv-x="641" d="M 233 1516 L 410 1516 L 365 414 L 281 414 L 233 1516 Z M 233 190 L 412 190 L 412 0 L 233 0 L 233 190 Z" unicode="!" />
<glyph horiz-adv-x="829" d="M 518 1403 L 518 1516 L 662 1516 L 662 1403 L 627 1001 L 553 1001 L 518 1403 Z M 168 1403 L 168 1516 L 309 1516 L 309 1403 L 274 1001 L 203 1001 L 168 1403 Z" unicode="&#x22;" />
<glyph horiz-adv-x="1450" d="M 328 444 L 90 444 L 90 561 L 352 561 L 434 954 L 178 954 L 178 1071 L 459 1071 L 553 1516 L 684 1516 L 592 1071 L 983 1071 L 1077 1516 L 1208 1516 L 1114 1071 L 1360 1071 L 1360 954 L 1092 954 L 1008 561 L 1272 561 L 1272 444 L 985 444 L 891 0 L 760 0 L 852 444 L 461 444 L 367 0 L 236 0 L 328 444 Z M 877 561 L 958 954 L 567 954 L 483 561 L 877 561 Z" unicode="#" />
<glyph horiz-adv-x="1325" d="M 604 -8 C 536 -3 476 8 424 28 C 371 47 325 71 286 99 C 246 126 212 155 185 187 C 158 219 137 249 121 279 L 229 350 C 251 316 275 285 300 257 C 325 229 353 205 384 185 C 414 164 448 147 485 135 C 521 122 562 114 608 111 L 608 735 C 549 753 493 772 440 794 C 386 815 339 841 299 873 C 258 903 226 941 202 985 C 178 1029 166 1083 166 1147 C 166 1197 175 1245 195 1290 C 215 1335 243 1375 281 1409 C 318 1443 364 1470 418 1491 C 472 1512 534 1524 604 1528 L 604 1677 L 717 1677 L 717 1526 C 773 1520 822 1509 866 1493 C 910 1477 948 1457 982 1434 C 1014 1410 1043 1385 1067 1357 C 1091 1329 1112 1300 1130 1270 L 1022 1192 C 1002 1222 983 1249 964 1273 C 944 1297 923 1318 899 1336 C 875 1353 848 1367 818 1378 C 788 1389 753 1397 713 1401 L 713 842 C 773 824 833 804 891 782 C 949 760 1000 733 1046 701 C 1090 667 1126 626 1154 577 C 1182 528 1196 467 1196 395 C 1196 337 1185 285 1163 237 C 1141 189 1109 148 1069 114 C 1027 78 977 50 918 29 C 858 7 791 -5 717 -10 L 717 -190 L 604 -190 L 604 -8 Z M 713 113 C 759 115 803 122 845 133 C 886 143 922 159 954 181 C 984 202 1009 229 1027 263 C 1045 296 1055 337 1055 385 C 1055 433 1045 475 1027 509 C 1009 543 984 572 954 597 C 922 621 886 641 845 658 C 803 674 759 690 713 705 L 713 113 Z M 608 1405 C 556 1402 510 1394 472 1380 C 434 1366 402 1348 378 1326 C 353 1303 335 1277 323 1248 C 311 1219 305 1189 305 1157 C 305 1115 312 1080 328 1050 C 344 1020 366 994 394 973 C 421 951 453 932 490 916 C 526 900 566 885 608 872 L 608 1405 Z" unicode="$" />
<glyph horiz-adv-x="1987" d="M 467 627 C 412 627 363 638 321 660 C 279 682 243 713 215 753 C 186 792 164 839 149 894 C 134 949 127 1010 127 1077 C 127 1147 135 1210 151 1267 C 167 1324 190 1373 220 1413 C 249 1453 285 1483 327 1505 C 369 1527 417 1538 469 1538 C 521 1538 568 1527 610 1506 C 652 1484 687 1454 717 1415 C 745 1375 767 1327 783 1271 C 799 1215 807 1153 807 1085 C 807 1018 799 957 784 901 C 768 845 746 796 718 756 C 688 715 653 683 611 661 C 569 638 521 627 467 627 Z M 1520 -20 C 1464 -20 1416 -9 1374 13 C 1332 35 1296 66 1268 106 C 1238 145 1216 192 1202 247 C 1187 302 1180 363 1180 430 C 1180 500 1188 563 1204 620 C 1220 676 1243 725 1273 765 C 1302 805 1338 835 1380 857 C 1422 878 1470 889 1522 889 C 1574 889 1621 878 1663 857 C 1705 835 1740 805 1770 766 C 1798 726 1820 679 1836 623 C 1852 567 1860 505 1860 436 C 1860 370 1852 309 1837 253 C 1821 197 1799 149 1771 109 C 1741 68 1706 36 1664 14 C 1622 -8 1574 -20 1520 -20 Z M 1520 92 C 1554 92 1584 100 1610 118 C 1636 136 1658 160 1676 191 C 1693 221 1706 257 1715 299 C 1724 341 1729 386 1729 434 C 1729 485 1724 532 1715 574 C 1706 616 1693 652 1676 682 C 1658 712 1636 735 1610 751 C 1584 767 1554 776 1520 776 C 1484 776 1453 767 1427 750 C 1401 732 1379 709 1362 679 C 1344 648 1331 612 1322 570 C 1313 528 1309 484 1309 436 C 1309 384 1313 337 1322 295 C 1331 253 1345 217 1363 187 C 1380 157 1402 133 1428 117 C 1454 100 1485 92 1520 92 Z M 469 741 C 503 741 533 749 559 767 C 585 784 607 808 625 839 C 642 869 655 905 664 947 C 673 988 678 1033 678 1081 C 678 1132 673 1179 664 1221 C 654 1263 641 1299 623 1329 C 605 1359 583 1382 557 1398 C 531 1414 501 1423 467 1423 C 433 1423 402 1414 376 1397 C 350 1379 328 1356 310 1326 C 292 1295 278 1259 269 1218 C 260 1177 256 1133 256 1085 C 256 1033 260 986 270 944 C 279 902 293 866 311 836 C 329 806 351 782 378 766 C 404 749 435 741 469 741 Z M 1380 1516 L 1511 1516 L 606 0 L 475 0 L 1380 1516 Z" unicode="%" />
<glyph horiz-adv-x="1477" d="M 584 -29 C 500 -29 426 -19 364 0 C 301 19 249 46 207 82 C 165 117 133 159 113 209 C 92 259 82 314 82 375 C 82 430 91 480 110 526 C 128 571 154 613 187 651 C 219 689 256 723 299 754 C 342 785 388 814 438 840 C 403 900 377 958 360 1014 C 342 1070 334 1128 334 1188 C 334 1234 341 1278 356 1321 C 370 1363 392 1401 422 1435 C 451 1467 488 1494 532 1514 C 576 1534 627 1544 686 1544 C 738 1544 784 1536 824 1521 C 864 1506 897 1486 924 1460 C 950 1433 970 1402 984 1367 C 997 1331 1004 1293 1004 1253 C 1004 1201 994 1153 974 1111 C 954 1068 927 1029 893 994 C 858 958 817 925 771 895 C 724 865 674 836 621 809 C 639 781 659 751 683 719 C 706 687 732 654 760 618 C 810 553 856 496 900 446 C 943 396 984 352 1022 315 C 1065 371 1100 437 1126 512 C 1152 587 1171 669 1182 758 L 1319 758 C 1305 656 1282 561 1249 473 C 1215 385 1172 306 1118 238 C 1175 191 1228 158 1278 138 C 1328 118 1377 109 1425 109 L 1425 -20 C 1387 -18 1352 -14 1318 -8 C 1284 -1 1252 8 1220 21 C 1188 33 1156 48 1124 68 C 1092 88 1060 111 1026 139 C 967 87 901 46 829 16 C 757 -14 675 -29 584 -29 Z M 563 899 C 604 920 643 942 681 966 C 718 989 751 1015 779 1043 C 807 1070 829 1100 845 1133 C 861 1165 870 1202 870 1243 C 870 1267 866 1289 859 1311 C 852 1333 841 1352 827 1369 C 811 1385 792 1398 769 1408 C 745 1418 718 1423 686 1423 C 650 1423 619 1417 593 1406 C 566 1394 544 1379 527 1359 C 509 1339 495 1315 486 1287 C 477 1259 473 1228 473 1194 C 473 1144 480 1096 494 1050 C 508 1004 531 953 563 899 Z M 592 94 C 660 94 722 104 779 125 C 836 146 888 177 934 219 C 892 259 847 305 800 358 C 753 411 701 474 645 547 C 616 583 589 617 564 649 C 539 681 516 712 496 743 C 456 719 419 694 386 668 C 353 642 325 614 302 584 C 278 554 259 522 246 489 C 233 455 227 421 227 385 C 227 293 257 222 318 171 C 379 119 470 94 592 94 Z" unicode="&#x26;" />
<glyph horiz-adv-x="477" d="M 168 1403 L 168 1516 L 309 1516 L 309 1403 L 274 1001 L 203 1001 L 168 1403 Z" unicode="'" />
<glyph horiz-adv-x="813" d="M 639 -420 C 555 -350 482 -277 418 -203 C 354 -129 301 -51 259 29 C 215 109 183 193 161 281 C 139 369 129 461 129 559 C 129 656 139 748 161 836 C 183 924 215 1008 259 1089 C 301 1169 354 1247 418 1321 C 482 1395 555 1468 639 1538 L 702 1466 C 638 1408 581 1345 530 1277 C 478 1209 435 1137 399 1061 C 362 984 334 904 314 820 C 294 736 285 649 285 559 C 285 468 294 381 314 297 C 334 213 362 132 399 56 C 435 -20 479 -93 531 -161 C 583 -229 641 -292 705 -350 L 639 -420 Z" unicode="(" />
<glyph horiz-adv-x="813" d="M 109 -350 C 173 -292 231 -229 283 -161 C 335 -93 379 -20 416 56 C 452 132 480 213 500 297 C 520 381 530 468 530 559 C 530 649 520 736 500 820 C 480 904 452 984 416 1061 C 379 1137 335 1209 283 1277 C 231 1345 174 1408 111 1466 L 174 1538 C 257 1468 331 1395 395 1321 C 459 1247 512 1169 556 1089 C 598 1008 631 924 653 836 C 675 748 686 656 686 559 C 686 461 675 369 653 281 C 631 193 598 109 556 29 C 512 -51 459 -129 395 -203 C 331 -277 257 -350 174 -420 L 109 -350 Z" unicode=")" />
<glyph horiz-adv-x="1040" d="M 256 782 L 469 1092 L 94 1065 L 94 1178 L 471 1151 L 256 1460 L 358 1522 L 520 1180 L 682 1522 L 784 1460 L 571 1151 L 946 1178 L 946 1065 L 571 1092 L 784 782 L 682 723 L 520 1063 L 358 723 L 256 782 Z" unicode="*" />
<glyph horiz-adv-x="1303" d="M 588 612 L 135 612 L 135 735 L 588 735 L 588 1194 L 715 1194 L 715 735 L 1169 735 L 1169 612 L 715 612 L 715 154 L 588 154 L 588 612 Z" unicode="+" />
<glyph horiz-adv-x="549" d="M 254 0 L 186 0 L 186 193 L 362 193 L 362 18 L 270 -207 L 205 -207 L 254 0 Z" unicode="," />
<glyph horiz-adv-x="731" d="M 135 705 L 596 705 L 596 582 L 135 582 L 135 705 Z" unicode="-" />
<glyph horiz-adv-x="549" d="M 186 193 L 362 193 L 362 0 L 186 0 L 186 193 Z" unicode="." />
<glyph horiz-adv-x="1124" d="M 928 1516 L 1077 1516 L 197 0 L 47 0 L 928 1516 Z" unicode="/" />
<glyph horiz-adv-x="1337" d="M 670 -29 C 580 -29 501 -10 432 27 C 363 65 305 118 258 187 C 210 255 174 338 150 435 C 125 532 113 640 113 758 C 113 876 125 983 150 1080 C 174 1176 210 1259 258 1328 C 305 1396 363 1449 432 1487 C 501 1525 580 1544 670 1544 C 758 1544 837 1525 906 1487 C 975 1449 1033 1396 1080 1328 C 1126 1259 1162 1176 1186 1080 C 1210 983 1223 876 1223 758 C 1223 640 1210 532 1186 435 C 1162 338 1126 255 1080 187 C 1033 118 975 65 906 27 C 837 -10 758 -29 670 -29 Z M 670 98 C 734 98 791 112 842 141 C 892 169 935 212 971 268 C 1005 323 1032 392 1051 474 C 1069 556 1079 650 1079 758 C 1079 864 1069 959 1050 1041 C 1030 1123 1003 1191 968 1247 C 932 1302 888 1344 838 1372 C 788 1400 732 1415 670 1415 C 605 1415 547 1400 496 1372 C 445 1344 402 1302 367 1247 C 331 1191 304 1123 286 1041 C 267 959 258 864 258 758 C 258 650 267 556 287 474 C 306 392 334 323 370 268 C 406 212 449 169 500 141 C 550 112 607 98 670 98 Z" unicode="0" />
<glyph horiz-adv-x="885" d="M 123 131 L 408 131 L 408 1358 C 389 1348 368 1338 345 1330 C 321 1322 297 1315 273 1309 C 247 1302 222 1297 197 1293 C 172 1289 149 1288 127 1288 L 127 1417 C 185 1419 240 1428 290 1444 C 340 1460 382 1484 416 1516 L 551 1516 L 551 131 L 809 131 L 809 0 L 123 0 L 123 131 Z" unicode="1" />
<glyph horiz-adv-x="1202" d="M 98 33 C 98 87 105 141 121 195 C 137 248 164 302 203 357 C 241 411 292 468 358 526 C 423 584 506 645 606 709 C 662 745 711 779 752 811 C 792 843 826 875 852 907 C 877 939 896 972 908 1006 C 920 1040 926 1078 926 1120 C 926 1164 919 1205 905 1241 C 891 1277 872 1309 846 1335 C 819 1360 786 1380 748 1394 C 710 1408 666 1415 616 1415 C 532 1415 460 1393 399 1350 C 338 1307 285 1241 240 1153 L 125 1221 C 178 1323 246 1403 329 1459 C 412 1515 510 1544 623 1544 C 691 1544 753 1533 808 1513 C 862 1493 909 1464 948 1428 C 986 1390 1015 1346 1036 1295 C 1056 1244 1067 1188 1067 1128 C 1067 1076 1060 1029 1047 985 C 1033 941 1011 899 981 859 C 950 818 910 777 860 736 C 810 695 748 652 676 606 C 538 518 435 434 367 354 C 299 274 262 199 258 131 L 1073 131 L 1073 0 L 98 0 L 98 33 Z" unicode="2" />
<glyph horiz-adv-x="1210" d="M 582 -29 C 470 -29 369 -4 280 44 C 190 93 117 163 61 254 L 170 332 C 225 248 287 188 355 152 C 423 116 500 98 584 98 C 640 98 690 105 734 120 C 778 134 816 155 848 183 C 878 209 902 242 919 280 C 935 318 944 361 944 408 C 944 464 935 512 918 554 C 900 596 872 631 834 659 C 795 686 745 706 683 720 C 621 734 545 741 457 741 L 399 741 L 399 866 L 469 866 C 549 866 618 872 674 884 C 730 896 775 915 811 939 C 845 963 871 992 887 1028 C 903 1063 911 1104 911 1151 C 911 1189 905 1224 893 1256 C 881 1288 862 1316 837 1340 C 811 1363 777 1381 737 1395 C 696 1408 647 1415 590 1415 C 551 1415 515 1410 481 1401 C 447 1392 415 1380 385 1364 C 355 1347 327 1327 301 1305 C 275 1282 251 1257 229 1231 L 129 1315 C 156 1347 186 1378 219 1406 C 252 1434 288 1458 328 1479 C 366 1499 408 1514 453 1526 C 498 1538 546 1544 598 1544 C 678 1544 746 1533 804 1512 C 861 1491 908 1463 946 1429 C 982 1393 1009 1353 1027 1307 C 1044 1261 1053 1214 1053 1165 C 1053 1116 1046 1072 1032 1032 C 1018 992 998 957 973 927 C 947 896 915 870 878 850 C 841 830 800 815 754 807 C 867 783 951 739 1005 674 C 1059 608 1087 520 1087 408 C 1087 346 1075 288 1052 235 C 1028 181 995 135 952 97 C 908 57 854 26 792 4 C 730 -17 660 -29 582 -29 Z" unicode="3" />
<glyph horiz-adv-x="1241" d="M 797 367 L 68 367 L 68 475 L 758 1516 L 936 1516 L 936 496 L 1192 496 L 1192 367 L 936 367 L 936 0 L 797 0 L 797 367 Z M 797 496 L 797 1346 L 793 1346 L 231 496 L 797 496 Z" unicode="4" />
<glyph horiz-adv-x="1192" d="M 580 -29 C 524 -29 472 -22 423 -9 C 373 4 328 23 286 47 C 243 71 204 99 170 133 C 135 166 105 203 80 244 L 184 328 C 206 294 231 264 258 236 C 285 208 315 183 348 163 C 380 142 415 126 453 115 C 491 103 532 98 578 98 C 642 98 698 109 746 131 C 794 153 833 183 865 221 C 895 257 918 299 933 347 C 948 395 956 444 956 496 C 956 557 947 611 930 658 C 912 704 888 744 858 776 C 827 807 790 831 748 847 C 706 863 660 872 610 872 C 532 872 466 855 410 822 C 354 789 306 742 264 682 L 156 723 L 215 1516 L 1016 1516 L 1004 1382 L 336 1382 L 295 856 C 313 877 334 896 356 914 C 378 931 402 946 430 959 C 457 971 487 980 520 987 C 553 993 590 997 631 997 C 699 997 762 985 820 962 C 877 939 926 906 968 864 C 1009 820 1041 768 1065 707 C 1088 646 1100 578 1100 502 C 1100 426 1088 355 1064 291 C 1040 226 1005 170 961 123 C 915 75 860 38 796 11 C 732 -15 660 -29 580 -29 Z" unicode="5" />
<glyph horiz-adv-x="1251" d="M 651 -29 C 576 -29 506 -13 441 16 C 375 46 318 93 270 156 C 221 218 183 297 155 393 C 127 488 113 601 113 731 C 113 847 127 955 156 1055 C 185 1154 226 1240 279 1313 C 331 1385 394 1441 467 1482 C 539 1523 619 1544 707 1544 C 749 1544 787 1541 822 1535 C 857 1529 890 1521 920 1511 C 949 1500 976 1488 1001 1474 C 1025 1460 1048 1446 1069 1430 L 993 1319 C 973 1334 954 1348 934 1360 C 914 1372 892 1382 870 1391 C 847 1399 822 1406 795 1410 C 767 1414 736 1417 702 1417 C 632 1417 570 1399 515 1365 C 460 1330 413 1283 375 1223 C 336 1162 306 1091 286 1009 C 265 927 254 839 254 745 C 278 771 305 796 335 821 C 365 845 398 867 434 886 C 470 904 509 919 551 931 C 593 942 638 948 686 948 C 766 948 835 936 895 913 C 954 889 1003 857 1043 815 C 1081 773 1110 723 1130 665 C 1149 607 1159 543 1159 475 C 1159 403 1146 336 1122 275 C 1098 213 1064 160 1020 116 C 975 70 921 35 859 9 C 796 -16 727 -29 651 -29 Z M 657 96 C 711 96 760 104 805 121 C 849 137 887 162 919 195 C 950 227 974 266 992 313 C 1009 359 1018 413 1018 473 C 1018 523 1011 570 998 613 C 984 656 964 693 936 725 C 908 755 872 779 828 797 C 784 814 731 823 670 823 C 628 823 587 817 548 806 C 508 795 471 780 437 760 C 401 740 369 716 339 689 C 309 661 282 632 260 600 C 268 512 283 436 307 372 C 330 308 359 256 395 216 C 430 174 470 144 515 125 C 559 105 607 96 657 96 Z" unicode="6" />
<glyph horiz-adv-x="1124" d="M 883 1382 L 102 1382 L 102 1516 L 1034 1516 L 1034 1391 L 393 0 L 244 0 L 883 1382 Z" unicode="7" />
<glyph horiz-adv-x="1243" d="M 623 -31 C 537 -31 461 -20 394 0 C 327 20 271 49 225 85 C 178 121 142 163 118 211 C 94 259 82 311 82 367 C 82 420 91 468 109 510 C 127 552 154 590 189 625 C 223 659 264 691 314 720 C 364 749 420 777 483 805 C 431 827 384 851 344 876 C 303 900 268 928 240 958 C 211 987 189 1020 174 1056 C 159 1092 152 1134 152 1180 C 152 1226 162 1272 184 1316 C 205 1360 236 1399 277 1433 C 317 1467 366 1494 424 1515 C 482 1535 549 1546 623 1546 C 699 1546 766 1535 824 1515 C 882 1494 932 1467 972 1433 C 1011 1399 1041 1360 1061 1316 C 1081 1272 1092 1226 1092 1180 C 1092 1134 1084 1094 1069 1059 C 1054 1023 1033 991 1005 963 C 976 933 941 906 899 882 C 857 857 810 833 756 809 C 820 781 878 752 928 723 C 978 694 1020 663 1055 629 C 1089 594 1116 555 1134 513 C 1152 471 1161 422 1161 367 C 1161 313 1148 262 1124 214 C 1100 166 1065 124 1019 88 C 973 51 916 22 850 1 C 783 -20 707 -31 623 -31 Z M 629 864 C 685 888 734 912 775 934 C 815 956 849 979 875 1003 C 901 1026 920 1051 932 1079 C 944 1107 950 1138 950 1174 C 950 1204 943 1233 931 1263 C 918 1293 898 1320 872 1344 C 845 1367 811 1386 770 1401 C 728 1415 679 1423 623 1423 C 569 1423 521 1416 480 1402 C 438 1388 404 1369 377 1347 C 349 1323 328 1297 314 1268 C 300 1239 293 1210 293 1180 C 293 1144 299 1112 313 1084 C 326 1056 346 1030 374 1006 C 401 982 436 958 478 936 C 520 913 571 889 629 864 Z M 623 92 C 680 92 733 98 781 112 C 829 125 871 144 907 169 C 941 193 968 223 988 258 C 1008 292 1018 331 1018 375 C 1018 417 1009 456 991 490 C 973 524 948 555 914 585 C 879 613 836 641 786 667 C 736 693 678 720 614 748 C 546 718 488 689 440 662 C 391 634 351 606 319 578 C 287 548 263 517 248 485 C 232 452 225 415 225 375 C 225 333 234 295 254 261 C 274 226 301 196 337 172 C 372 146 414 127 463 113 C 511 99 565 92 623 92 Z" unicode="8" />
<glyph horiz-adv-x="1251" d="M 545 -29 C 501 -29 460 -25 422 -18 C 384 -11 350 -1 318 11 C 286 23 256 37 230 53 C 203 69 179 87 158 106 L 231 215 C 253 197 274 180 296 166 C 318 152 341 140 367 130 C 391 119 418 111 448 106 C 478 100 511 98 549 98 C 617 98 679 115 735 149 C 790 183 837 231 876 292 C 914 352 943 423 964 505 C 984 587 995 675 995 770 C 971 744 944 718 914 694 C 884 670 852 648 817 630 C 781 610 742 595 700 584 C 658 572 613 567 565 567 C 485 567 415 578 356 602 C 297 626 248 659 209 701 C 169 743 140 792 121 850 C 101 908 92 971 92 1040 C 92 1112 104 1178 128 1240 C 152 1301 187 1354 232 1400 C 276 1444 329 1479 392 1505 C 454 1531 524 1544 600 1544 C 674 1544 744 1528 810 1498 C 875 1468 932 1422 981 1360 C 1029 1297 1067 1218 1095 1122 C 1123 1026 1137 914 1137 784 C 1137 667 1122 559 1093 460 C 1064 360 1024 275 972 203 C 919 130 856 73 784 32 C 711 -8 631 -29 545 -29 Z M 582 692 C 624 692 664 697 704 708 C 743 719 780 735 815 755 C 849 775 881 798 911 826 C 941 853 967 883 991 915 C 983 1003 968 1078 944 1142 C 920 1205 891 1257 856 1298 C 820 1338 779 1368 734 1388 C 689 1407 642 1417 592 1417 C 538 1417 489 1408 445 1392 C 401 1375 363 1351 332 1320 C 300 1288 276 1248 259 1202 C 241 1155 233 1102 233 1042 C 233 991 239 944 253 902 C 266 859 287 822 316 792 C 344 760 380 736 424 718 C 468 700 520 692 582 692 Z" unicode="9" />
<glyph horiz-adv-x="555" d="M 188 1079 L 367 1079 L 367 885 L 188 885 L 188 1079 Z M 188 193 L 367 193 L 367 0 L 188 0 L 188 193 Z" unicode=":" />
<glyph horiz-adv-x="555" d="M 256 0 L 188 0 L 188 193 L 367 193 L 367 20 L 272 -207 L 207 -207 L 256 0 Z M 188 1079 L 367 1079 L 367 885 L 188 885 L 188 1079 Z" unicode=";" />
<glyph horiz-adv-x="1303" d="M 104 612 L 104 715 L 1188 1180 L 1188 1047 L 268 664 L 1188 281 L 1188 147 L 104 612 Z" unicode="&#x3C;" />
<glyph horiz-adv-x="1303" d="M 133 492 L 1167 492 L 1167 371 L 133 371 L 133 492 Z M 133 958 L 1167 958 L 1167 838 L 133 838 L 133 958 Z" unicode="=" />
<glyph horiz-adv-x="1303" d="M 117 281 L 1036 664 L 117 1047 L 117 1180 L 1200 715 L 1200 612 L 117 147 L 117 281 Z" unicode="&#x3E;" />
<glyph horiz-adv-x="1104" d="M 436 412 C 434 432 433 454 433 477 C 432 500 432 523 432 547 C 432 583 435 615 442 645 C 448 674 459 701 474 727 C 488 751 506 774 530 796 C 553 817 582 838 616 858 C 656 882 692 905 722 926 C 752 947 776 969 796 993 C 814 1015 828 1040 838 1068 C 847 1096 852 1129 852 1167 C 852 1205 845 1240 831 1271 C 817 1301 798 1327 772 1349 C 746 1370 714 1386 676 1398 C 638 1409 596 1415 549 1415 C 505 1415 466 1409 430 1399 C 394 1389 362 1375 333 1357 C 303 1338 275 1316 251 1291 C 226 1265 203 1238 182 1208 L 80 1286 C 107 1322 137 1356 169 1388 C 201 1420 236 1447 275 1471 C 313 1493 355 1511 402 1524 C 448 1537 500 1544 557 1544 C 623 1544 684 1535 738 1517 C 792 1499 838 1474 877 1442 C 915 1409 944 1370 965 1325 C 986 1279 997 1230 997 1176 C 997 1126 990 1082 977 1044 C 963 1006 945 973 922 944 C 898 914 870 887 838 864 C 806 840 771 818 735 797 C 706 780 682 764 662 749 C 642 733 625 718 612 702 C 598 686 587 669 579 651 C 571 633 566 612 562 590 C 558 566 555 540 554 511 C 553 482 553 449 553 412 L 436 412 Z M 406 190 L 584 190 L 584 0 L 406 0 L 406 190 Z" unicode="?" />
<glyph horiz-adv-x="1778" d="M 885 -29 C 770 -29 665 -10 569 28 C 473 66 390 119 321 189 C 251 257 196 340 158 437 C 119 533 100 640 100 758 C 100 875 119 982 159 1078 C 199 1174 254 1257 325 1327 C 395 1395 478 1449 574 1487 C 670 1525 775 1544 889 1544 C 1001 1544 1106 1525 1202 1487 C 1298 1449 1382 1397 1453 1330 C 1523 1262 1577 1182 1617 1088 C 1657 994 1677 890 1677 778 C 1677 706 1668 641 1651 584 C 1633 527 1609 479 1579 440 C 1548 400 1512 370 1470 350 C 1428 329 1383 319 1335 319 C 1301 319 1271 323 1245 331 C 1218 339 1195 350 1175 364 C 1154 378 1137 394 1124 413 C 1110 432 1100 453 1094 475 C 1044 429 991 393 935 366 C 879 339 818 326 752 326 C 708 326 667 332 629 345 C 591 358 559 378 532 406 C 504 432 482 466 467 507 C 451 548 444 597 444 653 C 444 730 454 802 475 870 C 496 938 526 997 564 1047 C 602 1097 647 1136 700 1165 C 752 1193 810 1208 874 1208 C 934 1208 986 1197 1028 1176 C 1070 1155 1107 1128 1141 1096 L 1155 1190 L 1272 1190 L 1184 588 C 1180 562 1180 537 1185 515 C 1190 493 1200 474 1214 458 C 1228 441 1246 428 1268 419 C 1290 410 1316 406 1346 406 C 1380 406 1411 413 1441 428 C 1471 442 1497 465 1519 496 C 1541 526 1558 564 1571 611 C 1584 657 1591 712 1591 776 C 1591 877 1573 970 1538 1054 C 1503 1138 1454 1211 1392 1272 C 1329 1332 1255 1378 1169 1412 C 1083 1445 990 1462 889 1462 C 787 1462 694 1444 608 1410 C 522 1376 449 1328 387 1266 C 325 1204 276 1129 242 1043 C 207 957 190 862 190 758 C 190 654 207 558 242 472 C 276 385 325 311 387 249 C 448 186 521 137 607 103 C 692 68 785 51 887 51 C 969 51 1043 60 1110 79 C 1176 97 1241 124 1305 160 L 1341 90 C 1276 54 1205 25 1128 3 C 1051 -18 970 -29 885 -29 Z M 770 426 C 822 426 871 435 917 455 C 963 475 1011 509 1061 557 L 1124 985 C 1089 1027 1051 1057 1011 1076 C 970 1094 922 1104 868 1104 C 823 1104 782 1092 745 1068 C 708 1044 677 1013 651 973 C 624 933 603 886 589 833 C 574 779 567 723 567 664 C 567 580 585 519 621 482 C 657 444 707 426 770 426 Z" unicode="@" />
<glyph horiz-adv-x="1378" d="M 610 1522 L 768 1522 L 1305 0 L 1153 0 L 991 467 L 377 467 L 215 0 L 74 0 L 610 1522 Z M 946 596 L 686 1350 L 682 1350 L 422 596 L 946 596 Z" unicode="A" />
<glyph horiz-adv-x="1403" d="M 195 1516 L 721 1516 C 806 1516 881 1507 945 1490 C 1009 1472 1063 1447 1107 1415 C 1149 1382 1181 1342 1203 1295 C 1224 1248 1235 1195 1235 1135 C 1235 1083 1227 1038 1212 998 C 1196 958 1176 924 1150 896 C 1124 866 1093 842 1058 824 C 1023 806 986 792 948 784 L 948 780 C 995 771 1039 757 1080 738 C 1121 719 1157 695 1187 665 C 1217 634 1240 598 1258 556 C 1275 514 1284 466 1284 412 C 1284 352 1273 296 1252 246 C 1231 196 1199 152 1157 116 C 1113 79 1059 50 994 30 C 929 10 853 0 766 0 L 195 0 L 195 1516 Z M 764 129 C 894 129 989 154 1050 204 C 1110 254 1141 325 1141 418 C 1141 469 1131 513 1111 551 C 1091 588 1064 619 1028 644 C 991 668 946 685 894 697 C 842 709 783 715 719 715 L 338 715 L 338 129 L 764 129 Z M 709 842 C 769 842 822 847 870 858 C 918 869 958 886 991 909 C 1023 931 1048 959 1066 993 C 1083 1027 1092 1068 1092 1116 C 1092 1209 1061 1277 1000 1320 C 939 1362 843 1384 713 1384 L 338 1384 L 338 842 L 709 842 Z" unicode="B" />
<glyph horiz-adv-x="1432" d="M 752 -29 C 656 -29 569 -10 491 27 C 413 64 347 117 293 187 C 237 255 195 338 165 436 C 135 534 121 643 121 764 C 121 878 136 983 166 1079 C 196 1175 239 1257 295 1326 C 349 1394 415 1448 493 1486 C 571 1524 657 1544 752 1544 C 828 1544 897 1533 957 1511 C 1017 1489 1069 1458 1115 1418 C 1159 1377 1197 1328 1227 1271 C 1257 1214 1282 1151 1300 1081 L 1161 1047 C 1144 1107 1124 1159 1101 1205 C 1077 1250 1049 1288 1017 1319 C 984 1349 946 1371 902 1387 C 858 1403 808 1411 750 1411 C 676 1411 610 1395 550 1365 C 490 1334 440 1291 398 1235 C 356 1179 323 1111 300 1032 C 277 953 266 865 266 768 C 266 662 277 568 301 486 C 324 404 357 334 400 278 C 442 220 493 177 553 147 C 613 117 680 102 754 102 C 867 102 959 134 1030 198 C 1100 262 1152 359 1186 487 L 1325 457 C 1306 382 1280 315 1246 255 C 1212 195 1172 144 1124 102 C 1076 60 1021 27 959 5 C 897 -17 828 -29 752 -29 Z" unicode="C" />
<glyph horiz-adv-x="1452" d="M 195 1516 L 578 1516 C 824 1516 1011 1452 1139 1325 C 1267 1198 1331 1010 1331 760 C 1331 634 1314 524 1282 430 C 1249 335 1201 256 1138 193 C 1074 129 995 80 901 48 C 807 16 700 0 578 0 L 195 0 L 195 1516 Z M 600 131 C 694 131 777 143 850 167 C 922 191 984 229 1034 281 C 1083 332 1121 397 1147 477 C 1173 556 1186 650 1186 760 C 1186 866 1173 959 1147 1037 C 1121 1115 1083 1179 1033 1231 C 982 1281 920 1319 847 1343 C 773 1367 690 1380 596 1380 L 340 1380 L 340 131 L 600 131 Z" unicode="D" />
<glyph horiz-adv-x="1237" d="M 195 1516 L 1100 1516 L 1100 1380 L 340 1380 L 340 866 L 907 866 L 907 735 L 340 735 L 340 133 L 1143 133 L 1143 0 L 195 0 L 195 1516 Z" unicode="E" />
<glyph horiz-adv-x="1157" d="M 195 1516 L 1081 1516 L 1081 1380 L 340 1380 L 340 858 L 889 858 L 889 727 L 340 727 L 340 0 L 195 0 L 195 1516 Z" unicode="F" />
<glyph horiz-adv-x="1481" d="M 743 -29 C 643 -29 555 -9 478 31 C 401 71 336 126 284 197 C 230 267 190 351 162 448 C 134 544 121 650 121 764 C 121 883 136 991 168 1087 C 200 1183 244 1265 300 1333 C 356 1400 422 1452 500 1489 C 577 1525 662 1544 754 1544 C 898 1544 1016 1504 1108 1426 C 1200 1347 1265 1231 1305 1079 L 1165 1047 C 1147 1109 1126 1162 1102 1208 C 1078 1254 1049 1292 1017 1322 C 983 1352 945 1374 901 1389 C 857 1403 808 1411 752 1411 C 686 1411 623 1397 565 1370 C 506 1343 455 1303 411 1250 C 366 1196 331 1130 305 1050 C 279 970 266 876 266 770 C 266 664 277 569 301 486 C 325 403 358 333 402 277 C 444 219 496 176 556 146 C 616 116 683 102 756 102 C 819 102 877 113 929 135 C 981 157 1025 188 1062 230 C 1098 271 1127 322 1147 382 C 1167 442 1176 511 1176 588 L 809 588 L 809 713 L 1317 713 L 1317 0 L 1186 0 L 1186 231 L 1182 231 C 1164 197 1143 165 1118 134 C 1092 102 1062 75 1027 51 C 991 27 950 7 903 -7 C 856 -21 803 -29 743 -29 Z" unicode="G" />
<glyph horiz-adv-x="1499" d="M 195 1516 L 340 1516 L 340 866 L 1161 866 L 1161 1516 L 1307 1516 L 1307 0 L 1161 0 L 1161 733 L 340 733 L 340 0 L 195 0 L 195 1516 Z" unicode="H" />
<glyph horiz-adv-x="575" d="M 215 1516 L 360 1516 L 360 0 L 215 0 L 215 1516 Z" unicode="I" />
<glyph horiz-adv-x="1020" d="M 430 -29 C 383 -29 341 -23 304 -13 C 266 -3 232 11 202 30 C 171 48 144 70 120 96 C 96 122 74 150 55 180 L 158 258 C 174 234 191 212 209 193 C 227 173 247 157 269 143 C 290 129 313 118 339 111 C 365 103 393 100 424 100 C 464 100 501 105 534 116 C 567 126 596 144 620 169 C 643 193 661 224 674 263 C 687 302 694 350 694 408 L 694 1516 L 840 1516 L 840 406 C 840 334 830 271 811 217 C 792 163 765 117 730 81 C 694 44 651 16 601 -1 C 550 -19 493 -29 430 -29 Z" unicode="J" />
<glyph horiz-adv-x="1368" d="M 195 1516 L 340 1516 L 340 698 L 1065 1516 L 1243 1516 L 723 942 L 1319 0 L 1151 0 L 625 829 L 340 518 L 340 0 L 195 0 L 195 1516 Z" unicode="K" />
<glyph horiz-adv-x="1157" d="M 195 1516 L 340 1516 L 340 133 L 1081 133 L 1081 0 L 195 0 L 195 1516 Z" unicode="L" />
<glyph horiz-adv-x="1784" d="M 195 1516 L 383 1516 L 891 188 L 895 188 L 1399 1516 L 1591 1516 L 1591 0 L 1446 0 L 1446 1270 L 1442 1270 C 1431 1236 1417 1195 1400 1148 C 1383 1101 1366 1053 1348 1004 L 954 0 L 821 0 L 428 1004 C 418 1028 410 1051 402 1072 C 394 1093 387 1114 380 1135 C 372 1155 364 1177 357 1199 C 349 1221 342 1246 334 1274 L 330 1274 L 330 0 L 195 0 L 195 1516 Z" unicode="M" />
<glyph horiz-adv-x="1522" d="M 195 1516 L 350 1516 L 1186 266 L 1190 266 L 1190 1516 L 1327 1516 L 1327 0 L 1198 0 L 336 1288 L 332 1288 L 332 0 L 195 0 L 195 1516 Z" unicode="N" />
<glyph horiz-adv-x="1520" d="M 760 -29 C 667 -29 581 -10 503 27 C 425 64 357 117 301 186 C 244 254 200 337 168 434 C 136 531 121 639 121 758 C 121 876 136 984 168 1081 C 200 1177 244 1260 301 1329 C 357 1397 425 1450 503 1488 C 581 1525 667 1544 760 1544 C 852 1544 938 1525 1016 1488 C 1094 1450 1161 1397 1218 1329 C 1274 1260 1319 1177 1351 1081 C 1383 984 1399 876 1399 758 C 1399 639 1383 531 1351 434 C 1319 337 1274 254 1218 186 C 1161 117 1094 64 1016 27 C 938 -10 852 -29 760 -29 Z M 760 102 C 832 102 898 116 958 146 C 1018 176 1071 219 1115 276 C 1158 332 1192 400 1216 481 C 1240 562 1253 654 1253 758 C 1253 860 1240 952 1216 1033 C 1192 1114 1158 1183 1115 1239 C 1071 1295 1018 1337 958 1367 C 898 1396 832 1411 760 1411 C 688 1411 621 1396 561 1367 C 501 1337 449 1295 406 1239 C 362 1183 327 1114 303 1033 C 278 952 266 860 266 758 C 266 654 278 562 303 481 C 327 400 362 332 406 276 C 449 219 501 176 561 146 C 621 116 688 102 760 102 Z" unicode="O" />
<glyph horiz-adv-x="1317" d="M 195 1516 L 698 1516 C 780 1516 854 1507 920 1490 C 986 1473 1042 1448 1088 1414 C 1133 1379 1168 1336 1192 1284 C 1216 1232 1229 1171 1229 1102 C 1229 1026 1215 960 1189 906 C 1162 852 1125 807 1077 773 C 1028 738 970 712 904 696 C 837 680 764 672 684 672 L 340 672 L 340 0 L 195 0 L 195 1516 Z M 694 801 C 756 801 812 806 860 816 C 908 826 949 844 983 868 C 1015 891 1040 921 1057 959 C 1074 997 1083 1043 1083 1098 C 1083 1149 1074 1193 1057 1229 C 1040 1265 1015 1294 983 1317 C 949 1339 908 1356 860 1366 C 811 1376 755 1382 692 1382 L 340 1382 L 340 801 L 694 801 Z" unicode="P" />
<glyph horiz-adv-x="1520" d="M 1130 -381 C 1054 -381 987 -372 931 -354 C 875 -336 828 -311 792 -279 C 754 -247 726 -209 708 -165 C 690 -121 680 -74 680 -23 C 597 -13 521 12 453 54 C 385 95 326 150 277 218 C 227 285 189 364 162 456 C 134 547 121 648 121 758 C 121 876 137 984 169 1081 C 201 1177 245 1260 303 1329 C 359 1397 427 1450 505 1488 C 583 1525 668 1544 760 1544 C 850 1544 935 1525 1013 1488 C 1091 1450 1158 1397 1216 1329 C 1273 1260 1318 1177 1350 1081 C 1382 984 1399 876 1399 758 C 1399 646 1384 544 1356 452 C 1328 360 1288 280 1238 212 C 1187 144 1126 89 1056 48 C 986 7 909 -17 825 -25 C 829 -70 840 -107 858 -136 C 876 -165 899 -188 929 -206 C 958 -223 992 -235 1031 -242 C 1070 -248 1113 -252 1161 -252 L 1266 -252 L 1266 -381 L 1130 -381 Z M 760 100 C 830 100 896 115 956 145 C 1016 175 1068 218 1112 275 C 1155 331 1189 399 1214 481 C 1238 562 1251 654 1251 758 C 1251 860 1238 952 1214 1033 C 1189 1114 1155 1183 1112 1239 C 1068 1295 1016 1337 956 1367 C 896 1396 830 1411 760 1411 C 688 1411 621 1396 561 1367 C 501 1337 449 1295 406 1239 C 362 1183 327 1114 303 1033 C 278 952 266 860 266 758 C 266 654 278 562 303 481 C 327 399 362 331 406 275 C 449 218 501 175 561 145 C 621 115 688 100 760 100 Z" unicode="Q" />
<glyph horiz-adv-x="1374" d="M 195 1516 L 702 1516 C 786 1516 861 1507 927 1489 C 992 1471 1047 1445 1092 1411 C 1136 1376 1170 1333 1194 1282 C 1217 1231 1229 1172 1229 1106 C 1229 1044 1220 990 1203 944 C 1185 897 1161 857 1130 824 C 1098 790 1059 763 1015 742 C 970 721 920 706 866 696 L 1249 0 L 1085 0 L 715 680 L 338 680 L 338 0 L 195 0 L 195 1516 Z M 692 809 C 754 809 810 813 858 823 C 906 833 947 849 981 872 C 1014 894 1039 924 1057 962 C 1074 999 1083 1045 1083 1100 C 1083 1152 1074 1196 1057 1232 C 1040 1268 1015 1297 982 1320 C 948 1342 907 1357 858 1367 C 809 1377 753 1382 690 1382 L 338 1382 L 338 809 L 692 809 Z" unicode="R" />
<glyph horiz-adv-x="1329" d="M 676 -29 C 604 -29 538 -19 478 -1 C 418 17 364 44 317 80 C 269 114 229 156 196 206 C 162 256 137 311 119 373 L 248 420 C 282 314 336 234 410 180 C 484 126 574 100 682 100 C 738 100 790 106 836 119 C 882 131 922 150 955 174 C 987 197 1012 226 1030 260 C 1048 294 1057 332 1057 375 C 1057 414 1051 449 1040 480 C 1028 510 1008 539 979 566 C 949 592 908 616 857 640 C 805 664 739 689 659 715 C 577 740 506 765 445 791 C 383 817 332 846 292 880 C 250 912 219 951 199 995 C 178 1039 168 1092 168 1155 C 168 1209 179 1259 202 1307 C 225 1354 258 1395 300 1431 C 341 1465 390 1493 448 1513 C 506 1533 569 1544 639 1544 C 710 1544 774 1535 830 1518 C 886 1500 936 1476 979 1446 C 1021 1415 1057 1378 1087 1336 C 1117 1293 1141 1246 1159 1196 L 1036 1139 C 998 1237 946 1307 879 1349 C 812 1391 731 1413 637 1413 C 586 1413 540 1406 500 1394 C 460 1381 426 1364 398 1342 C 370 1319 348 1292 333 1262 C 318 1232 311 1199 311 1165 C 311 1122 318 1086 332 1056 C 346 1026 369 999 402 975 C 434 951 476 928 530 906 C 584 884 651 861 731 836 C 809 810 878 784 937 757 C 996 730 1045 699 1085 665 C 1124 630 1153 590 1173 545 C 1192 499 1202 446 1202 385 C 1202 321 1188 264 1162 213 C 1136 162 1099 119 1053 83 C 1005 47 950 19 886 0 C 822 -19 752 -29 676 -29 Z" unicode="S" />
<glyph horiz-adv-x="1264" d="M 559 1380 L 70 1380 L 70 1516 L 1194 1516 L 1194 1380 L 705 1380 L 705 0 L 559 0 L 559 1380 Z" unicode="T" />
<glyph horiz-adv-x="1464" d="M 731 -27 C 637 -27 556 -13 487 15 C 418 43 361 81 316 130 C 270 178 235 234 213 300 C 191 366 180 436 180 512 L 180 1516 L 326 1516 L 326 537 C 326 475 334 417 350 364 C 366 311 390 266 424 228 C 457 189 499 159 550 137 C 601 115 662 104 733 104 C 803 104 863 114 915 135 C 966 156 1008 186 1042 224 C 1074 262 1099 307 1115 359 C 1131 411 1139 469 1139 532 L 1139 1516 L 1284 1516 L 1284 516 C 1284 440 1272 370 1249 304 C 1226 238 1192 180 1146 132 C 1100 82 1042 43 973 15 C 903 -12 823 -27 731 -27 Z" unicode="U" />
<glyph horiz-adv-x="1350" d="M 74 1516 L 223 1516 L 676 193 L 680 193 L 1135 1516 L 1276 1516 L 743 -6 L 606 -6 L 74 1516 Z" unicode="V" />
<glyph horiz-adv-x="1894" d="M 82 1516 L 229 1516 L 465 596 C 483 526 500 458 516 392 C 532 326 545 267 557 215 L 561 215 C 571 266 584 325 600 391 C 615 457 631 525 649 594 L 874 1516 L 1028 1516 L 1257 586 C 1274 517 1290 452 1305 392 C 1320 332 1333 273 1343 215 L 1348 215 C 1354 245 1361 274 1368 304 C 1374 333 1381 362 1389 392 C 1396 421 1404 451 1412 482 C 1420 513 1428 546 1436 580 L 1673 1516 L 1812 1516 L 1411 0 L 1274 0 L 952 1315 L 948 1315 L 623 0 L 485 0 L 82 1516 Z" unicode="W" />
<glyph horiz-adv-x="1346" d="M 594 813 L 133 1516 L 301 1516 L 678 928 L 1055 1516 L 1210 1516 L 754 813 L 1280 0 L 1124 0 L 670 698 L 215 0 L 66 0 L 594 813 Z" unicode="X" />
<glyph horiz-adv-x="1266" d="M 559 668 L 51 1516 L 209 1516 L 635 793 L 1059 1516 L 1214 1516 L 705 668 L 705 0 L 559 0 L 559 668 Z" unicode="Y" />
<glyph horiz-adv-x="1276" d="M 86 104 L 995 1393 L 145 1393 L 145 1516 L 1171 1516 L 1171 1409 L 266 123 L 1171 123 L 1171 0 L 86 0 L 86 104 Z" unicode="Z" />
<glyph horiz-adv-x="797" d="M 180 1516 L 700 1516 L 700 1407 L 324 1407 L 324 -301 L 700 -301 L 700 -410 L 180 -410 L 180 1516 Z" unicode="[" />
<glyph horiz-adv-x="1112" d="M 41 1516 L 190 1516 L 1071 0 L 922 0 L 41 1516 Z" unicode="\" />
<glyph horiz-adv-x="797" d="M 96 -301 L 473 -301 L 473 1405 L 96 1405 L 96 1516 L 616 1516 L 616 -410 L 96 -410 L 96 -301 Z" unicode="]" />
<glyph horiz-adv-x="1303" d="M 600 1516 L 705 1516 L 1167 692 L 1036 692 L 653 1370 L 268 692 L 137 692 L 600 1516 Z" unicode="^" />
<glyph horiz-adv-x="1024" d="M 0 -143 L 1024 -143 L 1024 -258 L 0 -258 L 0 -143 Z" unicode="_" />
<glyph horiz-adv-x="1024" d="M 297 1513 L 483 1513 L 678 1194 L 586 1194 L 297 1513 Z" unicode="`" />
<glyph horiz-adv-x="1120" d="M 403 -18 C 306 -18 231 5 178 53 C 124 101 98 167 98 252 C 98 305 110 355 135 401 C 159 447 200 489 258 527 C 315 565 390 598 483 628 C 576 658 691 683 829 705 L 829 760 C 829 834 810 890 773 926 C 735 962 681 981 610 981 C 567 981 527 976 491 968 C 454 959 419 947 387 933 C 354 917 323 899 293 879 C 263 858 235 835 207 811 L 131 899 C 163 929 196 956 232 981 C 267 1005 305 1027 346 1045 C 386 1062 428 1075 474 1085 C 520 1095 569 1100 623 1100 C 683 1100 734 1092 778 1076 C 822 1060 858 1038 887 1009 C 915 979 935 942 949 900 C 962 858 969 810 969 756 L 969 266 C 969 200 971 146 975 104 C 979 62 987 28 999 0 L 854 0 C 846 22 840 46 836 70 C 831 94 829 122 829 154 C 766 97 700 54 630 25 C 560 -3 484 -18 403 -18 Z M 434 98 C 510 98 581 113 647 143 C 713 173 773 214 829 268 L 829 604 C 713 584 618 563 542 539 C 466 515 405 489 361 461 C 315 433 283 403 265 371 C 247 339 238 305 238 270 C 238 213 255 170 290 141 C 325 112 373 98 434 98 Z" unicode="a" />
<glyph horiz-adv-x="1214" d="M 653 -18 C 583 -18 520 -2 463 27 C 405 57 353 97 305 147 L 305 0 L 164 0 L 164 1516 L 305 1516 L 305 922 C 326 946 349 968 375 990 C 400 1012 427 1031 457 1047 C 486 1063 518 1075 553 1085 C 587 1095 625 1100 666 1100 C 728 1100 786 1088 840 1065 C 894 1042 941 1008 981 962 C 1021 915 1052 857 1075 787 C 1098 717 1110 635 1110 541 C 1110 447 1098 365 1075 295 C 1051 225 1019 167 979 121 C 937 74 889 39 833 16 C 777 -6 717 -18 653 -18 Z M 641 100 C 688 100 732 108 772 125 C 812 142 847 169 877 205 C 905 240 928 285 944 341 C 960 396 969 462 969 539 C 969 613 960 678 943 734 C 925 789 902 835 873 872 C 843 908 808 934 768 952 C 728 970 685 979 641 979 C 607 979 576 974 547 966 C 517 958 489 946 462 931 C 434 915 408 896 382 874 C 356 852 331 827 305 801 L 305 276 C 359 219 412 175 466 145 C 520 115 578 100 641 100 Z" unicode="b" />
<glyph horiz-adv-x="1087" d="M 569 -23 C 507 -23 447 -10 391 14 C 335 39 285 76 243 124 C 199 171 165 229 140 299 C 114 369 102 449 102 539 C 102 635 115 719 143 790 C 171 860 207 919 253 965 C 297 1011 348 1045 406 1067 C 464 1089 523 1100 584 1100 C 642 1100 692 1092 736 1076 C 780 1060 818 1038 852 1012 C 884 984 912 953 936 917 C 960 881 980 844 997 805 L 877 752 C 847 824 808 880 762 920 C 716 959 655 979 580 979 C 540 979 500 971 460 956 C 420 940 384 915 352 881 C 320 846 294 801 274 745 C 254 689 244 621 244 541 C 244 470 252 407 269 352 C 286 297 309 251 339 214 C 368 176 403 147 443 127 C 483 107 527 98 575 98 C 612 98 646 102 676 111 C 706 120 733 134 758 153 C 782 171 805 195 825 224 C 845 253 865 288 885 328 L 999 279 C 977 233 953 191 926 154 C 899 117 868 86 834 60 C 799 33 760 12 716 -1 C 672 -15 623 -23 569 -23 Z" unicode="c" />
<glyph horiz-adv-x="1214" d="M 549 -18 C 487 -18 429 -6 375 16 C 321 38 274 73 234 119 C 193 165 161 223 138 293 C 115 363 104 445 104 539 C 104 633 115 715 139 785 C 162 855 194 914 236 961 C 276 1007 324 1041 380 1065 C 436 1088 496 1100 561 1100 C 595 1100 629 1095 662 1087 C 694 1078 726 1066 756 1052 C 785 1036 812 1018 838 998 C 864 977 887 955 909 932 L 909 1516 L 1051 1516 L 1051 266 C 1051 200 1053 146 1058 104 C 1062 62 1071 28 1083 0 L 934 0 C 928 18 922 42 917 71 C 911 99 909 128 909 158 C 887 134 863 111 838 90 C 813 68 786 50 757 34 C 727 18 695 5 661 -4 C 627 -13 589 -18 549 -18 Z M 573 102 C 606 102 637 106 667 114 C 697 122 725 134 753 150 C 780 165 806 183 832 205 C 858 227 883 251 909 279 L 909 803 C 855 861 802 905 748 935 C 694 965 635 981 573 981 C 525 981 482 972 442 954 C 402 936 367 910 339 874 C 309 837 286 791 270 735 C 254 679 246 613 246 537 C 246 463 254 398 272 344 C 289 289 312 244 342 208 C 371 172 405 145 445 128 C 485 110 527 102 573 102 Z" unicode="d" />
<glyph horiz-adv-x="1118" d="M 575 -23 C 512 -23 452 -11 395 13 C 338 37 288 73 245 121 C 201 168 166 227 140 297 C 114 367 102 449 102 541 C 102 637 116 720 144 790 C 172 860 208 918 254 964 C 298 1010 349 1044 405 1066 C 461 1088 518 1100 575 1100 C 637 1100 696 1088 750 1064 C 804 1040 850 1004 890 958 C 929 910 960 852 982 782 C 1004 712 1016 631 1016 539 L 1016 512 L 244 512 C 244 445 254 386 272 334 C 290 282 314 239 345 204 C 375 168 411 141 452 123 C 493 105 537 96 584 96 C 624 96 660 100 692 109 C 724 117 754 130 782 147 C 808 163 833 184 855 208 C 877 232 899 261 920 293 L 1008 223 C 984 185 957 150 929 120 C 900 90 868 64 833 43 C 797 21 758 5 716 -6 C 673 -17 626 -23 575 -23 Z M 879 625 C 875 675 866 722 852 766 C 838 810 818 848 793 880 C 767 911 736 936 700 954 C 663 972 621 981 573 981 C 534 981 496 973 460 959 C 423 945 390 923 361 894 C 331 864 306 827 286 783 C 266 738 252 685 246 625 L 879 625 Z" unicode="e" />
<glyph horiz-adv-x="676" d="M 244 958 L 55 958 L 55 1079 L 244 1079 L 244 1241 C 244 1332 269 1401 321 1448 C 372 1494 449 1518 553 1518 C 566 1518 581 1517 597 1516 C 613 1515 625 1514 635 1513 L 635 1395 C 626 1396 615 1397 601 1398 C 587 1398 574 1399 563 1399 C 537 1399 513 1396 491 1391 C 469 1385 451 1377 435 1365 C 419 1353 406 1337 398 1317 C 389 1297 385 1272 385 1243 L 385 1079 L 623 1079 L 623 958 L 385 958 L 385 0 L 244 0 L 244 958 Z" unicode="f" />
<glyph horiz-adv-x="1155" d="M 557 -414 C 469 -414 393 -407 329 -395 C 265 -382 212 -364 170 -341 C 128 -317 96 -289 76 -255 C 55 -221 45 -184 45 -143 C 45 -87 62 -39 97 2 C 132 44 181 77 244 102 C 212 115 187 133 171 156 C 155 179 147 207 147 240 C 147 272 159 302 183 329 C 207 356 239 380 279 401 C 227 434 186 477 158 531 C 129 584 115 644 115 711 C 115 768 125 820 147 868 C 168 916 198 957 236 992 C 274 1026 319 1052 371 1071 C 423 1090 479 1100 541 1100 C 603 1100 661 1090 713 1071 C 765 1051 810 1024 848 989 C 864 1001 881 1012 901 1023 C 921 1033 942 1043 964 1052 C 986 1060 1008 1068 1031 1074 C 1054 1080 1076 1084 1098 1087 L 1098 954 C 1066 954 1033 951 999 946 C 965 940 932 931 901 918 C 921 890 937 859 948 825 C 959 791 965 753 965 711 C 965 651 954 598 932 551 C 910 504 881 464 843 431 C 805 397 760 372 708 354 C 656 336 601 328 541 328 C 509 328 479 330 450 335 C 421 340 393 348 367 358 C 341 348 320 335 304 320 C 288 304 281 286 281 266 C 281 254 283 244 289 236 C 294 227 303 219 316 213 C 328 206 344 200 364 196 C 384 191 410 187 440 184 L 676 166 C 800 155 895 127 960 83 C 1024 39 1057 -25 1057 -109 C 1057 -158 1044 -201 1020 -239 C 996 -277 962 -309 918 -335 C 874 -361 821 -380 760 -394 C 698 -407 631 -414 557 -414 Z M 543 436 C 587 436 626 442 662 455 C 697 468 727 487 753 511 C 777 534 796 562 810 596 C 824 630 831 667 831 709 C 831 751 824 790 811 824 C 798 858 779 888 755 912 C 730 936 700 954 664 967 C 628 980 587 987 541 987 C 496 987 456 980 420 967 C 384 953 354 935 330 911 C 304 887 285 857 272 823 C 258 789 252 751 252 709 C 252 667 258 630 272 596 C 286 562 306 534 332 511 C 357 487 387 468 423 455 C 459 442 499 436 543 436 Z M 571 -303 C 626 -303 676 -298 720 -290 C 764 -281 801 -269 832 -253 C 862 -237 885 -217 901 -195 C 917 -173 926 -148 926 -121 C 926 -95 920 -72 910 -53 C 899 -33 882 -17 859 -4 C 835 10 804 21 767 30 C 729 38 684 45 631 49 L 416 66 L 360 72 C 300 52 255 25 225 -10 C 195 -46 180 -84 180 -125 C 180 -181 211 -225 273 -256 C 335 -287 435 -303 571 -303 Z" unicode="g" />
<glyph horiz-adv-x="1190" d="M 164 1516 L 305 1516 L 305 909 C 331 935 359 959 389 982 C 419 1005 452 1025 487 1043 C 521 1060 557 1074 595 1084 C 633 1094 674 1100 717 1100 C 823 1100 903 1071 957 1015 C 1011 959 1038 880 1038 780 L 1038 0 L 897 0 L 897 754 C 897 830 879 886 845 923 C 810 960 756 979 682 979 C 612 979 547 962 487 928 C 426 894 365 849 305 791 L 305 0 L 164 0 L 164 1516 Z" unicode="h" />
<glyph horiz-adv-x="492" d="M 176 1079 L 317 1079 L 317 0 L 176 0 L 176 1079 Z M 172 1481 L 322 1481 L 322 1329 L 172 1329 L 172 1481 Z" unicode="i" />
<glyph horiz-adv-x="492" d="M 90 -412 C 84 -412 77 -411 69 -411 C 61 -411 53 -410 45 -410 C 37 -408 29 -407 22 -406 C 14 -405 9 -404 6 -403 L 6 -291 C 14 -293 24 -294 36 -296 C 47 -298 58 -299 70 -299 C 102 -299 128 -289 147 -270 C 166 -250 176 -220 176 -178 L 176 1079 L 317 1079 L 317 -180 C 317 -217 313 -250 305 -279 C 297 -307 284 -332 266 -352 C 248 -371 224 -386 195 -396 C 166 -406 131 -412 90 -412 Z M 172 1481 L 322 1481 L 322 1329 L 172 1329 L 172 1481 Z" unicode="j" />
<glyph horiz-adv-x="1085" d="M 164 1516 L 305 1516 L 305 510 L 819 1079 L 985 1079 L 633 698 L 1028 0 L 874 0 L 539 590 L 305 340 L 305 0 L 164 0 L 164 1516 Z" unicode="k" />
<glyph horiz-adv-x="492" d="M 176 1516 L 317 1516 L 317 0 L 176 0 L 176 1516 Z" unicode="l" />
<glyph horiz-adv-x="1870" d="M 164 1079 L 305 1079 L 305 909 C 332 935 360 960 390 984 C 419 1007 450 1027 483 1045 C 515 1061 550 1075 586 1085 C 622 1095 660 1100 700 1100 C 746 1100 785 1095 819 1085 C 853 1075 882 1062 906 1046 C 929 1028 948 1008 963 984 C 977 960 989 933 997 905 C 1025 931 1054 956 1085 980 C 1116 1004 1149 1025 1183 1043 C 1217 1060 1252 1074 1289 1084 C 1326 1094 1365 1100 1405 1100 C 1460 1100 1507 1092 1547 1077 C 1586 1062 1618 1041 1644 1013 C 1668 985 1686 951 1698 912 C 1710 872 1716 828 1716 780 L 1716 0 L 1575 0 L 1575 754 C 1575 792 1571 825 1564 853 C 1557 881 1546 904 1531 923 C 1515 941 1494 955 1468 965 C 1442 974 1410 979 1372 979 C 1339 979 1307 974 1277 966 C 1247 957 1217 945 1188 929 C 1158 912 1129 892 1100 869 C 1071 845 1042 819 1012 791 L 1012 0 L 870 0 L 870 754 C 870 792 866 825 859 853 C 852 881 841 904 825 923 C 809 941 788 955 762 965 C 736 974 704 979 666 979 C 601 979 540 962 482 928 C 424 894 365 849 305 791 L 305 0 L 164 0 L 164 1079 Z" unicode="m" />
<glyph horiz-adv-x="1190" d="M 164 1079 L 305 1079 L 305 909 C 331 935 359 959 389 982 C 419 1005 452 1025 487 1043 C 521 1060 557 1074 595 1084 C 633 1094 674 1100 717 1100 C 823 1100 903 1071 957 1015 C 1011 959 1038 880 1038 780 L 1038 0 L 897 0 L 897 754 C 897 830 879 886 845 923 C 810 960 756 979 682 979 C 612 979 547 962 487 928 C 426 894 365 849 305 791 L 305 0 L 164 0 L 164 1079 Z" unicode="n" />
<glyph horiz-adv-x="1182" d="M 592 -23 C 526 -23 463 -10 404 14 C 344 39 292 76 248 124 C 203 171 167 229 141 299 C 115 369 102 449 102 539 C 102 629 115 708 141 778 C 167 848 202 907 247 955 C 291 1002 343 1038 403 1063 C 462 1087 525 1100 592 1100 C 658 1100 720 1087 779 1063 C 838 1038 890 1002 935 955 C 979 907 1014 848 1040 778 C 1066 708 1079 629 1079 539 C 1079 449 1066 369 1040 299 C 1014 229 979 171 935 124 C 890 76 838 39 779 14 C 720 -10 658 -23 592 -23 Z M 592 98 C 646 98 694 108 737 130 C 780 152 817 182 847 222 C 876 261 898 308 914 362 C 930 416 938 475 938 541 C 938 599 930 655 916 708 C 901 761 879 808 851 848 C 821 888 785 919 742 943 C 698 967 648 979 592 979 C 537 979 488 968 445 946 C 402 924 366 894 336 856 C 306 816 283 770 267 716 C 251 662 244 604 244 541 C 244 481 251 424 265 370 C 279 316 301 270 331 230 C 359 189 395 157 439 133 C 483 109 534 98 592 98 Z" unicode="o" />
<glyph horiz-adv-x="1214" d="M 164 1079 L 305 1079 L 305 926 C 326 948 349 970 375 991 C 400 1012 427 1031 457 1047 C 486 1063 518 1075 553 1085 C 587 1095 625 1100 666 1100 C 728 1100 786 1088 840 1065 C 894 1042 941 1008 981 962 C 1021 915 1052 857 1075 787 C 1098 717 1110 635 1110 541 C 1110 447 1098 365 1075 295 C 1051 225 1019 167 979 121 C 937 74 889 39 833 16 C 777 -6 717 -18 653 -18 C 583 -18 520 -2 463 27 C 405 57 353 97 305 147 L 305 -410 L 164 -410 L 164 1079 Z M 641 100 C 688 100 732 108 772 125 C 812 142 847 169 877 205 C 905 240 928 285 944 341 C 960 396 969 462 969 539 C 969 613 960 678 943 734 C 925 789 902 835 873 872 C 843 908 808 934 768 952 C 728 970 685 979 641 979 C 607 979 576 974 547 966 C 517 958 489 946 462 931 C 434 915 408 896 382 874 C 356 852 331 827 305 801 L 305 276 C 359 219 412 175 466 145 C 520 115 578 100 641 100 Z" unicode="p" />
<glyph horiz-adv-x="1214" d="M 909 158 C 887 134 863 111 838 90 C 813 68 786 50 757 34 C 727 18 695 5 661 -4 C 627 -13 589 -18 549 -18 C 487 -18 429 -6 375 16 C 321 38 274 73 234 119 C 193 165 161 223 138 293 C 115 363 104 445 104 539 C 104 633 115 715 139 785 C 162 855 194 914 236 961 C 276 1007 324 1041 380 1065 C 436 1088 496 1100 561 1100 C 630 1100 693 1084 751 1054 C 808 1023 861 984 909 936 L 909 1079 L 1051 1079 L 1051 -410 L 909 -410 L 909 158 Z M 573 102 C 606 102 637 106 667 114 C 697 122 725 134 753 150 C 780 165 806 183 832 205 C 858 227 883 251 909 279 L 909 803 C 855 861 802 905 748 935 C 694 965 635 981 573 981 C 525 981 482 972 442 954 C 402 936 367 910 339 874 C 309 837 286 791 270 735 C 254 679 246 613 246 537 C 246 463 254 398 272 344 C 289 289 312 244 342 208 C 371 172 405 145 445 128 C 485 110 527 102 573 102 Z" unicode="q" />
<glyph horiz-adv-x="809" d="M 164 1079 L 305 1079 L 305 866 L 309 866 C 329 899 353 930 381 958 C 408 986 439 1011 475 1033 C 509 1053 548 1070 592 1082 C 635 1094 683 1100 737 1100 L 762 1100 L 748 969 C 744 969 741 969 738 969 C 734 969 731 970 728 970 C 722 970 717 970 713 970 C 709 970 706 971 705 971 C 615 971 537 947 469 900 C 401 853 347 787 305 702 L 305 0 L 164 0 L 164 1079 Z" unicode="r" />
<glyph horiz-adv-x="1036" d="M 512 -20 C 464 -20 418 -15 376 -5 C 333 4 294 17 259 35 C 223 51 190 71 162 95 C 133 118 108 144 88 172 L 178 254 C 219 206 267 168 321 140 C 375 112 439 98 514 98 C 606 98 676 114 724 147 C 771 179 795 226 795 287 C 795 317 789 342 778 364 C 767 385 750 404 726 421 C 702 437 671 451 633 464 C 595 477 550 490 498 502 C 436 517 381 533 335 550 C 288 567 249 588 218 612 C 186 636 162 664 146 697 C 130 729 123 769 123 817 C 123 855 131 892 147 926 C 163 960 187 991 219 1017 C 249 1042 287 1062 333 1077 C 379 1092 431 1100 489 1100 C 535 1100 577 1096 616 1089 C 654 1081 690 1071 723 1058 C 755 1044 784 1027 812 1008 C 839 988 865 967 889 944 L 809 850 C 767 891 721 923 670 947 C 618 971 560 983 494 983 C 452 983 416 978 386 969 C 356 960 332 948 314 934 C 295 918 281 901 273 882 C 264 863 260 843 260 823 C 260 797 264 774 274 755 C 284 736 299 719 321 705 C 341 690 368 677 401 665 C 434 653 474 642 522 631 C 590 614 649 597 700 579 C 751 561 794 540 829 515 C 863 489 888 458 906 422 C 923 386 932 341 932 289 C 932 239 921 195 900 157 C 879 119 850 87 814 61 C 776 34 732 14 680 0 C 628 -13 572 -20 512 -20 Z" unicode="s" />
<glyph horiz-adv-x="748" d="M 522 -14 C 470 -14 426 -8 390 1 C 354 11 325 28 303 50 C 280 71 263 98 253 132 C 243 165 238 205 238 252 L 238 958 L 49 958 L 49 1079 L 238 1079 L 238 1466 L 379 1466 L 379 1079 L 659 1079 L 659 958 L 379 958 L 379 281 C 379 252 381 227 387 205 C 392 183 401 164 415 150 C 427 134 444 123 466 115 C 488 107 515 104 549 104 C 569 104 589 105 609 107 C 629 109 646 113 662 119 L 662 -2 C 645 -5 624 -8 598 -10 C 572 -12 546 -14 522 -14 Z" unicode="t" />
<glyph horiz-adv-x="1190" d="M 475 -23 C 367 -23 287 5 234 62 C 180 119 154 198 154 299 L 154 1079 L 295 1079 L 295 324 C 295 247 312 190 346 153 C 380 116 434 98 510 98 C 544 98 577 102 609 111 C 641 120 672 133 704 150 C 734 166 765 185 795 209 C 825 232 855 258 885 287 L 885 1079 L 1028 1079 L 1028 0 L 885 0 L 885 170 C 859 144 830 120 800 97 C 770 73 738 53 704 36 C 669 18 633 3 595 -7 C 557 -17 517 -23 475 -23 Z" unicode="u" />
<glyph horiz-adv-x="1042" d="M 53 1079 L 205 1079 L 524 168 L 528 168 L 846 1079 L 989 1079 L 592 -4 L 451 -4 L 53 1079 Z" unicode="v" />
<glyph horiz-adv-x="1530" d="M 55 1079 L 203 1079 L 354 545 C 364 511 373 479 381 449 C 389 419 397 390 405 362 C 413 333 421 304 429 274 C 437 244 445 212 455 178 L 459 178 C 469 216 477 251 485 281 C 493 311 500 340 508 368 C 515 395 522 423 530 451 C 538 479 547 511 557 545 L 705 1079 L 834 1079 L 983 535 C 993 501 1001 471 1009 443 C 1017 415 1024 387 1032 360 C 1038 332 1045 304 1053 275 C 1060 245 1068 213 1077 178 L 1081 178 C 1091 214 1099 247 1107 276 C 1115 305 1123 333 1131 360 C 1138 386 1145 413 1153 440 C 1161 467 1170 497 1180 530 L 1337 1079 L 1475 1079 L 1143 0 L 1012 0 L 768 887 L 764 887 L 516 0 L 387 0 L 55 1079 Z" unicode="w" />
<glyph horiz-adv-x="1047" d="M 451 559 L 90 1079 L 248 1079 L 528 664 L 809 1079 L 963 1079 L 600 559 L 987 0 L 831 0 L 522 453 L 215 0 L 63 0 L 451 559 Z" unicode="x" />
<glyph horiz-adv-x="1079" d="M 201 -414 C 159 -414 125 -411 97 -407 C 69 -402 44 -397 23 -391 L 55 -274 C 70 -278 90 -282 114 -286 C 138 -289 169 -291 205 -291 C 234 -291 260 -287 282 -281 C 304 -274 325 -264 343 -251 C 360 -237 375 -220 389 -199 C 402 -178 414 -153 426 -125 L 471 -6 L 53 1079 L 205 1079 L 541 168 L 545 168 L 879 1079 L 1026 1079 L 561 -125 C 543 -173 523 -215 503 -251 C 483 -287 459 -317 432 -342 C 404 -366 371 -384 334 -396 C 297 -408 253 -414 201 -414 Z" unicode="y" />
<glyph horiz-adv-x="1036" d="M 84 90 L 741 961 L 137 961 L 137 1079 L 920 1079 L 920 987 L 262 117 L 948 117 L 948 0 L 84 0 L 84 90 Z" unicode="z" />
<glyph horiz-adv-x="778" d="M 565 -410 C 471 -410 403 -385 361 -337 C 319 -289 299 -220 299 -131 L 299 254 C 299 304 294 345 285 377 C 275 409 261 434 243 453 C 224 471 200 483 172 490 C 143 496 110 500 72 500 L 72 606 C 110 606 143 609 172 616 C 200 622 224 635 243 654 C 261 672 275 697 285 729 C 294 761 299 802 299 852 L 299 1237 C 299 1281 304 1321 314 1356 C 324 1390 340 1420 362 1444 C 383 1467 410 1485 444 1497 C 477 1509 517 1516 565 1516 L 692 1516 L 692 1407 L 602 1407 C 546 1407 506 1393 480 1367 C 454 1341 442 1301 442 1249 L 442 846 C 442 796 438 754 430 721 C 422 687 411 660 397 639 C 381 617 363 600 342 588 C 320 575 296 564 268 555 L 268 551 C 296 541 320 530 342 518 C 363 505 381 488 397 467 C 411 445 422 418 430 385 C 438 351 442 310 442 260 L 442 -143 C 442 -195 454 -235 480 -261 C 506 -287 546 -301 602 -301 L 692 -301 L 692 -410 L 565 -410 Z" unicode="{" />
<glyph horiz-adv-x="707" d="M 285 1516 L 422 1516 L 422 -410 L 285 -410 L 285 1516 Z" unicode="|" />
<glyph horiz-adv-x="778" d="M 86 -301 L 176 -301 C 232 -301 272 -287 298 -261 C 323 -235 336 -195 336 -143 L 336 266 C 336 316 339 357 347 390 C 355 422 366 449 382 470 C 396 490 414 507 436 519 C 457 531 482 541 510 551 L 510 555 C 482 564 457 575 436 587 C 414 599 396 615 382 636 C 366 656 355 683 347 716 C 339 748 336 790 336 840 L 336 1249 C 336 1301 324 1342 301 1370 C 278 1398 239 1413 184 1413 L 94 1413 L 86 1516 L 219 1516 C 266 1516 306 1510 339 1498 C 372 1486 399 1469 420 1447 C 440 1423 455 1395 465 1361 C 474 1327 479 1287 479 1243 L 479 852 C 479 802 483 761 493 729 C 502 697 516 672 536 654 C 554 635 578 622 606 616 C 634 609 668 606 707 606 L 707 500 C 668 500 634 496 606 490 C 578 483 554 471 536 453 C 516 434 502 409 493 377 C 483 345 479 304 479 254 L 479 -137 C 479 -181 474 -221 465 -255 C 455 -289 440 -317 420 -341 C 399 -363 372 -380 339 -392 C 306 -404 266 -410 219 -410 L 86 -410 L 86 -301 Z" unicode="}" />
<glyph horiz-adv-x="1303" d="M 934 549 C 912 550 885 554 853 562 C 820 570 785 579 748 590 C 710 600 672 611 632 623 C 592 635 555 647 520 658 C 484 668 451 676 423 684 C 394 692 372 696 356 698 C 325 701 300 696 280 682 C 260 668 248 642 244 602 L 147 614 C 153 690 177 745 217 779 C 257 812 308 827 369 823 C 390 821 417 817 450 809 C 482 801 517 792 555 782 C 592 771 630 759 670 747 C 710 735 747 724 783 714 C 818 703 850 694 878 686 C 906 678 928 674 944 674 C 976 672 1002 677 1023 691 C 1043 704 1055 730 1059 770 L 1157 762 C 1149 684 1125 628 1085 594 C 1045 560 994 545 934 549 Z" unicode="~" />
<glyph horiz-adv-x="463" d="" unicode=" " />
<glyph horiz-adv-x="641" d="M 276 1102 L 360 1102 L 408 0 L 231 0 L 276 1102 Z M 229 1516 L 408 1516 L 408 1325 L 229 1325 L 229 1516 Z" unicode="¡" />
<glyph horiz-adv-x="1090" d="M 352 35 C 315 55 281 82 251 114 C 220 146 194 184 172 227 C 150 269 132 317 120 369 C 108 421 102 477 102 539 C 102 635 115 718 143 789 C 171 859 207 918 253 964 C 297 1010 348 1044 406 1066 C 464 1088 523 1100 584 1100 C 594 1100 604 1100 614 1100 C 624 1100 633 1099 643 1098 L 700 1307 L 799 1307 L 735 1077 C 768 1065 798 1049 825 1031 C 851 1012 875 991 897 968 C 918 944 937 919 953 891 C 969 863 984 835 997 805 L 881 752 C 859 805 834 849 804 885 C 774 920 738 945 696 961 L 467 115 C 483 108 501 103 519 100 C 537 97 555 96 575 96 C 612 96 646 100 676 109 C 706 118 733 132 759 152 C 783 170 806 194 828 224 C 849 253 869 288 889 328 L 999 279 C 977 233 953 191 926 154 C 899 117 868 86 834 60 C 799 33 760 12 716 -1 C 672 -15 623 -23 569 -23 C 547 -23 525 -21 503 -18 C 481 -14 459 -9 438 -2 L 367 -264 L 268 -264 L 352 35 Z M 614 979 C 608 980 603 981 597 981 C 591 981 585 981 580 981 C 540 981 499 973 459 958 C 419 942 382 918 350 884 C 317 849 290 804 270 748 C 250 692 240 623 240 541 C 240 449 253 370 280 306 C 307 242 343 192 389 156 L 614 979 Z" unicode="¢" />
<glyph horiz-adv-x="1247" d="M 178 741 L 178 854 L 377 854 C 364 878 352 902 340 926 C 328 950 317 974 309 1000 C 299 1024 292 1050 287 1077 C 281 1103 279 1131 279 1161 C 279 1217 287 1268 305 1315 C 323 1361 348 1402 382 1436 C 415 1470 456 1496 505 1515 C 553 1534 608 1544 670 1544 C 739 1544 798 1533 847 1511 C 896 1489 937 1461 969 1426 C 1000 1390 1024 1349 1040 1303 C 1056 1257 1067 1211 1071 1163 L 934 1147 C 931 1185 924 1221 913 1255 C 902 1288 886 1317 866 1342 C 844 1366 817 1384 785 1398 C 752 1412 713 1419 668 1419 C 587 1419 525 1396 483 1350 C 441 1304 420 1242 420 1163 C 420 1135 423 1109 429 1083 C 435 1057 443 1031 453 1006 C 463 980 474 955 487 930 C 500 905 514 880 528 854 L 881 854 L 881 741 L 586 741 C 604 699 620 655 632 609 C 644 563 651 511 651 455 C 651 411 648 371 642 334 C 636 297 628 262 618 229 C 638 212 658 195 678 179 C 698 163 718 148 740 136 C 760 123 782 113 804 105 C 826 97 850 94 874 94 C 906 94 933 99 956 110 C 978 121 997 138 1013 161 C 1027 183 1039 212 1047 248 C 1055 283 1061 325 1065 373 L 1194 373 C 1192 315 1185 262 1173 213 C 1161 164 1143 122 1119 86 C 1094 50 1062 21 1024 1 C 986 -18 939 -29 883 -29 C 851 -29 820 -24 792 -15 C 764 -6 737 5 711 20 C 685 34 660 51 636 70 C 612 89 589 109 567 129 C 535 77 495 38 448 11 C 401 -15 347 -29 285 -29 C 258 -29 231 -24 205 -16 C 178 -8 154 4 134 22 C 112 38 95 59 82 85 C 69 110 63 140 63 174 C 63 208 68 239 79 267 C 89 295 105 319 126 339 C 146 359 170 374 199 386 C 228 397 261 403 297 403 C 338 403 376 395 410 379 C 444 363 478 342 512 317 C 515 335 517 355 518 377 C 519 398 520 420 520 444 C 520 501 512 554 496 602 C 480 650 460 697 438 741 L 178 741 Z M 479 207 C 449 233 419 256 389 274 C 359 292 327 301 295 301 C 257 301 228 289 206 267 C 184 245 174 215 174 178 C 174 144 185 117 207 99 C 229 81 257 72 291 72 C 334 72 371 83 403 105 C 435 127 460 161 479 207 Z" unicode="£" />
<glyph horiz-adv-x="1303" d="M 650 391 C 612 391 576 396 543 406 C 509 416 479 430 452 450 L 238 236 L 156 319 L 368 530 C 347 558 331 590 320 624 C 308 658 303 695 303 735 C 303 773 308 809 319 843 C 329 876 344 907 364 935 L 156 1142 L 238 1224 L 447 1017 C 475 1036 506 1051 540 1062 C 574 1073 610 1079 650 1079 C 689 1079 726 1073 761 1062 C 795 1051 826 1036 854 1017 L 1062 1224 L 1144 1142 L 937 935 C 956 907 971 877 982 844 C 992 810 998 774 998 736 C 998 696 992 658 980 624 C 968 590 953 558 933 530 L 1145 319 L 1062 237 L 849 450 C 821 430 791 416 757 406 C 723 396 688 391 650 391 Z M 650 487 C 685 487 717 493 747 505 C 777 517 803 534 825 556 C 846 577 863 603 875 633 C 887 663 893 697 893 735 C 893 772 887 806 875 836 C 863 866 846 893 825 915 C 803 936 777 953 747 965 C 717 977 685 983 650 983 C 614 983 582 977 553 965 C 523 953 498 936 477 915 C 455 893 438 866 426 836 C 414 806 408 772 408 735 C 408 697 414 663 426 633 C 438 603 455 577 477 556 C 498 534 523 517 553 505 C 582 493 614 487 650 487 Z" unicode="¤" />
<glyph horiz-adv-x="1262" d="M 557 258 L 166 258 L 166 373 L 557 373 L 557 567 L 166 567 L 166 682 L 553 682 L 53 1516 L 211 1516 L 635 799 L 1055 1516 L 1208 1516 L 707 682 L 1098 682 L 1098 567 L 702 567 L 702 373 L 1098 373 L 1098 258 L 702 258 L 702 0 L 557 0 L 557 258 Z" unicode="¥" />
<glyph horiz-adv-x="707" d="M 285 1516 L 422 1516 L 422 678 L 285 678 L 285 1516 Z M 285 428 L 422 428 L 422 -410 L 285 -410 L 285 428 Z" unicode="¦" />
<glyph horiz-adv-x="1085" d="M 545 -410 C 481 -410 427 -402 381 -386 C 335 -370 297 -349 265 -323 C 233 -295 207 -263 188 -227 C 169 -191 155 -152 145 -111 L 266 -74 C 275 -108 287 -138 301 -166 C 315 -193 334 -216 356 -235 C 377 -253 403 -268 433 -278 C 463 -288 498 -293 539 -293 C 580 -293 615 -287 643 -277 C 671 -267 695 -253 713 -237 C 730 -219 742 -199 750 -177 C 758 -155 762 -132 762 -109 C 762 -85 758 -62 751 -41 C 743 -19 730 2 712 24 C 693 46 667 69 635 93 C 602 117 560 144 510 174 C 438 216 376 253 326 286 C 276 319 235 352 203 384 C 171 415 147 448 133 482 C 118 516 111 554 111 598 C 111 639 119 677 135 712 C 151 746 171 778 197 806 C 222 834 250 858 281 879 C 312 900 343 918 373 934 C 334 960 302 986 277 1010 C 251 1034 231 1058 217 1082 C 201 1106 191 1130 185 1155 C 179 1180 176 1207 176 1237 C 176 1275 184 1313 200 1350 C 216 1387 240 1420 272 1449 C 303 1477 341 1500 387 1518 C 432 1535 483 1544 541 1544 C 606 1544 662 1536 709 1520 C 756 1504 796 1483 828 1457 C 860 1429 885 1397 904 1361 C 923 1325 938 1286 948 1245 L 825 1206 C 815 1240 803 1270 788 1298 C 773 1325 755 1348 733 1368 C 710 1386 683 1401 653 1411 C 623 1421 587 1427 547 1427 C 505 1427 470 1421 441 1411 C 411 1401 387 1387 369 1371 C 350 1353 336 1333 328 1311 C 319 1289 315 1266 315 1243 C 315 1219 319 1196 327 1175 C 335 1153 349 1132 369 1110 C 389 1088 415 1065 449 1041 C 482 1017 524 990 575 961 C 647 919 708 881 758 848 C 808 815 850 783 882 752 C 913 720 936 687 951 653 C 965 619 973 580 973 537 C 973 495 965 457 949 422 C 933 387 913 356 889 328 C 864 300 836 275 806 253 C 775 231 745 213 715 199 C 753 171 784 146 808 122 C 832 98 852 74 866 51 C 879 27 888 3 893 -21 C 898 -46 901 -73 901 -102 C 901 -141 893 -179 877 -216 C 861 -252 839 -285 809 -315 C 779 -343 741 -366 697 -384 C 653 -401 602 -410 545 -410 Z M 614 264 C 687 296 743 333 783 376 C 822 419 842 468 842 522 C 842 550 837 576 827 599 C 817 622 800 646 775 670 C 749 694 713 720 669 750 C 624 779 567 814 498 856 C 493 858 488 860 484 863 C 479 865 474 868 469 870 C 400 839 345 802 305 759 C 264 715 244 666 244 612 C 244 583 248 557 258 535 C 268 512 286 489 312 465 C 337 440 372 413 416 384 C 460 355 518 320 588 279 C 592 276 596 273 601 271 C 605 268 610 266 614 264 Z" unicode="§" />
<glyph horiz-adv-x="1036" d="M 618 1362 L 776 1362 L 776 1194 L 618 1194 L 618 1362 Z M 258 1362 L 416 1362 L 416 1194 L 258 1194 L 258 1362 Z" unicode="¨" />
<glyph horiz-adv-x="1767" d="M 883 -29 C 773 -29 671 -8 576 32 C 481 73 399 129 329 201 C 258 272 202 355 162 451 C 122 546 102 648 102 758 C 102 830 111 900 129 967 C 147 1034 174 1097 208 1156 C 242 1214 282 1266 330 1314 C 377 1362 430 1403 488 1437 C 546 1471 608 1497 675 1516 C 742 1534 812 1544 885 1544 C 957 1544 1027 1534 1094 1516 C 1160 1497 1223 1471 1281 1437 C 1339 1403 1391 1362 1438 1314 C 1485 1266 1526 1214 1560 1156 C 1593 1097 1619 1034 1637 967 C 1655 900 1665 830 1665 758 C 1665 685 1655 615 1637 548 C 1619 481 1593 419 1560 361 C 1526 302 1485 249 1437 201 C 1389 153 1337 112 1280 78 C 1222 44 1159 17 1092 -1 C 1025 -19 955 -29 883 -29 Z M 885 55 C 981 55 1072 73 1156 110 C 1240 146 1313 197 1375 261 C 1437 324 1485 398 1521 484 C 1557 569 1575 660 1575 758 C 1575 822 1566 884 1550 944 C 1534 1004 1511 1060 1482 1112 C 1452 1164 1416 1211 1374 1254 C 1332 1296 1285 1333 1235 1364 C 1183 1394 1128 1418 1069 1435 C 1009 1451 947 1460 883 1460 C 818 1460 756 1451 697 1435 C 638 1418 583 1395 532 1365 C 480 1334 434 1297 392 1255 C 350 1212 315 1165 286 1113 C 256 1061 233 1005 217 945 C 201 885 193 822 193 758 C 193 693 201 631 217 571 C 233 511 257 456 287 404 C 316 352 352 304 394 261 C 436 218 482 181 534 151 C 584 120 639 96 699 80 C 758 63 820 55 885 55 Z M 879 319 C 825 319 776 329 732 351 C 688 373 650 404 620 444 C 588 483 564 530 547 586 C 530 642 522 704 522 772 C 522 836 530 896 547 951 C 564 1005 588 1053 620 1093 C 650 1132 688 1163 732 1185 C 776 1207 826 1219 881 1219 C 967 1219 1036 1194 1088 1146 C 1140 1097 1177 1030 1200 944 L 1106 920 C 1096 954 1084 984 1071 1010 C 1057 1036 1042 1057 1024 1075 C 1006 1091 985 1104 962 1113 C 938 1121 911 1126 881 1126 C 841 1126 806 1117 775 1100 C 743 1083 717 1059 695 1029 C 672 998 655 961 643 918 C 631 874 625 826 625 774 C 625 717 631 666 643 621 C 655 576 672 538 694 508 C 716 476 743 452 775 436 C 807 420 843 412 883 412 C 943 412 993 429 1031 465 C 1069 501 1097 555 1116 629 C 1124 627 1131 625 1138 623 C 1145 621 1152 619 1159 617 C 1170 613 1181 610 1191 608 C 1201 606 1208 604 1212 604 C 1188 513 1149 443 1093 393 C 1037 343 966 319 879 319 Z" unicode="©" />
<glyph horiz-adv-x="850" d="M 326 756 C 255 756 200 772 162 806 C 123 840 104 887 104 948 C 104 985 112 1020 130 1052 C 147 1084 176 1114 216 1141 C 256 1167 308 1191 374 1212 C 439 1232 520 1250 616 1266 L 616 1300 C 616 1348 603 1385 579 1410 C 554 1435 518 1448 471 1448 C 412 1448 361 1438 318 1418 C 274 1398 233 1369 195 1331 L 127 1397 C 150 1419 174 1439 199 1457 C 224 1475 251 1490 280 1503 C 308 1515 339 1525 372 1532 C 404 1538 440 1542 479 1542 C 563 1542 626 1520 667 1477 C 708 1433 729 1374 729 1298 L 729 961 C 729 916 730 879 734 850 C 738 820 745 794 756 772 L 635 772 C 629 788 625 805 622 821 C 619 837 617 854 616 874 C 572 837 527 808 479 787 C 431 766 380 756 326 756 Z M 348 850 C 400 850 449 861 493 883 C 537 905 578 933 616 969 L 616 1188 C 536 1175 470 1160 418 1144 C 366 1128 326 1110 296 1092 C 266 1072 245 1052 234 1030 C 222 1008 217 985 217 961 C 217 925 228 897 252 878 C 276 859 308 850 348 850 Z" unicode="ª" />
<glyph horiz-adv-x="1069" d="M 92 541 L 395 1079 L 543 1079 L 246 541 L 543 0 L 395 0 L 92 541 Z M 498 541 L 803 1079 L 948 1079 L 649 541 L 948 0 L 803 0 L 498 541 Z" unicode="«" />
<glyph horiz-adv-x="1292" d="M 1157 164 L 1036 164 L 1036 625 L 135 625 L 135 741 L 1157 741 L 1157 164 Z" unicode="¬" />
<glyph horiz-adv-x="731" d="M 135 705 L 596 705 L 596 582 L 135 582 L 135 705 Z" unicode="­" />
<glyph horiz-adv-x="1120" d="M 561 596 C 494 596 432 608 374 633 C 316 657 266 691 224 735 C 181 777 147 828 123 886 C 98 944 86 1006 86 1073 C 86 1139 98 1201 123 1259 C 147 1317 181 1367 225 1411 C 267 1453 317 1487 375 1512 C 433 1537 495 1550 561 1550 C 627 1550 688 1537 746 1513 C 804 1488 854 1454 897 1412 C 939 1368 972 1318 997 1260 C 1021 1202 1034 1139 1034 1073 C 1034 1006 1021 944 997 886 C 972 828 939 777 897 735 C 854 691 804 657 746 633 C 688 608 627 596 561 596 Z M 561 657 C 618 657 672 667 722 689 C 772 711 815 741 853 779 C 889 816 918 860 939 910 C 960 960 971 1015 971 1073 C 971 1130 960 1184 939 1235 C 917 1285 888 1330 852 1368 C 814 1405 771 1434 721 1456 C 671 1478 617 1489 561 1489 C 503 1489 450 1478 400 1456 C 350 1434 307 1405 271 1368 C 233 1330 204 1285 183 1235 C 162 1184 152 1130 152 1073 C 152 1015 162 960 183 910 C 204 860 233 816 271 779 C 307 741 350 711 400 689 C 450 667 503 657 561 657 Z M 385 1346 L 569 1346 C 629 1346 675 1333 707 1307 C 739 1281 756 1245 756 1198 C 756 1154 745 1121 725 1099 C 704 1077 676 1062 641 1055 L 770 817 L 692 817 L 567 1044 L 459 1044 L 459 817 L 385 817 L 385 1346 Z M 565 1106 C 602 1106 631 1112 652 1125 C 673 1138 684 1162 684 1196 C 684 1226 673 1248 652 1261 C 630 1273 601 1280 563 1280 L 459 1280 L 459 1106 L 565 1106 Z" unicode="®" />
<glyph horiz-adv-x="1024" d="M 254 1315 L 770 1315 L 770 1194 L 254 1194 L 254 1315 Z" unicode="¯" />
<glyph horiz-adv-x="825" d="M 412 971 C 370 971 332 978 297 992 C 262 1006 232 1026 206 1052 C 180 1077 159 1107 145 1142 C 130 1177 123 1215 123 1257 C 123 1298 130 1336 145 1371 C 159 1406 180 1437 206 1463 C 232 1488 262 1508 297 1522 C 332 1536 370 1544 412 1544 C 453 1544 491 1536 527 1522 C 562 1508 593 1488 619 1463 C 645 1437 665 1406 680 1371 C 694 1336 702 1298 702 1257 C 702 1215 694 1177 680 1142 C 665 1107 645 1077 619 1052 C 593 1026 562 1006 527 992 C 491 978 453 971 412 971 Z M 412 1063 C 438 1063 463 1067 486 1077 C 509 1087 529 1100 546 1118 C 562 1134 574 1154 584 1178 C 593 1202 598 1228 598 1257 C 598 1285 593 1311 584 1335 C 574 1359 562 1379 546 1397 C 529 1413 509 1426 486 1436 C 463 1445 438 1450 412 1450 C 385 1450 360 1445 338 1436 C 315 1426 296 1413 280 1397 C 263 1379 250 1359 241 1335 C 231 1311 227 1285 227 1257 C 227 1228 231 1202 241 1178 C 250 1154 263 1134 280 1118 C 296 1100 315 1087 338 1077 C 360 1067 385 1063 412 1063 Z" unicode="°" />
<glyph horiz-adv-x="1305" d="M 135 221 L 592 221 L 592 666 L 135 666 L 135 786 L 592 786 L 592 1247 L 717 1247 L 717 786 L 1171 786 L 1171 666 L 717 666 L 717 221 L 1171 221 L 1171 102 L 135 102 L 135 221 Z" unicode="±" />
<glyph horiz-adv-x="913" d="M 137 610 C 137 644 141 678 151 712 C 160 745 177 779 201 813 C 224 847 256 882 296 918 C 336 954 388 992 451 1032 C 484 1052 512 1072 536 1090 C 559 1108 578 1126 593 1144 C 607 1162 618 1180 625 1200 C 631 1219 635 1240 635 1264 C 635 1312 621 1350 593 1380 C 565 1410 523 1425 467 1425 C 419 1425 378 1412 343 1386 C 308 1360 276 1318 248 1260 L 150 1315 C 186 1389 231 1445 285 1481 C 339 1517 401 1536 471 1536 C 515 1536 555 1529 591 1516 C 627 1502 657 1484 682 1461 C 706 1437 725 1408 738 1376 C 751 1343 758 1307 758 1268 C 758 1236 753 1206 745 1178 C 736 1150 722 1123 703 1097 C 683 1071 657 1045 625 1019 C 593 993 554 966 508 938 C 432 890 376 845 339 803 C 302 761 280 721 274 684 L 762 684 L 762 571 L 137 571 L 137 610 Z" unicode="²" />
<glyph horiz-adv-x="913" d="M 453 553 C 382 553 318 569 260 603 C 202 636 155 685 117 750 L 205 815 C 239 758 277 719 319 697 C 360 675 404 664 451 664 C 515 664 565 680 599 712 C 633 744 651 785 651 836 C 651 866 646 893 637 917 C 627 940 612 960 591 976 C 569 992 540 1004 506 1012 C 471 1020 429 1024 379 1024 L 326 1024 L 326 1122 L 385 1122 C 473 1122 536 1135 575 1162 C 613 1188 633 1228 633 1282 C 633 1302 629 1321 623 1339 C 616 1356 606 1371 592 1384 C 578 1396 560 1406 538 1414 C 516 1421 489 1425 459 1425 C 415 1425 376 1414 340 1394 C 304 1374 270 1345 240 1307 L 156 1376 C 196 1426 241 1465 291 1493 C 341 1521 399 1536 463 1536 C 515 1536 559 1529 596 1515 C 633 1501 664 1483 688 1461 C 712 1437 729 1411 741 1382 C 752 1352 758 1322 758 1290 C 758 1238 744 1194 718 1157 C 692 1119 652 1092 598 1075 C 662 1055 708 1026 736 986 C 764 946 778 896 778 836 C 778 795 770 757 755 723 C 740 689 719 659 691 634 C 662 608 628 588 588 574 C 548 560 503 553 453 553 Z" unicode="³" />
<glyph horiz-adv-x="1024" d="M 541 1513 L 727 1513 L 438 1194 L 346 1194 L 541 1513 Z" unicode="´" />
<glyph horiz-adv-x="1200" d="M 164 1079 L 305 1079 L 305 324 C 305 247 322 190 356 153 C 390 116 445 98 520 98 C 589 98 654 114 714 148 C 774 182 835 227 897 285 L 897 1079 L 1038 1079 L 1038 0 L 897 0 L 897 176 C 869 150 841 125 812 102 C 782 79 752 59 720 42 C 688 24 654 9 619 -1 C 584 -11 548 -17 510 -18 C 466 -19 426 -15 392 -5 C 357 5 328 24 305 53 L 305 -410 L 164 -410 L 164 1079 Z" unicode="µ" />
<glyph horiz-adv-x="1268" d="M 625 690 C 463 692 340 728 255 797 C 169 865 127 966 127 1100 C 127 1159 137 1214 157 1265 C 177 1315 208 1359 248 1397 C 287 1434 336 1463 394 1484 C 452 1505 520 1516 596 1516 L 1079 1516 L 1079 -410 L 958 -410 L 958 1395 L 745 1395 L 745 -410 L 625 -410 L 625 690 Z" unicode="¶" />
<glyph horiz-adv-x="551" d="M 186 748 L 367 748 L 367 555 L 186 555 L 186 748 Z" unicode="·" />
<glyph horiz-adv-x="1024" d="M 514 -399 C 468 -399 423 -392 379 -379 C 335 -365 296 -347 260 -324 L 297 -264 C 327 -284 360 -300 394 -310 C 428 -320 462 -326 498 -326 C 552 -326 591 -317 615 -301 C 639 -284 651 -260 651 -229 C 651 -205 643 -186 629 -174 C 615 -162 593 -156 565 -156 C 542 -156 522 -160 505 -168 C 488 -176 473 -185 459 -197 L 399 -170 L 453 0 L 539 0 L 506 -111 C 520 -101 536 -94 554 -88 C 572 -82 593 -80 618 -80 C 636 -80 654 -83 672 -89 C 690 -95 705 -103 719 -115 C 731 -126 742 -140 750 -158 C 758 -176 762 -196 762 -219 C 762 -251 755 -278 742 -301 C 728 -323 711 -342 689 -357 C 666 -371 640 -381 610 -388 C 580 -395 548 -399 514 -399 Z" unicode="¸" />
<glyph horiz-adv-x="715" d="M 162 678 L 336 678 L 336 1386 C 312 1374 285 1366 255 1360 C 224 1354 194 1352 164 1352 L 164 1456 C 205 1457 241 1462 271 1471 C 301 1480 326 1495 346 1516 L 459 1516 L 459 678 L 616 678 L 616 569 L 162 569 L 162 678 Z" unicode="¹" />
<glyph horiz-adv-x="879" d="M 438 756 C 390 756 346 764 304 782 C 262 799 225 824 194 858 C 162 891 136 932 118 981 C 99 1029 90 1085 90 1149 C 90 1213 99 1269 118 1318 C 136 1367 162 1408 194 1442 C 225 1474 262 1499 304 1516 C 346 1533 390 1542 438 1542 C 486 1542 531 1533 573 1516 C 615 1499 653 1474 685 1442 C 716 1408 741 1367 760 1318 C 778 1269 788 1213 788 1149 C 788 1085 778 1029 760 981 C 741 932 716 891 685 858 C 653 824 615 799 573 782 C 531 764 486 756 438 756 Z M 438 848 C 476 848 509 855 539 871 C 569 886 594 907 614 935 C 634 961 649 993 660 1030 C 670 1066 676 1106 676 1149 C 676 1189 671 1227 661 1263 C 651 1299 636 1332 616 1360 C 596 1387 571 1409 541 1425 C 511 1441 477 1450 438 1450 C 401 1450 368 1442 339 1427 C 310 1411 286 1390 266 1364 C 245 1336 229 1304 219 1268 C 208 1231 203 1191 203 1149 C 203 1109 207 1070 217 1034 C 227 998 242 966 262 939 C 281 911 305 888 335 872 C 364 856 398 848 438 848 Z" unicode="º" />
<glyph horiz-adv-x="1069" d="M 823 541 L 526 1079 L 672 1079 L 977 541 L 672 0 L 526 0 L 823 541 Z M 418 541 L 119 1079 L 266 1079 L 571 541 L 266 0 L 119 0 L 418 541 Z" unicode="»" />
<glyph horiz-adv-x="1915" d="M 199 680 L 371 680 L 371 1376 C 347 1366 321 1359 292 1354 C 262 1348 233 1346 203 1346 L 203 1456 C 245 1457 281 1462 311 1471 C 341 1480 365 1495 385 1516 L 496 1516 L 496 680 L 649 680 L 649 569 L 199 569 L 199 680 Z M 1509 227 L 1073 227 L 1073 309 L 1497 948 L 1634 948 L 1634 338 L 1788 338 L 1788 227 L 1634 227 L 1634 0 L 1509 0 L 1509 227 Z M 1370 1516 L 1503 1516 L 596 0 L 463 0 L 1370 1516 Z M 1513 334 L 1513 784 L 1217 334 L 1513 334 Z" unicode="¼" />
<glyph horiz-adv-x="1995" d="M 1217 41 C 1217 75 1221 108 1230 141 C 1239 174 1256 208 1280 242 C 1303 276 1335 311 1375 347 C 1415 383 1467 421 1530 461 C 1562 481 1589 501 1612 519 C 1634 537 1653 555 1669 573 C 1683 591 1694 609 1701 629 C 1708 649 1712 670 1712 694 C 1712 741 1698 779 1670 809 C 1642 839 1600 854 1544 854 C 1496 854 1455 841 1421 815 C 1387 789 1355 746 1325 688 L 1227 743 C 1263 818 1308 874 1362 910 C 1416 946 1478 965 1548 965 C 1593 965 1633 958 1669 945 C 1705 932 1735 914 1760 891 C 1784 867 1802 838 1815 805 C 1828 772 1835 736 1835 696 C 1835 664 1830 634 1822 606 C 1814 578 1800 552 1781 526 C 1761 500 1735 474 1703 448 C 1671 422 1633 395 1587 367 C 1513 320 1457 275 1419 232 C 1381 189 1360 149 1354 113 L 1841 113 L 1841 0 L 1217 0 L 1217 41 Z M 1370 1516 L 1503 1516 L 596 0 L 463 0 L 1370 1516 Z M 199 680 L 371 680 L 371 1376 C 347 1366 321 1359 292 1354 C 262 1348 233 1346 203 1346 L 203 1456 C 245 1457 281 1462 311 1471 C 341 1480 365 1495 385 1516 L 496 1516 L 496 680 L 649 680 L 649 569 L 199 569 L 199 680 Z" unicode="½" />
<glyph horiz-adv-x="1970" d="M 453 553 C 382 553 318 569 260 603 C 202 636 155 685 117 750 L 205 815 C 239 758 277 719 319 697 C 360 675 404 664 451 664 C 515 664 565 680 599 712 C 633 744 651 785 651 836 C 651 866 646 893 637 917 C 627 940 612 960 591 976 C 569 992 540 1004 506 1012 C 471 1020 429 1024 379 1024 L 326 1024 L 326 1122 L 385 1122 C 473 1122 536 1135 575 1162 C 613 1188 633 1228 633 1282 C 633 1302 629 1321 623 1339 C 616 1356 606 1371 592 1384 C 578 1396 560 1406 538 1414 C 516 1421 489 1425 459 1425 C 415 1425 376 1414 340 1394 C 304 1374 270 1345 240 1307 L 156 1376 C 196 1426 241 1465 291 1493 C 341 1521 399 1536 463 1536 C 515 1536 559 1529 596 1515 C 633 1501 664 1483 688 1461 C 712 1437 729 1411 741 1382 C 752 1352 758 1322 758 1290 C 758 1238 744 1194 718 1157 C 692 1119 652 1092 598 1075 C 662 1055 708 1026 736 986 C 764 946 778 896 778 836 C 778 795 770 757 755 723 C 740 689 719 659 691 634 C 662 608 628 588 588 574 C 548 560 503 553 453 553 Z M 1565 227 L 1128 227 L 1128 309 L 1552 948 L 1690 948 L 1690 338 L 1843 338 L 1843 227 L 1690 227 L 1690 0 L 1565 0 L 1565 227 Z M 1425 1516 L 1559 1516 L 651 0 L 520 0 L 1425 1516 Z M 1569 334 L 1569 784 L 1270 334 L 1569 334 Z" unicode="¾" />
<glyph horiz-adv-x="1104" d="M 547 -29 C 480 -29 419 -20 365 -2 C 311 16 265 41 227 74 C 188 106 158 145 137 191 C 116 236 106 286 106 340 C 106 390 112 433 126 471 C 140 509 158 543 182 573 C 205 602 233 628 265 652 C 297 675 331 697 369 719 C 411 743 445 767 469 789 C 493 811 512 837 524 865 C 536 892 543 925 546 963 C 549 1001 551 1048 551 1104 L 666 1104 C 668 1083 669 1061 670 1039 C 671 1017 672 993 672 969 C 672 933 668 900 662 870 C 655 840 645 813 631 789 C 616 763 597 740 573 719 C 549 697 521 677 487 657 C 446 631 411 608 381 588 C 351 567 327 545 308 523 C 288 500 273 475 264 447 C 254 419 250 386 250 348 C 250 310 257 275 271 245 C 285 214 305 188 332 167 C 358 145 389 128 427 117 C 465 105 507 100 555 100 C 598 100 637 105 673 115 C 709 125 742 140 772 159 C 801 177 828 198 853 224 C 877 249 900 277 922 307 L 1024 229 C 996 192 966 158 934 126 C 902 94 867 67 829 45 C 790 21 747 3 701 -9 C 655 -22 603 -29 547 -29 Z M 520 1516 L 698 1516 L 698 1325 L 520 1325 L 520 1516 Z" unicode="¿" />
<glyph horiz-adv-x="1378" d="M 610 1522 L 768 1522 L 1305 0 L 1153 0 L 991 467 L 377 467 L 215 0 L 74 0 L 610 1522 Z M 946 596 L 686 1350 L 682 1350 L 422 596 L 946 596 Z M 356 1928 L 542 1928 L 737 1609 L 645 1609 L 356 1928 Z" unicode="À" />
<glyph horiz-adv-x="1378" d="M 610 1522 L 768 1522 L 1305 0 L 1153 0 L 991 467 L 377 467 L 215 0 L 74 0 L 610 1522 Z M 946 596 L 686 1350 L 682 1350 L 422 596 L 946 596 Z M 835 1928 L 1021 1928 L 732 1609 L 640 1609 L 835 1928 Z" unicode="Á" />
<glyph horiz-adv-x="1378" d="M 610 1522 L 768 1522 L 1305 0 L 1153 0 L 991 467 L 377 467 L 215 0 L 74 0 L 610 1522 Z M 946 596 L 686 1350 L 682 1350 L 422 596 L 946 596 Z M 632 1928 L 738 1928 L 1003 1603 L 913 1603 L 683 1804 L 454 1603 L 368 1603 L 632 1928 Z" unicode="Â" />
<glyph horiz-adv-x="1378" d="M 610 1522 L 768 1522 L 1305 0 L 1153 0 L 991 467 L 377 467 L 215 0 L 74 0 L 610 1522 Z M 946 596 L 686 1350 L 682 1350 L 422 596 L 946 596 Z M 840 1603 C 811 1603 783 1609 756 1621 C 728 1633 702 1646 677 1661 C 651 1675 627 1688 604 1700 C 581 1712 559 1718 539 1718 C 507 1718 485 1709 473 1692 C 461 1675 455 1647 455 1607 L 365 1607 C 365 1685 379 1742 408 1778 C 437 1814 480 1832 537 1832 C 565 1832 593 1826 620 1814 C 647 1802 674 1789 700 1775 C 725 1761 749 1748 773 1736 C 796 1724 818 1718 840 1718 C 870 1718 891 1726 904 1743 C 917 1759 924 1788 924 1828 L 1014 1828 C 1014 1751 999 1694 969 1658 C 939 1621 896 1603 840 1603 Z" unicode="Ã" />
<glyph horiz-adv-x="1378" d="M 610 1522 L 768 1522 L 1305 0 L 1153 0 L 991 467 L 377 467 L 215 0 L 74 0 L 610 1522 Z M 946 596 L 686 1350 L 682 1350 L 422 596 L 946 596 Z M 785 1777 L 943 1777 L 943 1609 L 785 1609 L 785 1777 Z M 425 1777 L 583 1777 L 583 1609 L 425 1609 L 425 1777 Z" unicode="Ä" />
<glyph horiz-adv-x="1378" d="M 1305 0 L 1153 0 L 991 467 L 377 467 L 215 0 L 74 0 L 596 1479 C 566 1494 542 1516 526 1544 C 510 1572 502 1604 502 1640 C 502 1666 506 1691 516 1714 C 525 1737 538 1757 555 1774 C 571 1790 590 1803 613 1813 C 635 1822 660 1827 688 1827 C 714 1827 739 1822 762 1813 C 784 1803 804 1790 821 1774 C 837 1757 850 1737 860 1714 C 869 1691 874 1666 874 1640 C 874 1604 865 1572 849 1545 C 832 1517 810 1496 782 1481 L 1305 0 Z M 946 596 L 686 1350 L 682 1350 L 422 596 L 946 596 Z M 688 1526 C 720 1526 746 1536 766 1557 C 786 1578 797 1606 797 1640 C 797 1673 786 1700 766 1722 C 746 1744 720 1755 688 1755 C 656 1755 629 1744 609 1722 C 588 1700 578 1673 578 1640 C 578 1606 588 1578 609 1557 C 629 1536 656 1526 688 1526 Z" unicode="Å" />
<glyph horiz-adv-x="2040" d="M 918 1516 L 1903 1516 L 1903 1380 L 1143 1380 L 1143 866 L 1710 866 L 1710 735 L 1143 735 L 1143 133 L 1946 133 L 1946 0 L 997 0 L 997 485 L 477 485 L 203 0 L 55 0 L 918 1516 Z M 997 614 L 997 1399 L 995 1399 L 553 614 L 997 614 Z" unicode="Æ" />
<glyph horiz-adv-x="1432" d="M 752 -399 C 705 -399 660 -392 617 -379 C 573 -365 534 -347 498 -324 L 535 -264 C 565 -284 598 -300 632 -310 C 666 -320 700 -326 735 -326 C 789 -326 827 -317 851 -301 C 875 -284 887 -260 887 -229 C 887 -205 880 -186 866 -174 C 852 -162 831 -156 803 -156 C 780 -156 760 -160 742 -168 C 724 -176 708 -185 694 -197 L 637 -170 L 682 -27 C 596 -17 519 7 450 49 C 380 90 321 145 273 214 C 224 282 186 363 160 456 C 134 549 121 652 121 764 C 121 878 136 982 166 1078 C 196 1174 239 1256 295 1326 C 349 1394 415 1448 493 1486 C 571 1524 657 1544 752 1544 C 828 1544 897 1533 957 1511 C 1017 1489 1069 1458 1115 1418 C 1159 1377 1197 1328 1227 1271 C 1257 1214 1282 1151 1300 1081 L 1161 1047 C 1144 1107 1124 1160 1101 1206 C 1077 1252 1049 1290 1017 1322 C 984 1353 946 1377 902 1393 C 858 1409 808 1417 750 1417 C 676 1417 610 1401 550 1370 C 490 1339 440 1295 398 1239 C 356 1181 323 1113 300 1033 C 277 953 266 865 266 768 C 266 662 277 568 301 485 C 324 402 357 332 400 275 C 442 217 493 172 553 142 C 613 111 680 96 754 96 C 866 96 958 129 1029 196 C 1100 262 1152 359 1186 487 L 1325 457 C 1307 383 1281 316 1249 257 C 1216 198 1176 148 1130 107 C 1082 65 1028 32 968 9 C 908 -14 841 -27 768 -29 L 743 -111 C 757 -101 774 -94 792 -88 C 810 -82 830 -80 854 -80 C 873 -80 891 -83 909 -89 C 927 -95 942 -103 956 -115 C 969 -126 979 -140 987 -158 C 995 -176 999 -196 999 -219 C 999 -251 992 -278 979 -301 C 966 -323 948 -342 926 -357 C 903 -371 877 -381 847 -388 C 817 -395 786 -399 752 -399 Z" unicode="Ç" />
<glyph horiz-adv-x="1237" d="M 195 1516 L 1100 1516 L 1100 1380 L 340 1380 L 340 866 L 907 866 L 907 735 L 340 735 L 340 133 L 1143 133 L 1143 0 L 195 0 L 195 1516 Z M 356 1928 L 542 1928 L 737 1609 L 645 1609 L 356 1928 Z" unicode="È" />
<glyph horiz-adv-x="1237" d="M 195 1516 L 1100 1516 L 1100 1380 L 340 1380 L 340 866 L 907 866 L 907 735 L 340 735 L 340 133 L 1143 133 L 1143 0 L 195 0 L 195 1516 Z M 751 1928 L 937 1928 L 648 1609 L 556 1609 L 751 1928 Z" unicode="É" />
<glyph horiz-adv-x="1237" d="M 195 1516 L 1100 1516 L 1100 1380 L 340 1380 L 340 866 L 907 866 L 907 735 L 340 735 L 340 133 L 1143 133 L 1143 0 L 195 0 L 195 1516 Z M 591 1928 L 697 1928 L 962 1603 L 872 1603 L 642 1804 L 413 1603 L 327 1603 L 591 1928 Z" unicode="Ê" />
<glyph horiz-adv-x="1237" d="M 195 1516 L 1100 1516 L 1100 1380 L 340 1380 L 340 866 L 907 866 L 907 735 L 340 735 L 340 133 L 1143 133 L 1143 0 L 195 0 L 195 1516 Z M 755 1777 L 913 1777 L 913 1609 L 755 1609 L 755 1777 Z M 395 1777 L 553 1777 L 553 1609 L 395 1609 L 395 1777 Z" unicode="Ë" />
<glyph horiz-adv-x="575" d="M 215 1516 L 360 1516 L 360 0 L 215 0 L 215 1516 Z M -30 1928 L 156 1928 L 351 1609 L 259 1609 L -30 1928 Z" unicode="Ì" />
<glyph horiz-adv-x="575" d="M 215 1516 L 360 1516 L 360 0 L 215 0 L 215 1516 Z M 439 1928 L 625 1928 L 336 1609 L 244 1609 L 439 1928 Z" unicode="Í" />
<glyph horiz-adv-x="575" d="M 215 1516 L 360 1516 L 360 0 L 215 0 L 215 1516 Z M 234 1928 L 340 1928 L 605 1603 L 515 1603 L 285 1804 L 56 1603 L -30 1603 L 234 1928 Z" unicode="Î" />
<glyph horiz-adv-x="575" d="M 215 1516 L 360 1516 L 360 0 L 215 0 L 215 1516 Z M 387 1777 L 545 1777 L 545 1609 L 387 1609 L 387 1777 Z M 27 1777 L 185 1777 L 185 1609 L 27 1609 L 27 1777 Z" unicode="Ï" />
<glyph horiz-adv-x="1452" d="M 195 737 L 25 737 L 25 860 L 195 860 L 195 1516 L 578 1516 C 824 1516 1011 1452 1139 1325 C 1267 1197 1331 1008 1331 758 C 1331 633 1314 523 1282 429 C 1249 335 1201 256 1138 193 C 1074 129 995 80 901 48 C 807 16 700 0 578 0 L 195 0 L 195 737 Z M 600 131 C 694 131 777 143 850 167 C 922 191 984 229 1034 281 C 1083 332 1121 397 1147 477 C 1173 556 1186 650 1186 760 C 1186 866 1173 959 1147 1037 C 1121 1115 1083 1179 1033 1231 C 982 1281 920 1319 847 1343 C 773 1367 690 1380 596 1380 L 340 1380 L 340 860 L 668 860 L 668 737 L 340 737 L 340 131 L 600 131 Z" unicode="Ð" />
<glyph horiz-adv-x="1522" d="M 195 1516 L 350 1516 L 1186 266 L 1190 266 L 1190 1516 L 1327 1516 L 1327 0 L 1198 0 L 336 1288 L 332 1288 L 332 0 L 195 0 L 195 1516 Z M 932 1603 C 903 1603 875 1609 848 1621 C 820 1633 794 1646 769 1661 C 743 1675 719 1688 696 1700 C 673 1712 651 1718 631 1718 C 599 1718 577 1709 565 1692 C 553 1675 547 1647 547 1607 L 457 1607 C 457 1685 471 1742 500 1778 C 529 1814 572 1832 629 1832 C 657 1832 685 1826 712 1814 C 739 1802 766 1789 792 1775 C 817 1761 841 1748 865 1736 C 888 1724 910 1718 932 1718 C 962 1718 983 1726 996 1743 C 1009 1759 1016 1788 1016 1828 L 1106 1828 C 1106 1751 1091 1694 1061 1658 C 1031 1621 988 1603 932 1603 Z" unicode="Ñ" />
<glyph horiz-adv-x="1520" d="M 760 -29 C 667 -29 581 -10 503 27 C 425 64 357 117 301 186 C 244 254 200 337 168 434 C 136 531 121 639 121 758 C 121 876 136 984 168 1081 C 200 1177 244 1260 301 1329 C 357 1397 425 1450 503 1488 C 581 1525 667 1544 760 1544 C 852 1544 938 1525 1016 1488 C 1094 1450 1161 1397 1218 1329 C 1274 1260 1319 1177 1351 1081 C 1383 984 1399 876 1399 758 C 1399 639 1383 531 1351 434 C 1319 337 1274 254 1218 186 C 1161 117 1094 64 1016 27 C 938 -10 852 -29 760 -29 Z M 760 102 C 832 102 898 116 958 146 C 1018 176 1071 219 1115 276 C 1158 332 1192 400 1216 481 C 1240 562 1253 654 1253 758 C 1253 860 1240 952 1216 1033 C 1192 1114 1158 1183 1115 1239 C 1071 1295 1018 1337 958 1367 C 898 1396 832 1411 760 1411 C 688 1411 621 1396 561 1367 C 501 1337 449 1295 406 1239 C 362 1183 327 1114 303 1033 C 278 952 266 860 266 758 C 266 654 278 562 303 481 C 327 400 362 332 406 276 C 449 219 501 176 561 146 C 621 116 688 102 760 102 Z M 442 1928 L 628 1928 L 823 1609 L 731 1609 L 442 1928 Z" unicode="Ò" />
<glyph horiz-adv-x="1520" d="M 760 -29 C 667 -29 581 -10 503 27 C 425 64 357 117 301 186 C 244 254 200 337 168 434 C 136 531 121 639 121 758 C 121 876 136 984 168 1081 C 200 1177 244 1260 301 1329 C 357 1397 425 1450 503 1488 C 581 1525 667 1544 760 1544 C 852 1544 938 1525 1016 1488 C 1094 1450 1161 1397 1218 1329 C 1274 1260 1319 1177 1351 1081 C 1383 984 1399 876 1399 758 C 1399 639 1383 531 1351 434 C 1319 337 1274 254 1218 186 C 1161 117 1094 64 1016 27 C 938 -10 852 -29 760 -29 Z M 760 102 C 832 102 898 116 958 146 C 1018 176 1071 219 1115 276 C 1158 332 1192 400 1216 481 C 1240 562 1253 654 1253 758 C 1253 860 1240 952 1216 1033 C 1192 1114 1158 1183 1115 1239 C 1071 1295 1018 1337 958 1367 C 898 1396 832 1411 760 1411 C 688 1411 621 1396 561 1367 C 501 1337 449 1295 406 1239 C 362 1183 327 1114 303 1033 C 278 952 266 860 266 758 C 266 654 278 562 303 481 C 327 400 362 332 406 276 C 449 219 501 176 561 146 C 621 116 688 102 760 102 Z M 880 1928 L 1066 1928 L 777 1609 L 685 1609 L 880 1928 Z" unicode="Ó" />
<glyph horiz-adv-x="1520" d="M 760 -29 C 667 -29 581 -10 503 27 C 425 64 357 117 301 186 C 244 254 200 337 168 434 C 136 531 121 639 121 758 C 121 876 136 984 168 1081 C 200 1177 244 1260 301 1329 C 357 1397 425 1450 503 1488 C 581 1525 667 1544 760 1544 C 852 1544 938 1525 1016 1488 C 1094 1450 1161 1397 1218 1329 C 1274 1260 1319 1177 1351 1081 C 1383 984 1399 876 1399 758 C 1399 639 1383 531 1351 434 C 1319 337 1274 254 1218 186 C 1161 117 1094 64 1016 27 C 938 -10 852 -29 760 -29 Z M 760 102 C 832 102 898 116 958 146 C 1018 176 1071 219 1115 276 C 1158 332 1192 400 1216 481 C 1240 562 1253 654 1253 758 C 1253 860 1240 952 1216 1033 C 1192 1114 1158 1183 1115 1239 C 1071 1295 1018 1337 958 1367 C 898 1396 832 1411 760 1411 C 688 1411 621 1396 561 1367 C 501 1337 449 1295 406 1239 C 362 1183 327 1114 303 1033 C 278 952 266 860 266 758 C 266 654 278 562 303 481 C 327 400 362 332 406 276 C 449 219 501 176 561 146 C 621 116 688 102 760 102 Z M 704 1928 L 810 1928 L 1075 1603 L 985 1603 L 755 1804 L 526 1603 L 440 1603 L 704 1928 Z" unicode="Ô" />
<glyph horiz-adv-x="1520" d="M 760 -29 C 667 -29 581 -10 503 27 C 425 64 357 117 301 186 C 244 254 200 337 168 434 C 136 531 121 639 121 758 C 121 876 136 984 168 1081 C 200 1177 244 1260 301 1329 C 357 1397 425 1450 503 1488 C 581 1525 667 1544 760 1544 C 852 1544 938 1525 1016 1488 C 1094 1450 1161 1397 1218 1329 C 1274 1260 1319 1177 1351 1081 C 1383 984 1399 876 1399 758 C 1399 639 1383 531 1351 434 C 1319 337 1274 254 1218 186 C 1161 117 1094 64 1016 27 C 938 -10 852 -29 760 -29 Z M 760 102 C 832 102 898 116 958 146 C 1018 176 1071 219 1115 276 C 1158 332 1192 400 1216 481 C 1240 562 1253 654 1253 758 C 1253 860 1240 952 1216 1033 C 1192 1114 1158 1183 1115 1239 C 1071 1295 1018 1337 958 1367 C 898 1396 832 1411 760 1411 C 688 1411 621 1396 561 1367 C 501 1337 449 1295 406 1239 C 362 1183 327 1114 303 1033 C 278 952 266 860 266 758 C 266 654 278 562 303 481 C 327 400 362 332 406 276 C 449 219 501 176 561 146 C 621 116 688 102 760 102 Z M 907 1603 C 878 1603 850 1609 823 1621 C 795 1633 769 1646 744 1661 C 718 1675 694 1688 671 1700 C 648 1712 626 1718 606 1718 C 574 1718 552 1709 540 1692 C 528 1675 522 1647 522 1607 L 432 1607 C 432 1685 446 1742 475 1778 C 504 1814 547 1832 604 1832 C 632 1832 660 1826 687 1814 C 714 1802 741 1789 767 1775 C 792 1761 816 1748 840 1736 C 863 1724 885 1718 907 1718 C 937 1718 958 1726 971 1743 C 984 1759 991 1788 991 1828 L 1081 1828 C 1081 1751 1066 1694 1036 1658 C 1006 1621 963 1603 907 1603 Z" unicode="Õ" />
<glyph horiz-adv-x="1520" d="M 760 -29 C 667 -29 581 -10 503 27 C 425 64 357 117 301 186 C 244 254 200 337 168 434 C 136 531 121 639 121 758 C 121 876 136 984 168 1081 C 200 1177 244 1260 301 1329 C 357 1397 425 1450 503 1488 C 581 1525 667 1544 760 1544 C 852 1544 938 1525 1016 1488 C 1094 1450 1161 1397 1218 1329 C 1274 1260 1319 1177 1351 1081 C 1383 984 1399 876 1399 758 C 1399 639 1383 531 1351 434 C 1319 337 1274 254 1218 186 C 1161 117 1094 64 1016 27 C 938 -10 852 -29 760 -29 Z M 760 102 C 832 102 898 116 958 146 C 1018 176 1071 219 1115 276 C 1158 332 1192 400 1216 481 C 1240 562 1253 654 1253 758 C 1253 860 1240 952 1216 1033 C 1192 1114 1158 1183 1115 1239 C 1071 1295 1018 1337 958 1367 C 898 1396 832 1411 760 1411 C 688 1411 621 1396 561 1367 C 501 1337 449 1295 406 1239 C 362 1183 327 1114 303 1033 C 278 952 266 860 266 758 C 266 654 278 562 303 481 C 327 400 362 332 406 276 C 449 219 501 176 561 146 C 621 116 688 102 760 102 Z M 857 1777 L 1015 1777 L 1015 1609 L 857 1609 L 857 1777 Z M 497 1777 L 655 1777 L 655 1609 L 497 1609 L 497 1777 Z" unicode="Ö" />
<glyph horiz-adv-x="1303" d="M 213 297 L 565 647 L 213 1001 L 297 1085 L 649 731 L 1001 1085 L 1087 1001 L 733 649 L 1087 297 L 1004 213 L 649 565 L 297 211 L 213 297 Z" unicode="×" />
<glyph horiz-adv-x="1520" d="M 1241 1300 C 1291 1232 1329 1152 1357 1061 C 1385 970 1399 869 1399 758 C 1399 639 1383 531 1351 434 C 1319 337 1274 254 1218 186 C 1161 117 1094 64 1016 27 C 938 -10 852 -29 760 -29 C 679 -29 604 -14 535 14 C 466 42 404 83 350 135 L 217 -37 L 131 25 L 276 215 C 226 283 188 362 161 454 C 134 545 121 646 121 758 C 121 876 136 984 168 1081 C 200 1177 244 1260 301 1329 C 357 1397 425 1450 503 1488 C 581 1525 667 1544 760 1544 C 840 1544 915 1529 984 1501 C 1053 1473 1115 1432 1169 1380 L 1303 1552 L 1389 1491 L 1241 1300 Z M 1090 1270 C 1045 1317 995 1353 940 1378 C 884 1402 824 1415 760 1415 C 688 1415 621 1400 561 1370 C 500 1340 448 1298 404 1242 C 360 1185 325 1116 301 1035 C 276 953 264 861 264 758 C 264 668 273 587 292 515 C 310 443 337 380 371 326 L 1090 1270 Z M 430 246 C 472 198 521 162 577 137 C 633 112 694 100 760 100 C 832 100 898 114 958 144 C 1018 174 1071 217 1115 274 C 1158 330 1192 398 1216 480 C 1240 562 1253 654 1253 758 C 1253 846 1244 926 1227 998 C 1209 1070 1184 1133 1151 1188 L 430 246 Z" unicode="Ø" />
<glyph horiz-adv-x="1464" d="M 731 -27 C 637 -27 556 -13 487 15 C 418 43 361 81 316 130 C 270 178 235 234 213 300 C 191 366 180 436 180 512 L 180 1516 L 326 1516 L 326 537 C 326 475 334 417 350 364 C 366 311 390 266 424 228 C 457 189 499 159 550 137 C 601 115 662 104 733 104 C 803 104 863 114 915 135 C 966 156 1008 186 1042 224 C 1074 262 1099 307 1115 359 C 1131 411 1139 469 1139 532 L 1139 1516 L 1284 1516 L 1284 516 C 1284 440 1272 370 1249 304 C 1226 238 1192 180 1146 132 C 1100 82 1042 43 973 15 C 903 -12 823 -27 731 -27 Z M 428 1928 L 614 1928 L 809 1609 L 717 1609 L 428 1928 Z" unicode="Ù" />
<glyph horiz-adv-x="1464" d="M 731 -27 C 637 -27 556 -13 487 15 C 418 43 361 81 316 130 C 270 178 235 234 213 300 C 191 366 180 436 180 512 L 180 1516 L 326 1516 L 326 537 C 326 475 334 417 350 364 C 366 311 390 266 424 228 C 457 189 499 159 550 137 C 601 115 662 104 733 104 C 803 104 863 114 915 135 C 966 156 1008 186 1042 224 C 1074 262 1099 307 1115 359 C 1131 411 1139 469 1139 532 L 1139 1516 L 1284 1516 L 1284 516 C 1284 440 1272 370 1249 304 C 1226 238 1192 180 1146 132 C 1100 82 1042 43 973 15 C 903 -12 823 -27 731 -27 Z M 833 1928 L 1019 1928 L 730 1609 L 638 1609 L 833 1928 Z" unicode="Ú" />
<glyph horiz-adv-x="1464" d="M 731 -27 C 637 -27 556 -13 487 15 C 418 43 361 81 316 130 C 270 178 235 234 213 300 C 191 366 180 436 180 512 L 180 1516 L 326 1516 L 326 537 C 326 475 334 417 350 364 C 366 311 390 266 424 228 C 457 189 499 159 550 137 C 601 115 662 104 733 104 C 803 104 863 114 915 135 C 966 156 1008 186 1042 224 C 1074 262 1099 307 1115 359 C 1131 411 1139 469 1139 532 L 1139 1516 L 1284 1516 L 1284 516 C 1284 440 1272 370 1249 304 C 1226 238 1192 180 1146 132 C 1100 82 1042 43 973 15 C 903 -12 823 -27 731 -27 Z M 677 1928 L 783 1928 L 1048 1603 L 958 1603 L 728 1804 L 499 1603 L 413 1603 L 677 1928 Z" unicode="Û" />
<glyph horiz-adv-x="1464" d="M 731 -27 C 637 -27 556 -13 487 15 C 418 43 361 81 316 130 C 270 178 235 234 213 300 C 191 366 180 436 180 512 L 180 1516 L 326 1516 L 326 537 C 326 475 334 417 350 364 C 366 311 390 266 424 228 C 457 189 499 159 550 137 C 601 115 662 104 733 104 C 803 104 863 114 915 135 C 966 156 1008 186 1042 224 C 1074 262 1099 307 1115 359 C 1131 411 1139 469 1139 532 L 1139 1516 L 1284 1516 L 1284 516 C 1284 440 1272 370 1249 304 C 1226 238 1192 180 1146 132 C 1100 82 1042 43 973 15 C 903 -12 823 -27 731 -27 Z M 830 1777 L 988 1777 L 988 1609 L 830 1609 L 830 1777 Z M 470 1777 L 628 1777 L 628 1609 L 470 1609 L 470 1777 Z" unicode="Ü" />
<glyph horiz-adv-x="1266" d="M 559 668 L 51 1516 L 209 1516 L 635 793 L 1059 1516 L 1214 1516 L 705 668 L 705 0 L 559 0 L 559 668 Z M 661 1947 L 847 1947 L 558 1628 L 466 1628 L 661 1947 Z" unicode="Ý" />
<glyph horiz-adv-x="1325" d="M 195 1516 L 340 1516 L 340 1229 L 696 1229 C 778 1228 852 1219 918 1202 C 984 1185 1040 1159 1086 1125 C 1132 1090 1167 1047 1192 995 C 1216 943 1229 883 1229 813 C 1229 737 1215 671 1188 617 C 1161 562 1123 517 1075 483 C 1026 447 968 421 902 405 C 835 389 762 381 682 381 L 340 381 L 340 0 L 195 0 L 195 1516 Z M 690 512 C 752 512 808 517 857 527 C 905 537 946 555 980 579 C 1013 602 1038 632 1055 670 C 1072 708 1081 754 1081 809 C 1081 860 1072 904 1055 940 C 1038 976 1013 1005 981 1029 C 947 1051 906 1068 857 1078 C 808 1088 752 1094 688 1094 L 340 1094 L 340 512 L 690 512 Z" unicode="Þ" />
<glyph horiz-adv-x="1255" d="M 756 -23 C 684 -23 622 -11 571 11 C 519 34 478 62 446 96 L 530 184 C 544 170 560 157 576 146 C 592 134 609 125 627 118 C 645 110 664 104 686 100 C 708 96 732 94 758 94 C 796 94 831 101 863 116 C 895 131 922 153 946 181 C 968 209 986 243 999 283 C 1011 323 1018 369 1018 420 C 1018 484 1007 539 985 584 C 963 629 932 666 891 696 C 849 724 799 746 739 760 C 679 774 611 782 535 786 L 535 895 C 595 895 648 903 692 917 C 736 931 772 950 801 974 C 829 997 849 1024 863 1056 C 876 1088 883 1122 883 1159 C 883 1197 876 1230 863 1260 C 849 1289 830 1314 806 1334 C 781 1354 751 1369 716 1379 C 680 1389 641 1395 598 1395 C 503 1395 430 1367 380 1312 C 330 1256 305 1174 305 1065 L 305 0 L 164 0 L 164 1057 C 164 1130 174 1195 194 1252 C 214 1309 243 1357 281 1397 C 319 1435 365 1465 419 1485 C 473 1505 534 1516 602 1516 C 664 1516 721 1508 772 1492 C 823 1476 867 1454 904 1425 C 940 1395 968 1358 988 1314 C 1008 1270 1018 1221 1018 1165 C 1018 1088 995 1022 949 967 C 903 911 839 872 756 850 C 810 842 861 828 909 809 C 957 789 999 763 1035 729 C 1071 695 1099 653 1121 603 C 1142 553 1153 494 1153 426 C 1153 358 1143 296 1125 241 C 1107 185 1081 138 1047 100 C 1012 60 970 30 921 9 C 872 -12 817 -23 756 -23 Z" unicode="ß" />
<glyph horiz-adv-x="1120" d="M 403 -18 C 306 -18 231 5 178 53 C 124 101 98 167 98 252 C 98 305 110 355 135 401 C 159 447 200 489 258 527 C 315 565 390 598 483 628 C 576 658 691 683 829 705 L 829 760 C 829 834 810 890 773 926 C 735 962 681 981 610 981 C 567 981 527 976 491 968 C 454 959 419 947 387 933 C 354 917 323 899 293 879 C 263 858 235 835 207 811 L 131 899 C 163 929 196 956 232 981 C 267 1005 305 1027 346 1045 C 386 1062 428 1075 474 1085 C 520 1095 569 1100 623 1100 C 683 1100 734 1092 778 1076 C 822 1060 858 1038 887 1009 C 915 979 935 942 949 900 C 962 858 969 810 969 756 L 969 266 C 969 200 971 146 975 104 C 979 62 987 28 999 0 L 854 0 C 846 22 840 46 836 70 C 831 94 829 122 829 154 C 766 97 700 54 630 25 C 560 -3 484 -18 403 -18 Z M 434 98 C 510 98 581 113 647 143 C 713 173 773 214 829 268 L 829 604 C 713 584 618 563 542 539 C 466 515 405 489 361 461 C 315 433 283 403 265 371 C 247 339 238 305 238 270 C 238 213 255 170 290 141 C 325 112 373 98 434 98 Z M 281 1513 L 467 1513 L 662 1194 L 570 1194 L 281 1513 Z" unicode="à" />
<glyph horiz-adv-x="1120" d="M 403 -18 C 306 -18 231 5 178 53 C 124 101 98 167 98 252 C 98 305 110 355 135 401 C 159 447 200 489 258 527 C 315 565 390 598 483 628 C 576 658 691 683 829 705 L 829 760 C 829 834 810 890 773 926 C 735 962 681 981 610 981 C 567 981 527 976 491 968 C 454 959 419 947 387 933 C 354 917 323 899 293 879 C 263 858 235 835 207 811 L 131 899 C 163 929 196 956 232 981 C 267 1005 305 1027 346 1045 C 386 1062 428 1075 474 1085 C 520 1095 569 1100 623 1100 C 683 1100 734 1092 778 1076 C 822 1060 858 1038 887 1009 C 915 979 935 942 949 900 C 962 858 969 810 969 756 L 969 266 C 969 200 971 146 975 104 C 979 62 987 28 999 0 L 854 0 C 846 22 840 46 836 70 C 831 94 829 122 829 154 C 766 97 700 54 630 25 C 560 -3 484 -18 403 -18 Z M 434 98 C 510 98 581 113 647 143 C 713 173 773 214 829 268 L 829 604 C 713 584 618 563 542 539 C 466 515 405 489 361 461 C 315 433 283 403 265 371 C 247 339 238 305 238 270 C 238 213 255 170 290 141 C 325 112 373 98 434 98 Z M 692 1513 L 878 1513 L 589 1194 L 497 1194 L 692 1513 Z" unicode="á" />
<glyph horiz-adv-x="1120" d="M 403 -18 C 306 -18 231 5 178 53 C 124 101 98 167 98 252 C 98 305 110 355 135 401 C 159 447 200 489 258 527 C 315 565 390 598 483 628 C 576 658 691 683 829 705 L 829 760 C 829 834 810 890 773 926 C 735 962 681 981 610 981 C 567 981 527 976 491 968 C 454 959 419 947 387 933 C 354 917 323 899 293 879 C 263 858 235 835 207 811 L 131 899 C 163 929 196 956 232 981 C 267 1005 305 1027 346 1045 C 386 1062 428 1075 474 1085 C 520 1095 569 1100 623 1100 C 683 1100 734 1092 778 1076 C 822 1060 858 1038 887 1009 C 915 979 935 942 949 900 C 962 858 969 810 969 756 L 969 266 C 969 200 971 146 975 104 C 979 62 987 28 999 0 L 854 0 C 846 22 840 46 836 70 C 831 94 829 122 829 154 C 766 97 700 54 630 25 C 560 -3 484 -18 403 -18 Z M 434 98 C 510 98 581 113 647 143 C 713 173 773 214 829 268 L 829 604 C 713 584 618 563 542 539 C 466 515 405 489 361 461 C 315 433 283 403 265 371 C 247 339 238 305 238 270 C 238 213 255 170 290 141 C 325 112 373 98 434 98 Z M 522 1513 L 628 1513 L 893 1188 L 803 1188 L 573 1389 L 344 1188 L 258 1188 L 522 1513 Z" unicode="â" />
<glyph horiz-adv-x="1120" d="M 403 -18 C 306 -18 231 5 178 53 C 124 101 98 167 98 252 C 98 305 110 355 135 401 C 159 447 200 489 258 527 C 315 565 390 598 483 628 C 576 658 691 683 829 705 L 829 760 C 829 834 810 890 773 926 C 735 962 681 981 610 981 C 567 981 527 976 491 968 C 454 959 419 947 387 933 C 354 917 323 899 293 879 C 263 858 235 835 207 811 L 131 899 C 163 929 196 956 232 981 C 267 1005 305 1027 346 1045 C 386 1062 428 1075 474 1085 C 520 1095 569 1100 623 1100 C 683 1100 734 1092 778 1076 C 822 1060 858 1038 887 1009 C 915 979 935 942 949 900 C 962 858 969 810 969 756 L 969 266 C 969 200 971 146 975 104 C 979 62 987 28 999 0 L 854 0 C 846 22 840 46 836 70 C 831 94 829 122 829 154 C 766 97 700 54 630 25 C 560 -3 484 -18 403 -18 Z M 434 98 C 510 98 581 113 647 143 C 713 173 773 214 829 268 L 829 604 C 713 584 618 563 542 539 C 466 515 405 489 361 461 C 315 433 283 403 265 371 C 247 339 238 305 238 270 C 238 213 255 170 290 141 C 325 112 373 98 434 98 Z M 721 1188 C 692 1188 664 1194 637 1206 C 609 1218 583 1231 558 1246 C 532 1260 508 1273 485 1285 C 462 1297 440 1303 420 1303 C 388 1303 366 1294 354 1277 C 342 1260 336 1232 336 1192 L 246 1192 C 246 1270 260 1327 289 1363 C 318 1399 361 1417 418 1417 C 446 1417 474 1411 501 1399 C 528 1387 555 1374 581 1360 C 606 1346 630 1333 654 1321 C 677 1309 699 1303 721 1303 C 751 1303 772 1311 785 1328 C 798 1344 805 1373 805 1413 L 895 1413 C 895 1336 880 1279 850 1243 C 820 1206 777 1188 721 1188 Z" unicode="ã" />
<glyph horiz-adv-x="1120" d="M 403 -18 C 306 -18 231 5 178 53 C 124 101 98 167 98 252 C 98 305 110 355 135 401 C 159 447 200 489 258 527 C 315 565 390 598 483 628 C 576 658 691 683 829 705 L 829 760 C 829 834 810 890 773 926 C 735 962 681 981 610 981 C 567 981 527 976 491 968 C 454 959 419 947 387 933 C 354 917 323 899 293 879 C 263 858 235 835 207 811 L 131 899 C 163 929 196 956 232 981 C 267 1005 305 1027 346 1045 C 386 1062 428 1075 474 1085 C 520 1095 569 1100 623 1100 C 683 1100 734 1092 778 1076 C 822 1060 858 1038 887 1009 C 915 979 935 942 949 900 C 962 858 969 810 969 756 L 969 266 C 969 200 971 146 975 104 C 979 62 987 28 999 0 L 854 0 C 846 22 840 46 836 70 C 831 94 829 122 829 154 C 766 97 700 54 630 25 C 560 -3 484 -18 403 -18 Z M 434 98 C 510 98 581 113 647 143 C 713 173 773 214 829 268 L 829 604 C 713 584 618 563 542 539 C 466 515 405 489 361 461 C 315 433 283 403 265 371 C 247 339 238 305 238 270 C 238 213 255 170 290 141 C 325 112 373 98 434 98 Z M 685 1362 L 843 1362 L 843 1194 L 685 1194 L 685 1362 Z M 325 1362 L 483 1362 L 483 1194 L 325 1194 L 325 1362 Z" unicode="ä" />
<glyph horiz-adv-x="1120" d="M 403 -18 C 306 -18 231 5 178 53 C 124 101 98 167 98 252 C 98 305 110 355 135 401 C 159 447 200 489 258 527 C 315 565 390 598 483 628 C 576 658 691 683 829 705 L 829 760 C 829 834 810 890 773 926 C 735 962 681 981 610 981 C 567 981 527 976 491 968 C 454 959 419 947 387 933 C 354 917 323 899 293 879 C 263 858 235 835 207 811 L 131 899 C 163 929 196 956 232 981 C 267 1005 305 1027 346 1045 C 386 1062 428 1075 474 1085 C 520 1095 569 1100 623 1100 C 683 1100 734 1092 778 1076 C 822 1060 858 1038 887 1009 C 915 979 935 942 949 900 C 962 858 969 810 969 756 L 969 266 C 969 200 971 146 975 104 C 979 62 987 28 999 0 L 854 0 C 846 22 840 46 836 70 C 831 94 829 122 829 154 C 766 97 700 54 630 25 C 560 -3 484 -18 403 -18 Z M 434 98 C 510 98 581 113 647 143 C 713 173 773 214 829 268 L 829 604 C 713 584 618 563 542 539 C 466 515 405 489 361 461 C 315 433 283 403 265 371 C 247 339 238 305 238 270 C 238 213 255 170 290 141 C 325 112 373 98 434 98 Z M 587 1180 C 559 1180 534 1184 512 1194 C 489 1203 469 1216 453 1233 C 436 1249 423 1269 414 1292 C 405 1314 401 1339 401 1366 C 401 1392 405 1417 414 1440 C 423 1462 436 1482 453 1499 C 469 1515 489 1528 512 1538 C 534 1547 559 1552 587 1552 C 614 1552 639 1547 662 1538 C 684 1528 704 1515 721 1499 C 737 1482 750 1462 759 1440 C 768 1417 773 1392 773 1366 C 773 1339 768 1314 759 1292 C 750 1269 737 1249 721 1233 C 704 1216 684 1203 662 1194 C 639 1184 614 1180 587 1180 Z M 587 1251 C 619 1251 645 1261 665 1283 C 685 1304 696 1332 696 1366 C 696 1399 685 1426 665 1448 C 645 1470 619 1481 587 1481 C 555 1481 528 1470 508 1448 C 488 1426 478 1399 478 1366 C 478 1332 488 1304 508 1283 C 528 1261 555 1251 587 1251 Z" unicode="å" />
<glyph horiz-adv-x="1831" d="M 403 -23 C 355 -23 312 -16 274 -4 C 236 7 205 25 179 49 C 152 72 132 100 118 134 C 104 167 98 205 98 248 C 98 301 110 351 134 397 C 158 443 199 486 256 525 C 312 563 386 598 479 628 C 572 658 687 683 825 705 L 825 760 C 825 834 806 890 770 926 C 734 962 680 981 610 981 C 566 981 526 976 490 968 C 453 959 418 947 386 933 C 353 917 322 899 293 879 C 263 858 235 835 207 811 L 131 899 C 163 929 196 956 232 981 C 267 1005 305 1027 345 1045 C 385 1062 427 1075 473 1085 C 519 1095 568 1100 621 1100 C 668 1100 709 1094 745 1084 C 780 1073 810 1058 835 1039 C 859 1019 879 995 894 968 C 909 941 920 911 928 879 C 944 911 965 940 990 967 C 1014 994 1042 1018 1073 1038 C 1103 1057 1137 1072 1173 1083 C 1209 1094 1248 1100 1288 1100 C 1350 1100 1409 1088 1463 1064 C 1517 1040 1563 1004 1603 958 C 1642 910 1673 852 1695 782 C 1717 712 1729 631 1729 539 L 1729 516 L 958 516 C 958 448 968 388 986 336 C 1004 284 1028 240 1059 205 C 1089 169 1124 141 1165 123 C 1206 105 1250 96 1298 96 C 1338 96 1374 100 1406 109 C 1438 117 1467 130 1494 147 C 1520 163 1544 184 1566 208 C 1588 232 1609 261 1630 293 L 1720 223 C 1696 185 1669 150 1641 120 C 1612 90 1580 64 1545 43 C 1509 21 1470 5 1428 -6 C 1386 -17 1339 -23 1288 -23 C 1248 -23 1209 -18 1171 -8 C 1133 1 1097 16 1064 36 C 1030 55 998 79 970 108 C 941 137 916 171 895 211 C 859 175 823 142 786 114 C 749 85 710 61 670 41 C 629 20 587 4 543 -6 C 499 -17 452 -23 403 -23 Z M 1589 625 C 1585 675 1577 722 1563 766 C 1549 810 1529 848 1505 880 C 1479 911 1448 936 1412 954 C 1376 972 1334 981 1286 981 C 1248 981 1210 973 1174 959 C 1138 945 1105 923 1076 894 C 1046 864 1021 827 1001 783 C 981 738 967 685 961 625 L 1589 625 Z M 434 94 C 511 94 584 111 654 145 C 723 179 791 231 858 301 C 846 333 838 367 832 405 C 826 442 823 482 823 524 C 823 539 823 554 824 568 C 824 582 825 594 825 604 C 709 584 614 562 539 538 C 463 514 403 487 359 459 C 314 430 283 399 265 367 C 247 334 238 300 238 264 C 238 208 255 166 289 137 C 323 108 372 94 434 94 Z" unicode="æ" />
<glyph horiz-adv-x="1092" d="M 567 -399 C 521 -399 476 -392 432 -379 C 388 -365 349 -347 313 -324 L 350 -264 C 381 -284 413 -300 447 -310 C 481 -320 515 -326 551 -326 C 604 -326 642 -317 666 -301 C 690 -284 702 -260 702 -229 C 702 -205 695 -186 681 -174 C 667 -162 646 -156 618 -156 C 595 -156 575 -160 558 -168 C 540 -176 524 -185 510 -197 L 453 -170 L 500 -16 C 445 -8 393 10 345 38 C 297 66 255 104 219 152 C 183 199 154 255 133 320 C 112 384 102 457 102 539 C 102 635 115 719 143 790 C 171 860 207 919 253 965 C 297 1011 348 1045 406 1067 C 464 1089 523 1100 584 1100 C 642 1100 692 1092 736 1076 C 780 1060 818 1038 852 1012 C 884 984 912 953 936 917 C 960 881 980 844 997 805 L 877 752 C 861 790 844 823 826 852 C 807 881 786 906 762 926 C 738 945 711 960 681 970 C 651 980 618 985 580 985 C 540 985 500 977 460 961 C 420 945 384 919 352 884 C 320 848 294 802 274 746 C 254 690 244 621 244 541 C 244 470 252 407 269 351 C 286 295 309 247 339 209 C 368 170 403 140 443 120 C 483 100 527 90 575 90 C 612 90 646 94 676 104 C 706 114 733 129 758 149 C 782 169 805 193 825 223 C 845 253 865 288 885 328 L 999 279 C 977 234 954 193 928 157 C 902 121 873 90 840 64 C 806 38 769 17 727 3 C 685 -11 638 -19 586 -20 L 559 -111 C 573 -101 590 -94 608 -88 C 626 -82 646 -80 670 -80 C 689 -80 707 -83 725 -89 C 743 -95 758 -103 772 -115 C 785 -126 795 -140 803 -158 C 811 -176 815 -196 815 -219 C 815 -251 808 -278 795 -301 C 781 -323 764 -342 742 -357 C 719 -371 693 -381 663 -388 C 633 -395 601 -399 567 -399 Z" unicode="ç" />
<glyph horiz-adv-x="1118" d="M 575 -23 C 512 -23 452 -11 395 13 C 338 37 288 73 245 121 C 201 168 166 227 140 297 C 114 367 102 449 102 541 C 102 637 116 720 144 790 C 172 860 208 918 254 964 C 298 1010 349 1044 405 1066 C 461 1088 518 1100 575 1100 C 637 1100 696 1088 750 1064 C 804 1040 850 1004 890 958 C 929 910 960 852 982 782 C 1004 712 1016 631 1016 539 L 1016 512 L 244 512 C 244 445 254 386 272 334 C 290 282 314 239 345 204 C 375 168 411 141 452 123 C 493 105 537 96 584 96 C 624 96 660 100 692 109 C 724 117 754 130 782 147 C 808 163 833 184 855 208 C 877 232 899 261 920 293 L 1008 223 C 984 185 957 150 929 120 C 900 90 868 64 833 43 C 797 21 758 5 716 -6 C 673 -17 626 -23 575 -23 Z M 879 625 C 875 675 866 722 852 766 C 838 810 818 848 793 880 C 767 911 736 936 700 954 C 663 972 621 981 573 981 C 534 981 496 973 460 959 C 423 945 390 923 361 894 C 331 864 306 827 286 783 C 266 738 252 685 246 625 L 879 625 Z M 252 1513 L 438 1513 L 633 1194 L 541 1194 L 252 1513 Z" unicode="è" />
<glyph horiz-adv-x="1118" d="M 575 -23 C 512 -23 452 -11 395 13 C 338 37 288 73 245 121 C 201 168 166 227 140 297 C 114 367 102 449 102 541 C 102 637 116 720 144 790 C 172 860 208 918 254 964 C 298 1010 349 1044 405 1066 C 461 1088 518 1100 575 1100 C 637 1100 696 1088 750 1064 C 804 1040 850 1004 890 958 C 929 910 960 852 982 782 C 1004 712 1016 631 1016 539 L 1016 512 L 244 512 C 244 445 254 386 272 334 C 290 282 314 239 345 204 C 375 168 411 141 452 123 C 493 105 537 96 584 96 C 624 96 660 100 692 109 C 724 117 754 130 782 147 C 808 163 833 184 855 208 C 877 232 899 261 920 293 L 1008 223 C 984 185 957 150 929 120 C 900 90 868 64 833 43 C 797 21 758 5 716 -6 C 673 -17 626 -23 575 -23 Z M 879 625 C 875 675 866 722 852 766 C 838 810 818 848 793 880 C 767 911 736 936 700 954 C 663 972 621 981 573 981 C 534 981 496 973 460 959 C 423 945 390 923 361 894 C 331 864 306 827 286 783 C 266 738 252 685 246 625 L 879 625 Z M 696 1513 L 882 1513 L 593 1194 L 501 1194 L 696 1513 Z" unicode="é" />
<glyph horiz-adv-x="1118" d="M 575 -23 C 512 -23 452 -11 395 13 C 338 37 288 73 245 121 C 201 168 166 227 140 297 C 114 367 102 449 102 541 C 102 637 116 720 144 790 C 172 860 208 918 254 964 C 298 1010 349 1044 405 1066 C 461 1088 518 1100 575 1100 C 637 1100 696 1088 750 1064 C 804 1040 850 1004 890 958 C 929 910 960 852 982 782 C 1004 712 1016 631 1016 539 L 1016 512 L 244 512 C 244 445 254 386 272 334 C 290 282 314 239 345 204 C 375 168 411 141 452 123 C 493 105 537 96 584 96 C 624 96 660 100 692 109 C 724 117 754 130 782 147 C 808 163 833 184 855 208 C 877 232 899 261 920 293 L 1008 223 C 984 185 957 150 929 120 C 900 90 868 64 833 43 C 797 21 758 5 716 -6 C 673 -17 626 -23 575 -23 Z M 879 625 C 875 675 866 722 852 766 C 838 810 818 848 793 880 C 767 911 736 936 700 954 C 663 972 621 981 573 981 C 534 981 496 973 460 959 C 423 945 390 923 361 894 C 331 864 306 827 286 783 C 266 738 252 685 246 625 L 879 625 Z M 520 1513 L 626 1513 L 891 1188 L 801 1188 L 571 1389 L 342 1188 L 256 1188 L 520 1513 Z" unicode="ê" />
<glyph horiz-adv-x="1118" d="M 575 -23 C 512 -23 452 -11 395 13 C 338 37 288 73 245 121 C 201 168 166 227 140 297 C 114 367 102 449 102 541 C 102 637 116 720 144 790 C 172 860 208 918 254 964 C 298 1010 349 1044 405 1066 C 461 1088 518 1100 575 1100 C 637 1100 696 1088 750 1064 C 804 1040 850 1004 890 958 C 929 910 960 852 982 782 C 1004 712 1016 631 1016 539 L 1016 512 L 244 512 C 244 445 254 386 272 334 C 290 282 314 239 345 204 C 375 168 411 141 452 123 C 493 105 537 96 584 96 C 624 96 660 100 692 109 C 724 117 754 130 782 147 C 808 163 833 184 855 208 C 877 232 899 261 920 293 L 1008 223 C 984 185 957 150 929 120 C 900 90 868 64 833 43 C 797 21 758 5 716 -6 C 673 -17 626 -23 575 -23 Z M 879 625 C 875 675 866 722 852 766 C 838 810 818 848 793 880 C 767 911 736 936 700 954 C 663 972 621 981 573 981 C 534 981 496 973 460 959 C 423 945 390 923 361 894 C 331 864 306 827 286 783 C 266 738 252 685 246 625 L 879 625 Z M 667 1362 L 825 1362 L 825 1194 L 667 1194 L 667 1362 Z M 307 1362 L 465 1362 L 465 1194 L 307 1194 L 307 1362 Z" unicode="ë" />
<glyph horiz-adv-x="492" d="M 176 1079 L 317 1079 L 317 0 L 176 0 L 176 1079 Z M -67 1513 L 119 1513 L 314 1194 L 222 1194 L -67 1513 Z" unicode="ì" />
<glyph horiz-adv-x="492" d="M 176 1079 L 317 1079 L 317 0 L 176 0 L 176 1079 Z M 404 1513 L 590 1513 L 301 1194 L 209 1194 L 404 1513 Z" unicode="í" />
<glyph horiz-adv-x="492" d="M 176 1079 L 317 1079 L 317 0 L 176 0 L 176 1079 Z M 193 1513 L 299 1513 L 564 1188 L 474 1188 L 244 1389 L 15 1188 L -71 1188 L 193 1513 Z" unicode="î" />
<glyph horiz-adv-x="492" d="M 176 1079 L 317 1079 L 317 0 L 176 0 L 176 1079 Z M 346 1362 L 504 1362 L 504 1194 L 346 1194 L 346 1362 Z M -14 1362 L 144 1362 L 144 1194 L -14 1194 L -14 1362 Z" unicode="ï" />
<glyph horiz-adv-x="1182" d="M 592 -23 C 522 -23 458 -10 398 15 C 338 41 287 77 243 125 C 199 172 164 230 139 298 C 114 366 102 442 102 528 C 102 614 114 690 139 756 C 163 822 197 879 240 925 C 282 970 331 1004 389 1028 C 447 1051 509 1063 575 1063 C 609 1063 643 1058 676 1049 C 709 1039 741 1026 771 1010 C 800 993 827 973 852 950 C 877 927 899 902 918 874 C 902 936 880 997 851 1059 C 822 1121 781 1180 729 1237 L 506 1153 L 463 1251 L 651 1321 C 627 1342 603 1362 577 1381 C 551 1400 524 1419 494 1438 L 563 1530 C 601 1508 637 1485 673 1459 C 708 1433 742 1406 774 1376 L 979 1454 L 1022 1356 L 852 1290 C 886 1247 918 1200 946 1149 C 974 1098 998 1042 1018 981 C 1037 919 1052 851 1063 777 C 1073 703 1079 623 1079 537 C 1079 451 1066 373 1041 304 C 1016 235 982 176 939 128 C 895 79 843 42 784 16 C 724 -10 660 -23 592 -23 Z M 592 96 C 645 96 693 106 736 128 C 778 149 815 179 845 217 C 875 255 898 300 914 354 C 930 407 938 466 938 530 C 938 589 930 644 914 695 C 898 746 876 790 847 828 C 817 864 780 893 737 914 C 694 935 646 946 592 946 C 538 946 489 936 446 916 C 403 896 367 869 337 833 C 307 796 284 752 268 701 C 252 649 244 592 244 530 C 244 470 251 414 266 362 C 281 309 303 263 333 224 C 362 184 398 153 442 130 C 485 107 535 96 592 96 Z" unicode="ð" />
<glyph horiz-adv-x="1190" d="M 164 1079 L 305 1079 L 305 909 C 331 935 359 959 389 982 C 419 1005 452 1025 487 1043 C 521 1060 557 1074 595 1084 C 633 1094 674 1100 717 1100 C 823 1100 903 1071 957 1015 C 1011 959 1038 880 1038 780 L 1038 0 L 897 0 L 897 754 C 897 830 879 886 845 923 C 810 960 756 979 682 979 C 612 979 547 962 487 928 C 426 894 365 849 305 791 L 305 0 L 164 0 L 164 1079 Z M 760 1188 C 731 1188 703 1194 676 1206 C 648 1218 622 1231 597 1246 C 571 1260 547 1273 524 1285 C 501 1297 479 1303 459 1303 C 427 1303 405 1294 393 1277 C 381 1260 375 1232 375 1192 L 285 1192 C 285 1270 299 1327 328 1363 C 357 1399 400 1417 457 1417 C 485 1417 513 1411 540 1399 C 567 1387 594 1374 620 1360 C 645 1346 669 1333 693 1321 C 716 1309 738 1303 760 1303 C 790 1303 811 1311 824 1328 C 837 1344 844 1373 844 1413 L 934 1413 C 934 1336 919 1279 889 1243 C 859 1206 816 1188 760 1188 Z" unicode="ñ" />
<glyph horiz-adv-x="1182" d="M 592 -23 C 526 -23 463 -10 404 14 C 344 39 292 76 248 124 C 203 171 167 229 141 299 C 115 369 102 449 102 539 C 102 629 115 708 141 778 C 167 848 202 907 247 955 C 291 1002 343 1038 403 1063 C 462 1087 525 1100 592 1100 C 658 1100 720 1087 779 1063 C 838 1038 890 1002 935 955 C 979 907 1014 848 1040 778 C 1066 708 1079 629 1079 539 C 1079 449 1066 369 1040 299 C 1014 229 979 171 935 124 C 890 76 838 39 779 14 C 720 -10 658 -23 592 -23 Z M 592 98 C 646 98 694 108 737 130 C 780 152 817 182 847 222 C 876 261 898 308 914 362 C 930 416 938 475 938 541 C 938 599 930 655 916 708 C 901 761 879 808 851 848 C 821 888 785 919 742 943 C 698 967 648 979 592 979 C 537 979 488 968 445 946 C 402 924 366 894 336 856 C 306 816 283 770 267 716 C 251 662 244 604 244 541 C 244 481 251 424 265 370 C 279 316 301 270 331 230 C 359 189 395 157 439 133 C 483 109 534 98 592 98 Z M 275 1513 L 461 1513 L 656 1194 L 564 1194 L 275 1513 Z" unicode="ò" />
<glyph horiz-adv-x="1182" d="M 592 -23 C 526 -23 463 -10 404 14 C 344 39 292 76 248 124 C 203 171 167 229 141 299 C 115 369 102 449 102 539 C 102 629 115 708 141 778 C 167 848 202 907 247 955 C 291 1002 343 1038 403 1063 C 462 1087 525 1100 592 1100 C 658 1100 720 1087 779 1063 C 838 1038 890 1002 935 955 C 979 907 1014 848 1040 778 C 1066 708 1079 629 1079 539 C 1079 449 1066 369 1040 299 C 1014 229 979 171 935 124 C 890 76 838 39 779 14 C 720 -10 658 -23 592 -23 Z M 592 98 C 646 98 694 108 737 130 C 780 152 817 182 847 222 C 876 261 898 308 914 362 C 930 416 938 475 938 541 C 938 599 930 655 916 708 C 901 761 879 808 851 848 C 821 888 785 919 742 943 C 698 967 648 979 592 979 C 537 979 488 968 445 946 C 402 924 366 894 336 856 C 306 816 283 770 267 716 C 251 662 244 604 244 541 C 244 481 251 424 265 370 C 279 316 301 270 331 230 C 359 189 395 157 439 133 C 483 109 534 98 592 98 Z M 713 1513 L 899 1513 L 610 1194 L 518 1194 L 713 1513 Z" unicode="ó" />
<glyph horiz-adv-x="1182" d="M 592 -23 C 526 -23 463 -10 404 14 C 344 39 292 76 248 124 C 203 171 167 229 141 299 C 115 369 102 449 102 539 C 102 629 115 708 141 778 C 167 848 202 907 247 955 C 291 1002 343 1038 403 1063 C 462 1087 525 1100 592 1100 C 658 1100 720 1087 779 1063 C 838 1038 890 1002 935 955 C 979 907 1014 848 1040 778 C 1066 708 1079 629 1079 539 C 1079 449 1066 369 1040 299 C 1014 229 979 171 935 124 C 890 76 838 39 779 14 C 720 -10 658 -23 592 -23 Z M 592 98 C 646 98 694 108 737 130 C 780 152 817 182 847 222 C 876 261 898 308 914 362 C 930 416 938 475 938 541 C 938 599 930 655 916 708 C 901 761 879 808 851 848 C 821 888 785 919 742 943 C 698 967 648 979 592 979 C 537 979 488 968 445 946 C 402 924 366 894 336 856 C 306 816 283 770 267 716 C 251 662 244 604 244 541 C 244 481 251 424 265 370 C 279 316 301 270 331 230 C 359 189 395 157 439 133 C 483 109 534 98 592 98 Z M 536 1513 L 642 1513 L 907 1188 L 817 1188 L 587 1389 L 358 1188 L 272 1188 L 536 1513 Z" unicode="ô" />
<glyph horiz-adv-x="1182" d="M 592 -23 C 526 -23 463 -10 404 14 C 344 39 292 76 248 124 C 203 171 167 229 141 299 C 115 369 102 449 102 539 C 102 629 115 708 141 778 C 167 848 202 907 247 955 C 291 1002 343 1038 403 1063 C 462 1087 525 1100 592 1100 C 658 1100 720 1087 779 1063 C 838 1038 890 1002 935 955 C 979 907 1014 848 1040 778 C 1066 708 1079 629 1079 539 C 1079 449 1066 369 1040 299 C 1014 229 979 171 935 124 C 890 76 838 39 779 14 C 720 -10 658 -23 592 -23 Z M 592 98 C 646 98 694 108 737 130 C 780 152 817 182 847 222 C 876 261 898 308 914 362 C 930 416 938 475 938 541 C 938 599 930 655 916 708 C 901 761 879 808 851 848 C 821 888 785 919 742 943 C 698 967 648 979 592 979 C 537 979 488 968 445 946 C 402 924 366 894 336 856 C 306 816 283 770 267 716 C 251 662 244 604 244 541 C 244 481 251 424 265 370 C 279 316 301 270 331 230 C 359 189 395 157 439 133 C 483 109 534 98 592 98 Z M 745 1188 C 716 1188 688 1194 661 1206 C 633 1218 607 1231 582 1246 C 556 1260 532 1273 509 1285 C 486 1297 464 1303 444 1303 C 412 1303 390 1294 378 1277 C 366 1260 360 1232 360 1192 L 270 1192 C 270 1270 284 1327 313 1363 C 342 1399 385 1417 442 1417 C 470 1417 498 1411 525 1399 C 552 1387 579 1374 605 1360 C 630 1346 654 1333 678 1321 C 701 1309 723 1303 745 1303 C 775 1303 796 1311 809 1328 C 822 1344 829 1373 829 1413 L 919 1413 C 919 1336 904 1279 874 1243 C 844 1206 801 1188 745 1188 Z" unicode="õ" />
<glyph horiz-adv-x="1182" d="M 592 -23 C 526 -23 463 -10 404 14 C 344 39 292 76 248 124 C 203 171 167 229 141 299 C 115 369 102 449 102 539 C 102 629 115 708 141 778 C 167 848 202 907 247 955 C 291 1002 343 1038 403 1063 C 462 1087 525 1100 592 1100 C 658 1100 720 1087 779 1063 C 838 1038 890 1002 935 955 C 979 907 1014 848 1040 778 C 1066 708 1079 629 1079 539 C 1079 449 1066 369 1040 299 C 1014 229 979 171 935 124 C 890 76 838 39 779 14 C 720 -10 658 -23 592 -23 Z M 592 98 C 646 98 694 108 737 130 C 780 152 817 182 847 222 C 876 261 898 308 914 362 C 930 416 938 475 938 541 C 938 599 930 655 916 708 C 901 761 879 808 851 848 C 821 888 785 919 742 943 C 698 967 648 979 592 979 C 537 979 488 968 445 946 C 402 924 366 894 336 856 C 306 816 283 770 267 716 C 251 662 244 604 244 541 C 244 481 251 424 265 370 C 279 316 301 270 331 230 C 359 189 395 157 439 133 C 483 109 534 98 592 98 Z M 687 1362 L 845 1362 L 845 1194 L 687 1194 L 687 1362 Z M 327 1362 L 485 1362 L 485 1194 L 327 1194 L 327 1362 Z" unicode="ö" />
<glyph horiz-adv-x="1303" d="M 135 735 L 1169 735 L 1169 612 L 135 612 L 135 735 Z M 561 397 L 733 397 L 733 221 L 561 221 L 561 397 Z M 561 1124 L 733 1124 L 733 948 L 561 948 L 561 1124 Z" unicode="÷" />
<glyph horiz-adv-x="1182" d="M 950 940 C 990 892 1021 834 1044 767 C 1067 700 1079 624 1079 539 C 1079 449 1066 369 1040 299 C 1014 229 979 171 935 124 C 890 76 838 39 779 14 C 720 -10 658 -23 592 -23 C 538 -23 487 -15 439 1 C 391 17 347 40 307 70 L 203 -68 L 127 -8 L 236 137 C 194 185 161 242 137 310 C 113 377 102 453 102 539 C 102 629 115 708 141 778 C 167 848 202 907 247 955 C 291 1002 343 1038 403 1063 C 462 1087 525 1100 592 1100 C 644 1100 694 1092 742 1077 C 790 1061 835 1038 877 1008 L 979 1147 L 1059 1083 L 950 940 Z M 803 905 C 775 929 743 948 708 961 C 672 974 634 981 592 981 C 537 981 488 970 445 948 C 401 926 365 895 335 857 C 305 817 282 771 266 717 C 250 663 242 604 242 541 C 242 484 248 430 261 379 C 274 327 294 282 322 242 L 803 905 Z M 381 172 C 407 147 438 128 473 114 C 508 100 548 94 592 94 C 646 94 694 105 737 127 C 780 149 817 180 847 220 C 877 259 900 306 916 361 C 932 415 940 475 940 541 C 940 595 933 647 920 697 C 906 747 887 792 862 831 L 381 172 Z" unicode="ø" />
<glyph horiz-adv-x="1190" d="M 475 -23 C 367 -23 287 5 234 62 C 180 119 154 198 154 299 L 154 1079 L 295 1079 L 295 324 C 295 247 312 190 346 153 C 380 116 434 98 510 98 C 544 98 577 102 609 111 C 641 120 672 133 704 150 C 734 166 765 185 795 209 C 825 232 855 258 885 287 L 885 1079 L 1028 1079 L 1028 0 L 885 0 L 885 170 C 859 144 830 120 800 97 C 770 73 738 53 704 36 C 669 18 633 3 595 -7 C 557 -17 517 -23 475 -23 Z M 285 1513 L 471 1513 L 666 1194 L 574 1194 L 285 1513 Z" unicode="ù" />
<glyph horiz-adv-x="1190" d="M 475 -23 C 367 -23 287 5 234 62 C 180 119 154 198 154 299 L 154 1079 L 295 1079 L 295 324 C 295 247 312 190 346 153 C 380 116 434 98 510 98 C 544 98 577 102 609 111 C 641 120 672 133 704 150 C 734 166 765 185 795 209 C 825 232 855 258 885 287 L 885 1079 L 1028 1079 L 1028 0 L 885 0 L 885 170 C 859 144 830 120 800 97 C 770 73 738 53 704 36 C 669 18 633 3 595 -7 C 557 -17 517 -23 475 -23 Z M 713 1513 L 899 1513 L 610 1194 L 518 1194 L 713 1513 Z" unicode="ú" />
<glyph horiz-adv-x="1190" d="M 475 -23 C 367 -23 287 5 234 62 C 180 119 154 198 154 299 L 154 1079 L 295 1079 L 295 324 C 295 247 312 190 346 153 C 380 116 434 98 510 98 C 544 98 577 102 609 111 C 641 120 672 133 704 150 C 734 166 765 185 795 209 C 825 232 855 258 885 287 L 885 1079 L 1028 1079 L 1028 0 L 885 0 L 885 170 C 859 144 830 120 800 97 C 770 73 738 53 704 36 C 669 18 633 3 595 -7 C 557 -17 517 -23 475 -23 Z M 536 1513 L 642 1513 L 907 1188 L 817 1188 L 587 1389 L 358 1188 L 272 1188 L 536 1513 Z" unicode="û" />
<glyph horiz-adv-x="1190" d="M 475 -23 C 367 -23 287 5 234 62 C 180 119 154 198 154 299 L 154 1079 L 295 1079 L 295 324 C 295 247 312 190 346 153 C 380 116 434 98 510 98 C 544 98 577 102 609 111 C 641 120 672 133 704 150 C 734 166 765 185 795 209 C 825 232 855 258 885 287 L 885 1079 L 1028 1079 L 1028 0 L 885 0 L 885 170 C 859 144 830 120 800 97 C 770 73 738 53 704 36 C 669 18 633 3 595 -7 C 557 -17 517 -23 475 -23 Z M 693 1362 L 851 1362 L 851 1194 L 693 1194 L 693 1362 Z M 333 1362 L 491 1362 L 491 1194 L 333 1194 L 333 1362 Z" unicode="ü" />
<glyph horiz-adv-x="1079" d="M 201 -414 C 159 -414 125 -411 97 -407 C 69 -402 44 -397 23 -391 L 55 -274 C 70 -278 90 -282 114 -286 C 138 -289 169 -291 205 -291 C 234 -291 260 -287 282 -281 C 304 -274 325 -264 343 -251 C 360 -237 375 -220 389 -199 C 402 -178 414 -153 426 -125 L 471 -6 L 53 1079 L 205 1079 L 541 168 L 545 168 L 879 1079 L 1026 1079 L 561 -125 C 543 -173 523 -215 503 -251 C 483 -287 459 -317 432 -342 C 404 -366 371 -384 334 -396 C 297 -408 253 -414 201 -414 Z M 569 1513 L 755 1513 L 466 1194 L 374 1194 L 569 1513 Z" unicode="ý" />
<glyph horiz-adv-x="1214" d="M 164 1516 L 305 1516 L 305 926 C 326 948 349 970 375 991 C 400 1012 427 1031 457 1047 C 486 1063 518 1075 553 1085 C 587 1095 625 1100 666 1100 C 728 1100 786 1088 840 1065 C 894 1042 941 1008 981 962 C 1021 915 1052 857 1075 787 C 1098 717 1110 635 1110 541 C 1110 447 1098 365 1075 295 C 1051 225 1019 167 979 121 C 937 74 889 39 833 16 C 777 -6 717 -18 653 -18 C 583 -18 520 -2 463 27 C 405 57 353 97 305 147 L 305 -410 L 164 -410 L 164 1516 Z M 641 100 C 688 100 732 108 772 125 C 812 142 847 169 877 205 C 905 240 928 285 944 341 C 960 396 969 462 969 539 C 969 613 960 678 943 734 C 925 789 902 835 873 872 C 843 908 808 934 768 952 C 728 970 685 979 641 979 C 607 979 576 974 547 966 C 517 958 489 946 462 931 C 434 915 408 896 382 874 C 356 852 331 827 305 801 L 305 276 C 359 219 412 175 466 145 C 520 115 578 100 641 100 Z" unicode="þ" />
<glyph horiz-adv-x="1079" d="M 201 -414 C 159 -414 125 -411 97 -407 C 69 -402 44 -397 23 -391 L 55 -274 C 70 -278 90 -282 114 -286 C 138 -289 169 -291 205 -291 C 234 -291 260 -287 282 -281 C 304 -274 325 -264 343 -251 C 360 -237 375 -220 389 -199 C 402 -178 414 -153 426 -125 L 471 -6 L 53 1079 L 205 1079 L 541 168 L 545 168 L 879 1079 L 1026 1079 L 561 -125 C 543 -173 523 -215 503 -251 C 483 -287 459 -317 432 -342 C 404 -366 371 -384 334 -396 C 297 -408 253 -414 201 -414 Z M 642 1362 L 800 1362 L 800 1194 L 642 1194 L 642 1362 Z M 282 1362 L 440 1362 L 440 1194 L 282 1194 L 282 1362 Z" unicode="ÿ" />
<glyph horiz-adv-x="1378" d="M 610 1522 L 768 1522 L 1305 0 L 1153 0 L 991 467 L 377 467 L 215 0 L 74 0 L 610 1522 Z M 946 596 L 686 1350 L 682 1350 L 422 596 L 946 596 Z M 428 1728 L 944 1728 L 944 1607 L 428 1607 L 428 1728 Z" unicode="Ā" />
<glyph horiz-adv-x="1120" d="M 403 -18 C 306 -18 231 5 178 53 C 124 101 98 167 98 252 C 98 305 110 355 135 401 C 159 447 200 489 258 527 C 315 565 390 598 483 628 C 576 658 691 683 829 705 L 829 760 C 829 834 810 890 773 926 C 735 962 681 981 610 981 C 567 981 527 976 491 968 C 454 959 419 947 387 933 C 354 917 323 899 293 879 C 263 858 235 835 207 811 L 131 899 C 163 929 196 956 232 981 C 267 1005 305 1027 346 1045 C 386 1062 428 1075 474 1085 C 520 1095 569 1100 623 1100 C 683 1100 734 1092 778 1076 C 822 1060 858 1038 887 1009 C 915 979 935 942 949 900 C 962 858 969 810 969 756 L 969 266 C 969 200 971 146 975 104 C 979 62 987 28 999 0 L 854 0 C 846 22 840 46 836 70 C 831 94 829 122 829 154 C 766 97 700 54 630 25 C 560 -3 484 -18 403 -18 Z M 434 98 C 510 98 581 113 647 143 C 713 173 773 214 829 268 L 829 604 C 713 584 618 563 542 539 C 466 515 405 489 361 461 C 315 433 283 403 265 371 C 247 339 238 305 238 270 C 238 213 255 170 290 141 C 325 112 373 98 434 98 Z M 301 1315 L 817 1315 L 817 1194 L 301 1194 L 301 1315 Z" unicode="ā" />
<glyph horiz-adv-x="1378" d="M 610 1522 L 768 1522 L 1305 0 L 1153 0 L 991 467 L 377 467 L 215 0 L 74 0 L 610 1522 Z M 946 596 L 686 1350 L 682 1350 L 422 596 L 946 596 Z M 686 1599 C 640 1599 599 1606 563 1622 C 526 1638 495 1660 469 1690 C 442 1718 421 1753 406 1795 C 390 1836 381 1883 379 1935 L 469 1935 C 477 1855 500 1797 538 1763 C 576 1728 625 1711 686 1711 C 746 1711 795 1728 833 1763 C 870 1797 893 1855 903 1935 L 993 1935 C 990 1883 981 1836 966 1795 C 950 1753 929 1718 903 1690 C 876 1660 844 1638 808 1622 C 771 1606 730 1599 686 1599 Z" unicode="Ă" />
<glyph horiz-adv-x="1120" d="M 403 -18 C 306 -18 231 5 178 53 C 124 101 98 167 98 252 C 98 305 110 355 135 401 C 159 447 200 489 258 527 C 315 565 390 598 483 628 C 576 658 691 683 829 705 L 829 760 C 829 834 810 890 773 926 C 735 962 681 981 610 981 C 567 981 527 976 491 968 C 454 959 419 947 387 933 C 354 917 323 899 293 879 C 263 858 235 835 207 811 L 131 899 C 163 929 196 956 232 981 C 267 1005 305 1027 346 1045 C 386 1062 428 1075 474 1085 C 520 1095 569 1100 623 1100 C 683 1100 734 1092 778 1076 C 822 1060 858 1038 887 1009 C 915 979 935 942 949 900 C 962 858 969 810 969 756 L 969 266 C 969 200 971 146 975 104 C 979 62 987 28 999 0 L 854 0 C 846 22 840 46 836 70 C 831 94 829 122 829 154 C 766 97 700 54 630 25 C 560 -3 484 -18 403 -18 Z M 434 98 C 510 98 581 113 647 143 C 713 173 773 214 829 268 L 829 604 C 713 584 618 563 542 539 C 466 515 405 489 361 461 C 315 433 283 403 265 371 C 247 339 238 305 238 270 C 238 213 255 170 290 141 C 325 112 373 98 434 98 Z M 559 1186 C 513 1186 472 1193 436 1209 C 399 1225 368 1247 342 1277 C 315 1305 294 1340 279 1382 C 263 1423 254 1470 252 1522 L 342 1522 C 350 1442 373 1384 411 1350 C 449 1315 498 1298 559 1298 C 619 1298 668 1315 706 1350 C 743 1384 766 1442 776 1522 L 866 1522 C 863 1470 854 1423 839 1382 C 823 1340 802 1305 776 1277 C 749 1247 717 1225 681 1209 C 644 1193 603 1186 559 1186 Z" unicode="ă" />
<glyph horiz-adv-x="1378" d="M 610 1522 L 768 1522 L 1305 0 L 1153 0 L 991 467 L 377 467 L 215 0 L 74 0 L 610 1522 Z M 946 596 L 686 1350 L 682 1350 L 422 596 L 946 596 Z M 1173 -383 C 1113 -383 1066 -369 1032 -341 C 998 -313 982 -275 982 -225 C 982 -204 986 -183 996 -161 C 1006 -139 1019 -119 1036 -99 C 1052 -78 1071 -58 1093 -40 C 1115 -21 1138 -4 1163 12 L 1259 12 C 1209 -22 1171 -57 1143 -93 C 1115 -129 1101 -167 1101 -205 C 1101 -233 1109 -256 1126 -274 C 1142 -292 1170 -301 1208 -301 C 1240 -301 1272 -296 1304 -288 C 1335 -279 1368 -267 1402 -252 L 1433 -305 C 1391 -328 1349 -347 1306 -361 C 1262 -375 1218 -383 1173 -383 Z" unicode="Ą" />
<glyph horiz-adv-x="1120" d="M 403 -18 C 306 -18 231 5 178 53 C 124 101 98 167 98 252 C 98 305 110 355 135 401 C 159 447 200 489 258 527 C 315 565 390 598 483 628 C 576 658 691 683 829 705 L 829 760 C 829 834 810 890 773 926 C 735 962 681 981 610 981 C 567 981 527 976 491 968 C 454 959 419 947 387 933 C 354 917 323 899 293 879 C 263 858 235 835 207 811 L 131 899 C 163 929 196 956 232 981 C 267 1005 305 1027 346 1045 C 386 1062 428 1075 474 1085 C 520 1095 569 1100 623 1100 C 683 1100 734 1092 778 1076 C 822 1060 858 1038 887 1009 C 915 979 935 942 949 900 C 962 858 969 810 969 756 L 969 266 C 969 200 971 146 975 104 C 979 62 987 28 999 0 L 854 0 C 846 22 840 46 836 70 C 831 94 829 122 829 154 C 766 97 700 54 630 25 C 560 -3 484 -18 403 -18 Z M 434 98 C 510 98 581 113 647 143 C 713 173 773 214 829 268 L 829 604 C 713 584 618 563 542 539 C 466 515 405 489 361 461 C 315 433 283 403 265 371 C 247 339 238 305 238 270 C 238 213 255 170 290 141 C 325 112 373 98 434 98 Z M 874 -383 C 814 -383 767 -369 733 -341 C 699 -313 683 -275 683 -225 C 683 -204 687 -183 697 -161 C 707 -139 720 -119 737 -99 C 753 -78 772 -58 794 -40 C 816 -21 839 -4 864 12 L 960 12 C 910 -22 872 -57 844 -93 C 816 -129 802 -167 802 -205 C 802 -233 810 -256 827 -274 C 843 -292 871 -301 909 -301 C 941 -301 973 -296 1005 -288 C 1036 -279 1069 -267 1103 -252 L 1134 -305 C 1092 -328 1050 -347 1007 -361 C 963 -375 919 -383 874 -383 Z" unicode="ą" />
<glyph horiz-adv-x="1432" d="M 819 1926 L 1005 1926 L 716 1607 L 624 1607 L 819 1926 Z M 752 -29 C 656 -29 569 -10 491 27 C 413 64 347 117 293 187 C 237 255 195 338 165 436 C 135 534 121 643 121 764 C 121 878 136 983 166 1079 C 196 1175 239 1257 295 1326 C 349 1394 415 1448 493 1486 C 571 1524 657 1544 752 1544 C 828 1544 897 1533 957 1511 C 1017 1489 1069 1458 1115 1418 C 1159 1377 1197 1328 1227 1271 C 1257 1214 1282 1151 1300 1081 L 1161 1047 C 1144 1107 1124 1159 1101 1205 C 1077 1250 1049 1288 1017 1319 C 984 1349 946 1371 902 1387 C 858 1403 808 1411 750 1411 C 676 1411 610 1395 550 1365 C 490 1334 440 1291 398 1235 C 356 1179 323 1111 300 1032 C 277 953 266 865 266 768 C 266 662 277 568 301 486 C 324 404 357 334 400 278 C 442 220 493 177 553 147 C 613 117 680 102 754 102 C 867 102 959 134 1030 198 C 1100 262 1152 359 1186 487 L 1325 457 C 1306 382 1280 315 1246 255 C 1212 195 1172 144 1124 102 C 1076 60 1021 27 959 5 C 897 -17 828 -29 752 -29 Z" unicode="Ć" />
<glyph horiz-adv-x="1087" d="M 678 1513 L 864 1513 L 575 1194 L 483 1194 L 678 1513 Z M 569 -23 C 507 -23 447 -10 391 14 C 335 39 285 76 243 124 C 199 171 165 229 140 299 C 114 369 102 449 102 539 C 102 635 115 719 143 790 C 171 860 207 919 253 965 C 297 1011 348 1045 406 1067 C 464 1089 523 1100 584 1100 C 642 1100 692 1092 736 1076 C 780 1060 818 1038 852 1012 C 884 984 912 953 936 917 C 960 881 980 844 997 805 L 877 752 C 847 824 808 880 762 920 C 716 959 655 979 580 979 C 540 979 500 971 460 956 C 420 940 384 915 352 881 C 320 846 294 801 274 745 C 254 689 244 621 244 541 C 244 470 252 407 269 352 C 286 297 309 251 339 214 C 368 176 403 147 443 127 C 483 107 527 98 575 98 C 612 98 646 102 676 111 C 706 120 733 134 758 153 C 782 171 805 195 825 224 C 845 253 865 288 885 328 L 999 279 C 977 233 953 191 926 154 C 899 117 868 86 834 60 C 799 33 760 12 716 -1 C 672 -15 623 -23 569 -23 Z" unicode="ć" />
<glyph horiz-adv-x="1432" d="M 692 1926 L 798 1926 L 1063 1601 L 973 1601 L 743 1802 L 514 1601 L 428 1601 L 692 1926 Z M 752 -29 C 656 -29 569 -10 491 27 C 413 64 347 117 293 187 C 237 255 195 338 165 436 C 135 534 121 643 121 764 C 121 878 136 983 166 1079 C 196 1175 239 1257 295 1326 C 349 1394 415 1448 493 1486 C 571 1524 657 1544 752 1544 C 828 1544 897 1533 957 1511 C 1017 1489 1069 1458 1115 1418 C 1159 1377 1197 1328 1227 1271 C 1257 1214 1282 1151 1300 1081 L 1161 1047 C 1144 1107 1124 1159 1101 1205 C 1077 1250 1049 1288 1017 1319 C 984 1349 946 1371 902 1387 C 858 1403 808 1411 750 1411 C 676 1411 610 1395 550 1365 C 490 1334 440 1291 398 1235 C 356 1179 323 1111 300 1032 C 277 953 266 865 266 768 C 266 662 277 568 301 486 C 324 404 357 334 400 278 C 442 220 493 177 553 147 C 613 117 680 102 754 102 C 867 102 959 134 1030 198 C 1100 262 1152 359 1186 487 L 1325 457 C 1306 382 1280 315 1246 255 C 1212 195 1172 144 1124 102 C 1076 60 1021 27 959 5 C 897 -17 828 -29 752 -29 Z" unicode="Ĉ" />
<glyph horiz-adv-x="1087" d="M 493 1513 L 599 1513 L 864 1188 L 774 1188 L 544 1389 L 315 1188 L 229 1188 L 493 1513 Z M 569 -23 C 507 -23 447 -10 391 14 C 335 39 285 76 243 124 C 199 171 165 229 140 299 C 114 369 102 449 102 539 C 102 635 115 719 143 790 C 171 860 207 919 253 965 C 297 1011 348 1045 406 1067 C 464 1089 523 1100 584 1100 C 642 1100 692 1092 736 1076 C 780 1060 818 1038 852 1012 C 884 984 912 953 936 917 C 960 881 980 844 997 805 L 877 752 C 847 824 808 880 762 920 C 716 959 655 979 580 979 C 540 979 500 971 460 956 C 420 940 384 915 352 881 C 320 846 294 801 274 745 C 254 689 244 621 244 541 C 244 470 252 407 269 352 C 286 297 309 251 339 214 C 368 176 403 147 443 127 C 483 107 527 98 575 98 C 612 98 646 102 676 111 C 706 120 733 134 758 153 C 782 171 805 195 825 224 C 845 253 865 288 885 328 L 999 279 C 977 233 953 191 926 154 C 899 117 868 86 834 60 C 799 33 760 12 716 -1 C 672 -15 623 -23 569 -23 Z" unicode="ĉ" />
<glyph horiz-adv-x="1432" d="M 752 -29 C 656 -29 569 -10 491 27 C 413 64 347 117 293 187 C 237 255 195 338 165 436 C 135 534 121 643 121 764 C 121 878 136 983 166 1079 C 196 1175 239 1257 295 1326 C 349 1394 415 1448 493 1486 C 571 1524 657 1544 752 1544 C 828 1544 897 1533 957 1511 C 1017 1489 1069 1458 1115 1418 C 1159 1377 1197 1328 1227 1271 C 1257 1214 1282 1151 1300 1081 L 1161 1047 C 1144 1107 1124 1159 1101 1205 C 1077 1250 1049 1288 1017 1319 C 984 1349 946 1371 902 1387 C 858 1403 808 1411 750 1411 C 676 1411 610 1395 550 1365 C 490 1334 440 1291 398 1235 C 356 1179 323 1111 300 1032 C 277 953 266 865 266 768 C 266 662 277 568 301 486 C 324 404 357 334 400 278 C 442 220 493 177 553 147 C 613 117 680 102 754 102 C 867 102 959 134 1030 198 C 1100 262 1152 359 1186 487 L 1325 457 C 1306 382 1280 315 1246 255 C 1212 195 1172 144 1124 102 C 1076 60 1021 27 959 5 C 897 -17 828 -29 752 -29 Z M 657 1777 L 829 1777 L 829 1613 L 657 1613 L 657 1777 Z" unicode="Ċ" />
<glyph horiz-adv-x="1087" d="M 569 -23 C 507 -23 447 -10 391 14 C 335 39 285 76 243 124 C 199 171 165 229 140 299 C 114 369 102 449 102 539 C 102 635 115 719 143 790 C 171 860 207 919 253 965 C 297 1011 348 1045 406 1067 C 464 1089 523 1100 584 1100 C 642 1100 692 1092 736 1076 C 780 1060 818 1038 852 1012 C 884 984 912 953 936 917 C 960 881 980 844 997 805 L 877 752 C 847 824 808 880 762 920 C 716 959 655 979 580 979 C 540 979 500 971 460 956 C 420 940 384 915 352 881 C 320 846 294 801 274 745 C 254 689 244 621 244 541 C 244 470 252 407 269 352 C 286 297 309 251 339 214 C 368 176 403 147 443 127 C 483 107 527 98 575 98 C 612 98 646 102 676 111 C 706 120 733 134 758 153 C 782 171 805 195 825 224 C 845 253 865 288 885 328 L 999 279 C 977 233 953 191 926 154 C 899 117 868 86 834 60 C 799 33 760 12 716 -1 C 672 -15 623 -23 569 -23 Z M 462 1364 L 634 1364 L 634 1200 L 462 1200 L 462 1364 Z" unicode="ċ" />
<glyph horiz-adv-x="1432" d="M 395 1935 L 485 1935 L 714 1734 L 946 1935 L 1032 1935 L 767 1609 L 659 1609 L 395 1935 Z M 752 -29 C 656 -29 569 -10 491 27 C 413 64 347 117 293 187 C 237 255 195 338 165 436 C 135 534 121 643 121 764 C 121 878 136 983 166 1079 C 196 1175 239 1257 295 1326 C 349 1394 415 1448 493 1486 C 571 1524 657 1544 752 1544 C 828 1544 897 1533 957 1511 C 1017 1489 1069 1458 1115 1418 C 1159 1377 1197 1328 1227 1271 C 1257 1214 1282 1151 1300 1081 L 1161 1047 C 1144 1107 1124 1159 1101 1205 C 1077 1250 1049 1288 1017 1319 C 984 1349 946 1371 902 1387 C 858 1403 808 1411 750 1411 C 676 1411 610 1395 550 1365 C 490 1334 440 1291 398 1235 C 356 1179 323 1111 300 1032 C 277 953 266 865 266 768 C 266 662 277 568 301 486 C 324 404 357 334 400 278 C 442 220 493 177 553 147 C 613 117 680 102 754 102 C 867 102 959 134 1030 198 C 1100 262 1152 359 1186 487 L 1325 457 C 1306 382 1280 315 1246 255 C 1212 195 1172 144 1124 102 C 1076 60 1021 27 959 5 C 897 -17 828 -29 752 -29 Z" unicode="Č" />
<glyph horiz-adv-x="1087" d="M 223 1522 L 313 1522 L 542 1321 L 774 1522 L 860 1522 L 595 1196 L 487 1196 L 223 1522 Z M 569 -23 C 507 -23 447 -10 391 14 C 335 39 285 76 243 124 C 199 171 165 229 140 299 C 114 369 102 449 102 539 C 102 635 115 719 143 790 C 171 860 207 919 253 965 C 297 1011 348 1045 406 1067 C 464 1089 523 1100 584 1100 C 642 1100 692 1092 736 1076 C 780 1060 818 1038 852 1012 C 884 984 912 953 936 917 C 960 881 980 844 997 805 L 877 752 C 847 824 808 880 762 920 C 716 959 655 979 580 979 C 540 979 500 971 460 956 C 420 940 384 915 352 881 C 320 846 294 801 274 745 C 254 689 244 621 244 541 C 244 470 252 407 269 352 C 286 297 309 251 339 214 C 368 176 403 147 443 127 C 483 107 527 98 575 98 C 612 98 646 102 676 111 C 706 120 733 134 758 153 C 782 171 805 195 825 224 C 845 253 865 288 885 328 L 999 279 C 977 233 953 191 926 154 C 899 117 868 86 834 60 C 799 33 760 12 716 -1 C 672 -15 623 -23 569 -23 Z" unicode="č" />
<glyph horiz-adv-x="1452" d="M 405 1935 L 495 1935 L 724 1734 L 956 1935 L 1042 1935 L 777 1609 L 669 1609 L 405 1935 Z M 195 1516 L 578 1516 C 824 1516 1011 1452 1139 1325 C 1267 1198 1331 1010 1331 760 C 1331 634 1314 524 1282 430 C 1249 335 1201 256 1138 193 C 1074 129 995 80 901 48 C 807 16 700 0 578 0 L 195 0 L 195 1516 Z M 600 131 C 694 131 777 143 850 167 C 922 191 984 229 1034 281 C 1083 332 1121 397 1147 477 C 1173 556 1186 650 1186 760 C 1186 866 1173 959 1147 1037 C 1121 1115 1083 1179 1033 1231 C 982 1281 920 1319 847 1343 C 773 1367 690 1380 596 1380 L 340 1380 L 340 131 L 600 131 Z" unicode="Ď" />
<glyph horiz-adv-x="1214" d="M 1231 1335 L 1167 1335 L 1167 1516 L 1333 1516 L 1333 1354 L 1245 1133 L 1184 1133 L 1231 1335 Z M 549 -18 C 487 -18 429 -6 375 16 C 321 38 274 73 234 119 C 193 165 161 223 138 293 C 115 363 104 445 104 539 C 104 633 115 715 139 785 C 162 855 194 914 236 961 C 276 1007 324 1041 380 1065 C 436 1088 496 1100 561 1100 C 595 1100 629 1095 662 1087 C 694 1078 726 1066 756 1052 C 785 1036 812 1018 838 998 C 864 977 887 955 909 932 L 909 1516 L 1051 1516 L 1051 266 C 1051 200 1053 146 1058 104 C 1062 62 1071 28 1083 0 L 934 0 C 928 18 922 42 917 71 C 911 99 909 128 909 158 C 887 134 863 111 838 90 C 813 68 786 50 757 34 C 727 18 695 5 661 -4 C 627 -13 589 -18 549 -18 Z M 573 102 C 606 102 637 106 667 114 C 697 122 725 134 753 150 C 780 165 806 183 832 205 C 858 227 883 251 909 279 L 909 803 C 855 861 802 905 748 935 C 694 965 635 981 573 981 C 525 981 482 972 442 954 C 402 936 367 910 339 874 C 309 837 286 791 270 735 C 254 679 246 613 246 537 C 246 463 254 398 272 344 C 289 289 312 244 342 208 C 371 172 405 145 445 128 C 485 110 527 102 573 102 Z" unicode="ď" />
<glyph horiz-adv-x="1452" d="M 195 737 L 25 737 L 25 860 L 195 860 L 195 1516 L 578 1516 C 824 1516 1011 1452 1139 1325 C 1267 1197 1331 1008 1331 758 C 1331 633 1314 523 1282 429 C 1249 335 1201 256 1138 193 C 1074 129 995 80 901 48 C 807 16 700 0 578 0 L 195 0 L 195 737 Z M 600 131 C 694 131 777 143 850 167 C 922 191 984 229 1034 281 C 1083 332 1121 397 1147 477 C 1173 556 1186 650 1186 760 C 1186 866 1173 959 1147 1037 C 1121 1115 1083 1179 1033 1231 C 982 1281 920 1319 847 1343 C 773 1367 690 1380 596 1380 L 340 1380 L 340 860 L 668 860 L 668 737 L 340 737 L 340 131 L 600 131 Z" unicode="Đ" />
<glyph horiz-adv-x="1214" d="M 684 1341 L 909 1341 L 909 1516 L 1051 1516 L 1051 1341 L 1229 1341 L 1229 1233 L 1051 1233 L 1051 266 C 1051 200 1053 146 1058 104 C 1062 62 1071 28 1083 0 L 934 0 C 928 18 922 43 917 73 C 911 103 909 132 909 162 C 887 138 863 115 838 93 C 813 71 786 52 757 36 C 727 19 695 6 661 -3 C 627 -13 589 -18 549 -18 C 487 -18 429 -6 375 15 C 321 37 274 72 234 118 C 193 164 161 221 138 291 C 115 361 104 443 104 537 C 104 631 115 713 139 783 C 162 853 194 912 235 960 C 275 1006 322 1041 377 1065 C 431 1088 490 1100 553 1100 C 589 1100 625 1095 659 1086 C 693 1077 725 1065 755 1049 C 785 1033 812 1014 838 993 C 864 971 887 948 909 924 L 909 1233 L 684 1233 L 684 1341 Z M 573 98 C 606 98 637 102 666 110 C 695 118 723 129 751 145 C 777 159 803 178 829 200 C 855 222 881 246 909 274 L 909 805 C 881 833 854 858 827 880 C 800 902 773 920 746 936 C 718 950 690 961 661 969 C 631 977 601 981 569 981 C 524 981 482 972 443 955 C 404 937 370 911 341 875 C 311 838 288 792 271 736 C 254 680 246 615 246 539 C 246 464 254 399 272 344 C 289 288 312 243 342 207 C 371 170 405 143 445 125 C 485 107 527 98 573 98 Z" unicode="đ" />
<glyph horiz-adv-x="1237" d="M 195 1516 L 1100 1516 L 1100 1380 L 340 1380 L 340 866 L 907 866 L 907 735 L 340 735 L 340 133 L 1143 133 L 1143 0 L 195 0 L 195 1516 Z M 399 1728 L 915 1728 L 915 1607 L 399 1607 L 399 1728 Z" unicode="Ē" />
<glyph horiz-adv-x="1118" d="M 575 -23 C 512 -23 452 -11 395 13 C 338 37 288 73 245 121 C 201 168 166 227 140 297 C 114 367 102 449 102 541 C 102 637 116 720 144 790 C 172 860 208 918 254 964 C 298 1010 349 1044 405 1066 C 461 1088 518 1100 575 1100 C 637 1100 696 1088 750 1064 C 804 1040 850 1004 890 958 C 929 910 960 852 982 782 C 1004 712 1016 631 1016 539 L 1016 512 L 244 512 C 244 445 254 386 272 334 C 290 282 314 239 345 204 C 375 168 411 141 452 123 C 493 105 537 96 584 96 C 624 96 660 100 692 109 C 724 117 754 130 782 147 C 808 163 833 184 855 208 C 877 232 899 261 920 293 L 1008 223 C 984 185 957 150 929 120 C 900 90 868 64 833 43 C 797 21 758 5 716 -6 C 673 -17 626 -23 575 -23 Z M 879 625 C 875 675 866 722 852 766 C 838 810 818 848 793 880 C 767 911 736 936 700 954 C 663 972 621 981 573 981 C 534 981 496 973 460 959 C 423 945 390 923 361 894 C 331 864 306 827 286 783 C 266 738 252 685 246 625 L 879 625 Z M 299 1315 L 815 1315 L 815 1194 L 299 1194 L 299 1315 Z" unicode="ē" />
<glyph horiz-adv-x="1237" d="M 195 1516 L 1100 1516 L 1100 1380 L 340 1380 L 340 866 L 907 866 L 907 735 L 340 735 L 340 133 L 1143 133 L 1143 0 L 195 0 L 195 1516 Z M 618 1597 C 572 1597 531 1604 495 1620 C 458 1636 427 1658 401 1688 C 374 1716 353 1751 338 1793 C 322 1834 313 1881 311 1933 L 401 1933 C 409 1853 432 1795 470 1761 C 508 1726 557 1709 618 1709 C 678 1709 727 1726 765 1761 C 802 1795 825 1853 835 1933 L 925 1933 C 922 1881 913 1834 898 1793 C 882 1751 861 1716 835 1688 C 808 1658 776 1636 740 1620 C 703 1604 662 1597 618 1597 Z" unicode="Ĕ" />
<glyph horiz-adv-x="1118" d="M 575 -23 C 512 -23 452 -11 395 13 C 338 37 288 73 245 121 C 201 168 166 227 140 297 C 114 367 102 449 102 541 C 102 637 116 720 144 790 C 172 860 208 918 254 964 C 298 1010 349 1044 405 1066 C 461 1088 518 1100 575 1100 C 637 1100 696 1088 750 1064 C 804 1040 850 1004 890 958 C 929 910 960 852 982 782 C 1004 712 1016 631 1016 539 L 1016 512 L 244 512 C 244 445 254 386 272 334 C 290 282 314 239 345 204 C 375 168 411 141 452 123 C 493 105 537 96 584 96 C 624 96 660 100 692 109 C 724 117 754 130 782 147 C 808 163 833 184 855 208 C 877 232 899 261 920 293 L 1008 223 C 984 185 957 150 929 120 C 900 90 868 64 833 43 C 797 21 758 5 716 -6 C 673 -17 626 -23 575 -23 Z M 879 625 C 875 675 866 722 852 766 C 838 810 818 848 793 880 C 767 911 736 936 700 954 C 663 972 621 981 573 981 C 534 981 496 973 460 959 C 423 945 390 923 361 894 C 331 864 306 827 286 783 C 266 738 252 685 246 625 L 879 625 Z M 559 1186 C 513 1186 472 1193 436 1209 C 399 1225 368 1247 342 1277 C 315 1305 294 1340 279 1382 C 263 1423 254 1470 252 1522 L 342 1522 C 350 1442 373 1384 411 1350 C 449 1315 498 1298 559 1298 C 619 1298 668 1315 706 1350 C 743 1384 766 1442 776 1522 L 866 1522 C 863 1470 854 1423 839 1382 C 823 1340 802 1305 776 1277 C 749 1247 717 1225 681 1209 C 644 1193 603 1186 559 1186 Z" unicode="ĕ" />
<glyph horiz-adv-x="1237" d="M 195 1516 L 1100 1516 L 1100 1380 L 340 1380 L 340 866 L 907 866 L 907 735 L 340 735 L 340 133 L 1143 133 L 1143 0 L 195 0 L 195 1516 Z M 571 1777 L 743 1777 L 743 1613 L 571 1613 L 571 1777 Z" unicode="Ė" />
<glyph horiz-adv-x="1118" d="M 575 -23 C 512 -23 452 -11 395 13 C 338 37 288 73 245 121 C 201 168 166 227 140 297 C 114 367 102 449 102 541 C 102 637 116 720 144 790 C 172 860 208 918 254 964 C 298 1010 349 1044 405 1066 C 461 1088 518 1100 575 1100 C 637 1100 696 1088 750 1064 C 804 1040 850 1004 890 958 C 929 910 960 852 982 782 C 1004 712 1016 631 1016 539 L 1016 512 L 244 512 C 244 445 254 386 272 334 C 290 282 314 239 345 204 C 375 168 411 141 452 123 C 493 105 537 96 584 96 C 624 96 660 100 692 109 C 724 117 754 130 782 147 C 808 163 833 184 855 208 C 877 232 899 261 920 293 L 1008 223 C 984 185 957 150 929 120 C 900 90 868 64 833 43 C 797 21 758 5 716 -6 C 673 -17 626 -23 575 -23 Z M 879 625 C 875 675 866 722 852 766 C 838 810 818 848 793 880 C 767 911 736 936 700 954 C 663 972 621 981 573 981 C 534 981 496 973 460 959 C 423 945 390 923 361 894 C 331 864 306 827 286 783 C 266 738 252 685 246 625 L 879 625 Z M 471 1364 L 643 1364 L 643 1200 L 471 1200 L 471 1364 Z" unicode="ė" />
<glyph horiz-adv-x="1237" d="M 909 -383 C 849 -383 802 -369 768 -341 C 734 -313 718 -275 718 -225 C 718 -204 722 -183 732 -161 C 742 -139 755 -119 772 -99 C 788 -78 807 -58 829 -40 C 851 -21 874 -4 899 12 L 995 12 C 945 -22 907 -57 879 -93 C 851 -129 837 -167 837 -205 C 837 -233 845 -256 862 -274 C 878 -292 906 -301 944 -301 C 976 -301 1008 -296 1040 -288 C 1071 -279 1104 -267 1138 -252 L 1169 -305 C 1127 -328 1085 -347 1042 -361 C 998 -375 954 -383 909 -383 Z M 195 1516 L 1100 1516 L 1100 1380 L 340 1380 L 340 866 L 907 866 L 907 735 L 340 735 L 340 133 L 1143 133 L 1143 0 L 195 0 L 195 1516 Z" unicode="Ę" />
<glyph horiz-adv-x="1118" d="M 626 -383 C 566 -383 519 -369 485 -341 C 451 -313 435 -275 435 -225 C 435 -204 439 -183 449 -161 C 459 -139 472 -119 489 -99 C 505 -78 524 -58 546 -40 C 568 -21 591 -4 616 12 L 712 12 C 662 -22 624 -57 596 -93 C 568 -129 554 -167 554 -205 C 554 -233 562 -256 579 -274 C 595 -292 623 -301 661 -301 C 693 -301 725 -296 757 -288 C 788 -279 821 -267 855 -252 L 886 -305 C 844 -328 802 -347 759 -361 C 715 -375 671 -383 626 -383 Z M 575 -23 C 512 -23 452 -11 395 13 C 338 37 288 73 245 121 C 201 168 166 227 140 297 C 114 367 102 449 102 541 C 102 637 116 720 144 790 C 172 860 208 918 254 964 C 298 1010 349 1044 405 1066 C 461 1088 518 1100 575 1100 C 637 1100 696 1088 750 1064 C 804 1040 850 1004 890 958 C 929 910 960 852 982 782 C 1004 712 1016 631 1016 539 L 1016 512 L 244 512 C 244 445 254 386 272 334 C 290 282 314 239 345 204 C 375 168 411 141 452 123 C 493 105 537 96 584 96 C 624 96 660 100 692 109 C 724 117 754 130 782 147 C 808 163 833 184 855 208 C 877 232 899 261 920 293 L 1008 223 C 984 185 957 150 929 120 C 900 90 868 64 833 43 C 797 21 758 5 716 -6 C 673 -17 626 -23 575 -23 Z M 879 625 C 875 675 866 722 852 766 C 838 810 818 848 793 880 C 767 911 736 936 700 954 C 663 972 621 981 573 981 C 534 981 496 973 460 959 C 423 945 390 923 361 894 C 331 864 306 827 286 783 C 266 738 252 685 246 625 L 879 625 Z" unicode="ę" />
<glyph horiz-adv-x="1237" d="M 338 1935 L 428 1935 L 657 1734 L 889 1935 L 975 1935 L 710 1609 L 602 1609 L 338 1935 Z M 195 1516 L 1100 1516 L 1100 1380 L 340 1380 L 340 866 L 907 866 L 907 735 L 340 735 L 340 133 L 1143 133 L 1143 0 L 195 0 L 195 1516 Z" unicode="Ě" />
<glyph horiz-adv-x="1118" d="M 237 1522 L 327 1522 L 556 1321 L 788 1522 L 874 1522 L 609 1196 L 501 1196 L 237 1522 Z M 575 -23 C 512 -23 452 -11 395 13 C 338 37 288 73 245 121 C 201 168 166 227 140 297 C 114 367 102 449 102 541 C 102 637 116 720 144 790 C 172 860 208 918 254 964 C 298 1010 349 1044 405 1066 C 461 1088 518 1100 575 1100 C 637 1100 696 1088 750 1064 C 804 1040 850 1004 890 958 C 929 910 960 852 982 782 C 1004 712 1016 631 1016 539 L 1016 512 L 244 512 C 244 445 254 386 272 334 C 290 282 314 239 345 204 C 375 168 411 141 452 123 C 493 105 537 96 584 96 C 624 96 660 100 692 109 C 724 117 754 130 782 147 C 808 163 833 184 855 208 C 877 232 899 261 920 293 L 1008 223 C 984 185 957 150 929 120 C 900 90 868 64 833 43 C 797 21 758 5 716 -6 C 673 -17 626 -23 575 -23 Z M 879 625 C 875 675 866 722 852 766 C 838 810 818 848 793 880 C 767 911 736 936 700 954 C 663 972 621 981 573 981 C 534 981 496 973 460 959 C 423 945 390 923 361 894 C 331 864 306 827 286 783 C 266 738 252 685 246 625 L 879 625 Z" unicode="ě" />
<glyph horiz-adv-x="1481" d="M 698 1926 L 804 1926 L 1069 1601 L 979 1601 L 749 1802 L 520 1601 L 434 1601 L 698 1926 Z M 743 -29 C 643 -29 555 -9 478 31 C 401 71 336 126 284 197 C 230 267 190 351 162 448 C 134 544 121 650 121 764 C 121 883 136 991 168 1087 C 200 1183 244 1265 300 1333 C 356 1400 422 1452 500 1489 C 577 1525 662 1544 754 1544 C 898 1544 1016 1504 1108 1426 C 1200 1347 1265 1231 1305 1079 L 1165 1047 C 1147 1109 1126 1162 1102 1208 C 1078 1254 1049 1292 1017 1322 C 983 1352 945 1374 901 1389 C 857 1403 808 1411 752 1411 C 686 1411 623 1397 565 1370 C 506 1343 455 1303 411 1250 C 366 1196 331 1130 305 1050 C 279 970 266 876 266 770 C 266 664 277 569 301 486 C 325 403 358 333 402 277 C 444 219 496 176 556 146 C 616 116 683 102 756 102 C 819 102 877 113 929 135 C 981 157 1025 188 1062 230 C 1098 271 1127 322 1147 382 C 1167 442 1176 511 1176 588 L 809 588 L 809 713 L 1317 713 L 1317 0 L 1186 0 L 1186 231 L 1182 231 C 1164 197 1143 165 1118 134 C 1092 102 1062 75 1027 51 C 991 27 950 7 903 -7 C 856 -21 803 -29 743 -29 Z" unicode="Ĝ" />
<glyph horiz-adv-x="1159" d="M 489 1513 L 595 1513 L 860 1188 L 770 1188 L 540 1389 L 311 1188 L 225 1188 L 489 1513 Z M 557 -414 C 469 -414 393 -407 329 -395 C 265 -382 212 -364 170 -341 C 128 -317 96 -289 76 -255 C 55 -221 45 -184 45 -143 C 45 -87 62 -39 97 2 C 132 44 181 77 244 102 C 212 115 187 133 171 156 C 155 179 147 207 147 240 C 147 272 159 302 183 329 C 207 356 239 380 279 401 C 227 434 186 477 158 531 C 129 584 115 644 115 711 C 115 768 125 820 147 868 C 168 916 198 957 236 992 C 274 1026 319 1052 371 1071 C 423 1090 479 1100 541 1100 C 603 1100 661 1090 713 1071 C 765 1051 810 1024 848 989 C 864 1001 881 1012 901 1023 C 921 1033 942 1043 964 1052 C 986 1060 1008 1068 1031 1074 C 1054 1080 1076 1084 1098 1087 L 1098 954 C 1066 954 1033 951 999 946 C 965 940 932 931 901 918 C 921 890 937 859 948 825 C 959 791 965 753 965 711 C 965 651 954 598 932 551 C 910 504 881 464 843 431 C 805 397 760 372 708 354 C 656 336 601 328 541 328 C 509 328 479 330 450 335 C 421 340 393 348 367 358 C 341 348 320 335 304 320 C 288 304 281 286 281 266 C 281 254 283 244 289 236 C 294 227 303 219 316 213 C 328 206 344 200 364 196 C 384 191 410 187 440 184 L 676 166 C 800 155 895 127 960 83 C 1024 39 1057 -25 1057 -109 C 1057 -158 1044 -201 1020 -239 C 996 -277 962 -309 918 -335 C 874 -361 821 -380 760 -394 C 698 -407 631 -414 557 -414 Z M 543 436 C 587 436 626 442 662 455 C 697 468 727 487 753 511 C 777 534 796 562 810 596 C 824 630 831 667 831 709 C 831 751 824 790 811 824 C 798 858 779 888 755 912 C 730 936 700 954 664 967 C 628 980 587 987 541 987 C 496 987 456 980 420 967 C 384 953 354 935 330 911 C 304 887 285 857 272 823 C 258 789 252 751 252 709 C 252 667 258 630 272 596 C 286 562 306 534 332 511 C 357 487 387 468 423 455 C 459 442 499 436 543 436 Z M 571 -303 C 626 -303 676 -298 720 -290 C 764 -281 801 -269 832 -253 C 862 -237 885 -217 901 -195 C 917 -173 926 -148 926 -121 C 926 -95 920 -72 910 -53 C 899 -33 882 -17 859 -4 C 835 10 804 21 767 30 C 729 38 684 45 631 49 L 416 66 L 360 72 C 300 52 255 25 225 -10 C 195 -46 180 -84 180 -125 C 180 -181 211 -225 273 -256 C 335 -287 435 -303 571 -303 Z" unicode="ĝ" />
<glyph horiz-adv-x="1481" d="M 743 -29 C 643 -29 555 -9 478 31 C 401 71 336 126 284 197 C 230 267 190 351 162 448 C 134 544 121 650 121 764 C 121 883 136 991 168 1087 C 200 1183 244 1265 300 1333 C 356 1400 422 1452 500 1489 C 577 1525 662 1544 754 1544 C 898 1544 1016 1504 1108 1426 C 1200 1347 1265 1231 1305 1079 L 1165 1047 C 1147 1109 1126 1162 1102 1208 C 1078 1254 1049 1292 1017 1322 C 983 1352 945 1374 901 1389 C 857 1403 808 1411 752 1411 C 686 1411 623 1397 565 1370 C 506 1343 455 1303 411 1250 C 366 1196 331 1130 305 1050 C 279 970 266 876 266 770 C 266 664 277 569 301 486 C 325 403 358 333 402 277 C 444 219 496 176 556 146 C 616 116 683 102 756 102 C 819 102 877 113 929 135 C 981 157 1025 188 1062 230 C 1098 271 1127 322 1147 382 C 1167 442 1176 511 1176 588 L 809 588 L 809 713 L 1317 713 L 1317 0 L 1186 0 L 1186 231 L 1182 231 C 1164 197 1143 165 1118 134 C 1092 102 1062 75 1027 51 C 991 27 950 7 903 -7 C 856 -21 803 -29 743 -29 Z M 739 1599 C 693 1599 652 1606 616 1622 C 579 1638 548 1660 522 1690 C 495 1718 474 1753 459 1795 C 443 1836 434 1883 432 1935 L 522 1935 C 530 1855 553 1797 591 1763 C 629 1728 678 1711 739 1711 C 799 1711 848 1728 886 1763 C 923 1797 946 1855 956 1935 L 1046 1935 C 1043 1883 1034 1836 1019 1795 C 1003 1753 982 1718 956 1690 C 929 1660 897 1638 861 1622 C 824 1606 783 1599 739 1599 Z" unicode="Ğ" />
<glyph horiz-adv-x="1159" d="M 557 -414 C 469 -414 393 -407 329 -395 C 265 -382 212 -364 170 -341 C 128 -317 96 -289 76 -255 C 55 -221 45 -184 45 -143 C 45 -87 62 -39 97 2 C 132 44 181 77 244 102 C 212 115 187 133 171 156 C 155 179 147 207 147 240 C 147 272 159 302 183 329 C 207 356 239 380 279 401 C 227 434 186 477 158 531 C 129 584 115 644 115 711 C 115 768 125 820 147 868 C 168 916 198 957 236 992 C 274 1026 319 1052 371 1071 C 423 1090 479 1100 541 1100 C 603 1100 661 1090 713 1071 C 765 1051 810 1024 848 989 C 864 1001 881 1012 901 1023 C 921 1033 942 1043 964 1052 C 986 1060 1008 1068 1031 1074 C 1054 1080 1076 1084 1098 1087 L 1098 954 C 1066 954 1033 951 999 946 C 965 940 932 931 901 918 C 921 890 937 859 948 825 C 959 791 965 753 965 711 C 965 651 954 598 932 551 C 910 504 881 464 843 431 C 805 397 760 372 708 354 C 656 336 601 328 541 328 C 509 328 479 330 450 335 C 421 340 393 348 367 358 C 341 348 320 335 304 320 C 288 304 281 286 281 266 C 281 254 283 244 289 236 C 294 227 303 219 316 213 C 328 206 344 200 364 196 C 384 191 410 187 440 184 L 676 166 C 800 155 895 127 960 83 C 1024 39 1057 -25 1057 -109 C 1057 -158 1044 -201 1020 -239 C 996 -277 962 -309 918 -335 C 874 -361 821 -380 760 -394 C 698 -407 631 -414 557 -414 Z M 543 436 C 587 436 626 442 662 455 C 697 468 727 487 753 511 C 777 534 796 562 810 596 C 824 630 831 667 831 709 C 831 751 824 790 811 824 C 798 858 779 888 755 912 C 730 936 700 954 664 967 C 628 980 587 987 541 987 C 496 987 456 980 420 967 C 384 953 354 935 330 911 C 304 887 285 857 272 823 C 258 789 252 751 252 709 C 252 667 258 630 272 596 C 286 562 306 534 332 511 C 357 487 387 468 423 455 C 459 442 499 436 543 436 Z M 571 -303 C 626 -303 676 -298 720 -290 C 764 -281 801 -269 832 -253 C 862 -237 885 -217 901 -195 C 917 -173 926 -148 926 -121 C 926 -95 920 -72 910 -53 C 899 -33 882 -17 859 -4 C 835 10 804 21 767 30 C 729 38 684 45 631 49 L 416 66 L 360 72 C 300 52 255 25 225 -10 C 195 -46 180 -84 180 -125 C 180 -181 211 -225 273 -256 C 335 -287 435 -303 571 -303 Z M 559 1186 C 513 1186 472 1193 436 1209 C 399 1225 368 1247 342 1277 C 315 1305 294 1340 279 1382 C 263 1423 254 1470 252 1522 L 342 1522 C 350 1442 373 1384 411 1350 C 449 1315 498 1298 559 1298 C 619 1298 668 1315 706 1350 C 743 1384 766 1442 776 1522 L 866 1522 C 863 1470 854 1423 839 1382 C 823 1340 802 1305 776 1277 C 749 1247 717 1225 681 1209 C 644 1193 603 1186 559 1186 Z" unicode="ğ" />
<glyph horiz-adv-x="1481" d="M 743 -29 C 643 -29 555 -9 478 31 C 401 71 336 126 284 197 C 230 267 190 351 162 448 C 134 544 121 650 121 764 C 121 883 136 991 168 1087 C 200 1183 244 1265 300 1333 C 356 1400 422 1452 500 1489 C 577 1525 662 1544 754 1544 C 898 1544 1016 1504 1108 1426 C 1200 1347 1265 1231 1305 1079 L 1165 1047 C 1147 1109 1126 1162 1102 1208 C 1078 1254 1049 1292 1017 1322 C 983 1352 945 1374 901 1389 C 857 1403 808 1411 752 1411 C 686 1411 623 1397 565 1370 C 506 1343 455 1303 411 1250 C 366 1196 331 1130 305 1050 C 279 970 266 876 266 770 C 266 664 277 569 301 486 C 325 403 358 333 402 277 C 444 219 496 176 556 146 C 616 116 683 102 756 102 C 819 102 877 113 929 135 C 981 157 1025 188 1062 230 C 1098 271 1127 322 1147 382 C 1167 442 1176 511 1176 588 L 809 588 L 809 713 L 1317 713 L 1317 0 L 1186 0 L 1186 231 L 1182 231 C 1164 197 1143 165 1118 134 C 1092 102 1062 75 1027 51 C 991 27 950 7 903 -7 C 856 -21 803 -29 743 -29 Z M 651 1777 L 823 1777 L 823 1613 L 651 1613 L 651 1777 Z" unicode="Ġ" />
<glyph horiz-adv-x="1159" d="M 557 -414 C 469 -414 393 -407 329 -395 C 265 -382 212 -364 170 -341 C 128 -317 96 -289 76 -255 C 55 -221 45 -184 45 -143 C 45 -87 62 -39 97 2 C 132 44 181 77 244 102 C 212 115 187 133 171 156 C 155 179 147 207 147 240 C 147 272 159 302 183 329 C 207 356 239 380 279 401 C 227 434 186 477 158 531 C 129 584 115 644 115 711 C 115 768 125 820 147 868 C 168 916 198 957 236 992 C 274 1026 319 1052 371 1071 C 423 1090 479 1100 541 1100 C 603 1100 661 1090 713 1071 C 765 1051 810 1024 848 989 C 864 1001 881 1012 901 1023 C 921 1033 942 1043 964 1052 C 986 1060 1008 1068 1031 1074 C 1054 1080 1076 1084 1098 1087 L 1098 954 C 1066 954 1033 951 999 946 C 965 940 932 931 901 918 C 921 890 937 859 948 825 C 959 791 965 753 965 711 C 965 651 954 598 932 551 C 910 504 881 464 843 431 C 805 397 760 372 708 354 C 656 336 601 328 541 328 C 509 328 479 330 450 335 C 421 340 393 348 367 358 C 341 348 320 335 304 320 C 288 304 281 286 281 266 C 281 254 283 244 289 236 C 294 227 303 219 316 213 C 328 206 344 200 364 196 C 384 191 410 187 440 184 L 676 166 C 800 155 895 127 960 83 C 1024 39 1057 -25 1057 -109 C 1057 -158 1044 -201 1020 -239 C 996 -277 962 -309 918 -335 C 874 -361 821 -380 760 -394 C 698 -407 631 -414 557 -414 Z M 543 436 C 587 436 626 442 662 455 C 697 468 727 487 753 511 C 777 534 796 562 810 596 C 824 630 831 667 831 709 C 831 751 824 790 811 824 C 798 858 779 888 755 912 C 730 936 700 954 664 967 C 628 980 587 987 541 987 C 496 987 456 980 420 967 C 384 953 354 935 330 911 C 304 887 285 857 272 823 C 258 789 252 751 252 709 C 252 667 258 630 272 596 C 286 562 306 534 332 511 C 357 487 387 468 423 455 C 459 442 499 436 543 436 Z M 571 -303 C 626 -303 676 -298 720 -290 C 764 -281 801 -269 832 -253 C 862 -237 885 -217 901 -195 C 917 -173 926 -148 926 -121 C 926 -95 920 -72 910 -53 C 899 -33 882 -17 859 -4 C 835 10 804 21 767 30 C 729 38 684 45 631 49 L 416 66 L 360 72 C 300 52 255 25 225 -10 C 195 -46 180 -84 180 -125 C 180 -181 211 -225 273 -256 C 335 -287 435 -303 571 -303 Z M 454 1364 L 626 1364 L 626 1200 L 454 1200 L 454 1364 Z" unicode="ġ" />
<glyph horiz-adv-x="1481" d="M 720 -283 L 654 -283 L 654 -100 L 824 -100 L 824 -264 L 734 -485 L 673 -485 L 720 -283 Z M 743 -29 C 643 -29 555 -9 478 31 C 401 71 336 126 284 197 C 230 267 190 351 162 448 C 134 544 121 650 121 764 C 121 883 136 991 168 1087 C 200 1183 244 1265 300 1333 C 356 1400 422 1452 500 1489 C 577 1525 662 1544 754 1544 C 898 1544 1016 1504 1108 1426 C 1200 1347 1265 1231 1305 1079 L 1165 1047 C 1147 1109 1126 1162 1102 1208 C 1078 1254 1049 1292 1017 1322 C 983 1352 945 1374 901 1389 C 857 1403 808 1411 752 1411 C 686 1411 623 1397 565 1370 C 506 1343 455 1303 411 1250 C 366 1196 331 1130 305 1050 C 279 970 266 876 266 770 C 266 664 277 569 301 486 C 325 403 358 333 402 277 C 444 219 496 176 556 146 C 616 116 683 102 756 102 C 819 102 877 113 929 135 C 981 157 1025 188 1062 230 C 1098 271 1127 322 1147 382 C 1167 442 1176 511 1176 588 L 809 588 L 809 713 L 1317 713 L 1317 0 L 1186 0 L 1186 231 L 1182 231 C 1164 197 1143 165 1118 134 C 1092 102 1062 75 1027 51 C 991 27 950 7 903 -7 C 856 -21 803 -29 743 -29 Z" unicode="Ģ" />
<glyph horiz-adv-x="1159" d="M 474 1358 L 563 1579 L 624 1579 L 577 1376 L 644 1376 L 644 1194 L 474 1194 L 474 1358 Z M 557 -414 C 469 -414 393 -407 329 -395 C 265 -382 212 -364 170 -341 C 128 -317 96 -289 76 -255 C 55 -221 45 -184 45 -143 C 45 -87 62 -39 97 2 C 132 44 181 77 244 102 C 212 115 187 133 171 156 C 155 179 147 207 147 240 C 147 272 159 302 183 329 C 207 356 239 380 279 401 C 227 434 186 477 158 531 C 129 584 115 644 115 711 C 115 768 125 820 147 868 C 168 916 198 957 236 992 C 274 1026 319 1052 371 1071 C 423 1090 479 1100 541 1100 C 603 1100 661 1090 713 1071 C 765 1051 810 1024 848 989 C 864 1001 881 1012 901 1023 C 921 1033 942 1043 964 1052 C 986 1060 1008 1068 1031 1074 C 1054 1080 1076 1084 1098 1087 L 1098 954 C 1066 954 1033 951 999 946 C 965 940 932 931 901 918 C 921 890 937 859 948 825 C 959 791 965 753 965 711 C 965 651 954 598 932 551 C 910 504 881 464 843 431 C 805 397 760 372 708 354 C 656 336 601 328 541 328 C 509 328 479 330 450 335 C 421 340 393 348 367 358 C 341 348 320 335 304 320 C 288 304 281 286 281 266 C 281 254 283 244 289 236 C 294 227 303 219 316 213 C 328 206 344 200 364 196 C 384 191 410 187 440 184 L 676 166 C 800 155 895 127 960 83 C 1024 39 1057 -25 1057 -109 C 1057 -158 1044 -201 1020 -239 C 996 -277 962 -309 918 -335 C 874 -361 821 -380 760 -394 C 698 -407 631 -414 557 -414 Z M 543 436 C 587 436 626 442 662 455 C 697 468 727 487 753 511 C 777 534 796 562 810 596 C 824 630 831 667 831 709 C 831 751 824 790 811 824 C 798 858 779 888 755 912 C 730 936 700 954 664 967 C 628 980 587 987 541 987 C 496 987 456 980 420 967 C 384 953 354 935 330 911 C 304 887 285 857 272 823 C 258 789 252 751 252 709 C 252 667 258 630 272 596 C 286 562 306 534 332 511 C 357 487 387 468 423 455 C 459 442 499 436 543 436 Z M 571 -303 C 626 -303 676 -298 720 -290 C 764 -281 801 -269 832 -253 C 862 -237 885 -217 901 -195 C 917 -173 926 -148 926 -121 C 926 -95 920 -72 910 -53 C 899 -33 882 -17 859 -4 C 835 10 804 21 767 30 C 729 38 684 45 631 49 L 416 66 L 360 72 C 300 52 255 25 225 -10 C 195 -46 180 -84 180 -125 C 180 -181 211 -225 273 -256 C 335 -287 435 -303 571 -303 Z" unicode="ģ" />
<glyph horiz-adv-x="1499" d="M 696 1926 L 802 1926 L 1067 1601 L 977 1601 L 747 1802 L 518 1601 L 432 1601 L 696 1926 Z M 195 1516 L 340 1516 L 340 866 L 1161 866 L 1161 1516 L 1307 1516 L 1307 0 L 1161 0 L 1161 733 L 340 733 L 340 0 L 195 0 L 195 1516 Z" unicode="Ĥ" />
<glyph horiz-adv-x="1190" d="M 181 1926 L 287 1926 L 552 1601 L 462 1601 L 232 1802 L 3 1601 L -83 1601 L 181 1926 Z M 164 1516 L 305 1516 L 305 909 C 331 935 359 959 389 982 C 419 1005 452 1025 487 1043 C 521 1060 557 1074 595 1084 C 633 1094 674 1100 717 1100 C 823 1100 903 1071 957 1015 C 1011 959 1038 880 1038 780 L 1038 0 L 897 0 L 897 754 C 897 830 879 886 845 923 C 810 960 756 979 682 979 C 612 979 547 962 487 928 C 426 894 365 849 305 791 L 305 0 L 164 0 L 164 1516 Z" unicode="ĥ" />
<glyph horiz-adv-x="1499" d="M 25 1245 L 195 1245 L 195 1516 L 340 1516 L 340 1245 L 1161 1245 L 1161 1516 L 1307 1516 L 1307 1245 L 1477 1245 L 1477 1122 L 1307 1122 L 1307 0 L 1161 0 L 1161 733 L 340 733 L 340 0 L 195 0 L 195 1122 L 25 1122 L 25 1245 Z M 1161 866 L 1161 1122 L 340 1122 L 340 866 L 1161 866 Z" unicode="Ħ" />
<glyph horiz-adv-x="1190" d="M -14 1341 L 164 1341 L 164 1516 L 305 1516 L 305 1341 L 530 1341 L 530 1233 L 305 1233 L 305 909 C 331 935 359 959 389 982 C 419 1005 452 1025 487 1043 C 521 1060 557 1074 595 1084 C 633 1094 674 1100 717 1100 C 823 1100 903 1071 957 1015 C 1011 959 1038 880 1038 780 L 1038 0 L 897 0 L 897 754 C 897 830 879 886 845 923 C 810 960 756 979 682 979 C 612 979 547 962 487 928 C 426 894 365 849 305 791 L 305 0 L 164 0 L 164 1233 L -14 1233 L -14 1341 Z" unicode="ħ" />
<glyph horiz-adv-x="575" d="M 215 1516 L 360 1516 L 360 0 L 215 0 L 215 1516 Z M 441 1601 C 412 1601 384 1607 357 1619 C 329 1631 303 1644 278 1659 C 252 1673 228 1686 205 1698 C 182 1710 160 1716 140 1716 C 108 1716 86 1707 74 1690 C 62 1673 56 1645 56 1605 L -34 1605 C -34 1683 -19 1740 9 1776 C 38 1812 81 1830 138 1830 C 166 1830 194 1824 221 1812 C 248 1800 275 1787 301 1773 C 326 1759 350 1746 374 1734 C 397 1722 419 1716 441 1716 C 471 1716 492 1724 505 1741 C 518 1757 525 1786 525 1826 L 615 1826 C 615 1749 600 1692 570 1656 C 540 1619 497 1601 441 1601 Z" unicode="Ĩ" />
<glyph horiz-adv-x="492" d="M 176 1079 L 317 1079 L 317 0 L 176 0 L 176 1079 Z M 400 1188 C 371 1188 343 1194 316 1206 C 288 1218 262 1231 237 1246 C 211 1260 187 1273 164 1285 C 141 1297 119 1303 99 1303 C 67 1303 45 1294 33 1277 C 21 1260 15 1232 15 1192 L -75 1192 C -75 1270 -60 1327 -31 1363 C -2 1399 40 1417 97 1417 C 125 1417 153 1411 180 1399 C 207 1387 234 1374 260 1360 C 285 1346 309 1333 333 1321 C 356 1309 378 1303 400 1303 C 430 1303 451 1311 464 1328 C 477 1344 484 1373 484 1413 L 574 1413 C 574 1336 559 1279 529 1243 C 499 1206 456 1188 400 1188 Z" unicode="ĩ" />
<glyph horiz-adv-x="575" d="M 215 1516 L 360 1516 L 360 0 L 215 0 L 215 1516 Z M 31 1728 L 547 1728 L 547 1607 L 31 1607 L 31 1728 Z" unicode="Ī" />
<glyph horiz-adv-x="492" d="M 176 1079 L 317 1079 L 317 0 L 176 0 L 176 1079 Z M -10 1315 L 506 1315 L 506 1194 L -10 1194 L -10 1315 Z" unicode="ī" />
<glyph horiz-adv-x="575" d="M 215 1516 L 360 1516 L 360 0 L 215 0 L 215 1516 Z M 289 1597 C 243 1597 202 1604 166 1620 C 129 1636 98 1658 72 1688 C 45 1716 24 1751 9 1793 C -6 1834 -15 1881 -18 1933 L 72 1933 C 80 1853 103 1795 141 1761 C 179 1726 228 1709 289 1709 C 349 1709 398 1726 436 1761 C 473 1795 496 1853 506 1933 L 596 1933 C 593 1881 584 1834 569 1793 C 553 1751 532 1716 506 1688 C 479 1658 447 1636 411 1620 C 374 1604 333 1597 289 1597 Z" unicode="Ĭ" />
<glyph horiz-adv-x="492" d="M 176 1079 L 317 1079 L 317 0 L 176 0 L 176 1079 Z M 248 1186 C 202 1186 161 1193 125 1209 C 88 1225 57 1247 31 1277 C 4 1305 -16 1340 -32 1382 C -47 1423 -56 1470 -59 1522 L 31 1522 C 39 1442 62 1384 100 1350 C 138 1315 187 1298 248 1298 C 308 1298 357 1315 395 1350 C 432 1384 455 1442 465 1522 L 555 1522 C 552 1470 543 1423 528 1382 C 512 1340 491 1305 465 1277 C 438 1247 406 1225 370 1209 C 333 1193 292 1186 248 1186 Z" unicode="ĭ" />
<glyph horiz-adv-x="575" d="M 215 1516 L 360 1516 L 360 0 L 215 0 L 215 1516 Z M 238 -383 C 178 -383 131 -369 97 -341 C 63 -313 47 -275 47 -225 C 47 -204 51 -183 61 -161 C 71 -139 84 -119 101 -99 C 117 -78 136 -58 158 -40 C 180 -21 203 -4 228 12 L 324 12 C 274 -22 236 -57 208 -93 C 180 -129 166 -167 166 -205 C 166 -233 174 -256 191 -274 C 207 -292 235 -301 273 -301 C 305 -301 337 -296 369 -288 C 400 -279 433 -267 467 -252 L 498 -305 C 456 -328 414 -347 371 -361 C 327 -375 283 -383 238 -383 Z" unicode="Į" />
<glyph horiz-adv-x="492" d="M 176 1079 L 317 1079 L 317 0 L 176 0 L 176 1079 Z M 172 1481 L 322 1481 L 322 1329 L 172 1329 L 172 1481 Z M 197 -383 C 137 -383 90 -369 56 -341 C 22 -313 6 -275 6 -225 C 6 -204 10 -183 20 -161 C 30 -139 43 -119 60 -99 C 76 -78 95 -58 117 -40 C 139 -21 162 -4 187 12 L 283 12 C 233 -22 195 -57 167 -93 C 139 -129 125 -167 125 -205 C 125 -233 133 -256 150 -274 C 166 -292 194 -301 232 -301 C 264 -301 296 -296 328 -288 C 359 -279 392 -267 426 -252 L 457 -305 C 415 -328 373 -347 330 -361 C 286 -375 242 -383 197 -383 Z" unicode="į" />
<glyph horiz-adv-x="575" d="M 215 1516 L 360 1516 L 360 0 L 215 0 L 215 1516 Z M 203 1777 L 375 1777 L 375 1613 L 203 1613 L 203 1777 Z" unicode="İ" />
<glyph horiz-adv-x="492" d="M 176 1079 L 317 1079 L 317 0 L 176 0 L 176 1079 Z" unicode="ı" />
<glyph horiz-adv-x="1513" d="M 215 1516 L 360 1516 L 360 0 L 215 0 L 215 1516 Z M 923 -29 C 876 -29 834 -23 797 -13 C 759 -3 725 11 695 30 C 664 48 637 70 613 96 C 589 122 567 150 548 180 L 651 258 C 667 234 684 212 702 193 C 720 173 740 157 762 143 C 783 129 806 118 832 111 C 858 103 886 100 917 100 C 957 100 994 105 1027 116 C 1060 126 1089 144 1113 169 C 1136 193 1154 224 1167 263 C 1180 302 1187 350 1187 408 L 1187 1516 L 1333 1516 L 1333 406 C 1333 334 1323 271 1304 217 C 1285 163 1258 117 1223 81 C 1187 44 1144 16 1094 -1 C 1043 -19 986 -29 923 -29 Z" unicode="Ĳ" />
<glyph horiz-adv-x="985" d="M 176 1079 L 317 1079 L 317 0 L 176 0 L 176 1079 Z M 172 1481 L 322 1481 L 322 1329 L 172 1329 L 172 1481 Z M 581 -412 C 575 -412 568 -411 560 -411 C 552 -411 544 -410 536 -410 C 528 -408 520 -407 513 -406 C 505 -405 500 -404 497 -403 L 497 -291 C 505 -293 515 -294 527 -296 C 538 -298 549 -299 561 -299 C 593 -299 619 -289 638 -270 C 657 -250 667 -220 667 -178 L 667 1079 L 808 1079 L 808 -180 C 808 -217 804 -250 796 -279 C 788 -307 775 -332 757 -352 C 739 -371 715 -386 686 -396 C 657 -406 622 -412 581 -412 Z M 663 1481 L 813 1481 L 813 1329 L 663 1329 L 663 1481 Z" unicode="ĳ" />
<glyph horiz-adv-x="1020" d="M 710 1926 L 816 1926 L 1081 1601 L 991 1601 L 761 1802 L 532 1601 L 446 1601 L 710 1926 Z M 430 -29 C 383 -29 341 -23 304 -13 C 266 -3 232 11 202 30 C 171 48 144 70 120 96 C 96 122 74 150 55 180 L 158 258 C 174 234 191 212 209 193 C 227 173 247 157 269 143 C 290 129 313 118 339 111 C 365 103 393 100 424 100 C 464 100 501 105 534 116 C 567 126 596 144 620 169 C 643 193 661 224 674 263 C 687 302 694 350 694 408 L 694 1516 L 840 1516 L 840 406 C 840 334 830 271 811 217 C 792 163 765 117 730 81 C 694 44 651 16 601 -1 C 550 -19 493 -29 430 -29 Z" unicode="Ĵ" />
<glyph horiz-adv-x="492" d="M 90 -412 C 84 -412 78 -411 70 -411 C 62 -411 54 -410 46 -410 C 37 -409 29 -408 22 -408 C 14 -407 9 -406 6 -406 L 6 -291 C 14 -294 24 -296 36 -297 C 47 -298 59 -299 72 -299 C 104 -299 129 -289 148 -270 C 166 -251 176 -221 176 -180 L 176 1079 L 317 1079 L 317 -182 C 317 -218 313 -251 305 -279 C 297 -307 284 -332 266 -352 C 248 -371 224 -386 195 -396 C 166 -406 131 -412 90 -412 Z M 195 1513 L 301 1513 L 566 1188 L 476 1188 L 246 1389 L 17 1188 L -69 1188 L 195 1513 Z" unicode="ĵ" />
<glyph horiz-adv-x="1368" d="M 665 -283 L 599 -283 L 599 -100 L 769 -100 L 769 -264 L 679 -485 L 618 -485 L 665 -283 Z M 195 1516 L 340 1516 L 340 698 L 1065 1516 L 1243 1516 L 723 942 L 1319 0 L 1151 0 L 625 829 L 340 518 L 340 0 L 195 0 L 195 1516 Z" unicode="Ķ" />
<glyph horiz-adv-x="1085" d="M 522 -283 L 456 -283 L 456 -100 L 626 -100 L 626 -264 L 536 -485 L 475 -485 L 522 -283 Z M 164 1516 L 305 1516 L 305 510 L 819 1079 L 985 1079 L 633 698 L 1028 0 L 874 0 L 539 590 L 305 340 L 305 0 L 164 0 L 164 1516 Z" unicode="ķ" />
<glyph horiz-adv-x="1085" d="M 164 1079 L 305 1079 L 305 510 L 819 1079 L 985 1079 L 633 698 L 1028 0 L 874 0 L 539 592 L 305 340 L 305 0 L 164 0 L 164 1079 Z" unicode="ĸ" />
<glyph horiz-adv-x="1157" d="M 412 1926 L 598 1926 L 309 1607 L 217 1607 L 412 1926 Z M 195 1516 L 340 1516 L 340 133 L 1081 133 L 1081 0 L 195 0 L 195 1516 Z" unicode="Ĺ" />
<glyph horiz-adv-x="492" d="M 394 1926 L 580 1926 L 291 1607 L 199 1607 L 394 1926 Z M 176 1516 L 317 1516 L 317 0 L 176 0 L 176 1516 Z" unicode="ĺ" />
<glyph horiz-adv-x="1157" d="M 559 -283 L 493 -283 L 493 -100 L 663 -100 L 663 -264 L 573 -485 L 512 -485 L 559 -283 Z M 195 1516 L 340 1516 L 340 133 L 1081 133 L 1081 0 L 195 0 L 195 1516 Z" unicode="Ļ" />
<glyph horiz-adv-x="492" d="M 230 -283 L 164 -283 L 164 -100 L 334 -100 L 334 -264 L 244 -485 L 183 -485 L 230 -283 Z M 176 1516 L 317 1516 L 317 0 L 176 0 L 176 1516 Z" unicode="ļ" />
<glyph horiz-adv-x="1157" d="M 677 1330 L 611 1330 L 611 1513 L 781 1513 L 781 1349 L 691 1128 L 630 1128 L 677 1330 Z M 195 1516 L 340 1516 L 340 133 L 1081 133 L 1081 0 L 195 0 L 195 1516 Z" unicode="Ľ" />
<glyph horiz-adv-x="492" d="M 496 1335 L 432 1335 L 432 1516 L 598 1516 L 598 1354 L 510 1133 L 449 1133 L 496 1335 Z M 176 1516 L 317 1516 L 317 0 L 176 0 L 176 1516 Z" unicode="ľ" />
<glyph horiz-adv-x="1171" d="M 766 897 L 934 897 L 934 731 L 766 731 L 766 897 Z M 195 1516 L 340 1516 L 340 133 L 1081 133 L 1081 0 L 195 0 L 195 1516 Z" unicode="Ŀ" />
<glyph horiz-adv-x="682" d="M 504 739 L 670 739 L 670 573 L 504 573 L 504 739 Z M 176 1516 L 317 1516 L 317 0 L 176 0 L 176 1516 Z" unicode="ŀ" />
<glyph horiz-adv-x="1157" d="M 197 711 L 20 664 L 20 786 L 197 834 L 197 1516 L 342 1516 L 342 872 L 666 961 L 666 838 L 342 750 L 342 133 L 1081 133 L 1081 0 L 197 0 L 197 711 Z" unicode="Ł" />
<glyph horiz-adv-x="606" d="M 233 915 L 43 866 L 43 981 L 233 1030 L 233 1516 L 375 1516 L 375 1067 L 569 1120 L 569 1006 L 375 952 L 375 0 L 233 0 L 233 915 Z" unicode="ł" />
<glyph horiz-adv-x="1522" d="M 811 1926 L 997 1926 L 708 1607 L 616 1607 L 811 1926 Z M 195 1516 L 350 1516 L 1186 266 L 1190 266 L 1190 1516 L 1327 1516 L 1327 0 L 1198 0 L 336 1288 L 332 1288 L 332 0 L 195 0 L 195 1516 Z" unicode="Ń" />
<glyph horiz-adv-x="1190" d="M 672 1513 L 858 1513 L 569 1194 L 477 1194 L 672 1513 Z M 164 1079 L 305 1079 L 305 909 C 331 935 359 959 389 982 C 419 1005 452 1025 487 1043 C 521 1060 557 1074 595 1084 C 633 1094 674 1100 717 1100 C 823 1100 903 1071 957 1015 C 1011 959 1038 880 1038 780 L 1038 0 L 897 0 L 897 754 C 897 830 879 886 845 923 C 810 960 756 979 682 979 C 612 979 547 962 487 928 C 426 894 365 849 305 791 L 305 0 L 164 0 L 164 1079 Z" unicode="ń" />
<glyph horiz-adv-x="1522" d="M 741 -283 L 675 -283 L 675 -100 L 845 -100 L 845 -264 L 755 -485 L 694 -485 L 741 -283 Z M 195 1516 L 350 1516 L 1186 266 L 1190 266 L 1190 1516 L 1327 1516 L 1327 0 L 1198 0 L 336 1288 L 332 1288 L 332 0 L 195 0 L 195 1516 Z" unicode="Ņ" />
<glyph horiz-adv-x="1190" d="M 577 -283 L 511 -283 L 511 -100 L 681 -100 L 681 -264 L 591 -485 L 530 -485 L 577 -283 Z M 164 1079 L 305 1079 L 305 909 C 331 935 359 959 389 982 C 419 1005 452 1025 487 1043 C 521 1060 557 1074 595 1084 C 633 1094 674 1100 717 1100 C 823 1100 903 1071 957 1015 C 1011 959 1038 880 1038 780 L 1038 0 L 897 0 L 897 754 C 897 830 879 886 845 923 C 810 960 756 979 682 979 C 612 979 547 962 487 928 C 426 894 365 849 305 791 L 305 0 L 164 0 L 164 1079 Z" unicode="ņ" />
<glyph horiz-adv-x="1522" d="M 438 1935 L 528 1935 L 757 1734 L 989 1935 L 1075 1935 L 810 1609 L 702 1609 L 438 1935 Z M 195 1516 L 350 1516 L 1186 266 L 1190 266 L 1190 1516 L 1327 1516 L 1327 0 L 1198 0 L 336 1288 L 332 1288 L 332 0 L 195 0 L 195 1516 Z" unicode="Ň" />
<glyph horiz-adv-x="1190" d="M 274 1522 L 364 1522 L 593 1321 L 825 1522 L 911 1522 L 646 1196 L 538 1196 L 274 1522 Z M 164 1079 L 305 1079 L 305 909 C 331 935 359 959 389 982 C 419 1005 452 1025 487 1043 C 521 1060 557 1074 595 1084 C 633 1094 674 1100 717 1100 C 823 1100 903 1071 957 1015 C 1011 959 1038 880 1038 780 L 1038 0 L 897 0 L 897 754 C 897 830 879 886 845 923 C 810 960 756 979 682 979 C 612 979 547 962 487 928 C 426 894 365 849 305 791 L 305 0 L 164 0 L 164 1079 Z" unicode="ň" />
<glyph horiz-adv-x="1522" d="M 195 1516 L 350 1516 L 1186 266 L 1190 266 L 1190 1516 L 1327 1516 L 1327 16 C 1327 -54 1317 -115 1299 -169 C 1281 -222 1255 -267 1221 -303 C 1186 -339 1144 -366 1094 -384 C 1044 -402 987 -412 924 -412 C 875 -412 831 -406 793 -395 C 755 -384 721 -369 691 -351 C 660 -331 633 -309 610 -283 C 586 -257 565 -229 547 -199 L 647 -119 C 679 -171 717 -212 759 -242 C 801 -272 854 -287 918 -287 C 956 -287 991 -281 1024 -271 C 1056 -261 1085 -244 1109 -221 C 1133 -197 1151 -167 1165 -129 C 1179 -91 1186 -46 1188 8 L 1188 14 L 336 1288 L 332 1288 L 332 0 L 195 0 L 195 1516 Z" unicode="Ŋ" />
<glyph horiz-adv-x="1190" d="M 164 1079 L 305 1079 L 305 901 C 332 928 361 954 391 978 C 421 1002 454 1023 488 1041 C 522 1059 557 1073 595 1084 C 632 1094 671 1100 713 1100 C 821 1100 903 1072 957 1016 C 1011 960 1038 882 1038 782 L 1038 -182 C 1038 -218 1034 -251 1026 -279 C 1018 -307 1005 -332 987 -352 C 969 -371 945 -386 916 -396 C 887 -406 852 -412 811 -412 C 805 -412 799 -411 791 -411 C 783 -411 775 -410 767 -410 C 758 -409 750 -408 743 -408 C 735 -407 730 -406 727 -406 L 727 -291 C 735 -294 744 -296 756 -297 C 768 -298 780 -299 793 -299 C 823 -299 848 -289 868 -270 C 887 -251 897 -222 897 -182 L 897 754 C 897 830 879 886 845 924 C 811 962 756 981 682 981 C 612 981 547 964 487 930 C 426 896 365 851 305 793 L 305 0 L 164 0 L 164 1079 Z" unicode="ŋ" />
<glyph horiz-adv-x="1520" d="M 499 1728 L 1015 1728 L 1015 1607 L 499 1607 L 499 1728 Z M 760 -29 C 667 -29 581 -10 503 27 C 425 64 357 117 301 186 C 244 254 200 337 168 434 C 136 531 121 639 121 758 C 121 876 136 984 168 1081 C 200 1177 244 1260 301 1329 C 357 1397 425 1450 503 1488 C 581 1525 667 1544 760 1544 C 852 1544 938 1525 1016 1488 C 1094 1450 1161 1397 1218 1329 C 1274 1260 1319 1177 1351 1081 C 1383 984 1399 876 1399 758 C 1399 639 1383 531 1351 434 C 1319 337 1274 254 1218 186 C 1161 117 1094 64 1016 27 C 938 -10 852 -29 760 -29 Z M 760 102 C 832 102 898 116 958 146 C 1018 176 1071 219 1115 276 C 1158 332 1192 400 1216 481 C 1240 562 1253 654 1253 758 C 1253 860 1240 952 1216 1033 C 1192 1114 1158 1183 1115 1239 C 1071 1295 1018 1337 958 1367 C 898 1396 832 1411 760 1411 C 688 1411 621 1396 561 1367 C 501 1337 449 1295 406 1239 C 362 1183 327 1114 303 1033 C 278 952 266 860 266 758 C 266 654 278 562 303 481 C 327 400 362 332 406 276 C 449 219 501 176 561 146 C 621 116 688 102 760 102 Z" unicode="Ō" />
<glyph horiz-adv-x="1182" d="M 331 1315 L 847 1315 L 847 1194 L 331 1194 L 331 1315 Z M 592 -23 C 526 -23 463 -10 404 14 C 344 39 292 76 248 124 C 203 171 167 229 141 299 C 115 369 102 449 102 539 C 102 629 115 708 141 778 C 167 848 202 907 247 955 C 291 1002 343 1038 403 1063 C 462 1087 525 1100 592 1100 C 658 1100 720 1087 779 1063 C 838 1038 890 1002 935 955 C 979 907 1014 848 1040 778 C 1066 708 1079 629 1079 539 C 1079 449 1066 369 1040 299 C 1014 229 979 171 935 124 C 890 76 838 39 779 14 C 720 -10 658 -23 592 -23 Z M 592 98 C 646 98 694 108 737 130 C 780 152 817 182 847 222 C 876 261 898 308 914 362 C 930 416 938 475 938 541 C 938 599 930 655 916 708 C 901 761 879 808 851 848 C 821 888 785 919 742 943 C 698 967 648 979 592 979 C 537 979 488 968 445 946 C 402 924 366 894 336 856 C 306 816 283 770 267 716 C 251 662 244 604 244 541 C 244 481 251 424 265 370 C 279 316 301 270 331 230 C 359 189 395 157 439 133 C 483 109 534 98 592 98 Z" unicode="ō" />
<glyph horiz-adv-x="1520" d="M 760 -29 C 667 -29 581 -10 503 27 C 425 64 357 117 301 186 C 244 254 200 337 168 434 C 136 531 121 639 121 758 C 121 876 136 984 168 1081 C 200 1177 244 1260 301 1329 C 357 1397 425 1450 503 1488 C 581 1525 667 1544 760 1544 C 852 1544 938 1525 1016 1488 C 1094 1450 1161 1397 1218 1329 C 1274 1260 1319 1177 1351 1081 C 1383 984 1399 876 1399 758 C 1399 639 1383 531 1351 434 C 1319 337 1274 254 1218 186 C 1161 117 1094 64 1016 27 C 938 -10 852 -29 760 -29 Z M 760 102 C 832 102 898 116 958 146 C 1018 176 1071 219 1115 276 C 1158 332 1192 400 1216 481 C 1240 562 1253 654 1253 758 C 1253 860 1240 952 1216 1033 C 1192 1114 1158 1183 1115 1239 C 1071 1295 1018 1337 958 1367 C 898 1396 832 1411 760 1411 C 688 1411 621 1396 561 1367 C 501 1337 449 1295 406 1239 C 362 1183 327 1114 303 1033 C 278 952 266 860 266 758 C 266 654 278 562 303 481 C 327 400 362 332 406 276 C 449 219 501 176 561 146 C 621 116 688 102 760 102 Z M 757 1599 C 711 1599 670 1606 634 1622 C 597 1638 566 1660 540 1690 C 513 1718 492 1753 477 1795 C 461 1836 452 1883 450 1935 L 540 1935 C 548 1855 571 1797 609 1763 C 647 1728 696 1711 757 1711 C 817 1711 866 1728 904 1763 C 941 1797 964 1855 974 1935 L 1064 1935 C 1061 1883 1052 1836 1037 1795 C 1021 1753 1000 1718 974 1690 C 947 1660 915 1638 879 1622 C 842 1606 801 1599 757 1599 Z" unicode="Ŏ" />
<glyph horiz-adv-x="1182" d="M 592 -23 C 526 -23 463 -10 404 14 C 344 39 292 76 248 124 C 203 171 167 229 141 299 C 115 369 102 449 102 539 C 102 629 115 708 141 778 C 167 848 202 907 247 955 C 291 1002 343 1038 403 1063 C 462 1087 525 1100 592 1100 C 658 1100 720 1087 779 1063 C 838 1038 890 1002 935 955 C 979 907 1014 848 1040 778 C 1066 708 1079 629 1079 539 C 1079 449 1066 369 1040 299 C 1014 229 979 171 935 124 C 890 76 838 39 779 14 C 720 -10 658 -23 592 -23 Z M 592 98 C 646 98 694 108 737 130 C 780 152 817 182 847 222 C 876 261 898 308 914 362 C 930 416 938 475 938 541 C 938 599 930 655 916 708 C 901 761 879 808 851 848 C 821 888 785 919 742 943 C 698 967 648 979 592 979 C 537 979 488 968 445 946 C 402 924 366 894 336 856 C 306 816 283 770 267 716 C 251 662 244 604 244 541 C 244 481 251 424 265 370 C 279 316 301 270 331 230 C 359 189 395 157 439 133 C 483 109 534 98 592 98 Z M 589 1186 C 543 1186 502 1193 466 1209 C 429 1225 398 1247 372 1277 C 345 1305 324 1340 309 1382 C 293 1423 284 1470 282 1522 L 372 1522 C 380 1442 403 1384 441 1350 C 479 1315 528 1298 589 1298 C 649 1298 698 1315 736 1350 C 773 1384 796 1442 806 1522 L 896 1522 C 893 1470 884 1423 869 1382 C 853 1340 832 1305 806 1277 C 779 1247 747 1225 711 1209 C 674 1193 633 1186 589 1186 Z" unicode="ŏ" />
<glyph horiz-adv-x="1520" d="M 1015 1926 L 1206 1926 L 913 1607 L 817 1607 L 1015 1926 Z M 681 1926 L 872 1926 L 583 1607 L 487 1607 L 681 1926 Z M 760 -29 C 667 -29 581 -10 503 27 C 425 64 357 117 301 186 C 244 254 200 337 168 434 C 136 531 121 639 121 758 C 121 876 136 984 168 1081 C 200 1177 244 1260 301 1329 C 357 1397 425 1450 503 1488 C 581 1525 667 1544 760 1544 C 852 1544 938 1525 1016 1488 C 1094 1450 1161 1397 1218 1329 C 1274 1260 1319 1177 1351 1081 C 1383 984 1399 876 1399 758 C 1399 639 1383 531 1351 434 C 1319 337 1274 254 1218 186 C 1161 117 1094 64 1016 27 C 938 -10 852 -29 760 -29 Z M 760 102 C 832 102 898 116 958 146 C 1018 176 1071 219 1115 276 C 1158 332 1192 400 1216 481 C 1240 562 1253 654 1253 758 C 1253 860 1240 952 1216 1033 C 1192 1114 1158 1183 1115 1239 C 1071 1295 1018 1337 958 1367 C 898 1396 832 1411 760 1411 C 688 1411 621 1396 561 1367 C 501 1337 449 1295 406 1239 C 362 1183 327 1114 303 1033 C 278 952 266 860 266 758 C 266 654 278 562 303 481 C 327 400 362 332 406 276 C 449 219 501 176 561 146 C 621 116 688 102 760 102 Z" unicode="Ő" />
<glyph horiz-adv-x="1182" d="M 863 1513 L 1054 1513 L 761 1194 L 665 1194 L 863 1513 Z M 529 1513 L 720 1513 L 431 1194 L 335 1194 L 529 1513 Z M 592 -23 C 526 -23 463 -10 404 14 C 344 39 292 76 248 124 C 203 171 167 229 141 299 C 115 369 102 449 102 539 C 102 629 115 708 141 778 C 167 848 202 907 247 955 C 291 1002 343 1038 403 1063 C 462 1087 525 1100 592 1100 C 658 1100 720 1087 779 1063 C 838 1038 890 1002 935 955 C 979 907 1014 848 1040 778 C 1066 708 1079 629 1079 539 C 1079 449 1066 369 1040 299 C 1014 229 979 171 935 124 C 890 76 838 39 779 14 C 720 -10 658 -23 592 -23 Z M 592 98 C 646 98 694 108 737 130 C 780 152 817 182 847 222 C 876 261 898 308 914 362 C 930 416 938 475 938 541 C 938 599 930 655 916 708 C 901 761 879 808 851 848 C 821 888 785 919 742 943 C 698 967 648 979 592 979 C 537 979 488 968 445 946 C 402 924 366 894 336 856 C 306 816 283 770 267 716 C 251 662 244 604 244 541 C 244 481 251 424 265 370 C 279 316 301 270 331 230 C 359 189 395 157 439 133 C 483 109 534 98 592 98 Z" unicode="ő" />
<glyph horiz-adv-x="2292" d="M 760 -29 C 668 -29 583 -10 505 27 C 427 64 359 117 303 186 C 245 254 201 337 169 434 C 137 531 121 639 121 758 C 121 876 137 984 169 1081 C 201 1177 245 1260 303 1329 C 359 1397 427 1450 505 1488 C 583 1525 668 1544 760 1544 C 818 1544 873 1536 924 1521 C 974 1505 1021 1484 1063 1456 C 1105 1428 1142 1394 1175 1355 C 1208 1315 1236 1272 1260 1225 L 1260 1516 L 2154 1516 L 2154 1380 L 1395 1380 L 1395 866 L 1962 866 L 1962 735 L 1395 735 L 1395 133 L 2198 133 L 2198 0 L 1260 0 L 1260 295 C 1236 247 1208 203 1175 163 C 1142 123 1105 90 1063 62 C 1021 33 974 11 924 -5 C 873 -21 818 -29 760 -29 Z M 760 102 C 830 102 896 116 956 146 C 1016 176 1068 219 1112 276 C 1155 332 1189 400 1214 481 C 1238 562 1251 654 1251 758 C 1251 860 1238 952 1214 1033 C 1189 1114 1155 1183 1112 1239 C 1068 1295 1016 1337 956 1367 C 896 1396 830 1411 760 1411 C 688 1411 621 1396 561 1367 C 501 1337 449 1295 406 1239 C 362 1183 327 1114 303 1033 C 278 952 266 860 266 758 C 266 654 278 562 303 481 C 327 400 362 332 406 276 C 449 219 501 176 561 146 C 621 116 688 102 760 102 Z" unicode="Œ" />
<glyph horiz-adv-x="1937" d="M 588 -23 C 522 -23 459 -10 400 14 C 341 39 290 76 246 124 C 202 171 167 229 141 299 C 115 369 102 449 102 539 C 102 629 114 708 140 778 C 166 848 201 907 245 955 C 289 1002 340 1038 399 1063 C 458 1087 521 1100 588 1100 C 636 1100 682 1093 725 1079 C 767 1065 806 1045 842 1021 C 876 995 907 965 934 930 C 960 895 982 857 999 815 C 1015 856 1037 894 1064 929 C 1090 964 1121 994 1156 1020 C 1190 1045 1228 1065 1269 1079 C 1310 1093 1353 1100 1399 1100 C 1461 1100 1519 1088 1572 1064 C 1625 1040 1671 1004 1711 958 C 1749 910 1780 852 1802 782 C 1824 712 1835 631 1835 539 L 1835 516 L 1067 516 C 1067 448 1077 388 1095 336 C 1113 284 1137 240 1168 205 C 1198 169 1233 141 1274 123 C 1314 105 1358 96 1405 96 C 1445 96 1482 100 1514 109 C 1546 117 1575 130 1601 147 C 1627 163 1651 184 1673 208 C 1695 232 1716 261 1737 293 L 1827 223 C 1803 185 1776 150 1748 120 C 1719 90 1687 64 1653 43 C 1617 21 1579 5 1537 -6 C 1495 -17 1448 -23 1397 -23 C 1352 -23 1309 -16 1268 -2 C 1227 12 1189 31 1155 57 C 1119 81 1088 111 1061 146 C 1034 180 1013 218 997 260 C 979 218 957 180 931 146 C 904 111 873 81 839 57 C 804 31 766 12 724 -2 C 682 -16 636 -23 588 -23 Z M 1696 625 C 1692 675 1683 722 1669 766 C 1655 810 1636 848 1612 880 C 1587 911 1557 936 1521 954 C 1485 972 1443 981 1395 981 C 1355 981 1318 973 1282 959 C 1246 945 1213 923 1184 894 C 1154 864 1130 827 1110 783 C 1090 738 1077 685 1071 625 L 1696 625 Z M 588 98 C 642 98 690 108 733 130 C 775 152 812 182 842 222 C 871 261 893 308 909 362 C 924 416 932 475 932 541 C 932 599 924 655 910 708 C 896 761 874 808 846 848 C 817 888 781 919 738 943 C 695 967 645 979 588 979 C 534 979 485 968 443 946 C 400 924 364 894 335 856 C 305 816 282 770 267 716 C 251 662 244 604 244 541 C 244 481 251 424 265 370 C 279 316 300 270 329 230 C 357 189 393 157 436 133 C 479 109 530 98 588 98 Z" unicode="œ" />
<glyph horiz-adv-x="1374" d="M 772 1926 L 958 1926 L 669 1607 L 577 1607 L 772 1926 Z M 195 1516 L 702 1516 C 786 1516 861 1507 927 1489 C 992 1471 1047 1445 1092 1411 C 1136 1376 1170 1333 1194 1282 C 1217 1231 1229 1172 1229 1106 C 1229 1044 1220 990 1203 944 C 1185 897 1161 857 1130 824 C 1098 790 1059 763 1015 742 C 970 721 920 706 866 696 L 1249 0 L 1085 0 L 715 680 L 338 680 L 338 0 L 195 0 L 195 1516 Z M 692 809 C 754 809 810 813 858 823 C 906 833 947 849 981 872 C 1014 894 1039 924 1057 962 C 1074 999 1083 1045 1083 1100 C 1083 1152 1074 1196 1057 1232 C 1040 1268 1015 1297 982 1320 C 948 1342 907 1357 858 1367 C 809 1377 753 1382 690 1382 L 338 1382 L 338 809 L 692 809 Z" unicode="Ŕ" />
<glyph horiz-adv-x="809" d="M 492 1513 L 678 1513 L 389 1194 L 297 1194 L 492 1513 Z M 164 1079 L 305 1079 L 305 866 L 309 866 C 329 899 353 930 381 958 C 408 986 439 1011 475 1033 C 509 1053 548 1070 592 1082 C 635 1094 683 1100 737 1100 L 762 1100 L 748 969 C 744 969 741 969 738 969 C 734 969 731 970 728 970 C 722 970 717 970 713 970 C 709 970 706 971 705 971 C 615 971 537 947 469 900 C 401 853 347 787 305 702 L 305 0 L 164 0 L 164 1079 Z" unicode="ŕ" />
<glyph horiz-adv-x="1374" d="M 667 -283 L 601 -283 L 601 -100 L 771 -100 L 771 -264 L 681 -485 L 620 -485 L 667 -283 Z M 195 1516 L 702 1516 C 786 1516 861 1507 927 1489 C 992 1471 1047 1445 1092 1411 C 1136 1376 1170 1333 1194 1282 C 1217 1231 1229 1172 1229 1106 C 1229 1044 1220 990 1203 944 C 1185 897 1161 857 1130 824 C 1098 790 1059 763 1015 742 C 970 721 920 706 866 696 L 1249 0 L 1085 0 L 715 680 L 338 680 L 338 0 L 195 0 L 195 1516 Z M 692 809 C 754 809 810 813 858 823 C 906 833 947 849 981 872 C 1014 894 1039 924 1057 962 C 1074 999 1083 1045 1083 1100 C 1083 1152 1074 1196 1057 1232 C 1040 1268 1015 1297 982 1320 C 948 1342 907 1357 858 1367 C 809 1377 753 1382 690 1382 L 338 1382 L 338 809 L 692 809 Z" unicode="Ŗ" />
<glyph horiz-adv-x="809" d="M 218 -283 L 152 -283 L 152 -100 L 322 -100 L 322 -264 L 232 -485 L 171 -485 L 218 -283 Z M 164 1079 L 305 1079 L 305 866 L 309 866 C 329 899 353 930 381 958 C 408 986 439 1011 475 1033 C 509 1053 548 1070 592 1082 C 635 1094 683 1100 737 1100 L 762 1100 L 748 969 C 744 969 741 969 738 969 C 734 969 731 970 728 970 C 722 970 717 970 713 970 C 709 970 706 971 705 971 C 615 971 537 947 469 900 C 401 853 347 787 305 702 L 305 0 L 164 0 L 164 1079 Z" unicode="ŗ" />
<glyph horiz-adv-x="1374" d="M 364 1935 L 454 1935 L 683 1734 L 915 1935 L 1001 1935 L 736 1609 L 628 1609 L 364 1935 Z M 195 1516 L 702 1516 C 786 1516 861 1507 927 1489 C 992 1471 1047 1445 1092 1411 C 1136 1376 1170 1333 1194 1282 C 1217 1231 1229 1172 1229 1106 C 1229 1044 1220 990 1203 944 C 1185 897 1161 857 1130 824 C 1098 790 1059 763 1015 742 C 970 721 920 706 866 696 L 1249 0 L 1085 0 L 715 680 L 338 680 L 338 0 L 195 0 L 195 1516 Z M 692 809 C 754 809 810 813 858 823 C 906 833 947 849 981 872 C 1014 894 1039 924 1057 962 C 1074 999 1083 1045 1083 1100 C 1083 1152 1074 1196 1057 1232 C 1040 1268 1015 1297 982 1320 C 948 1342 907 1357 858 1367 C 809 1377 753 1382 690 1382 L 338 1382 L 338 809 L 692 809 Z" unicode="Ř" />
<glyph horiz-adv-x="809" d="M 87 1522 L 177 1522 L 406 1321 L 638 1522 L 724 1522 L 459 1196 L 351 1196 L 87 1522 Z M 164 1079 L 305 1079 L 305 866 L 309 866 C 329 899 353 930 381 958 C 408 986 439 1011 475 1033 C 509 1053 548 1070 592 1082 C 635 1094 683 1100 737 1100 L 762 1100 L 748 969 C 744 969 741 969 738 969 C 734 969 731 970 728 970 C 722 970 717 970 713 970 C 709 970 706 971 705 971 C 615 971 537 947 469 900 C 401 853 347 787 305 702 L 305 0 L 164 0 L 164 1079 Z" unicode="ř" />
<glyph horiz-adv-x="1329" d="M 749 1926 L 935 1926 L 646 1607 L 554 1607 L 749 1926 Z M 676 -29 C 604 -29 538 -19 478 -1 C 418 17 364 44 317 80 C 269 114 229 156 196 206 C 162 256 137 311 119 373 L 248 420 C 282 314 336 234 410 180 C 484 126 574 100 682 100 C 738 100 790 106 836 119 C 882 131 922 150 955 174 C 987 197 1012 226 1030 260 C 1048 294 1057 332 1057 375 C 1057 414 1051 449 1040 480 C 1028 510 1008 539 979 566 C 949 592 908 616 857 640 C 805 664 739 689 659 715 C 577 740 506 765 445 791 C 383 817 332 846 292 880 C 250 912 219 951 199 995 C 178 1039 168 1092 168 1155 C 168 1209 179 1259 202 1307 C 225 1354 258 1395 300 1431 C 341 1465 390 1493 448 1513 C 506 1533 569 1544 639 1544 C 710 1544 774 1535 830 1518 C 886 1500 936 1476 979 1446 C 1021 1415 1057 1378 1087 1336 C 1117 1293 1141 1246 1159 1196 L 1036 1139 C 998 1237 946 1307 879 1349 C 812 1391 731 1413 637 1413 C 586 1413 540 1406 500 1394 C 460 1381 426 1364 398 1342 C 370 1319 348 1292 333 1262 C 318 1232 311 1199 311 1165 C 311 1122 318 1086 332 1056 C 346 1026 369 999 402 975 C 434 951 476 928 530 906 C 584 884 651 861 731 836 C 809 810 878 784 937 757 C 996 730 1045 699 1085 665 C 1124 630 1153 590 1173 545 C 1192 499 1202 446 1202 385 C 1202 321 1188 264 1162 213 C 1136 162 1099 119 1053 83 C 1005 47 950 19 886 0 C 822 -19 752 -29 676 -29 Z" unicode="Ś" />
<glyph horiz-adv-x="1036" d="M 604 1513 L 790 1513 L 501 1194 L 409 1194 L 604 1513 Z M 512 -20 C 464 -20 418 -15 376 -5 C 333 4 294 17 259 35 C 223 51 190 71 162 95 C 133 118 108 144 88 172 L 178 254 C 219 206 267 168 321 140 C 375 112 439 98 514 98 C 606 98 676 114 724 147 C 771 179 795 226 795 287 C 795 317 789 342 778 364 C 767 385 750 404 726 421 C 702 437 671 451 633 464 C 595 477 550 490 498 502 C 436 517 381 533 335 550 C 288 567 249 588 218 612 C 186 636 162 664 146 697 C 130 729 123 769 123 817 C 123 855 131 892 147 926 C 163 960 187 991 219 1017 C 249 1042 287 1062 333 1077 C 379 1092 431 1100 489 1100 C 535 1100 577 1096 616 1089 C 654 1081 690 1071 723 1058 C 755 1044 784 1027 812 1008 C 839 988 865 967 889 944 L 809 850 C 767 891 721 923 670 947 C 618 971 560 983 494 983 C 452 983 416 978 386 969 C 356 960 332 948 314 934 C 295 918 281 901 273 882 C 264 863 260 843 260 823 C 260 797 264 774 274 755 C 284 736 299 719 321 705 C 341 690 368 677 401 665 C 434 653 474 642 522 631 C 590 614 649 597 700 579 C 751 561 794 540 829 515 C 863 489 888 458 906 422 C 923 386 932 341 932 289 C 932 239 921 195 900 157 C 879 119 850 87 814 61 C 776 34 732 14 680 0 C 628 -13 572 -20 512 -20 Z" unicode="ś" />
<glyph horiz-adv-x="1329" d="M 606 1926 L 712 1926 L 977 1601 L 887 1601 L 657 1802 L 428 1601 L 342 1601 L 606 1926 Z M 676 -29 C 604 -29 538 -19 478 -1 C 418 17 364 44 317 80 C 269 114 229 156 196 206 C 162 256 137 311 119 373 L 248 420 C 282 314 336 234 410 180 C 484 126 574 100 682 100 C 738 100 790 106 836 119 C 882 131 922 150 955 174 C 987 197 1012 226 1030 260 C 1048 294 1057 332 1057 375 C 1057 414 1051 449 1040 480 C 1028 510 1008 539 979 566 C 949 592 908 616 857 640 C 805 664 739 689 659 715 C 577 740 506 765 445 791 C 383 817 332 846 292 880 C 250 912 219 951 199 995 C 178 1039 168 1092 168 1155 C 168 1209 179 1259 202 1307 C 225 1354 258 1395 300 1431 C 341 1465 390 1493 448 1513 C 506 1533 569 1544 639 1544 C 710 1544 774 1535 830 1518 C 886 1500 936 1476 979 1446 C 1021 1415 1057 1378 1087 1336 C 1117 1293 1141 1246 1159 1196 L 1036 1139 C 998 1237 946 1307 879 1349 C 812 1391 731 1413 637 1413 C 586 1413 540 1406 500 1394 C 460 1381 426 1364 398 1342 C 370 1319 348 1292 333 1262 C 318 1232 311 1199 311 1165 C 311 1122 318 1086 332 1056 C 346 1026 369 999 402 975 C 434 951 476 928 530 906 C 584 884 651 861 731 836 C 809 810 878 784 937 757 C 996 730 1045 699 1085 665 C 1124 630 1153 590 1173 545 C 1192 499 1202 446 1202 385 C 1202 321 1188 264 1162 213 C 1136 162 1099 119 1053 83 C 1005 47 950 19 886 0 C 822 -19 752 -29 676 -29 Z" unicode="Ŝ" />
<glyph horiz-adv-x="1036" d="M 435 1513 L 541 1513 L 806 1188 L 716 1188 L 486 1389 L 257 1188 L 171 1188 L 435 1513 Z M 512 -20 C 464 -20 418 -15 376 -5 C 333 4 294 17 259 35 C 223 51 190 71 162 95 C 133 118 108 144 88 172 L 178 254 C 219 206 267 168 321 140 C 375 112 439 98 514 98 C 606 98 676 114 724 147 C 771 179 795 226 795 287 C 795 317 789 342 778 364 C 767 385 750 404 726 421 C 702 437 671 451 633 464 C 595 477 550 490 498 502 C 436 517 381 533 335 550 C 288 567 249 588 218 612 C 186 636 162 664 146 697 C 130 729 123 769 123 817 C 123 855 131 892 147 926 C 163 960 187 991 219 1017 C 249 1042 287 1062 333 1077 C 379 1092 431 1100 489 1100 C 535 1100 577 1096 616 1089 C 654 1081 690 1071 723 1058 C 755 1044 784 1027 812 1008 C 839 988 865 967 889 944 L 809 850 C 767 891 721 923 670 947 C 618 971 560 983 494 983 C 452 983 416 978 386 969 C 356 960 332 948 314 934 C 295 918 281 901 273 882 C 264 863 260 843 260 823 C 260 797 264 774 274 755 C 284 736 299 719 321 705 C 341 690 368 677 401 665 C 434 653 474 642 522 631 C 590 614 649 597 700 579 C 751 561 794 540 829 515 C 863 489 888 458 906 422 C 923 386 932 341 932 289 C 932 239 921 195 900 157 C 879 119 850 87 814 61 C 776 34 732 14 680 0 C 628 -13 572 -20 512 -20 Z" unicode="ŝ" />
<glyph horiz-adv-x="1329" d="M 676 -29 C 604 -29 538 -19 478 -1 C 418 17 364 44 317 80 C 269 114 229 156 196 206 C 162 256 137 311 119 373 L 248 420 C 282 314 336 234 410 180 C 484 126 574 100 682 100 C 738 100 790 106 836 119 C 882 131 922 150 955 174 C 987 197 1012 226 1030 260 C 1048 294 1057 332 1057 375 C 1057 414 1051 449 1040 480 C 1028 510 1008 539 979 566 C 949 592 908 616 857 640 C 805 664 739 689 659 715 C 577 740 506 765 445 791 C 383 817 332 846 292 880 C 250 912 219 951 199 995 C 178 1039 168 1092 168 1155 C 168 1209 179 1259 202 1307 C 225 1354 258 1395 300 1431 C 341 1465 390 1493 448 1513 C 506 1533 569 1544 639 1544 C 710 1544 774 1535 830 1518 C 886 1500 936 1476 979 1446 C 1021 1415 1057 1378 1087 1336 C 1117 1293 1141 1246 1159 1196 L 1036 1139 C 998 1237 946 1307 879 1349 C 812 1391 731 1413 637 1413 C 586 1413 540 1406 500 1394 C 460 1381 426 1364 398 1342 C 370 1319 348 1292 333 1262 C 318 1232 311 1199 311 1165 C 311 1122 318 1086 332 1056 C 346 1026 369 999 402 975 C 434 951 476 928 530 906 C 584 884 651 861 731 836 C 809 810 878 784 937 757 C 996 730 1045 699 1085 665 C 1124 630 1153 590 1173 545 C 1192 499 1202 446 1202 385 C 1202 321 1188 264 1162 213 C 1136 162 1099 119 1053 83 C 1005 47 950 19 886 0 C 822 -19 752 -29 676 -29 Z M 663 -399 C 617 -399 572 -392 528 -379 C 484 -365 445 -347 409 -324 L 446 -264 C 476 -284 509 -300 543 -310 C 577 -320 611 -326 647 -326 C 701 -326 740 -317 764 -301 C 788 -284 800 -260 800 -229 C 800 -205 792 -186 778 -174 C 764 -162 742 -156 714 -156 C 691 -156 671 -160 654 -168 C 637 -176 622 -185 608 -197 L 548 -170 L 602 0 L 688 0 L 655 -111 C 669 -101 685 -94 703 -88 C 721 -82 742 -80 767 -80 C 785 -80 803 -83 821 -89 C 839 -95 854 -103 868 -115 C 880 -126 891 -140 899 -158 C 907 -176 911 -196 911 -219 C 911 -251 904 -278 891 -301 C 877 -323 860 -342 838 -357 C 815 -371 789 -381 759 -388 C 729 -395 697 -399 663 -399 Z" unicode="Ş" />
<glyph horiz-adv-x="1036" d="M 512 -20 C 464 -20 418 -15 376 -5 C 333 4 294 17 259 35 C 223 51 190 71 162 95 C 133 118 108 144 88 172 L 178 254 C 219 206 267 168 321 140 C 375 112 439 98 514 98 C 606 98 676 114 724 147 C 771 179 795 226 795 287 C 795 317 789 342 778 364 C 767 385 750 404 726 421 C 702 437 671 451 633 464 C 595 477 550 490 498 502 C 436 517 381 533 335 550 C 288 567 249 588 218 612 C 186 636 162 664 146 697 C 130 729 123 769 123 817 C 123 855 131 892 147 926 C 163 960 187 991 219 1017 C 249 1042 287 1062 333 1077 C 379 1092 431 1100 489 1100 C 535 1100 577 1096 616 1089 C 654 1081 690 1071 723 1058 C 755 1044 784 1027 812 1008 C 839 988 865 967 889 944 L 809 850 C 767 891 721 923 670 947 C 618 971 560 983 494 983 C 452 983 416 978 386 969 C 356 960 332 948 314 934 C 295 918 281 901 273 882 C 264 863 260 843 260 823 C 260 797 264 774 274 755 C 284 736 299 719 321 705 C 341 690 368 677 401 665 C 434 653 474 642 522 631 C 590 614 649 597 700 579 C 751 561 794 540 829 515 C 863 489 888 458 906 422 C 923 386 932 341 932 289 C 932 239 921 195 900 157 C 879 119 850 87 814 61 C 776 34 732 14 680 0 C 628 -13 572 -20 512 -20 Z M 520 -399 C 474 -399 429 -392 385 -379 C 341 -365 302 -347 266 -324 L 303 -264 C 333 -284 366 -300 400 -310 C 434 -320 468 -326 504 -326 C 558 -326 597 -317 621 -301 C 645 -284 657 -260 657 -229 C 657 -205 649 -186 635 -174 C 621 -162 599 -156 571 -156 C 548 -156 528 -160 511 -168 C 494 -176 479 -185 465 -197 L 405 -170 L 459 0 L 545 0 L 512 -111 C 526 -101 542 -94 560 -88 C 578 -82 599 -80 624 -80 C 642 -80 660 -83 678 -89 C 696 -95 711 -103 725 -115 C 737 -126 748 -140 756 -158 C 764 -176 768 -196 768 -219 C 768 -251 761 -278 748 -301 C 734 -323 717 -342 695 -357 C 672 -371 646 -381 616 -388 C 586 -395 554 -399 520 -399 Z" unicode="ş" />
<glyph horiz-adv-x="1329" d="M 676 -29 C 604 -29 538 -19 478 -1 C 418 17 364 44 317 80 C 269 114 229 156 196 206 C 162 256 137 311 119 373 L 248 420 C 282 314 336 234 410 180 C 484 126 574 100 682 100 C 738 100 790 106 836 119 C 882 131 922 150 955 174 C 987 197 1012 226 1030 260 C 1048 294 1057 332 1057 375 C 1057 414 1051 449 1040 480 C 1028 510 1008 539 979 566 C 949 592 908 616 857 640 C 805 664 739 689 659 715 C 577 740 506 765 445 791 C 383 817 332 846 292 880 C 250 912 219 951 199 995 C 178 1039 168 1092 168 1155 C 168 1209 179 1259 202 1307 C 225 1354 258 1395 300 1431 C 341 1465 390 1493 448 1513 C 506 1533 569 1544 639 1544 C 710 1544 774 1535 830 1518 C 886 1500 936 1476 979 1446 C 1021 1415 1057 1378 1087 1336 C 1117 1293 1141 1246 1159 1196 L 1036 1139 C 998 1237 946 1307 879 1349 C 812 1391 731 1413 637 1413 C 586 1413 540 1406 500 1394 C 460 1381 426 1364 398 1342 C 370 1319 348 1292 333 1262 C 318 1232 311 1199 311 1165 C 311 1122 318 1086 332 1056 C 346 1026 369 999 402 975 C 434 951 476 928 530 906 C 584 884 651 861 731 836 C 809 810 878 784 937 757 C 996 730 1045 699 1085 665 C 1124 630 1153 590 1173 545 C 1192 499 1202 446 1202 385 C 1202 321 1188 264 1162 213 C 1136 162 1099 119 1053 83 C 1005 47 950 19 886 0 C 822 -19 752 -29 676 -29 Z M 344 1956 L 434 1956 L 663 1755 L 895 1956 L 981 1956 L 716 1630 L 608 1630 L 344 1956 Z" unicode="Š" />
<glyph horiz-adv-x="1036" d="M 512 -20 C 464 -20 418 -15 376 -5 C 333 4 294 17 259 35 C 223 51 190 71 162 95 C 133 118 108 144 88 172 L 178 254 C 219 206 267 168 321 140 C 375 112 439 98 514 98 C 606 98 676 114 724 147 C 771 179 795 226 795 287 C 795 317 789 342 778 364 C 767 385 750 404 726 421 C 702 437 671 451 633 464 C 595 477 550 490 498 502 C 436 517 381 533 335 550 C 288 567 249 588 218 612 C 186 636 162 664 146 697 C 130 729 123 769 123 817 C 123 855 131 892 147 926 C 163 960 187 991 219 1017 C 249 1042 287 1062 333 1077 C 379 1092 431 1100 489 1100 C 535 1100 577 1096 616 1089 C 654 1081 690 1071 723 1058 C 755 1044 784 1027 812 1008 C 839 988 865 967 889 944 L 809 850 C 767 891 721 923 670 947 C 618 971 560 983 494 983 C 452 983 416 978 386 969 C 356 960 332 948 314 934 C 295 918 281 901 273 882 C 264 863 260 843 260 823 C 260 797 264 774 274 755 C 284 736 299 719 321 705 C 341 690 368 677 401 665 C 434 653 474 642 522 631 C 590 614 649 597 700 579 C 751 561 794 540 829 515 C 863 489 888 458 906 422 C 923 386 932 341 932 289 C 932 239 921 195 900 157 C 879 119 850 87 814 61 C 776 34 732 14 680 0 C 628 -13 572 -20 512 -20 Z M 199 1522 L 289 1522 L 518 1321 L 750 1522 L 836 1522 L 571 1196 L 463 1196 L 199 1522 Z" unicode="š" />
<glyph horiz-adv-x="1264" d="M 311 1935 L 401 1935 L 630 1734 L 862 1935 L 948 1935 L 683 1609 L 575 1609 L 311 1935 Z M 559 1380 L 70 1380 L 70 1516 L 1194 1516 L 1194 1380 L 705 1380 L 705 0 L 559 0 L 559 1380 Z" unicode="Ť" />
</font>
</defs>
</svg>
