<?xml version="1.0" encoding="utf-8" ?><svg version="1.1" xmlns = 'http://www.w3.org/2000/svg'><defs><font id='web' horiz-adv-x="1000">
<font-face font-family="web" descent="-436" cap-height="1516" units-per-em="2048" bbox="-231,-428,2535,1969" x-height="1075" ascent="1612" />
<missing-glyph horiz-adv-x="1024" d="M 0 1434 L 1024 1434 L 1024 0 L 0 0 L 0 1434 Z M 102 102 L 922 102 L 922 1331 L 102 1331 L 102 102 Z" /><glyph horiz-adv-x="412" d="" unicode=" " />
<glyph horiz-adv-x="604" d="M 145 106 L 233 106 L 215 0 L 127 0 L 145 106 Z M 410 1516 L 465 1516 L 244 313 L 209 313 L 410 1516 Z" unicode="!" />
<glyph horiz-adv-x="772" d="M 313 1411 L 332 1516 L 381 1516 L 362 1411 L 279 1010 L 258 1010 L 313 1411 Z M 643 1411 L 662 1516 L 711 1516 L 692 1411 L 608 1010 L 588 1010 L 643 1411 Z" unicode="&#x22;" />
<glyph horiz-adv-x="1411" d="M 360 479 L 104 479 L 104 526 L 371 526 L 469 995 L 197 995 L 197 1042 L 479 1042 L 578 1516 L 625 1516 L 526 1042 L 1001 1042 L 1100 1516 L 1147 1516 L 1049 1042 L 1309 1042 L 1309 995 L 1038 995 L 940 526 L 1217 526 L 1217 479 L 930 479 L 829 0 L 782 0 L 883 479 L 408 479 L 307 0 L 260 0 L 360 479 Z M 893 526 L 991 995 L 516 995 L 418 526 L 893 526 Z" unicode="#" />
<glyph horiz-adv-x="1276" d="M 479 -27 C 409 -21 351 -8 305 10 C 259 29 221 53 191 83 C 161 112 137 145 120 183 C 103 220 89 260 78 303 L 127 315 C 137 277 149 241 165 207 C 181 173 202 144 229 118 C 255 91 289 69 331 52 C 373 34 425 23 487 18 L 621 786 C 560 810 508 834 466 859 C 423 883 388 910 362 939 C 334 967 314 997 302 1031 C 289 1064 283 1101 283 1143 C 283 1199 293 1251 313 1300 C 333 1348 363 1391 403 1428 C 441 1464 489 1493 545 1514 C 601 1535 665 1546 737 1546 L 754 1546 L 778 1677 L 829 1677 L 805 1542 C 858 1536 904 1526 942 1510 C 980 1494 1014 1474 1042 1452 C 1069 1428 1092 1402 1110 1374 C 1128 1346 1143 1317 1155 1288 L 1108 1270 C 1097 1296 1084 1321 1068 1346 C 1052 1371 1032 1394 1008 1415 C 983 1435 953 1452 919 1466 C 885 1480 844 1490 797 1495 L 678 815 C 752 784 815 754 866 725 C 917 695 959 665 991 634 C 1022 602 1044 567 1058 531 C 1072 495 1079 454 1079 410 C 1079 338 1066 274 1042 220 C 1018 165 983 119 939 82 C 893 44 839 16 775 -2 C 711 -21 639 -31 561 -31 L 528 -31 L 502 -190 L 451 -190 L 479 -27 Z M 745 1499 L 737 1499 C 673 1499 617 1489 567 1471 C 517 1452 474 1427 440 1395 C 405 1362 379 1324 361 1281 C 343 1237 334 1191 334 1143 C 334 1107 339 1075 350 1047 C 360 1019 378 993 402 969 C 425 944 455 921 493 899 C 530 877 575 856 629 834 L 745 1499 Z M 561 16 C 632 16 696 24 754 41 C 812 58 861 83 902 117 C 942 150 973 191 995 240 C 1017 289 1028 346 1028 410 C 1028 449 1021 485 1009 517 C 997 549 977 579 949 607 C 921 635 884 662 838 688 C 792 714 736 740 670 768 L 537 16 L 561 16 Z" unicode="$" />
<glyph horiz-adv-x="1915" d="M 455 637 C 413 637 377 644 345 660 C 313 676 287 698 266 728 C 244 756 227 791 216 833 C 204 874 199 920 199 971 C 199 1047 209 1118 229 1186 C 249 1253 277 1312 313 1363 C 348 1413 390 1453 438 1483 C 486 1513 539 1528 596 1528 C 638 1528 676 1520 710 1504 C 743 1488 771 1465 795 1436 C 817 1406 834 1371 846 1329 C 858 1287 864 1241 864 1190 C 864 1113 853 1041 833 974 C 812 906 783 848 747 798 C 710 748 667 708 617 680 C 567 651 513 637 455 637 Z M 455 682 C 505 682 553 695 597 721 C 641 747 679 784 712 830 C 744 876 769 929 787 991 C 805 1053 815 1119 815 1190 C 815 1234 810 1275 800 1311 C 790 1347 777 1377 759 1403 C 740 1428 717 1448 690 1462 C 662 1476 631 1483 596 1483 C 546 1483 499 1469 457 1442 C 415 1414 378 1377 348 1331 C 316 1284 292 1230 274 1168 C 256 1106 248 1040 248 971 C 248 927 252 887 261 851 C 270 815 284 785 302 761 C 319 735 340 716 366 702 C 392 688 421 682 455 682 Z M 1311 -12 C 1269 -12 1233 -4 1201 11 C 1169 27 1143 49 1122 79 C 1100 107 1083 142 1072 184 C 1060 225 1055 271 1055 322 C 1055 398 1065 469 1085 537 C 1105 604 1133 663 1169 714 C 1204 764 1246 804 1294 834 C 1342 864 1395 879 1452 879 C 1494 879 1532 871 1566 855 C 1599 839 1627 816 1651 787 C 1673 757 1690 721 1702 679 C 1714 637 1720 591 1720 541 C 1720 463 1709 391 1689 324 C 1668 257 1639 199 1603 149 C 1566 99 1523 59 1473 31 C 1423 2 1369 -12 1311 -12 Z M 1311 33 C 1362 33 1410 46 1454 72 C 1498 98 1536 135 1568 181 C 1600 227 1625 280 1643 342 C 1661 404 1671 470 1671 541 C 1671 585 1666 626 1656 662 C 1646 698 1633 728 1615 754 C 1596 779 1573 799 1546 813 C 1518 827 1487 834 1452 834 C 1402 834 1355 820 1313 793 C 1271 765 1234 728 1204 682 C 1172 635 1148 581 1130 519 C 1112 457 1104 391 1104 322 C 1104 278 1108 238 1117 202 C 1126 166 1140 136 1158 112 C 1175 86 1196 67 1222 53 C 1248 39 1277 33 1311 33 Z M 1511 1516 L 1567 1516 L 397 0 L 342 0 L 1511 1516 Z" unicode="%" />
<glyph horiz-adv-x="1436" d="M 457 -23 C 392 -23 334 -13 282 6 C 230 25 185 52 149 86 C 111 120 83 160 63 207 C 43 253 33 304 33 360 C 33 429 44 490 67 543 C 89 596 121 643 161 684 C 201 724 247 760 301 790 C 355 820 413 848 475 872 C 455 924 441 973 432 1021 C 422 1069 418 1115 418 1159 C 418 1227 428 1285 449 1334 C 470 1382 498 1422 533 1454 C 567 1485 607 1508 651 1523 C 695 1538 741 1546 788 1546 C 873 1546 940 1525 988 1485 C 1036 1444 1061 1387 1061 1313 C 1061 1246 1046 1189 1017 1141 C 987 1093 949 1052 901 1017 C 852 981 796 949 734 922 C 672 894 607 868 541 844 C 550 821 560 798 571 776 C 582 753 594 730 606 707 C 654 609 705 521 761 442 C 817 362 875 293 936 233 C 994 293 1045 366 1089 452 C 1133 537 1170 635 1200 745 L 1249 733 C 1217 617 1178 515 1132 427 C 1086 339 1033 263 973 201 C 1018 161 1064 127 1111 100 C 1157 73 1205 54 1253 43 L 1241 -2 C 1189 10 1137 31 1087 60 C 1037 88 988 124 940 168 C 872 104 797 56 717 24 C 636 -7 549 -23 457 -23 Z M 457 25 C 541 25 621 39 695 69 C 769 98 838 142 901 201 C 838 261 778 332 721 413 C 663 494 610 584 561 684 C 547 709 535 734 524 758 C 512 782 502 805 492 829 C 434 806 381 781 332 753 C 282 725 239 692 203 655 C 165 617 136 574 115 526 C 94 478 84 422 84 360 C 84 311 92 266 110 225 C 127 184 152 149 185 120 C 217 90 256 66 302 50 C 348 33 399 25 457 25 Z M 524 885 C 566 901 607 917 647 934 C 687 950 725 968 761 987 C 797 1005 830 1025 860 1047 C 890 1069 917 1093 940 1120 C 962 1146 979 1174 991 1206 C 1003 1238 1010 1273 1010 1313 C 1010 1371 990 1417 951 1450 C 911 1482 857 1499 788 1499 C 748 1499 709 1492 671 1480 C 633 1467 599 1447 569 1420 C 539 1392 514 1357 496 1314 C 478 1271 469 1219 469 1159 C 469 1117 473 1074 483 1028 C 492 982 506 935 524 885 Z" unicode="&#x26;" />
<glyph horiz-adv-x="442" d="M 313 1411 L 332 1516 L 381 1516 L 362 1411 L 279 1010 L 258 1010 L 313 1411 Z" unicode="'" />
<glyph horiz-adv-x="801" d="M 461 -418 C 403 -365 351 -307 307 -244 C 263 -181 226 -115 196 -45 C 165 25 142 97 127 172 C 111 247 104 323 104 399 C 104 517 120 627 152 730 C 184 832 231 930 292 1022 C 352 1114 425 1201 511 1284 C 597 1366 695 1446 803 1524 L 834 1485 C 728 1409 634 1332 550 1252 C 466 1172 396 1087 338 999 C 279 910 234 816 203 717 C 171 618 156 512 156 399 C 156 325 163 253 178 181 C 192 109 214 40 243 -27 C 271 -93 307 -157 349 -217 C 391 -277 440 -333 496 -383 L 461 -418 Z" unicode="(" />
<glyph horiz-adv-x="801" d="M -100 -379 C 4 -303 98 -226 182 -146 C 266 -66 337 18 396 107 C 454 195 499 289 531 388 C 562 487 578 593 578 707 C 578 779 570 852 556 924 C 541 996 519 1065 491 1133 C 462 1199 426 1263 384 1323 C 342 1383 293 1439 238 1489 L 272 1524 C 330 1471 381 1413 425 1350 C 469 1287 507 1221 538 1151 C 568 1081 590 1008 606 933 C 621 858 629 783 629 707 C 629 589 612 478 580 376 C 548 273 502 176 442 84 C 381 -8 307 -95 221 -178 C 135 -260 38 -340 -70 -418 L -100 -379 Z" unicode=")" />
<glyph horiz-adv-x="1036" d="M 565 1122 L 326 825 L 295 852 L 545 1141 L 168 1198 L 176 1239 L 549 1165 L 412 1522 L 451 1536 L 573 1176 L 813 1473 L 844 1446 L 594 1157 L 971 1100 L 963 1059 L 590 1133 L 727 776 L 688 762 L 565 1122 Z" unicode="*" />
<glyph horiz-adv-x="1278" d="M 614 641 L 133 641 L 133 688 L 614 688 L 614 1171 L 666 1171 L 666 688 L 1145 688 L 1145 641 L 666 641 L 666 156 L 614 156 L 614 641 Z" unicode="+" />
<glyph horiz-adv-x="522" d="M 125 0 L 86 0 L 104 106 L 193 106 L 176 12 L 94 -170 L 61 -170 L 125 0 Z" unicode="," />
<glyph horiz-adv-x="717" d="M 139 670 L 553 670 L 545 623 L 131 623 L 139 670 Z" unicode="-" />
<glyph horiz-adv-x="522" d="M 104 106 L 193 106 L 174 0 L 86 0 L 104 106 Z" unicode="." />
<glyph horiz-adv-x="1063" d="M 1065 1516 L 1120 1516 L 2 0 L -53 0 L 1065 1516 Z" unicode="/" />
<glyph horiz-adv-x="1292" d="M 537 -31 C 461 -31 396 -16 342 12 C 288 41 243 82 209 134 C 173 186 147 247 131 318 C 114 389 106 467 106 551 C 106 633 112 714 126 796 C 140 877 160 955 187 1029 C 213 1102 245 1170 283 1233 C 321 1296 364 1351 413 1398 C 461 1444 513 1480 571 1506 C 629 1532 691 1546 758 1546 C 834 1546 899 1531 954 1502 C 1008 1472 1053 1432 1089 1381 C 1124 1329 1150 1267 1167 1196 C 1183 1125 1192 1048 1192 965 C 1192 882 1185 800 1171 719 C 1157 637 1138 560 1112 487 C 1086 413 1054 344 1016 281 C 978 217 934 163 886 117 C 837 71 783 34 725 8 C 667 -17 604 -31 537 -31 Z M 537 16 C 599 16 657 28 711 53 C 765 78 814 113 859 157 C 903 201 943 253 978 313 C 1013 373 1043 438 1067 509 C 1091 579 1109 652 1122 730 C 1134 808 1141 886 1141 965 C 1141 1041 1133 1112 1119 1178 C 1104 1243 1081 1299 1050 1347 C 1018 1394 978 1431 930 1458 C 882 1485 824 1499 758 1499 C 696 1499 639 1486 586 1461 C 532 1436 484 1402 440 1358 C 395 1314 355 1261 320 1201 C 285 1141 256 1076 232 1006 C 208 936 189 862 177 785 C 164 707 158 629 158 551 C 158 473 165 402 179 337 C 193 271 216 215 247 168 C 277 120 317 82 365 56 C 413 29 470 16 537 16 Z" unicode="0" />
<glyph horiz-adv-x="862" d="M 16 47 L 322 47 L 569 1454 C 547 1440 523 1427 498 1417 C 472 1406 446 1397 420 1391 C 392 1383 365 1378 338 1375 C 310 1371 284 1370 258 1370 L 266 1419 C 316 1419 367 1425 421 1439 C 474 1452 529 1478 586 1516 L 631 1516 L 373 47 L 641 47 L 633 0 L 8 0 L 16 47 Z" unicode="1" />
<glyph horiz-adv-x="1159" d="M -2 51 C 6 96 16 137 28 175 C 39 213 54 249 73 283 C 91 317 114 349 143 381 C 172 412 209 444 254 477 C 298 509 351 543 413 579 C 475 614 549 652 635 694 C 709 730 773 765 826 801 C 878 837 921 875 955 915 C 988 954 1012 997 1028 1043 C 1043 1089 1051 1140 1051 1198 C 1051 1242 1044 1283 1030 1320 C 1016 1356 995 1388 969 1415 C 942 1441 909 1462 870 1477 C 830 1491 785 1499 735 1499 C 679 1499 627 1491 581 1477 C 535 1462 493 1443 455 1419 C 417 1394 382 1365 352 1333 C 322 1301 295 1267 272 1231 L 231 1253 C 255 1293 285 1330 320 1366 C 354 1402 393 1433 437 1460 C 480 1486 527 1506 579 1522 C 630 1538 685 1546 743 1546 C 801 1546 853 1537 898 1520 C 942 1503 980 1480 1011 1450 C 1041 1419 1063 1382 1079 1340 C 1094 1297 1102 1250 1102 1198 C 1102 1134 1093 1076 1075 1026 C 1057 975 1030 928 993 886 C 955 843 908 803 851 765 C 793 727 725 690 647 653 C 564 613 493 577 433 543 C 373 509 323 477 282 446 C 240 414 205 383 179 353 C 152 323 130 292 114 261 C 97 229 84 195 74 160 C 64 125 55 87 47 47 L 897 47 L 889 0 L -12 0 L -2 51 Z" unicode="2" />
<glyph horiz-adv-x="1169" d="M 459 -31 C 380 -31 313 -20 259 0 C 205 20 159 47 123 79 C 86 110 57 145 36 183 C 14 221 -2 257 -14 293 L 35 307 C 45 275 60 242 80 208 C 99 174 125 142 158 114 C 190 85 231 61 280 43 C 329 25 389 16 459 16 C 523 16 584 26 640 47 C 696 67 746 97 788 135 C 829 173 862 219 886 273 C 910 327 922 387 922 453 C 922 501 915 545 901 586 C 887 627 864 663 833 693 C 801 722 760 745 710 762 C 659 779 597 788 524 788 L 428 788 L 436 836 L 549 836 C 615 836 678 842 736 855 C 794 868 844 889 887 919 C 929 947 963 985 987 1032 C 1011 1079 1024 1137 1024 1206 C 1024 1248 1017 1286 1005 1322 C 992 1358 972 1389 946 1416 C 918 1442 884 1462 842 1477 C 800 1491 750 1499 692 1499 C 646 1499 604 1493 565 1483 C 525 1472 489 1458 456 1440 C 422 1421 392 1400 365 1376 C 337 1352 313 1326 291 1300 L 252 1331 C 276 1359 303 1387 333 1413 C 363 1439 396 1462 433 1482 C 469 1501 509 1516 552 1528 C 595 1540 642 1546 692 1546 C 760 1546 818 1537 866 1520 C 914 1503 954 1480 986 1450 C 1016 1419 1039 1383 1053 1341 C 1067 1299 1075 1254 1075 1206 C 1075 1146 1066 1093 1050 1047 C 1033 1001 1009 963 979 931 C 948 898 911 872 869 852 C 827 832 780 817 729 807 C 772 793 809 774 840 751 C 871 728 897 701 917 671 C 936 640 950 606 959 570 C 968 533 973 494 973 453 C 973 379 959 313 933 253 C 906 193 870 143 824 101 C 777 59 722 26 660 3 C 597 -19 530 -31 459 -31 Z" unicode="3" />
<glyph horiz-adv-x="1176" d="M 745 416 L 31 416 L 39 463 L 934 1516 L 989 1516 L 805 463 L 1073 463 L 1065 416 L 797 416 L 723 0 L 672 0 L 745 416 Z M 754 463 L 926 1438 L 98 463 L 754 463 Z" unicode="4" />
<glyph horiz-adv-x="1149" d="M 449 -29 C 398 -29 352 -23 312 -12 C 271 -1 235 13 204 31 C 172 48 145 68 122 90 C 99 112 80 135 65 159 C 49 181 36 203 27 225 C 18 246 12 265 8 281 L 57 295 C 60 281 66 264 74 245 C 82 226 94 206 108 186 C 122 165 139 145 159 125 C 179 105 204 87 232 71 C 259 55 291 42 327 32 C 363 22 403 18 449 18 C 528 18 599 32 663 61 C 726 90 780 130 825 180 C 869 230 903 288 927 354 C 951 420 963 491 963 565 C 963 621 954 671 938 717 C 922 762 899 801 869 833 C 838 865 801 889 758 907 C 715 925 667 934 614 934 C 574 934 535 929 497 919 C 459 909 424 895 391 877 C 357 859 325 837 297 813 C 269 789 244 763 223 735 L 180 750 L 379 1516 L 1090 1516 L 1081 1468 L 418 1468 L 252 831 C 298 877 352 914 414 941 C 476 967 543 981 614 981 C 674 981 729 971 779 951 C 828 931 870 904 906 868 C 940 831 967 787 986 736 C 1004 684 1014 627 1014 565 C 1014 485 1000 409 974 337 C 948 265 910 202 862 148 C 813 93 754 50 684 18 C 614 -13 535 -29 449 -29 Z" unicode="5" />
<glyph horiz-adv-x="1200" d="M 522 -31 C 465 -31 411 -20 360 1 C 309 23 265 56 227 102 C 188 147 157 204 135 274 C 113 343 102 426 102 522 C 102 608 108 693 122 777 C 136 861 156 942 184 1018 C 210 1093 243 1163 283 1228 C 322 1292 367 1348 419 1396 C 469 1442 526 1479 588 1506 C 650 1532 718 1546 791 1546 C 873 1546 944 1531 1004 1502 C 1063 1473 1113 1435 1153 1389 L 1114 1358 C 1078 1400 1033 1434 981 1460 C 928 1486 865 1499 791 1499 C 731 1499 676 1489 624 1469 C 572 1449 525 1422 482 1387 C 438 1351 398 1308 363 1259 C 327 1210 296 1156 270 1098 C 242 1038 220 975 202 908 C 184 841 172 772 164 702 C 195 734 230 764 270 792 C 309 820 351 845 395 867 C 439 888 484 905 532 917 C 579 929 626 936 674 936 C 746 936 808 925 858 903 C 908 881 950 853 982 817 C 1013 781 1036 739 1050 692 C 1064 645 1071 597 1071 547 C 1071 469 1057 396 1030 326 C 1003 256 965 195 917 143 C 868 89 810 47 743 16 C 676 -15 602 -31 522 -31 Z M 522 16 C 594 16 661 30 722 59 C 783 87 836 126 880 175 C 924 223 958 279 983 343 C 1007 407 1020 475 1020 547 C 1020 591 1013 633 1001 674 C 989 715 969 752 942 784 C 914 816 879 841 835 860 C 791 879 737 889 674 889 C 629 889 583 882 535 869 C 487 856 441 838 396 816 C 350 792 307 765 266 734 C 225 702 189 668 158 631 C 156 612 155 594 155 576 C 154 558 154 540 154 522 C 154 434 163 359 183 295 C 203 231 230 179 264 138 C 297 96 336 66 381 46 C 425 26 472 16 522 16 Z" unicode="6" />
<glyph horiz-adv-x="1098" d="M 1081 1468 L 258 1468 L 266 1516 L 1143 1516 L 1135 1468 L 190 0 L 135 0 L 1081 1468 Z" unicode="7" />
<glyph horiz-adv-x="1200" d="M 518 -31 C 440 -31 370 -21 309 -2 C 248 17 196 44 154 78 C 111 111 78 151 56 197 C 34 243 23 292 23 346 C 23 414 36 472 64 522 C 91 572 128 615 176 652 C 223 688 278 718 342 744 C 406 770 474 793 547 813 C 509 831 472 852 437 876 C 401 899 370 925 343 954 C 315 982 292 1012 276 1046 C 260 1080 252 1117 252 1157 C 252 1219 265 1275 293 1323 C 321 1371 357 1412 402 1446 C 446 1478 495 1503 551 1520 C 606 1537 661 1546 717 1546 C 779 1546 835 1537 885 1520 C 935 1503 977 1480 1012 1450 C 1046 1419 1073 1383 1092 1342 C 1110 1300 1120 1256 1120 1208 C 1120 1149 1109 1098 1088 1056 C 1066 1014 1036 977 998 947 C 958 915 911 888 856 866 C 800 844 739 823 672 805 C 722 781 770 754 816 726 C 861 698 901 667 936 634 C 970 600 998 563 1018 523 C 1038 483 1049 440 1049 393 C 1049 321 1034 258 1004 205 C 974 152 935 108 886 74 C 836 38 780 12 716 -5 C 652 -22 586 -31 518 -31 Z M 518 16 C 579 16 638 23 696 39 C 754 54 805 77 850 109 C 894 140 929 179 956 227 C 983 274 997 329 997 393 C 997 437 986 478 964 516 C 942 554 914 589 878 621 C 842 652 800 681 753 708 C 705 734 656 759 604 782 C 531 763 462 742 398 718 C 334 694 278 666 230 632 C 182 598 144 557 116 511 C 88 465 74 410 74 346 C 74 299 84 256 104 216 C 124 176 154 141 192 112 C 230 82 276 58 331 41 C 386 24 448 16 518 16 Z M 618 831 C 684 848 745 867 801 889 C 856 910 904 935 944 965 C 983 993 1014 1027 1036 1067 C 1058 1107 1069 1154 1069 1208 C 1069 1249 1061 1287 1045 1323 C 1029 1359 1006 1390 976 1416 C 945 1442 908 1462 864 1477 C 820 1491 771 1499 717 1499 C 667 1499 618 1491 569 1476 C 519 1461 475 1439 436 1411 C 396 1381 364 1345 340 1303 C 315 1260 303 1211 303 1157 C 303 1119 312 1084 330 1052 C 348 1020 373 990 403 964 C 432 936 465 912 503 890 C 541 868 579 848 618 831 Z" unicode="8" />
<glyph horiz-adv-x="1200" d="M 416 -31 C 332 -31 261 -16 202 12 C 142 41 93 79 53 127 L 92 158 C 128 116 172 81 225 55 C 278 29 342 16 416 16 C 504 16 583 37 655 80 C 726 123 788 181 842 255 C 894 327 937 412 971 508 C 1005 604 1028 705 1040 811 C 1009 779 974 749 935 721 C 896 693 855 668 811 648 C 766 626 720 610 673 598 C 625 586 578 580 532 580 C 459 580 397 590 347 612 C 297 634 256 663 225 699 C 193 735 170 776 156 823 C 142 870 135 919 135 969 C 135 1046 148 1119 175 1189 C 202 1259 240 1320 289 1374 C 337 1426 394 1468 462 1499 C 529 1530 603 1546 684 1546 C 740 1546 794 1535 845 1513 C 896 1491 941 1458 980 1413 C 1018 1367 1048 1310 1070 1241 C 1092 1171 1104 1089 1104 993 C 1104 907 1097 821 1083 737 C 1069 653 1049 573 1023 498 C 995 422 962 351 923 287 C 884 222 839 166 789 120 C 737 72 680 35 618 9 C 556 -17 488 -31 416 -31 Z M 532 627 C 576 627 621 633 669 646 C 717 658 764 676 810 699 C 856 721 899 748 940 780 C 981 811 1017 845 1049 883 C 1050 901 1051 920 1052 938 C 1052 956 1053 974 1053 993 C 1053 1080 1043 1155 1023 1219 C 1003 1283 977 1335 944 1377 C 910 1418 870 1449 826 1469 C 781 1489 734 1499 684 1499 C 611 1499 544 1484 483 1456 C 422 1427 370 1389 326 1341 C 282 1292 247 1235 223 1171 C 198 1107 186 1039 186 969 C 186 925 192 882 204 841 C 216 800 236 764 264 732 C 291 700 327 674 371 655 C 415 636 468 627 532 627 Z" unicode="9" />
<glyph horiz-adv-x="522" d="M 104 106 L 193 106 L 174 0 L 86 0 L 104 106 Z M 276 1075 L 365 1075 L 344 969 L 256 969 L 276 1075 Z" unicode=":" />
<glyph horiz-adv-x="522" d="M 125 0 L 86 0 L 104 106 L 193 106 L 176 12 L 94 -170 L 61 -170 L 125 0 Z M 276 1075 L 365 1075 L 344 969 L 256 969 L 276 1075 Z" unicode=";" />
<glyph horiz-adv-x="1366" d="M 141 643 L 141 690 L 1184 1139 L 1184 1090 L 193 666 L 1184 238 L 1184 188 L 141 643 Z" unicode="&#x3C;" />
<glyph horiz-adv-x="1370" d="M 199 461 L 1171 461 L 1171 414 L 199 414 L 199 461 Z M 199 922 L 1171 922 L 1171 874 L 199 874 L 199 922 Z" unicode="=" />
<glyph horiz-adv-x="1366" d="M 182 238 L 1174 662 L 182 1090 L 182 1139 L 1225 684 L 1225 637 L 182 188 L 182 238 Z" unicode="&#x3E;" />
<glyph horiz-adv-x="1067" d="M 352 332 C 363 392 373 444 382 488 C 390 532 401 570 414 604 C 424 630 435 653 448 673 C 461 693 477 713 497 731 C 515 749 538 766 565 782 C 591 798 623 814 659 831 C 709 855 753 878 793 902 C 832 925 865 951 893 981 C 920 1010 941 1044 955 1082 C 969 1120 977 1165 977 1219 C 977 1259 969 1296 955 1330 C 941 1364 920 1394 892 1420 C 864 1444 829 1464 788 1478 C 747 1492 700 1499 647 1499 C 605 1499 563 1492 522 1480 C 481 1468 443 1452 407 1432 C 371 1412 338 1389 308 1363 C 278 1337 253 1311 233 1284 L 193 1313 C 214 1342 241 1371 274 1399 C 306 1427 343 1452 383 1474 C 422 1495 464 1512 509 1526 C 554 1539 600 1546 647 1546 C 708 1546 762 1537 810 1521 C 857 1505 897 1482 930 1453 C 962 1423 986 1389 1003 1349 C 1019 1309 1028 1265 1028 1219 C 1028 1159 1020 1107 1004 1065 C 988 1022 966 985 937 953 C 907 921 870 892 827 867 C 784 841 736 816 682 791 C 646 773 615 756 590 740 C 564 724 543 706 526 688 C 508 669 493 649 481 627 C 469 605 460 580 452 552 C 443 523 435 491 428 455 C 421 419 414 378 406 332 L 352 332 Z M 295 106 L 383 106 L 365 0 L 276 0 L 295 106 Z" unicode="?" />
<glyph horiz-adv-x="1778" d="M 881 -25 C 796 -25 718 -15 648 4 C 577 23 513 50 457 85 C 400 119 350 161 307 209 C 264 257 229 310 201 368 C 172 426 150 487 136 552 C 122 617 115 684 115 754 C 115 872 134 980 174 1077 C 214 1174 269 1257 339 1326 C 409 1394 491 1447 586 1485 C 680 1523 783 1542 893 1542 C 1003 1542 1105 1523 1200 1486 C 1294 1449 1377 1397 1447 1331 C 1517 1263 1571 1183 1611 1089 C 1651 995 1671 892 1671 778 C 1671 698 1662 630 1644 574 C 1626 518 1602 472 1572 436 C 1542 400 1507 373 1469 357 C 1430 340 1390 332 1350 332 C 1287 332 1235 344 1194 369 C 1153 394 1126 429 1114 475 C 1066 431 1013 395 954 367 C 894 339 830 326 762 326 C 720 326 682 332 646 346 C 610 359 578 380 552 408 C 525 435 504 470 488 513 C 472 555 465 606 465 666 C 465 740 474 810 493 876 C 511 942 538 999 574 1049 C 608 1097 650 1136 700 1165 C 750 1193 806 1208 868 1208 C 904 1208 938 1204 970 1198 C 1002 1191 1031 1182 1058 1171 C 1084 1159 1108 1146 1130 1132 C 1151 1117 1170 1102 1188 1087 L 1202 1192 L 1253 1192 L 1157 537 C 1153 517 1155 498 1161 479 C 1167 460 1178 443 1194 429 C 1209 413 1229 401 1255 392 C 1281 383 1312 379 1350 379 C 1386 379 1420 386 1453 402 C 1485 418 1514 442 1539 475 C 1563 507 1583 549 1598 599 C 1612 649 1620 708 1620 778 C 1620 848 1611 915 1595 979 C 1578 1042 1554 1100 1524 1154 C 1492 1206 1455 1254 1411 1296 C 1367 1338 1318 1374 1265 1404 C 1211 1433 1152 1455 1090 1471 C 1027 1487 961 1495 893 1495 C 789 1495 693 1477 605 1441 C 517 1405 440 1355 375 1291 C 309 1225 258 1147 221 1056 C 184 965 166 864 166 754 C 166 652 181 556 213 468 C 245 379 291 302 353 237 C 413 171 488 119 577 81 C 665 43 767 25 881 25 C 925 25 967 27 1007 31 C 1046 35 1084 41 1120 50 C 1156 58 1191 68 1225 80 C 1259 92 1294 107 1329 125 L 1350 84 C 1312 66 1275 50 1239 36 C 1203 22 1167 11 1130 3 C 1092 -6 1053 -13 1013 -18 C 972 -22 928 -25 881 -25 Z M 762 373 C 794 373 825 376 855 383 C 885 389 914 399 942 413 C 969 425 996 441 1023 460 C 1049 478 1076 500 1104 524 L 1180 1034 C 1165 1049 1148 1064 1128 1080 C 1108 1095 1085 1109 1059 1121 C 1033 1133 1004 1142 972 1150 C 940 1157 906 1161 868 1161 C 811 1161 761 1146 717 1118 C 673 1090 637 1053 607 1007 C 577 960 554 907 539 848 C 523 788 516 728 516 666 C 516 616 522 572 535 535 C 547 498 565 468 588 444 C 610 420 636 402 666 390 C 696 378 728 373 762 373 Z" unicode="@" />
<glyph horiz-adv-x="1305" d="M 762 1524 L 817 1524 L 1090 0 L 1038 0 L 942 545 L 299 545 L 10 0 L -47 0 L 762 1524 Z M 934 592 L 780 1454 L 324 592 L 934 592 Z" unicode="A" />
<glyph horiz-adv-x="1343" d="M 348 1516 L 725 1516 C 891 1516 1016 1487 1101 1431 C 1186 1375 1229 1289 1229 1174 C 1229 1110 1219 1055 1200 1009 C 1181 962 1155 923 1122 891 C 1088 859 1049 833 1004 814 C 958 795 910 782 858 774 C 908 762 952 746 990 727 C 1028 708 1061 685 1088 658 C 1114 630 1134 597 1148 559 C 1162 521 1169 478 1169 430 C 1169 358 1156 295 1132 241 C 1107 187 1072 142 1028 107 C 982 71 928 44 866 26 C 803 8 733 0 657 0 L 82 0 L 348 1516 Z M 657 47 C 725 47 788 54 845 70 C 901 86 950 110 991 142 C 1031 173 1062 213 1084 261 C 1106 309 1118 365 1118 430 C 1118 484 1107 531 1087 571 C 1067 611 1038 645 1000 673 C 961 699 914 719 858 733 C 802 747 738 754 668 754 L 266 754 L 141 47 L 657 47 Z M 719 801 C 780 801 838 807 894 821 C 950 834 999 855 1041 885 C 1083 914 1116 952 1141 1000 C 1165 1048 1178 1106 1178 1174 C 1178 1273 1139 1347 1063 1395 C 987 1443 874 1468 725 1468 L 391 1468 L 274 801 L 719 801 Z" unicode="B" />
<glyph horiz-adv-x="1397" d="M 629 -31 C 546 -31 473 -14 410 18 C 347 51 294 97 252 155 C 209 212 177 280 155 358 C 133 436 123 521 123 612 C 123 700 131 784 148 864 C 165 944 189 1019 221 1089 C 252 1157 289 1220 333 1276 C 377 1332 425 1381 479 1421 C 531 1461 588 1491 649 1513 C 709 1535 772 1546 838 1546 C 924 1546 996 1533 1053 1508 C 1110 1482 1156 1449 1192 1407 C 1226 1364 1252 1315 1270 1260 C 1288 1205 1301 1148 1309 1090 L 1255 1083 C 1247 1137 1236 1189 1221 1239 C 1205 1289 1182 1333 1152 1372 C 1120 1410 1079 1440 1029 1464 C 979 1487 915 1499 838 1499 C 777 1499 718 1488 662 1468 C 606 1447 553 1418 505 1380 C 455 1342 410 1296 370 1243 C 329 1189 294 1130 266 1065 C 236 999 214 927 198 851 C 182 775 174 695 174 612 C 174 528 183 449 203 377 C 223 304 252 241 291 188 C 329 134 376 92 433 62 C 489 31 555 16 629 16 C 705 16 771 29 828 55 C 885 81 935 115 978 158 C 1020 200 1056 247 1087 301 C 1118 355 1146 409 1171 465 L 1219 446 C 1203 409 1185 372 1165 334 C 1145 296 1122 260 1098 225 C 1072 189 1044 156 1013 125 C 982 94 948 67 910 44 C 871 20 828 2 782 -11 C 736 -24 685 -31 629 -31 Z" unicode="C" />
<glyph horiz-adv-x="1374" d="M 348 1516 L 588 1516 C 706 1516 808 1501 894 1473 C 980 1445 1051 1404 1107 1351 C 1162 1297 1203 1232 1230 1156 C 1256 1079 1270 993 1270 897 C 1270 748 1250 618 1212 506 C 1173 394 1117 300 1045 226 C 971 150 882 94 778 56 C 673 18 555 0 424 0 L 82 0 L 348 1516 Z M 424 47 C 547 47 658 64 756 100 C 854 136 938 189 1007 261 C 1075 331 1127 420 1164 526 C 1200 632 1219 756 1219 897 C 1219 985 1206 1065 1182 1136 C 1157 1206 1119 1266 1068 1316 C 1016 1365 950 1403 871 1429 C 791 1455 697 1468 588 1468 L 391 1468 L 141 47 L 424 47 Z" unicode="D" />
<glyph horiz-adv-x="1167" d="M 348 1516 L 1184 1516 L 1176 1468 L 391 1468 L 279 829 L 868 829 L 860 782 L 270 782 L 141 47 L 940 47 L 932 0 L 82 0 L 348 1516 Z" unicode="E" />
<glyph horiz-adv-x="1124" d="M 348 1516 L 1165 1516 L 1157 1468 L 391 1468 L 279 827 L 850 827 L 842 780 L 270 780 L 133 0 L 82 0 L 348 1516 Z" unicode="F" />
<glyph horiz-adv-x="1448" d="M 612 -23 C 541 -23 475 -10 415 15 C 355 41 303 80 259 132 C 214 183 179 247 154 325 C 129 403 117 494 117 598 C 117 671 125 745 141 821 C 157 896 180 969 211 1040 C 241 1110 278 1175 322 1237 C 366 1298 415 1352 471 1398 C 526 1444 587 1480 653 1506 C 719 1532 790 1546 866 1546 C 943 1546 1008 1534 1061 1510 C 1114 1486 1158 1454 1193 1412 C 1227 1370 1254 1320 1274 1263 C 1294 1205 1309 1143 1321 1075 L 1270 1067 C 1260 1129 1246 1186 1228 1239 C 1210 1291 1185 1337 1155 1376 C 1124 1414 1085 1444 1038 1466 C 991 1488 934 1499 866 1499 C 796 1499 730 1486 668 1461 C 606 1436 549 1402 498 1359 C 446 1315 399 1263 359 1205 C 318 1146 284 1083 256 1017 C 227 950 205 881 190 809 C 175 737 168 667 168 598 C 168 502 179 418 201 346 C 223 274 255 214 295 167 C 334 119 381 84 435 60 C 489 36 548 25 612 25 C 679 25 744 37 807 63 C 870 88 928 126 980 176 C 1031 226 1075 288 1113 363 C 1150 437 1176 524 1192 623 L 797 623 L 803 670 L 1251 670 L 1133 0 L 1081 0 L 1139 315 C 1111 262 1078 215 1040 173 C 1002 131 960 95 916 67 C 870 37 822 15 771 0 C 719 -15 666 -23 612 -23 Z" unicode="G" />
<glyph horiz-adv-x="1458" d="M 348 1516 L 399 1516 L 279 829 L 1208 829 L 1329 1516 L 1380 1516 L 1114 0 L 1063 0 L 1200 782 L 270 782 L 133 0 L 82 0 L 348 1516 Z" unicode="H" />
<glyph horiz-adv-x="502" d="M 360 1516 L 412 1516 L 145 0 L 94 0 L 360 1516 Z" unicode="I" />
<glyph horiz-adv-x="995" d="M 324 -31 C 268 -31 221 -24 182 -10 C 142 3 109 21 83 43 C 55 64 33 88 17 115 C 1 142 -11 169 -20 197 L 29 211 C 36 187 47 164 61 141 C 75 118 93 97 117 79 C 140 60 168 45 202 33 C 236 21 276 16 324 16 C 366 16 405 22 443 35 C 481 47 515 68 546 98 C 576 126 603 164 626 211 C 648 257 666 315 678 383 L 879 1516 L 930 1516 L 729 377 C 715 299 695 235 669 183 C 643 131 613 89 579 58 C 543 26 504 3 461 -10 C 418 -24 372 -31 324 -31 Z" unicode="J" />
<glyph horiz-adv-x="1290" d="M 348 1516 L 399 1516 L 242 621 L 1225 1516 L 1290 1516 L 664 946 L 1106 0 L 1053 0 L 627 911 L 229 549 L 133 0 L 82 0 L 348 1516 Z" unicode="K" />
<glyph horiz-adv-x="1124" d="M 348 1516 L 399 1516 L 141 47 L 909 47 L 901 0 L 82 0 L 348 1516 Z" unicode="L" />
<glyph horiz-adv-x="1737" d="M 348 1516 L 393 1516 L 745 63 L 1610 1516 L 1659 1516 L 1393 0 L 1341 0 L 1585 1386 L 762 0 L 711 0 L 375 1386 L 131 0 L 82 0 L 348 1516 Z" unicode="M" />
<glyph horiz-adv-x="1466" d="M 348 1516 L 395 1516 L 1090 94 L 1339 1516 L 1389 1516 L 1122 0 L 1081 0 L 383 1434 L 131 0 L 82 0 L 348 1516 Z" unicode="N" />
<glyph horiz-adv-x="1477" d="M 651 16 C 716 16 777 26 835 48 C 893 70 946 100 995 140 C 1043 178 1087 225 1126 279 C 1165 333 1198 393 1226 459 C 1252 523 1273 593 1287 667 C 1301 741 1309 817 1309 895 C 1309 981 1298 1062 1277 1136 C 1256 1210 1226 1274 1186 1328 C 1146 1381 1097 1423 1039 1453 C 981 1483 916 1499 842 1499 C 778 1499 718 1488 660 1468 C 602 1447 548 1418 499 1381 C 449 1343 404 1297 364 1244 C 324 1191 289 1132 261 1067 C 232 1001 210 931 195 855 C 179 779 172 700 172 618 C 172 531 182 451 204 378 C 225 304 256 241 297 188 C 337 134 387 91 447 61 C 507 31 575 16 651 16 Z M 651 -31 C 566 -31 491 -14 425 18 C 359 50 304 96 260 154 C 214 212 180 280 156 359 C 132 438 121 524 121 618 C 121 705 129 788 146 868 C 162 948 186 1022 217 1091 C 247 1159 284 1222 328 1278 C 371 1334 419 1382 473 1422 C 526 1461 584 1491 646 1513 C 708 1535 773 1546 842 1546 C 924 1546 997 1529 1061 1497 C 1125 1464 1179 1419 1224 1361 C 1268 1303 1301 1234 1325 1155 C 1348 1075 1360 989 1360 895 C 1360 813 1352 733 1337 655 C 1321 577 1299 503 1270 435 C 1240 366 1205 303 1163 246 C 1121 189 1075 140 1023 100 C 970 58 912 26 850 3 C 787 -19 721 -31 651 -31 Z" unicode="O" />
<glyph horiz-adv-x="1239" d="M 348 1516 L 776 1516 C 852 1516 918 1507 974 1489 C 1030 1471 1077 1447 1114 1415 C 1150 1382 1178 1343 1196 1298 C 1214 1252 1223 1202 1223 1147 C 1223 1079 1209 1019 1182 968 C 1155 917 1117 875 1067 841 C 1017 807 956 781 884 764 C 812 747 731 739 641 739 L 262 739 L 133 0 L 82 0 L 348 1516 Z M 641 786 C 723 786 797 793 863 808 C 928 823 984 846 1030 876 C 1075 906 1110 943 1134 988 C 1158 1033 1171 1086 1171 1147 C 1171 1195 1163 1238 1147 1278 C 1131 1317 1107 1351 1075 1380 C 1042 1408 1001 1429 952 1445 C 902 1460 844 1468 776 1468 L 391 1468 L 270 786 L 641 786 Z" unicode="P" />
<glyph horiz-adv-x="1477" d="M 922 -352 C 860 -352 805 -346 758 -335 C 710 -324 672 -306 642 -282 C 611 -256 589 -223 577 -182 C 565 -140 563 -89 571 -29 C 493 -23 426 -2 370 31 C 314 65 267 111 231 168 C 193 224 166 289 148 364 C 130 439 121 520 121 608 C 121 694 129 778 146 858 C 163 938 187 1013 219 1083 C 250 1152 288 1215 332 1272 C 376 1329 426 1378 482 1419 C 537 1459 597 1491 662 1513 C 727 1535 796 1546 868 1546 C 950 1546 1022 1529 1084 1497 C 1145 1465 1196 1420 1238 1364 C 1278 1306 1309 1238 1329 1160 C 1349 1082 1360 997 1360 905 C 1360 818 1351 735 1335 655 C 1319 575 1296 501 1266 432 C 1235 362 1198 299 1154 243 C 1110 187 1061 138 1007 98 C 952 57 892 25 828 3 C 763 -18 695 -30 623 -31 C 614 -76 614 -116 623 -152 C 632 -187 650 -216 676 -240 C 701 -263 734 -280 776 -292 C 817 -303 866 -307 922 -305 L 1024 -305 L 1016 -352 L 922 -352 Z M 616 16 C 684 16 748 26 809 47 C 869 68 925 98 977 137 C 1028 175 1074 221 1115 275 C 1156 329 1191 389 1220 455 C 1248 520 1270 591 1286 667 C 1301 743 1309 822 1309 905 C 1309 990 1300 1069 1282 1142 C 1264 1214 1236 1277 1200 1331 C 1163 1383 1117 1424 1062 1454 C 1006 1484 942 1499 868 1499 C 800 1499 736 1488 676 1467 C 616 1446 560 1417 509 1379 C 457 1340 410 1293 369 1239 C 327 1185 292 1125 263 1059 C 233 993 211 922 195 846 C 179 770 172 690 172 608 C 172 522 180 444 198 372 C 216 300 243 237 280 185 C 316 131 362 90 418 60 C 474 30 540 16 616 16 Z" unicode="Q" />
<glyph horiz-adv-x="1321" d="M 348 1516 L 776 1516 C 852 1516 918 1507 974 1489 C 1030 1471 1076 1445 1114 1413 C 1150 1380 1178 1341 1196 1296 C 1214 1250 1223 1201 1223 1147 C 1223 1085 1211 1031 1188 983 C 1165 935 1132 895 1089 861 C 1045 827 993 800 931 780 C 869 760 799 748 721 743 L 1020 0 L 967 0 L 668 741 L 262 741 L 133 0 L 82 0 L 348 1516 Z M 643 788 C 727 788 802 796 868 812 C 934 828 989 852 1035 883 C 1079 913 1113 951 1136 996 C 1159 1040 1171 1091 1171 1147 C 1171 1193 1163 1236 1147 1276 C 1131 1315 1106 1349 1074 1378 C 1041 1406 1000 1428 950 1444 C 900 1460 842 1468 776 1468 L 391 1468 L 270 788 L 643 788 Z" unicode="R" />
<glyph horiz-adv-x="1296" d="M 563 -31 C 473 -31 398 -21 337 -1 C 276 19 226 47 188 84 C 149 120 119 164 99 216 C 79 267 65 324 57 387 L 109 393 C 115 337 128 285 146 239 C 164 193 190 153 225 121 C 259 87 303 61 358 43 C 412 25 480 16 561 16 C 635 16 701 23 761 39 C 820 55 871 78 913 109 C 955 139 987 178 1010 224 C 1032 270 1044 323 1044 385 C 1044 435 1036 478 1021 514 C 1006 549 983 581 953 609 C 921 637 882 663 835 688 C 788 712 733 740 670 770 C 600 802 540 832 491 860 C 441 888 401 917 371 947 C 340 976 318 1008 304 1043 C 290 1078 283 1119 283 1167 C 283 1221 294 1271 316 1317 C 338 1363 370 1404 412 1438 C 453 1472 503 1498 563 1517 C 622 1536 689 1546 764 1546 C 838 1546 901 1536 953 1517 C 1005 1498 1048 1473 1084 1441 C 1118 1409 1145 1371 1165 1329 C 1184 1287 1198 1242 1206 1196 L 1155 1188 C 1147 1230 1135 1269 1118 1307 C 1101 1345 1077 1378 1047 1407 C 1015 1435 976 1457 930 1474 C 884 1490 828 1499 762 1499 C 696 1499 636 1490 583 1474 C 530 1457 485 1434 449 1405 C 411 1375 383 1339 363 1299 C 343 1259 334 1215 334 1167 C 334 1126 340 1090 353 1060 C 366 1029 387 1000 416 974 C 444 947 480 921 526 896 C 571 870 626 843 692 813 C 760 781 819 751 870 725 C 920 698 963 669 997 639 C 1030 607 1055 572 1071 532 C 1087 492 1096 443 1096 385 C 1096 316 1083 256 1059 204 C 1034 152 999 109 953 75 C 906 39 850 13 784 -4 C 718 -22 645 -31 563 -31 Z" unicode="S" />
<glyph horiz-adv-x="1225" d="M 715 1468 L 207 1468 L 215 1516 L 1280 1516 L 1272 1468 L 766 1468 L 508 0 L 457 0 L 715 1468 Z" unicode="T" />
<glyph horiz-adv-x="1434" d="M 590 -31 C 504 -31 431 -17 371 9 C 310 36 262 74 227 122 C 191 169 167 225 156 290 C 145 354 146 424 160 500 L 338 1516 L 389 1516 L 209 485 C 197 421 197 360 207 303 C 217 246 237 197 269 155 C 300 112 342 78 395 53 C 448 28 512 16 586 16 C 664 16 735 27 797 49 C 859 71 913 102 959 142 C 1004 182 1041 229 1069 285 C 1097 340 1118 401 1130 469 L 1315 1516 L 1366 1516 L 1180 457 C 1166 385 1144 319 1112 259 C 1080 199 1039 147 989 105 C 939 61 880 28 814 4 C 747 -19 672 -31 590 -31 Z" unicode="U" />
<glyph horiz-adv-x="1317" d="M 221 1516 L 272 1516 L 535 61 L 1309 1516 L 1364 1516 L 551 -8 L 498 -8 L 221 1516 Z" unicode="V" />
<glyph horiz-adv-x="1839" d="M 229 1516 L 283 1516 L 418 92 L 1028 1516 L 1081 1516 L 1227 92 L 1827 1516 L 1878 1516 L 1237 0 L 1184 0 L 1040 1415 L 430 0 L 375 0 L 229 1516 Z" unicode="W" />
<glyph horiz-adv-x="1288" d="M 625 819 L 285 1516 L 338 1516 L 659 860 L 1208 1516 L 1268 1516 L 680 815 L 1081 0 L 1028 0 L 647 774 L -2 0 L -61 0 L 625 819 Z" unicode="X" />
<glyph horiz-adv-x="1202" d="M 565 690 L 203 1516 L 256 1516 L 596 737 L 1214 1516 L 1270 1516 L 616 690 L 496 0 L 444 0 L 565 690 Z" unicode="Y" />
<glyph horiz-adv-x="1235" d="M -27 47 L 1196 1470 L 279 1470 L 285 1516 L 1260 1516 L 1251 1468 L 35 45 L 995 45 L 987 0 L -35 0 L -27 47 Z" unicode="Z" />
<glyph horiz-adv-x="760" d="M 340 1516 L 772 1516 L 764 1468 L 383 1468 L 61 -362 L 442 -362 L 434 -410 L 2 -410 L 340 1516 Z" unicode="[" />
<glyph horiz-adv-x="1063" d="M 217 1516 L 264 1516 L 850 0 L 803 0 L 217 1516 Z" unicode="\" />
<glyph horiz-adv-x="760" d="M -72 -362 L 309 -362 L 631 1468 L 250 1468 L 258 1516 L 690 1516 L 352 -410 L -80 -410 L -72 -362 Z" unicode="]" />
<glyph horiz-adv-x="1278" d="M 614 1516 L 666 1516 L 1114 760 L 1065 760 L 639 1479 L 215 760 L 166 760 L 614 1516 Z" unicode="^" />
<glyph horiz-adv-x="1024" d="M -158 -154 L 866 -154 L 856 -205 L -168 -205 L -158 -154 Z" unicode="_" />
<glyph horiz-adv-x="1024" d="M 412 1501 L 492 1501 L 664 1192 L 631 1192 L 412 1501 Z" unicode="`" />
<glyph horiz-adv-x="1061" d="M 307 -29 C 261 -29 221 -23 185 -11 C 149 1 119 18 94 40 C 68 61 49 87 36 117 C 22 147 16 181 16 217 C 16 283 30 340 58 389 C 86 437 133 481 198 519 C 262 556 347 589 453 618 C 559 646 689 674 844 700 L 860 795 C 866 833 868 867 866 899 C 864 930 855 957 840 981 C 824 1003 801 1021 771 1034 C 741 1046 701 1053 653 1053 C 606 1053 561 1047 519 1035 C 476 1023 436 1009 400 991 C 362 972 328 952 297 930 C 266 908 239 886 217 866 L 184 901 C 208 923 237 945 270 969 C 303 992 340 1013 380 1033 C 420 1051 462 1067 508 1079 C 554 1091 602 1098 653 1098 C 709 1098 756 1090 794 1076 C 831 1061 860 1040 880 1014 C 900 986 912 953 916 914 C 920 875 917 832 909 784 L 811 233 C 805 205 801 179 799 157 C 796 135 794 115 794 97 C 792 78 792 61 793 45 C 793 29 795 14 797 0 L 745 0 C 743 16 742 31 742 45 C 741 59 741 72 742 86 C 742 99 743 113 745 127 C 747 141 749 158 752 176 C 724 152 694 127 661 103 C 628 79 593 57 556 38 C 518 18 479 1 437 -10 C 395 -22 351 -29 307 -29 Z M 307 16 C 356 16 403 23 448 39 C 492 54 534 73 574 97 C 612 119 648 144 680 171 C 712 197 740 222 764 246 L 836 651 C 694 627 575 603 477 577 C 379 551 299 521 239 488 C 177 454 133 416 106 372 C 79 328 66 277 66 219 C 66 189 71 161 82 137 C 93 112 109 91 131 73 C 151 55 176 41 206 31 C 236 21 269 16 307 16 Z" unicode="a" />
<glyph horiz-adv-x="1159" d="M 502 -23 C 455 -23 413 -18 375 -8 C 337 2 304 16 274 34 C 243 52 215 73 191 98 C 167 122 145 149 125 178 L 94 0 L 45 0 L 313 1516 L 362 1516 L 256 915 C 282 938 311 961 343 983 C 374 1005 407 1024 443 1042 C 477 1058 513 1072 551 1082 C 588 1092 626 1098 664 1098 C 718 1098 766 1087 810 1066 C 853 1045 890 1015 921 977 C 951 937 974 890 991 835 C 1007 779 1016 717 1016 649 C 1016 543 1003 449 977 366 C 951 283 915 213 869 156 C 823 98 768 53 706 23 C 643 -7 575 -23 502 -23 Z M 502 23 C 568 23 629 37 686 66 C 742 94 792 136 834 190 C 875 243 907 308 931 386 C 955 463 967 551 967 649 C 967 710 959 766 945 816 C 930 866 910 908 884 944 C 857 978 825 1005 788 1024 C 750 1043 709 1053 664 1053 C 625 1053 586 1046 547 1034 C 508 1022 470 1006 434 987 C 397 967 362 944 330 920 C 297 895 268 870 244 846 L 137 242 C 155 212 176 183 200 157 C 223 130 249 107 279 87 C 308 67 341 51 378 40 C 414 28 456 23 502 23 Z" unicode="b" />
<glyph horiz-adv-x="1057" d="M 416 -23 C 358 -23 308 -10 266 14 C 223 38 187 72 159 114 C 129 156 107 204 93 260 C 79 316 72 375 72 438 C 72 509 79 575 94 635 C 109 695 130 749 156 799 C 182 847 212 890 247 928 C 282 965 320 996 360 1022 C 399 1046 440 1065 483 1078 C 525 1091 568 1098 610 1098 C 664 1098 710 1091 748 1078 C 785 1064 816 1045 842 1020 C 867 994 887 963 903 927 C 918 891 931 850 942 805 L 895 795 C 885 835 874 871 861 903 C 847 935 830 962 809 985 C 787 1007 760 1024 728 1036 C 696 1048 656 1055 610 1055 C 572 1055 534 1049 496 1037 C 457 1025 420 1007 384 983 C 347 959 313 929 281 895 C 249 860 221 820 198 774 C 174 728 155 677 141 621 C 127 565 121 504 121 438 C 121 382 127 328 140 278 C 152 228 171 184 196 146 C 220 108 251 78 288 56 C 325 34 368 23 416 23 C 460 23 501 27 538 37 C 575 47 610 62 643 83 C 675 103 706 130 735 162 C 763 194 791 233 819 279 L 860 252 C 830 203 799 161 767 127 C 735 92 701 64 666 42 C 630 19 591 2 550 -7 C 509 -17 464 -23 416 -23 Z" unicode="c" />
<glyph horiz-adv-x="1159" d="M 424 -23 C 370 -23 321 -12 278 8 C 234 29 198 59 168 99 C 137 137 113 184 97 240 C 80 295 72 357 72 426 C 72 530 85 624 111 708 C 137 791 173 862 219 920 C 265 977 319 1021 382 1052 C 444 1082 512 1098 586 1098 C 632 1098 674 1093 712 1083 C 749 1073 783 1059 814 1041 C 844 1023 872 1001 896 977 C 920 952 943 925 963 897 L 1071 1516 L 1120 1516 L 893 233 C 885 189 879 148 875 112 C 871 75 871 38 877 0 L 827 0 C 823 24 822 50 823 77 C 824 104 827 132 831 160 C 804 136 775 114 744 92 C 712 70 679 51 645 34 C 609 16 573 2 536 -7 C 499 -17 462 -23 424 -23 Z M 424 23 C 462 23 501 29 540 41 C 579 53 617 70 654 90 C 690 109 725 131 757 155 C 789 179 818 204 844 229 L 950 834 C 930 864 909 892 886 919 C 863 945 837 969 809 989 C 779 1008 746 1023 710 1035 C 673 1047 632 1053 586 1053 C 520 1053 458 1038 402 1010 C 345 981 296 940 255 886 C 213 832 180 766 156 689 C 132 611 121 524 121 426 C 121 364 128 309 142 259 C 156 209 177 167 204 133 C 230 97 262 70 300 51 C 337 32 378 23 424 23 Z" unicode="d" />
<glyph horiz-adv-x="1073" d="M 442 -23 C 374 -23 316 -10 269 16 C 221 42 183 76 154 120 C 124 163 103 213 90 269 C 76 325 70 384 70 444 C 70 548 85 640 116 722 C 146 803 186 872 236 928 C 285 984 341 1026 403 1056 C 465 1085 528 1100 592 1100 C 644 1100 692 1090 734 1071 C 776 1052 812 1025 842 991 C 871 955 894 913 910 863 C 926 813 934 758 934 696 C 934 673 933 650 931 627 C 929 604 925 579 920 551 L 125 551 C 123 533 121 516 120 498 C 119 480 119 462 119 444 C 119 390 124 337 136 287 C 148 236 167 191 193 153 C 218 113 251 82 292 58 C 333 34 383 23 442 23 C 485 23 525 28 562 40 C 598 52 632 68 664 89 C 695 109 724 132 751 159 C 777 186 803 215 827 246 L 866 217 C 840 183 812 152 783 123 C 754 94 723 69 689 48 C 654 26 616 8 576 -4 C 535 -16 490 -23 442 -23 Z M 877 596 C 880 615 882 633 883 649 C 884 665 885 680 885 696 C 885 750 878 800 864 844 C 850 888 831 926 806 958 C 780 988 749 1012 713 1029 C 677 1046 636 1055 592 1055 C 542 1055 492 1044 443 1024 C 394 1003 349 973 308 935 C 266 895 229 847 198 790 C 167 733 145 668 131 596 L 877 596 Z" unicode="e" />
<glyph horiz-adv-x="625" d="M 313 1032 L 125 1032 L 133 1075 L 322 1075 L 360 1294 C 367 1334 379 1369 397 1397 C 414 1425 437 1449 466 1467 C 494 1484 529 1496 570 1504 C 611 1512 659 1516 713 1516 L 717 1516 L 709 1470 L 705 1470 C 656 1470 614 1466 579 1460 C 544 1454 515 1443 492 1429 C 468 1413 450 1393 436 1369 C 422 1344 412 1313 406 1276 L 371 1075 L 627 1075 L 618 1032 L 362 1032 L 180 0 L 131 0 L 313 1032 Z" unicode="f" />
<glyph horiz-adv-x="1114" d="M 367 -410 C 209 -410 90 -387 10 -342 C -69 -296 -108 -234 -106 -156 C -106 -117 -97 -83 -81 -53 C -64 -23 -43 3 -17 27 C 9 49 39 69 71 85 C 103 101 136 115 168 127 C 136 139 113 155 101 174 C 88 192 82 218 82 250 C 82 288 96 320 125 348 C 153 375 192 400 240 424 C 204 454 176 491 156 535 C 136 579 127 628 127 682 C 127 741 138 796 161 847 C 183 898 214 942 254 980 C 292 1016 338 1045 391 1066 C 444 1087 501 1098 563 1098 C 613 1098 658 1090 699 1076 C 739 1061 775 1040 807 1012 C 829 1026 852 1040 878 1052 C 903 1064 929 1076 955 1086 C 980 1095 1005 1103 1030 1110 C 1054 1117 1077 1122 1098 1126 L 1090 1081 C 1070 1077 1050 1072 1028 1066 C 1006 1059 985 1051 963 1043 C 941 1033 919 1023 898 1013 C 876 1002 856 991 836 981 C 860 952 879 919 893 882 C 906 844 913 803 913 758 C 913 696 901 641 879 591 C 857 541 826 498 786 463 C 746 427 698 399 643 379 C 588 359 528 350 463 350 C 425 350 391 354 361 362 C 330 370 302 383 276 399 C 232 377 196 355 169 331 C 142 307 129 280 129 250 C 129 230 133 214 142 202 C 150 189 166 178 190 169 C 213 159 245 151 285 143 C 325 135 376 127 440 119 C 512 109 573 98 624 86 C 675 74 717 60 751 42 C 783 23 807 0 823 -26 C 838 -52 846 -85 846 -125 C 846 -170 834 -210 812 -246 C 789 -281 757 -311 716 -336 C 674 -360 623 -378 564 -391 C 505 -403 439 -410 367 -410 Z M 367 -365 C 434 -365 494 -359 548 -349 C 601 -338 646 -323 684 -303 C 720 -282 748 -257 768 -227 C 787 -197 797 -163 797 -125 C 797 -95 790 -69 777 -48 C 764 -27 743 -9 715 6 C 686 20 649 33 603 44 C 557 54 500 64 434 74 C 392 79 355 84 323 89 C 291 94 262 100 238 106 C 194 92 154 76 118 59 C 82 42 51 23 25 2 C -1 -20 -21 -44 -35 -70 C -49 -96 -57 -126 -57 -158 C -59 -222 -24 -273 46 -310 C 117 -346 224 -365 367 -365 Z M 463 395 C 521 395 574 403 624 421 C 673 438 715 463 751 495 C 786 527 814 565 834 610 C 854 654 864 704 864 758 C 864 802 856 843 841 879 C 826 915 806 947 780 973 C 753 998 721 1018 684 1032 C 647 1046 607 1053 563 1053 C 509 1053 458 1043 411 1024 C 363 1005 322 979 288 947 C 253 913 226 874 206 829 C 186 783 176 734 176 682 C 176 640 182 602 196 567 C 209 532 228 502 254 477 C 278 451 308 431 344 417 C 379 402 419 395 463 395 Z" unicode="g" />
<glyph horiz-adv-x="1135" d="M 313 1516 L 362 1516 L 252 895 C 280 916 311 939 347 963 C 383 987 421 1009 462 1029 C 502 1049 543 1065 587 1078 C 631 1091 675 1098 719 1098 C 777 1098 826 1090 864 1075 C 902 1059 931 1037 951 1009 C 971 979 982 944 986 902 C 990 860 987 812 977 758 L 844 0 L 795 0 L 930 766 C 936 805 939 842 937 877 C 935 912 927 943 913 969 C 897 995 874 1015 843 1030 C 812 1045 771 1053 719 1053 C 675 1053 630 1045 585 1029 C 539 1013 496 994 454 972 C 411 948 371 924 335 898 C 299 872 268 849 242 829 L 94 0 L 45 0 L 313 1516 Z" unicode="h" />
<glyph horiz-adv-x="420" d="M 246 1075 L 295 1075 L 104 0 L 55 0 L 246 1075 Z M 301 1442 L 367 1442 L 352 1356 L 287 1356 L 301 1442 Z" unicode="i" />
<glyph horiz-adv-x="420" d="M -102 -412 C -117 -412 -131 -411 -144 -409 C -156 -407 -166 -405 -172 -403 L -160 -360 C -151 -362 -142 -364 -133 -366 C -124 -368 -115 -369 -106 -369 C -93 -369 -80 -367 -68 -364 C -56 -361 -45 -355 -35 -347 C -24 -338 -15 -326 -7 -312 C 0 -298 6 -279 10 -256 L 246 1075 L 295 1075 L 59 -254 C 53 -288 44 -315 33 -336 C 21 -357 8 -373 -6 -385 C -20 -395 -36 -402 -53 -406 C -69 -410 -86 -412 -102 -412 Z M 301 1442 L 367 1442 L 352 1356 L 287 1356 L 301 1442 Z" unicode="j" />
<glyph horiz-adv-x="1028" d="M 313 1516 L 362 1516 L 168 420 L 891 1075 L 950 1075 L 524 688 L 811 0 L 760 0 L 487 655 L 158 356 L 94 0 L 45 0 L 313 1516 Z" unicode="k" />
<glyph horiz-adv-x="420" d="M 324 1516 L 373 1516 L 104 0 L 55 0 L 324 1516 Z" unicode="l" />
<glyph horiz-adv-x="1825" d="M 236 1075 L 285 1075 L 252 893 C 278 915 308 938 340 962 C 372 986 407 1008 445 1029 C 481 1049 520 1065 562 1078 C 603 1091 646 1098 690 1098 C 736 1098 775 1093 808 1083 C 841 1073 868 1060 890 1042 C 911 1023 927 1000 938 974 C 948 947 954 917 956 883 C 982 905 1012 928 1046 953 C 1079 978 1115 1002 1154 1024 C 1192 1045 1232 1063 1275 1077 C 1318 1091 1363 1098 1409 1098 C 1467 1098 1516 1090 1554 1075 C 1592 1059 1621 1037 1641 1009 C 1661 979 1672 944 1676 902 C 1680 860 1677 812 1667 758 L 1534 0 L 1485 0 L 1620 766 C 1627 805 1630 842 1628 877 C 1626 912 1618 943 1603 969 C 1587 995 1564 1015 1533 1030 C 1502 1045 1461 1053 1409 1053 C 1363 1053 1319 1045 1277 1029 C 1234 1013 1194 994 1156 972 C 1117 948 1081 924 1047 898 C 1013 872 984 849 958 829 L 813 0 L 764 0 L 899 766 C 906 805 909 842 907 877 C 905 912 897 943 883 969 C 867 995 844 1015 814 1030 C 783 1045 742 1053 690 1053 C 645 1053 601 1045 559 1029 C 516 1013 475 994 437 972 C 398 948 362 923 329 897 C 295 871 266 847 240 827 L 94 0 L 45 0 L 236 1075 Z" unicode="m" />
<glyph horiz-adv-x="1135" d="M 236 1075 L 285 1075 L 254 895 C 282 916 313 939 349 963 C 385 987 423 1009 463 1029 C 503 1049 544 1065 588 1078 C 631 1091 675 1098 719 1098 C 777 1098 826 1090 864 1075 C 902 1059 931 1037 951 1009 C 971 979 982 944 986 902 C 990 860 987 812 977 758 L 844 0 L 795 0 L 930 766 C 936 805 939 842 937 877 C 935 912 927 943 913 969 C 897 995 874 1015 843 1030 C 812 1045 771 1053 719 1053 C 675 1053 630 1045 585 1029 C 539 1013 496 994 454 972 C 411 948 371 924 335 898 C 299 872 268 849 242 829 L 94 0 L 45 0 L 236 1075 Z" unicode="n" />
<glyph horiz-adv-x="1143" d="M 467 23 C 539 23 604 39 663 73 C 721 106 772 151 814 207 C 856 263 888 328 911 402 C 934 476 946 553 946 635 C 946 695 938 750 923 801 C 908 852 886 896 858 934 C 828 971 793 1000 751 1021 C 709 1042 662 1053 608 1053 C 538 1053 474 1037 415 1006 C 355 974 304 931 261 877 C 217 821 183 756 158 682 C 133 607 121 526 121 440 C 121 380 128 324 144 274 C 159 223 181 179 211 142 C 240 104 276 75 319 54 C 362 33 411 23 467 23 Z M 467 -23 C 403 -23 347 -11 298 12 C 249 35 208 67 175 109 C 141 150 116 199 98 255 C 80 311 72 373 72 440 C 72 532 85 619 113 699 C 140 779 178 849 226 909 C 274 967 330 1013 396 1047 C 461 1081 532 1098 608 1098 C 669 1098 724 1086 772 1063 C 820 1039 860 1007 894 966 C 926 924 951 875 969 819 C 986 763 995 701 995 635 C 995 547 982 464 957 384 C 931 304 896 235 850 175 C 803 114 747 66 682 30 C 617 -5 545 -23 467 -23 Z" unicode="o" />
<glyph horiz-adv-x="1159" d="M 236 1075 L 285 1075 L 256 915 C 282 938 311 961 343 983 C 374 1005 407 1024 443 1042 C 477 1058 513 1072 551 1082 C 588 1092 626 1098 664 1098 C 718 1098 766 1087 810 1066 C 853 1045 890 1015 921 977 C 951 937 974 890 991 835 C 1007 779 1016 717 1016 649 C 1016 543 1003 449 977 366 C 951 283 915 213 869 156 C 823 98 768 53 706 23 C 643 -7 575 -23 502 -23 C 455 -23 413 -18 375 -8 C 337 2 304 16 274 34 C 243 52 215 73 191 98 C 167 122 145 149 125 178 L 23 -410 L -27 -410 L 236 1075 Z M 502 23 C 568 23 629 37 686 66 C 742 94 792 136 834 190 C 875 243 907 308 931 386 C 955 463 967 551 967 649 C 967 710 959 766 945 816 C 930 866 910 908 884 944 C 857 978 825 1005 788 1024 C 750 1043 709 1053 664 1053 C 625 1053 586 1046 547 1034 C 508 1022 470 1006 434 987 C 397 967 362 944 330 920 C 297 895 268 870 244 846 L 137 242 C 155 212 176 183 200 157 C 223 130 249 107 279 87 C 308 67 341 51 378 40 C 414 28 456 23 502 23 Z" unicode="p" />
<glyph horiz-adv-x="1159" d="M 831 160 C 804 136 775 114 744 92 C 712 70 679 51 645 34 C 609 16 573 2 536 -7 C 499 -17 462 -23 424 -23 C 370 -23 321 -12 278 8 C 234 29 198 59 168 99 C 137 137 113 184 97 240 C 80 295 72 357 72 426 C 72 530 85 624 111 708 C 137 791 173 862 219 920 C 265 977 319 1021 382 1052 C 444 1082 512 1098 586 1098 C 632 1098 674 1093 712 1083 C 749 1073 783 1059 814 1041 C 844 1023 872 1001 896 977 C 920 952 943 925 963 897 L 993 1075 L 1042 1075 L 780 -410 L 731 -410 L 831 160 Z M 424 23 C 462 23 501 29 540 41 C 579 53 617 70 654 90 C 690 109 725 131 757 155 C 789 179 818 204 844 229 L 950 834 C 930 864 909 892 886 919 C 863 945 837 969 809 989 C 779 1008 746 1023 710 1035 C 673 1047 632 1053 586 1053 C 520 1053 458 1038 402 1010 C 345 981 296 940 255 886 C 213 832 180 766 156 689 C 132 611 121 524 121 426 C 121 364 128 309 142 259 C 156 209 177 167 204 133 C 230 97 262 70 300 51 C 337 32 378 23 424 23 Z" unicode="q" />
<glyph horiz-adv-x="788" d="M 236 1075 L 285 1075 L 244 836 C 277 875 311 911 347 943 C 382 975 418 1002 456 1025 C 493 1047 531 1065 570 1077 C 608 1089 648 1096 688 1096 C 701 1096 716 1095 733 1095 C 750 1095 766 1093 780 1090 L 766 1049 C 756 1051 746 1052 734 1053 C 722 1054 706 1055 688 1055 C 644 1055 602 1047 561 1032 C 519 1017 480 997 442 971 C 403 944 366 913 330 877 C 294 841 261 802 229 760 L 94 0 L 45 0 L 236 1075 Z" unicode="r" />
<glyph horiz-adv-x="1024" d="M 412 -25 C 357 -25 309 -19 267 -9 C 225 1 188 16 156 35 C 124 53 96 75 73 100 C 49 124 29 150 12 178 L 53 203 C 68 178 86 154 107 132 C 128 110 153 90 182 74 C 210 57 243 44 281 34 C 319 24 362 20 412 20 C 460 20 505 25 549 35 C 593 45 631 61 665 83 C 698 105 724 133 744 168 C 764 202 774 244 774 293 C 774 326 767 355 754 379 C 740 403 721 426 695 446 C 669 465 636 483 598 500 C 559 517 514 535 463 553 C 415 569 372 586 335 603 C 297 620 266 639 240 660 C 214 680 194 704 180 731 C 166 757 160 789 160 825 C 160 867 168 904 185 938 C 201 972 225 1001 257 1025 C 288 1048 326 1066 371 1079 C 416 1091 467 1098 524 1098 C 576 1098 622 1093 662 1084 C 702 1074 736 1062 766 1048 C 794 1032 819 1015 839 996 C 859 976 877 956 891 936 L 852 909 C 840 927 825 944 807 962 C 789 979 767 994 741 1008 C 714 1021 683 1032 648 1040 C 612 1048 571 1053 524 1053 C 473 1053 428 1047 389 1037 C 350 1026 317 1011 291 992 C 264 972 244 947 230 919 C 216 891 209 859 209 825 C 209 795 215 769 227 747 C 239 725 257 705 281 688 C 304 670 332 653 366 638 C 399 623 437 608 479 594 C 533 574 582 555 625 537 C 667 519 703 499 733 477 C 762 454 784 428 800 398 C 815 368 823 333 823 293 C 823 237 811 190 789 150 C 767 110 737 77 700 51 C 662 25 618 5 568 -6 C 518 -18 466 -25 412 -25 Z" unicode="s" />
<glyph horiz-adv-x="717" d="M 352 -12 C 310 -12 276 -6 250 3 C 224 13 204 29 190 50 C 176 70 167 95 165 125 C 162 155 164 189 172 229 L 313 1032 L 125 1032 L 133 1075 L 322 1075 L 389 1466 L 438 1466 L 371 1075 L 670 1075 L 662 1032 L 362 1032 L 221 231 C 215 197 212 168 213 144 C 213 119 219 98 231 82 C 241 65 258 53 280 45 C 302 37 331 33 369 33 C 390 33 410 34 428 36 C 446 38 468 41 492 45 L 483 0 C 464 -3 442 -6 417 -8 C 392 -10 370 -12 352 -12 Z" unicode="t" />
<glyph horiz-adv-x="1133" d="M 342 -23 C 282 -23 234 -15 196 0 C 158 15 130 37 110 67 C 90 95 78 131 74 173 C 70 215 74 263 84 317 L 217 1075 L 266 1075 L 131 309 C 123 269 120 232 122 198 C 124 163 132 133 148 107 C 163 81 186 60 217 45 C 248 30 290 23 342 23 C 386 23 430 30 476 46 C 521 62 565 81 608 104 C 650 126 689 150 725 176 C 761 202 793 225 819 246 L 967 1075 L 1016 1075 L 825 0 L 776 0 L 809 180 C 781 158 749 136 713 112 C 677 88 640 66 600 46 C 559 26 517 9 473 -3 C 429 -16 386 -23 342 -23 Z" unicode="u" />
<glyph horiz-adv-x="1006" d="M 135 1075 L 182 1075 L 379 51 L 940 1075 L 989 1075 L 395 -8 L 344 -8 L 135 1075 Z" unicode="v" />
<glyph horiz-adv-x="1503" d="M 135 1075 L 180 1075 L 317 66 L 786 1075 L 834 1075 L 981 66 L 1440 1075 L 1487 1075 L 991 -8 L 946 -8 L 799 1001 L 328 -8 L 283 -8 L 135 1075 Z" unicode="w" />
<glyph horiz-adv-x="1001" d="M 440 555 L 178 1075 L 225 1075 L 469 590 L 887 1075 L 940 1075 L 489 551 L 768 0 L 721 0 L 459 516 L 14 0 L -39 0 L 440 555 Z" unicode="x" />
<glyph horiz-adv-x="1001" d="M -66 -416 C -91 -416 -117 -414 -143 -411 C -169 -407 -199 -401 -231 -393 L -215 -346 C -185 -354 -157 -360 -131 -364 C -105 -368 -80 -371 -57 -371 C -21 -371 10 -366 39 -358 C 67 -350 94 -338 118 -322 C 142 -305 164 -284 184 -260 C 204 -235 224 -206 242 -174 L 334 -8 L 135 1075 L 182 1075 L 371 55 L 936 1075 L 985 1075 L 281 -193 C 259 -230 237 -263 214 -291 C 190 -319 165 -342 137 -361 C 109 -379 78 -392 45 -402 C 11 -411 -25 -416 -66 -416 Z" unicode="y" />
<glyph horiz-adv-x="1001" d="M -2 41 L 854 1032 L 209 1032 L 217 1075 L 922 1075 L 913 1034 L 57 43 L 764 43 L 756 0 L -10 0 L -2 41 Z" unicode="z" />
<glyph horiz-adv-x="739" d="M 360 -410 C 279 -410 224 -391 194 -353 C 164 -315 155 -261 168 -193 L 262 340 C 268 374 271 402 271 426 C 271 450 264 469 252 485 C 238 499 217 510 189 517 C 161 524 122 528 72 528 L 82 578 C 133 578 174 581 205 588 C 235 595 260 606 278 622 C 295 636 308 655 316 679 C 324 703 332 732 338 766 L 432 1298 C 438 1332 446 1363 458 1390 C 470 1417 486 1440 506 1459 C 525 1477 549 1491 578 1501 C 606 1511 641 1516 682 1516 L 774 1516 L 766 1468 L 682 1468 C 650 1468 623 1464 601 1456 C 578 1448 559 1436 543 1422 C 527 1407 514 1389 504 1368 C 494 1347 487 1324 483 1298 L 389 766 C 383 734 377 706 370 682 C 362 658 353 637 341 620 C 328 602 312 588 294 577 C 276 566 253 558 225 553 C 246 545 264 536 278 526 C 292 515 302 501 310 485 C 316 468 320 448 321 424 C 321 400 319 372 313 340 L 219 -193 C 214 -219 213 -242 216 -263 C 218 -284 225 -302 237 -317 C 247 -331 263 -342 283 -350 C 303 -358 328 -362 360 -362 L 444 -362 L 436 -410 L 360 -410 Z" unicode="{" />
<glyph horiz-adv-x="678" d="M 313 1516 L 365 1516 L 365 -410 L 313 -410 L 313 1516 Z" unicode="|" />
<glyph horiz-adv-x="739" d="M -94 -362 L -10 -362 C 21 -362 48 -358 71 -350 C 93 -342 113 -331 129 -317 C 145 -302 157 -284 167 -263 C 176 -242 183 -219 188 -193 L 283 340 C 288 372 294 400 302 424 C 309 448 319 468 332 486 C 344 502 359 516 377 527 C 395 538 418 547 446 553 C 424 560 406 569 392 580 C 378 590 367 604 361 621 C 353 637 349 657 349 681 C 349 705 352 733 358 766 L 453 1298 C 457 1324 458 1347 456 1368 C 453 1389 446 1407 436 1422 C 424 1436 408 1448 388 1456 C 368 1464 342 1468 311 1468 L 227 1468 L 236 1516 L 311 1516 C 351 1516 385 1511 413 1501 C 440 1491 461 1477 477 1459 C 492 1440 502 1417 506 1390 C 510 1363 510 1332 504 1298 L 410 766 C 404 732 401 703 401 679 C 401 655 407 636 420 622 C 432 606 453 595 482 588 C 510 581 550 578 600 578 L 590 528 C 538 528 497 524 467 517 C 436 510 412 499 395 485 C 377 469 363 450 355 426 C 347 402 340 374 334 340 L 240 -193 C 234 -227 225 -257 213 -284 C 201 -311 186 -334 167 -353 C 147 -371 122 -385 94 -395 C 65 -405 30 -410 -10 -410 L -102 -410 L -94 -362 Z" unicode="}" />
<glyph horiz-adv-x="1278" d="M 918 580 C 898 580 872 583 842 591 C 812 598 779 607 745 619 C 709 630 673 642 636 655 C 598 668 563 680 529 692 C 494 703 462 712 434 720 C 405 727 382 731 365 731 C 333 731 307 721 287 703 C 266 684 254 656 250 618 L 203 621 C 206 675 223 714 255 740 C 287 765 327 778 375 778 C 393 778 417 774 447 767 C 476 759 508 750 543 739 C 577 727 612 715 649 702 C 685 689 721 677 755 666 C 789 654 819 645 847 638 C 875 630 897 627 915 627 C 947 627 973 634 993 648 C 1013 662 1024 687 1026 725 L 1075 723 C 1071 671 1055 635 1027 613 C 999 591 963 580 918 580 Z" unicode="~" />
<glyph horiz-adv-x="412" d="" unicode=" " />
<glyph horiz-adv-x="604" d="M 367 1202 L 401 1202 L 199 0 L 143 0 L 367 1202 Z M 393 1516 L 481 1516 L 463 1409 L 375 1409 L 393 1516 Z" unicode="¡" />
<glyph horiz-adv-x="1057" d="M 231 37 C 203 57 178 82 158 110 C 138 138 121 170 109 205 C 95 239 86 276 80 315 C 74 354 71 394 72 436 C 72 506 79 571 94 631 C 109 691 130 745 156 795 C 181 843 211 886 246 924 C 280 962 317 994 357 1020 C 395 1045 435 1064 477 1078 C 519 1091 560 1098 600 1098 C 616 1098 632 1097 647 1095 C 662 1093 676 1092 690 1090 L 786 1307 L 829 1307 L 729 1079 C 763 1067 791 1052 815 1032 C 838 1012 858 990 874 964 C 890 938 903 909 913 879 C 923 848 933 816 942 784 L 895 772 C 887 801 879 829 870 857 C 861 884 850 909 837 933 C 823 955 805 976 785 994 C 765 1012 740 1026 711 1036 L 285 59 C 305 47 328 38 353 32 C 377 26 404 23 434 23 C 474 23 512 28 546 38 C 580 48 612 64 643 86 C 673 107 702 134 731 167 C 759 200 789 239 819 285 L 860 260 C 828 211 796 169 765 134 C 733 98 701 69 667 46 C 633 22 597 5 559 -6 C 521 -17 479 -23 434 -23 C 401 -23 370 -19 342 -12 C 313 -5 287 4 264 16 L 143 -262 L 100 -262 L 231 37 Z M 672 1047 C 661 1049 650 1050 638 1051 C 626 1052 613 1053 600 1053 C 546 1053 490 1039 434 1011 C 378 983 326 943 280 891 C 233 838 195 773 165 697 C 135 621 121 534 121 436 C 120 400 122 364 127 330 C 132 296 140 264 151 234 C 161 203 175 175 191 150 C 207 124 227 102 250 84 L 672 1047 Z" unicode="¢" />
<glyph horiz-adv-x="1180" d="M 190 -31 C 156 -31 126 -26 100 -16 C 74 -6 53 6 36 23 C 18 39 5 59 -3 82 C -11 105 -16 130 -16 156 C -16 194 -9 226 4 254 C 17 282 34 305 56 324 C 77 342 101 356 128 365 C 154 374 181 379 209 379 C 241 379 268 374 292 366 C 316 358 337 347 357 333 C 375 319 392 302 407 284 C 422 265 437 245 451 225 C 459 250 467 275 473 301 C 479 327 483 352 487 376 C 490 400 492 422 494 443 C 495 464 496 483 496 500 C 496 549 490 597 480 644 C 469 690 456 736 442 782 L 184 782 L 193 829 L 428 829 C 410 881 395 933 381 984 C 367 1035 360 1088 360 1143 C 360 1213 370 1274 392 1325 C 414 1375 443 1417 479 1450 C 514 1482 555 1506 601 1522 C 647 1538 694 1546 743 1546 C 791 1546 834 1540 870 1530 C 906 1519 936 1505 962 1487 C 986 1468 1006 1446 1022 1422 C 1038 1397 1050 1371 1058 1343 C 1066 1315 1070 1286 1071 1256 C 1072 1226 1071 1197 1067 1169 L 1016 1174 C 1020 1213 1020 1252 1015 1291 C 1010 1329 998 1364 979 1396 C 959 1426 930 1451 892 1470 C 854 1489 804 1499 743 1499 C 701 1499 660 1492 620 1478 C 580 1464 545 1443 515 1415 C 483 1385 458 1348 440 1304 C 421 1259 412 1205 412 1143 C 412 1092 419 1041 433 989 C 447 937 462 883 479 829 L 817 829 L 809 782 L 494 782 C 508 736 520 689 531 642 C 541 594 547 547 547 500 C 547 482 546 460 544 435 C 542 409 539 382 535 354 C 529 325 522 295 514 265 C 506 234 495 204 483 176 C 496 156 510 136 526 117 C 541 98 559 81 579 67 C 599 52 621 40 647 31 C 673 22 703 18 737 18 C 800 18 854 47 900 105 C 946 163 977 251 993 369 L 1044 362 C 1034 296 1020 239 1002 191 C 983 142 961 101 935 69 C 908 36 878 11 845 -4 C 811 -20 775 -29 737 -29 C 699 -29 665 -24 637 -16 C 609 -7 584 4 562 18 C 540 32 520 48 503 67 C 486 85 471 105 457 125 C 443 103 428 82 411 63 C 393 44 374 28 352 14 C 330 0 305 -11 278 -19 C 251 -27 222 -31 190 -31 Z M 190 16 C 219 16 246 20 270 28 C 294 36 315 47 335 61 C 354 75 371 91 386 110 C 401 128 414 148 426 170 C 412 190 398 210 384 230 C 370 250 354 267 338 283 C 321 297 302 309 281 318 C 260 327 236 332 209 332 C 187 332 166 328 146 321 C 125 313 107 302 91 288 C 74 273 60 255 50 233 C 40 211 35 185 35 156 C 35 136 38 118 45 101 C 51 84 61 69 75 57 C 87 44 103 34 123 27 C 142 19 164 16 190 16 Z" unicode="£" />
<glyph horiz-adv-x="1278" d="M 639 410 C 595 410 554 417 516 431 C 478 445 444 466 414 492 L 231 309 L 201 340 L 385 524 C 360 553 341 586 327 623 C 313 659 307 699 307 743 C 307 787 313 827 327 865 C 341 902 360 935 385 965 L 201 1151 L 233 1184 L 418 999 C 446 1025 479 1044 517 1058 C 555 1072 595 1079 639 1079 C 682 1079 722 1072 759 1058 C 796 1044 829 1025 858 999 L 1042 1184 L 1075 1151 L 891 969 C 915 939 935 904 949 866 C 963 828 971 787 971 743 C 971 699 964 659 950 623 C 936 586 917 553 893 524 L 1075 342 L 1042 309 L 860 489 C 831 463 798 444 760 430 C 722 416 682 410 639 410 Z M 639 453 C 680 453 718 460 753 474 C 788 488 818 508 844 534 C 869 559 889 589 903 625 C 917 660 924 699 924 743 C 924 785 917 825 903 861 C 889 897 869 927 844 953 C 818 978 788 998 753 1012 C 718 1026 680 1034 639 1034 C 597 1034 559 1026 524 1012 C 489 998 459 978 434 953 C 408 927 389 897 375 861 C 361 825 354 785 354 743 C 354 699 361 660 375 625 C 389 589 408 559 434 534 C 459 508 489 488 524 474 C 559 460 597 453 639 453 Z" unicode="¤" />
<glyph horiz-adv-x="1223" d="M 516 342 L 100 342 L 109 389 L 524 389 L 569 649 L 154 649 L 162 696 L 571 696 L 205 1516 L 258 1516 L 608 737 L 1235 1516 L 1290 1516 L 631 696 L 1049 696 L 1040 649 L 621 649 L 575 389 L 995 389 L 987 342 L 567 342 L 506 0 L 455 0 L 516 342 Z" unicode="¥" />
<glyph horiz-adv-x="678" d="M 313 352 L 365 352 L 365 -410 L 313 -410 L 313 352 Z M 313 1516 L 365 1516 L 365 754 L 313 754 L 313 1516 Z" unicode="¦" />
<glyph horiz-adv-x="1028" d="M 330 -410 C 265 -410 211 -402 169 -386 C 127 -370 93 -348 68 -321 C 42 -293 23 -260 12 -224 C 1 -188 -4 -149 -6 -109 L 43 -106 C 44 -141 49 -174 59 -206 C 68 -238 84 -265 106 -289 C 127 -312 156 -330 192 -344 C 228 -358 274 -365 330 -365 C 380 -365 424 -357 463 -343 C 502 -329 535 -309 563 -284 C 589 -258 610 -227 624 -193 C 638 -159 645 -122 645 -82 C 645 -46 637 -12 622 17 C 607 47 587 76 562 104 C 536 130 507 156 475 181 C 442 205 408 230 373 254 C 337 278 303 302 270 326 C 237 350 208 375 183 402 C 157 428 137 456 121 486 C 105 516 98 548 98 584 C 98 630 107 672 125 708 C 143 744 168 777 199 807 C 229 835 264 861 304 883 C 343 905 384 924 426 942 C 402 960 380 979 360 999 C 340 1018 324 1039 310 1061 C 296 1083 285 1106 277 1132 C 269 1158 266 1186 266 1217 C 266 1263 274 1306 291 1346 C 307 1386 332 1420 364 1450 C 395 1479 433 1502 479 1519 C 525 1535 577 1544 635 1544 C 699 1544 753 1536 796 1520 C 838 1504 873 1482 899 1455 C 925 1427 943 1395 955 1359 C 967 1322 973 1283 975 1243 L 926 1241 C 924 1276 919 1309 909 1341 C 899 1372 883 1399 861 1423 C 839 1446 809 1464 773 1478 C 736 1492 690 1499 635 1499 C 585 1499 540 1491 500 1477 C 460 1463 427 1443 400 1418 C 372 1392 350 1362 336 1328 C 322 1294 315 1257 315 1217 C 315 1181 322 1147 338 1117 C 354 1086 375 1057 401 1031 C 426 1003 455 977 489 953 C 522 929 556 905 592 881 C 626 857 660 832 693 808 C 726 784 755 759 781 733 C 806 706 826 678 842 648 C 858 618 866 586 866 551 C 866 503 856 461 838 425 C 819 388 795 355 765 327 C 734 298 699 273 660 251 C 620 229 580 210 539 193 C 561 173 582 154 602 134 C 621 114 637 94 651 72 C 664 50 674 26 682 1 C 690 -24 694 -52 694 -82 C 694 -128 685 -172 669 -212 C 653 -252 629 -286 599 -316 C 567 -345 529 -368 484 -385 C 439 -401 388 -410 330 -410 Z M 498 223 C 538 239 577 257 615 277 C 653 297 687 321 717 348 C 747 374 771 403 789 437 C 807 470 817 508 817 551 C 817 581 809 609 795 635 C 781 661 762 685 739 709 C 715 732 688 755 658 777 C 627 799 595 821 563 844 C 545 855 528 866 512 877 C 496 888 480 899 465 911 C 425 895 386 877 348 857 C 310 837 276 813 246 787 C 216 760 192 730 174 697 C 156 663 147 626 147 584 C 147 554 154 526 168 500 C 182 474 201 449 225 426 C 248 402 275 380 306 358 C 336 336 368 313 401 291 C 418 278 435 266 451 256 C 467 245 482 234 498 223 Z" unicode="§" />
<glyph horiz-adv-x="1024" d="M 424 1292 L 492 1292 L 475 1192 L 408 1192 L 424 1292 Z M 725 1292 L 793 1292 L 776 1192 L 709 1192 L 725 1292 Z" unicode="¨" />
<glyph horiz-adv-x="1765" d="M 879 319 C 825 319 776 330 732 352 C 688 374 650 406 620 446 C 589 486 565 533 549 589 C 532 645 524 706 524 774 C 524 836 532 895 549 950 C 565 1004 589 1052 620 1092 C 650 1132 688 1163 732 1186 C 776 1209 825 1221 879 1221 C 963 1221 1031 1196 1082 1148 C 1133 1100 1170 1032 1194 946 L 1149 934 C 1129 1010 1098 1070 1055 1112 C 1012 1154 953 1176 879 1176 C 831 1176 787 1165 749 1144 C 711 1123 678 1095 652 1059 C 625 1022 604 979 590 931 C 576 882 569 830 569 774 C 569 714 576 659 590 609 C 604 559 625 516 652 480 C 678 444 711 415 749 395 C 787 375 831 365 879 365 C 951 365 1012 386 1060 430 C 1108 473 1141 535 1161 616 L 1206 604 C 1182 512 1143 442 1087 393 C 1031 343 962 319 879 319 Z M 883 -29 C 811 -29 741 -19 674 -1 C 607 17 545 44 488 79 C 430 113 377 154 330 202 C 282 250 242 303 208 362 C 174 420 147 482 129 549 C 111 615 102 685 102 758 C 102 830 111 900 129 967 C 147 1033 174 1096 208 1155 C 242 1213 282 1265 330 1313 C 377 1361 430 1402 488 1437 C 545 1471 607 1497 674 1516 C 740 1534 810 1544 883 1544 C 955 1544 1024 1534 1091 1516 C 1157 1497 1220 1471 1278 1437 C 1336 1403 1388 1362 1436 1314 C 1483 1266 1524 1213 1558 1155 C 1591 1096 1617 1033 1635 966 C 1653 899 1663 830 1663 758 C 1663 686 1653 616 1635 549 C 1617 482 1591 420 1558 362 C 1524 303 1483 250 1436 202 C 1388 154 1336 113 1278 79 C 1220 44 1157 17 1091 -1 C 1024 -19 955 -29 883 -29 Z M 883 16 C 951 16 1016 24 1079 42 C 1142 60 1201 85 1256 118 C 1310 150 1359 188 1404 233 C 1448 278 1487 328 1519 384 C 1550 438 1574 497 1592 560 C 1609 623 1618 689 1618 758 C 1618 826 1609 891 1592 955 C 1574 1018 1550 1077 1519 1132 C 1487 1186 1448 1236 1404 1282 C 1359 1327 1310 1366 1256 1398 C 1201 1430 1142 1454 1079 1472 C 1016 1490 951 1499 883 1499 C 815 1499 749 1490 686 1472 C 623 1454 564 1430 510 1398 C 455 1366 405 1327 361 1282 C 316 1236 278 1186 247 1132 C 215 1077 190 1018 173 955 C 155 891 147 826 147 758 C 147 690 155 624 173 561 C 190 497 215 438 247 384 C 278 328 316 278 361 233 C 405 188 455 150 510 118 C 564 85 623 60 686 42 C 748 24 814 16 883 16 Z" unicode="©" />
<glyph horiz-adv-x="819" d="M 356 762 C 293 762 245 776 211 805 C 177 833 160 873 160 924 C 160 968 169 1008 188 1042 C 207 1076 240 1106 286 1132 C 331 1158 391 1181 467 1201 C 542 1221 636 1241 748 1260 L 758 1317 C 762 1343 763 1368 761 1390 C 759 1412 753 1432 743 1448 C 732 1464 717 1476 697 1485 C 677 1494 651 1499 621 1499 C 547 1499 484 1487 430 1463 C 376 1439 330 1410 293 1376 L 264 1409 C 285 1427 308 1444 333 1460 C 358 1476 385 1491 415 1504 C 444 1516 476 1525 510 1533 C 544 1540 582 1544 623 1544 C 664 1544 698 1538 724 1526 C 750 1514 770 1497 784 1476 C 797 1454 805 1429 808 1400 C 810 1370 809 1339 803 1305 L 739 944 C 735 920 731 900 729 884 C 727 868 726 854 726 842 C 725 829 725 817 727 807 C 729 797 731 786 735 776 L 688 776 C 686 784 684 791 683 799 C 681 807 681 815 681 825 C 680 834 680 845 681 857 C 681 869 683 885 686 903 C 664 885 640 867 614 850 C 588 833 561 818 533 806 C 504 792 475 782 445 774 C 415 766 386 762 356 762 Z M 356 807 C 412 807 470 820 530 847 C 589 874 644 910 694 956 L 741 1217 C 639 1199 555 1182 487 1164 C 419 1146 364 1127 323 1105 C 281 1083 252 1057 235 1028 C 217 999 209 964 209 924 C 209 888 221 859 245 838 C 269 817 306 807 356 807 Z" unicode="ª" />
<glyph horiz-adv-x="985" d="M 94 541 L 479 1075 L 530 1075 L 139 539 L 340 0 L 295 0 L 94 541 Z M 459 541 L 844 1075 L 895 1075 L 504 539 L 705 0 L 659 0 L 459 541 Z" unicode="«" />
<glyph horiz-adv-x="1278" d="M 1145 156 L 1094 156 L 1094 641 L 133 641 L 133 688 L 1145 688 L 1145 156 Z" unicode="¬" />
<glyph horiz-adv-x="717" d="M 139 670 L 553 670 L 545 623 L 131 623 L 139 670 Z" unicode="­" />
<glyph horiz-adv-x="1169" d="M 428 1337 L 606 1337 C 666 1337 712 1324 744 1299 C 775 1273 791 1238 791 1192 C 791 1146 777 1110 749 1086 C 721 1062 684 1047 637 1042 L 791 803 L 743 803 L 594 1040 L 469 1040 L 469 803 L 428 803 L 428 1337 Z M 586 592 C 519 592 457 604 399 629 C 341 654 290 688 248 732 C 205 774 171 825 147 883 C 123 941 111 1003 111 1069 C 111 1135 123 1197 147 1255 C 171 1313 205 1363 248 1407 C 290 1449 341 1483 399 1508 C 457 1533 519 1546 586 1546 C 652 1546 713 1533 771 1508 C 829 1483 879 1449 922 1407 C 964 1363 997 1313 1022 1255 C 1046 1197 1059 1135 1059 1069 C 1059 1003 1046 941 1022 883 C 997 825 964 774 922 732 C 879 688 829 654 771 629 C 713 604 652 592 586 592 Z M 586 631 C 646 631 702 642 755 665 C 808 688 854 720 894 760 C 932 799 963 845 986 898 C 1008 951 1020 1008 1020 1069 C 1020 1129 1008 1186 986 1239 C 963 1292 932 1339 894 1379 C 854 1418 808 1449 755 1472 C 702 1495 646 1507 586 1507 C 525 1507 468 1495 415 1472 C 362 1449 316 1418 277 1379 C 237 1339 206 1292 184 1239 C 161 1186 150 1129 150 1069 C 150 1008 161 951 184 898 C 206 845 237 799 277 760 C 316 720 362 688 415 665 C 468 642 525 631 586 631 Z M 602 1079 C 647 1079 683 1088 711 1106 C 738 1124 752 1152 752 1192 C 752 1227 739 1253 713 1271 C 687 1289 652 1298 606 1298 L 469 1298 L 469 1079 L 602 1079 Z" unicode="®" />
<glyph horiz-adv-x="1024" d="M 416 1241 L 784 1241 L 776 1192 L 408 1192 L 416 1241 Z" unicode="¯" />
<glyph horiz-adv-x="819" d="M 467 991 C 429 991 395 997 365 1010 C 335 1022 309 1040 289 1062 C 267 1083 251 1108 240 1137 C 228 1166 223 1197 223 1231 C 223 1277 231 1319 248 1357 C 265 1395 288 1429 318 1457 C 346 1484 380 1505 418 1521 C 456 1536 495 1544 537 1544 C 575 1544 609 1537 639 1524 C 669 1511 694 1494 716 1472 C 736 1449 752 1423 763 1393 C 774 1363 780 1330 780 1296 C 780 1250 771 1209 753 1171 C 735 1133 712 1101 684 1075 C 654 1048 621 1027 583 1013 C 545 998 507 991 467 991 Z M 467 1036 C 501 1036 533 1042 565 1055 C 597 1067 625 1085 650 1108 C 674 1130 693 1158 708 1190 C 723 1222 731 1257 731 1296 C 731 1324 726 1350 717 1375 C 708 1399 695 1421 679 1440 C 662 1458 642 1472 618 1483 C 594 1493 567 1499 537 1499 C 501 1499 468 1492 436 1479 C 404 1466 376 1448 352 1425 C 327 1401 307 1372 293 1339 C 279 1306 272 1270 272 1231 C 272 1203 276 1178 285 1154 C 294 1130 307 1110 325 1093 C 341 1075 362 1061 386 1051 C 410 1041 437 1036 467 1036 Z" unicode="°" />
<glyph horiz-adv-x="1294" d="M 133 195 L 623 195 L 623 707 L 133 707 L 133 752 L 623 752 L 623 1235 L 674 1235 L 674 752 L 1161 752 L 1161 707 L 674 707 L 674 195 L 1161 195 L 1161 147 L 133 147 L 133 195 Z" unicode="±" />
<glyph horiz-adv-x="784" d="M 106 666 C 112 716 122 759 134 795 C 146 830 166 862 194 891 C 221 919 258 946 305 973 C 351 1000 413 1031 489 1065 C 533 1085 569 1104 599 1122 C 629 1140 653 1159 671 1179 C 689 1198 701 1219 709 1243 C 717 1266 721 1293 721 1323 C 721 1374 703 1414 668 1443 C 633 1472 586 1487 528 1487 C 502 1487 477 1483 453 1477 C 429 1470 406 1461 385 1450 C 363 1438 343 1423 325 1407 C 307 1391 293 1373 281 1354 L 242 1376 C 256 1398 273 1419 293 1438 C 313 1456 336 1473 362 1487 C 386 1500 413 1510 441 1518 C 469 1526 498 1530 528 1530 C 564 1530 597 1525 627 1516 C 656 1506 681 1493 703 1475 C 723 1457 739 1435 751 1409 C 762 1383 768 1355 768 1323 C 768 1287 762 1256 752 1228 C 742 1200 726 1175 706 1153 C 684 1129 657 1108 624 1088 C 591 1068 552 1048 508 1028 C 462 1007 422 988 388 971 C 354 953 324 937 300 921 C 275 905 254 889 238 873 C 221 857 207 840 197 822 C 186 804 178 784 172 763 C 166 741 161 718 158 692 L 647 692 L 639 649 L 104 649 L 106 666 Z" unicode="²" />
<glyph horiz-adv-x="764" d="M 381 637 C 331 637 290 642 256 652 C 222 662 193 675 171 692 C 148 708 130 726 116 747 C 102 768 92 789 84 811 L 129 825 C 135 807 144 789 156 772 C 167 754 182 739 202 726 C 221 712 245 700 274 692 C 303 684 339 680 381 680 C 415 680 447 685 477 695 C 507 705 533 720 555 740 C 577 759 594 783 606 812 C 618 841 625 875 625 913 C 625 941 621 967 614 989 C 606 1011 594 1031 577 1047 C 559 1062 536 1074 507 1082 C 477 1090 441 1094 397 1094 L 342 1094 L 350 1139 L 416 1139 C 458 1139 496 1142 529 1148 C 562 1154 590 1165 614 1180 C 636 1194 654 1214 666 1238 C 678 1262 684 1291 684 1327 C 684 1349 680 1369 673 1389 C 666 1408 655 1425 640 1440 C 624 1454 605 1466 581 1474 C 557 1482 528 1487 494 1487 C 468 1487 445 1483 423 1477 C 401 1471 380 1462 362 1452 C 342 1441 325 1429 309 1415 C 293 1401 280 1386 268 1372 L 231 1399 C 245 1415 262 1431 280 1447 C 298 1463 318 1477 340 1490 C 362 1502 385 1511 411 1519 C 437 1526 464 1530 494 1530 C 536 1530 572 1524 602 1514 C 632 1503 656 1489 676 1471 C 694 1452 708 1430 717 1406 C 726 1381 731 1355 731 1327 C 731 1264 714 1216 682 1182 C 650 1148 605 1125 549 1112 C 594 1095 626 1070 644 1036 C 662 1002 672 961 672 913 C 672 867 664 827 650 793 C 635 759 615 730 589 708 C 563 684 532 667 496 655 C 460 643 422 637 381 637 Z" unicode="³" />
<glyph horiz-adv-x="1024" d="M 791 1501 L 879 1501 L 553 1192 L 520 1192 L 791 1501 Z" unicode="´" />
<glyph horiz-adv-x="1133" d="M 217 1075 L 266 1075 L 131 309 C 123 269 120 232 122 198 C 124 163 132 133 148 107 C 163 81 186 60 217 45 C 248 30 290 23 342 23 C 386 23 430 30 476 46 C 521 62 565 81 608 104 C 650 126 689 150 725 176 C 761 202 793 225 819 246 L 967 1075 L 1016 1075 L 825 0 L 776 0 L 809 180 C 781 158 749 136 713 112 C 677 88 640 66 600 46 C 559 26 517 9 473 -3 C 429 -16 386 -23 342 -23 C 274 -23 220 -11 180 11 C 140 34 111 64 94 102 L 4 -410 L -45 -410 L 217 1075 Z" unicode="µ" />
<glyph horiz-adv-x="1190" d="M 600 811 C 476 812 382 838 319 890 C 256 941 225 1015 225 1112 C 225 1180 236 1239 259 1290 C 282 1340 314 1382 356 1416 C 397 1449 447 1474 505 1491 C 563 1507 628 1516 700 1516 L 1116 1516 L 778 -410 L 727 -410 L 1057 1468 L 766 1468 L 436 -410 L 385 -410 L 600 811 Z" unicode="¶" />
<glyph horiz-adv-x="522" d="M 209 696 L 297 696 L 279 590 L 190 590 L 209 696 Z" unicode="·" />
<glyph horiz-adv-x="1024" d="M 324 -397 C 278 -397 233 -389 191 -374 C 149 -359 112 -339 82 -313 L 113 -279 C 141 -302 174 -320 211 -334 C 248 -347 286 -354 324 -354 C 347 -354 371 -351 396 -347 C 420 -343 443 -336 463 -326 C 483 -315 499 -301 512 -284 C 525 -267 532 -246 532 -221 C 532 -197 524 -178 508 -164 C 492 -150 472 -143 446 -143 C 430 -143 410 -146 388 -154 C 366 -162 336 -177 299 -201 L 270 -176 L 352 0 L 397 0 L 326 -150 C 343 -135 363 -123 386 -114 C 409 -104 431 -100 453 -100 C 491 -100 521 -111 545 -133 C 568 -155 580 -185 580 -221 C 580 -253 572 -280 557 -302 C 541 -324 521 -343 497 -357 C 472 -371 444 -381 414 -387 C 384 -393 354 -397 324 -397 Z" unicode="¸" />
<glyph horiz-adv-x="621" d="M 115 692 L 299 692 L 434 1466 C 424 1459 412 1453 397 1448 C 382 1443 366 1439 349 1436 C 331 1432 313 1429 295 1427 C 277 1425 262 1425 248 1425 L 254 1468 C 296 1468 333 1472 367 1480 C 400 1488 424 1500 440 1516 L 489 1516 L 346 692 L 512 692 L 504 649 L 106 649 L 115 692 Z" unicode="¹" />
<glyph horiz-adv-x="852" d="M 440 760 C 400 760 362 768 328 784 C 294 800 264 823 240 852 C 214 880 195 914 181 954 C 167 993 160 1036 160 1083 C 160 1151 170 1213 192 1269 C 214 1325 243 1374 279 1415 C 315 1455 356 1487 402 1510 C 448 1532 497 1544 547 1544 C 589 1544 628 1536 664 1520 C 699 1504 729 1481 755 1453 C 780 1423 800 1388 814 1348 C 828 1307 836 1262 836 1214 C 836 1151 826 1092 806 1037 C 786 981 758 933 723 893 C 687 851 645 819 597 795 C 549 771 496 760 440 760 Z M 440 803 C 489 803 535 813 577 835 C 619 857 656 886 688 924 C 719 960 743 1004 761 1054 C 779 1104 788 1157 788 1214 C 788 1256 782 1294 770 1329 C 758 1364 741 1395 720 1421 C 698 1446 673 1466 644 1480 C 614 1494 582 1501 547 1501 C 503 1501 461 1490 420 1470 C 379 1449 343 1420 312 1384 C 280 1346 254 1302 235 1251 C 216 1199 207 1143 207 1083 C 207 1043 212 1006 224 972 C 236 938 252 908 273 884 C 293 858 318 838 346 824 C 374 810 406 803 440 803 Z" unicode="º" />
<glyph horiz-adv-x="985" d="M 410 537 L 209 1075 L 254 1075 L 455 535 L 70 0 L 18 0 L 410 537 Z M 774 537 L 573 1075 L 618 1075 L 819 535 L 434 0 L 383 0 L 774 537 Z" unicode="»" />
<glyph horiz-adv-x="1683" d="M 72 678 L 256 678 L 391 1452 C 381 1445 369 1439 354 1434 C 339 1429 323 1425 306 1422 C 288 1418 270 1415 252 1413 C 234 1411 219 1411 205 1411 L 211 1454 C 253 1454 290 1458 324 1466 C 357 1474 381 1485 397 1501 L 446 1501 L 303 678 L 469 678 L 461 635 L 63 635 L 72 678 Z M 1360 233 L 920 233 L 928 276 L 1477 866 L 1516 866 L 1413 276 L 1575 276 L 1567 233 L 1405 233 L 1364 2 L 1319 2 L 1360 233 Z M 1372 1516 L 1425 1516 L 256 0 L 203 0 L 1372 1516 Z M 1368 276 L 1458 788 L 981 276 L 1368 276 Z" unicode="¼" />
<glyph horiz-adv-x="1724" d="M 975 16 C 979 50 984 80 991 107 C 997 133 1007 158 1019 180 C 1030 202 1044 222 1062 241 C 1080 260 1102 279 1130 297 C 1156 315 1188 333 1226 353 C 1263 372 1307 393 1358 416 C 1401 436 1437 455 1467 473 C 1497 491 1521 510 1539 530 C 1557 549 1569 570 1577 594 C 1585 617 1589 644 1589 674 C 1589 725 1571 765 1537 794 C 1502 823 1455 838 1397 838 C 1371 838 1345 834 1321 828 C 1297 821 1274 812 1253 801 C 1231 789 1211 774 1193 758 C 1175 742 1161 724 1149 705 L 1110 727 C 1124 749 1141 770 1161 789 C 1181 807 1204 824 1230 838 C 1254 851 1281 861 1309 869 C 1337 877 1367 881 1397 881 C 1433 881 1465 876 1495 867 C 1525 857 1550 844 1571 826 C 1591 808 1607 786 1619 760 C 1630 734 1636 706 1636 674 C 1636 638 1630 607 1620 579 C 1610 551 1594 526 1574 504 C 1552 480 1525 459 1492 439 C 1459 419 1420 399 1376 379 C 1307 348 1251 321 1209 297 C 1166 273 1132 248 1107 224 C 1081 199 1063 172 1052 144 C 1040 116 1032 82 1026 43 L 1516 43 L 1507 0 L 973 0 L 975 16 Z M 72 678 L 256 678 L 391 1452 C 381 1445 369 1439 354 1434 C 339 1429 323 1425 306 1422 C 288 1418 270 1415 252 1413 C 234 1411 219 1411 205 1411 L 211 1454 C 253 1454 290 1458 324 1466 C 357 1474 381 1485 397 1501 L 446 1501 L 303 678 L 469 678 L 461 635 L 63 635 L 72 678 Z M 1372 1516 L 1425 1516 L 256 0 L 203 0 L 1372 1516 Z" unicode="½" />
<glyph horiz-adv-x="1806" d="M 338 623 C 288 623 247 628 213 638 C 179 648 150 661 128 678 C 105 694 87 712 73 733 C 59 754 49 775 41 797 L 86 811 C 92 793 101 775 113 758 C 124 740 139 725 159 712 C 178 698 202 686 231 678 C 260 670 296 666 338 666 C 372 666 404 671 434 681 C 464 691 490 706 512 726 C 534 745 551 769 563 798 C 575 827 582 861 582 899 C 582 927 578 953 571 975 C 563 997 551 1016 534 1032 C 516 1047 493 1059 464 1067 C 434 1075 398 1079 354 1079 L 299 1079 L 307 1124 L 373 1124 C 415 1124 453 1126 486 1132 C 519 1138 547 1148 571 1164 C 593 1178 611 1198 623 1224 C 635 1250 641 1283 641 1323 C 641 1367 626 1403 596 1431 C 566 1459 518 1473 451 1473 C 425 1473 402 1469 380 1463 C 358 1457 337 1448 319 1438 C 299 1427 282 1415 266 1401 C 250 1387 237 1372 225 1358 L 188 1384 C 202 1400 219 1417 237 1433 C 255 1449 275 1463 297 1476 C 319 1488 342 1497 368 1505 C 394 1512 421 1516 451 1516 C 493 1516 528 1511 558 1501 C 588 1491 612 1478 632 1462 C 651 1444 665 1424 674 1400 C 683 1376 688 1351 688 1323 C 688 1286 683 1255 675 1229 C 667 1203 655 1182 639 1165 C 623 1147 603 1132 581 1122 C 559 1112 534 1104 506 1098 C 551 1081 583 1055 601 1021 C 619 987 629 946 629 899 C 629 853 621 813 607 779 C 592 745 572 716 546 694 C 520 670 489 653 453 641 C 417 629 379 623 338 623 Z M 1483 233 L 1042 233 L 1051 276 L 1599 866 L 1638 866 L 1536 276 L 1698 276 L 1690 233 L 1528 233 L 1487 2 L 1442 2 L 1483 233 Z M 1495 1516 L 1548 1516 L 379 0 L 326 0 L 1495 1516 Z M 1491 276 L 1581 788 L 1104 276 L 1491 276 Z" unicode="¾" />
<glyph horiz-adv-x="1067" d="M 424 -31 C 362 -31 308 -22 261 -6 C 213 10 174 33 142 63 C 109 91 84 126 68 166 C 51 206 43 249 43 297 C 43 357 50 408 66 451 C 82 493 105 531 135 563 C 164 595 200 623 243 649 C 286 674 335 699 389 725 C 425 742 455 759 481 775 C 506 791 528 809 546 828 C 563 846 577 866 589 888 C 601 910 611 935 620 964 C 628 992 636 1024 643 1060 C 649 1096 657 1137 666 1184 L 719 1184 C 706 1118 695 1062 685 1016 C 675 970 663 929 649 895 C 639 871 627 850 614 832 C 601 813 585 795 567 779 C 548 762 526 746 501 731 C 475 715 446 700 412 684 C 362 660 317 637 278 614 C 238 590 205 564 178 535 C 150 505 129 472 115 434 C 101 396 94 350 94 297 C 94 256 101 218 115 184 C 129 150 151 120 179 96 C 207 70 241 51 282 37 C 323 23 370 16 424 16 C 466 16 507 22 548 34 C 589 46 628 63 664 83 C 700 103 733 125 763 151 C 793 177 818 203 838 231 L 879 203 C 857 173 830 145 798 117 C 765 89 729 64 689 42 C 649 20 606 2 561 -11 C 516 -24 470 -31 424 -31 Z M 707 1516 L 795 1516 L 776 1409 L 688 1409 L 707 1516 Z" unicode="¿" />
<glyph horiz-adv-x="1305" d="M 762 1524 L 817 1524 L 1090 0 L 1038 0 L 942 545 L 299 545 L 10 0 L -47 0 L 762 1524 Z M 934 592 L 780 1454 L 324 592 L 934 592 Z M 584 1920 L 664 1920 L 836 1611 L 803 1611 L 584 1920 Z" unicode="À" />
<glyph horiz-adv-x="1305" d="M 762 1524 L 817 1524 L 1090 0 L 1038 0 L 942 545 L 299 545 L 10 0 L -47 0 L 762 1524 Z M 934 592 L 780 1454 L 324 592 L 934 592 Z M 1044 1920 L 1132 1920 L 806 1611 L 773 1611 L 1044 1920 Z" unicode="Á" />
<glyph horiz-adv-x="1305" d="M 762 1524 L 817 1524 L 1090 0 L 1038 0 L 942 545 L 299 545 L 10 0 L -47 0 L 762 1524 Z M 934 592 L 780 1454 L 324 592 L 934 592 Z M 841 1920 L 874 1920 L 1099 1601 L 1056 1601 L 851 1855 L 548 1601 L 505 1601 L 841 1920 Z" unicode="Â" />
<glyph horiz-adv-x="1305" d="M 762 1524 L 817 1524 L 1090 0 L 1038 0 L 942 545 L 299 545 L 10 0 L -47 0 L 762 1524 Z M 934 592 L 780 1454 L 324 592 L 934 592 Z M 499 1611 C 509 1671 526 1715 552 1742 C 578 1769 615 1783 665 1783 C 691 1783 717 1776 744 1763 C 771 1749 798 1735 825 1720 C 851 1704 876 1689 902 1676 C 927 1662 951 1656 974 1656 C 1008 1656 1035 1666 1053 1686 C 1071 1706 1083 1739 1091 1783 L 1138 1783 C 1127 1722 1109 1678 1084 1651 C 1058 1624 1021 1611 972 1611 C 946 1611 919 1617 893 1631 C 866 1644 840 1659 814 1675 C 788 1690 762 1704 737 1718 C 711 1731 687 1738 665 1738 C 629 1738 602 1727 584 1707 C 566 1687 553 1655 546 1611 L 499 1611 Z" unicode="Ã" />
<glyph horiz-adv-x="1305" d="M 762 1524 L 817 1524 L 1090 0 L 1038 0 L 942 545 L 299 545 L 10 0 L -47 0 L 762 1524 Z M 934 592 L 780 1454 L 324 592 L 934 592 Z M 636 1711 L 704 1711 L 687 1611 L 620 1611 L 636 1711 Z M 937 1711 L 1005 1711 L 988 1611 L 921 1611 L 937 1711 Z" unicode="Ä" />
<glyph horiz-adv-x="1305" d="M 737 1477 C 702 1486 674 1504 654 1532 C 633 1560 623 1592 623 1628 C 623 1657 628 1684 640 1708 C 652 1732 667 1754 687 1772 C 705 1789 727 1802 752 1812 C 777 1822 803 1827 831 1827 C 855 1827 876 1822 896 1814 C 915 1806 932 1795 946 1781 C 959 1767 969 1750 977 1731 C 984 1712 988 1692 989 1671 C 989 1645 984 1622 976 1600 C 968 1578 956 1559 942 1543 C 927 1525 910 1511 890 1500 C 870 1489 848 1481 825 1477 L 1090 0 L 1038 0 L 942 545 L 299 545 L 10 0 L -47 0 L 737 1477 Z M 934 592 L 780 1454 L 324 592 L 934 592 Z M 782 1516 C 806 1516 828 1519 848 1527 C 868 1535 885 1546 899 1560 C 913 1573 923 1589 931 1608 C 938 1626 942 1647 942 1669 C 942 1684 939 1699 934 1713 C 928 1727 921 1739 912 1750 C 902 1760 890 1768 876 1774 C 862 1780 847 1784 831 1784 C 807 1784 785 1780 765 1772 C 745 1764 729 1753 715 1739 C 700 1725 689 1708 681 1689 C 673 1670 670 1650 670 1628 C 670 1613 672 1599 678 1585 C 684 1571 692 1560 702 1550 C 712 1539 723 1531 737 1525 C 751 1519 766 1516 782 1516 Z" unicode="Å" />
<glyph horiz-adv-x="1970" d="M 1118 1516 L 1987 1516 L 1978 1468 L 1194 1468 L 1081 827 L 1671 827 L 1663 780 L 1073 780 L 944 47 L 1743 47 L 1735 0 L 885 0 L 981 547 L 430 547 L 10 0 L -47 0 L 1118 1516 Z M 989 594 L 1145 1475 L 467 594 L 989 594 Z" unicode="Æ" />
<glyph horiz-adv-x="1397" d="M 629 -31 C 546 -31 473 -14 410 18 C 347 51 294 97 252 155 C 209 212 177 280 155 358 C 133 436 123 521 123 612 C 123 700 131 784 148 864 C 165 944 189 1019 221 1089 C 252 1157 289 1220 333 1276 C 377 1332 425 1381 479 1421 C 531 1461 588 1491 649 1513 C 709 1535 772 1546 838 1546 C 924 1546 996 1533 1053 1508 C 1110 1482 1156 1449 1192 1407 C 1226 1364 1252 1315 1270 1260 C 1288 1205 1301 1148 1309 1090 L 1255 1083 C 1247 1137 1236 1189 1221 1239 C 1205 1289 1182 1333 1152 1372 C 1120 1410 1079 1440 1029 1464 C 979 1487 915 1499 838 1499 C 777 1499 718 1488 662 1468 C 606 1447 553 1418 505 1380 C 455 1342 410 1296 370 1243 C 329 1189 294 1130 266 1065 C 236 999 214 927 198 851 C 182 775 174 695 174 612 C 174 528 183 449 203 377 C 223 304 252 241 291 188 C 329 134 376 92 433 62 C 489 31 555 16 629 16 C 705 16 771 29 828 55 C 885 81 935 115 978 158 C 1020 200 1056 247 1087 301 C 1118 355 1146 409 1171 465 L 1219 446 C 1203 409 1185 372 1165 334 C 1145 296 1122 260 1098 225 C 1072 189 1044 156 1013 125 C 982 94 948 67 910 44 C 871 20 828 2 782 -11 C 736 -24 685 -31 629 -31 Z M 510 -397 C 464 -397 419 -389 377 -374 C 335 -359 298 -339 268 -313 L 299 -279 C 327 -302 360 -320 397 -334 C 434 -347 472 -354 510 -354 C 533 -354 557 -351 582 -347 C 606 -343 629 -336 649 -326 C 669 -315 685 -301 698 -284 C 711 -267 718 -246 718 -221 C 718 -197 710 -178 694 -164 C 678 -150 658 -143 632 -143 C 616 -143 596 -146 574 -154 C 552 -162 522 -177 485 -201 L 456 -176 L 538 0 L 583 0 L 512 -150 C 529 -135 549 -123 572 -114 C 595 -104 617 -100 639 -100 C 677 -100 707 -111 731 -133 C 754 -155 766 -185 766 -221 C 766 -253 758 -280 743 -302 C 727 -324 707 -343 683 -357 C 658 -371 630 -381 600 -387 C 570 -393 540 -397 510 -397 Z" unicode="Ç" />
<glyph horiz-adv-x="1167" d="M 348 1516 L 1184 1516 L 1176 1468 L 391 1468 L 279 829 L 868 829 L 860 782 L 270 782 L 141 47 L 940 47 L 932 0 L 82 0 L 348 1516 Z M 588 1920 L 668 1920 L 840 1611 L 807 1611 L 588 1920 Z" unicode="È" />
<glyph horiz-adv-x="1167" d="M 348 1516 L 1184 1516 L 1176 1468 L 391 1468 L 279 829 L 868 829 L 860 782 L 270 782 L 141 47 L 940 47 L 932 0 L 82 0 L 348 1516 Z M 936 1920 L 1024 1920 L 698 1611 L 665 1611 L 936 1920 Z" unicode="É" />
<glyph horiz-adv-x="1167" d="M 348 1516 L 1184 1516 L 1176 1468 L 391 1468 L 279 829 L 868 829 L 860 782 L 270 782 L 141 47 L 940 47 L 932 0 L 82 0 L 348 1516 Z M 805 1920 L 838 1920 L 1063 1601 L 1020 1601 L 815 1855 L 512 1601 L 469 1601 L 805 1920 Z" unicode="Ê" />
<glyph horiz-adv-x="1167" d="M 348 1516 L 1184 1516 L 1176 1468 L 391 1468 L 279 829 L 868 829 L 860 782 L 270 782 L 141 47 L 940 47 L 932 0 L 82 0 L 348 1516 Z M 600 1711 L 668 1711 L 651 1611 L 584 1611 L 600 1711 Z M 901 1711 L 969 1711 L 952 1611 L 885 1611 L 901 1711 Z" unicode="Ë" />
<glyph horiz-adv-x="502" d="M 360 1516 L 412 1516 L 145 0 L 94 0 L 360 1516 Z M 167 1920 L 247 1920 L 419 1611 L 386 1611 L 167 1920 Z" unicode="Ì" />
<glyph horiz-adv-x="502" d="M 360 1516 L 412 1516 L 145 0 L 94 0 L 360 1516 Z M 652 1920 L 740 1920 L 414 1611 L 381 1611 L 652 1920 Z" unicode="Í" />
<glyph horiz-adv-x="502" d="M 360 1516 L 412 1516 L 145 0 L 94 0 L 360 1516 Z M 441 1920 L 474 1920 L 699 1601 L 656 1601 L 451 1855 L 148 1601 L 105 1601 L 441 1920 Z" unicode="Î" />
<glyph horiz-adv-x="502" d="M 360 1516 L 412 1516 L 145 0 L 94 0 L 360 1516 Z M 236 1711 L 304 1711 L 287 1611 L 220 1611 L 236 1711 Z M 537 1711 L 605 1711 L 588 1611 L 521 1611 L 537 1711 Z" unicode="Ï" />
<glyph horiz-adv-x="1374" d="M 215 766 L 53 766 L 61 813 L 223 813 L 348 1516 L 588 1516 C 706 1516 808 1501 894 1473 C 980 1445 1051 1404 1107 1351 C 1162 1297 1203 1232 1230 1156 C 1256 1079 1270 993 1270 897 C 1270 748 1250 618 1212 506 C 1173 394 1117 300 1045 226 C 971 150 882 94 778 56 C 673 18 555 0 424 0 L 82 0 L 215 766 Z M 424 47 C 547 47 658 64 756 100 C 854 136 938 189 1007 261 C 1075 331 1127 420 1164 526 C 1200 632 1219 756 1219 897 C 1219 985 1206 1065 1182 1136 C 1157 1206 1119 1266 1068 1316 C 1016 1365 950 1403 871 1429 C 791 1455 697 1468 588 1468 L 391 1468 L 274 813 L 557 813 L 549 766 L 266 766 L 141 47 L 424 47 Z" unicode="Ð" />
<glyph horiz-adv-x="1466" d="M 348 1516 L 395 1516 L 1090 94 L 1339 1516 L 1389 1516 L 1122 0 L 1081 0 L 383 1434 L 131 0 L 82 0 L 348 1516 Z M 581 1611 C 591 1671 608 1715 634 1742 C 660 1769 697 1783 747 1783 C 773 1783 799 1776 826 1763 C 853 1749 880 1735 907 1720 C 933 1704 958 1689 984 1676 C 1009 1662 1033 1656 1056 1656 C 1090 1656 1117 1666 1135 1686 C 1153 1706 1165 1739 1173 1783 L 1220 1783 C 1209 1722 1191 1678 1166 1651 C 1140 1624 1103 1611 1054 1611 C 1028 1611 1001 1617 975 1631 C 948 1644 922 1659 896 1675 C 870 1690 844 1704 819 1718 C 793 1731 769 1738 747 1738 C 711 1738 684 1727 666 1707 C 648 1687 635 1655 628 1611 L 581 1611 Z" unicode="Ñ" />
<glyph horiz-adv-x="1477" d="M 651 16 C 716 16 777 26 835 48 C 893 70 946 100 995 140 C 1043 178 1087 225 1126 279 C 1165 333 1198 393 1226 459 C 1252 523 1273 593 1287 667 C 1301 741 1309 817 1309 895 C 1309 981 1298 1062 1277 1136 C 1256 1210 1226 1274 1186 1328 C 1146 1381 1097 1423 1039 1453 C 981 1483 916 1499 842 1499 C 778 1499 718 1488 660 1468 C 602 1447 548 1418 499 1381 C 449 1343 404 1297 364 1244 C 324 1191 289 1132 261 1067 C 232 1001 210 931 195 855 C 179 779 172 700 172 618 C 172 531 182 451 204 378 C 225 304 256 241 297 188 C 337 134 387 91 447 61 C 507 31 575 16 651 16 Z M 651 -31 C 566 -31 491 -14 425 18 C 359 50 304 96 260 154 C 214 212 180 280 156 359 C 132 438 121 524 121 618 C 121 705 129 788 146 868 C 162 948 186 1022 217 1091 C 247 1159 284 1222 328 1278 C 371 1334 419 1382 473 1422 C 526 1461 584 1491 646 1513 C 708 1535 773 1546 842 1546 C 924 1546 997 1529 1061 1497 C 1125 1464 1179 1419 1224 1361 C 1268 1303 1301 1234 1325 1155 C 1348 1075 1360 989 1360 895 C 1360 813 1352 733 1337 655 C 1321 577 1299 503 1270 435 C 1240 366 1205 303 1163 246 C 1121 189 1075 140 1023 100 C 970 58 912 26 850 3 C 787 -19 721 -31 651 -31 Z M 711 1920 L 791 1920 L 963 1611 L 930 1611 L 711 1920 Z" unicode="Ò" />
<glyph horiz-adv-x="1477" d="M 651 16 C 716 16 777 26 835 48 C 893 70 946 100 995 140 C 1043 178 1087 225 1126 279 C 1165 333 1198 393 1226 459 C 1252 523 1273 593 1287 667 C 1301 741 1309 817 1309 895 C 1309 981 1298 1062 1277 1136 C 1256 1210 1226 1274 1186 1328 C 1146 1381 1097 1423 1039 1453 C 981 1483 916 1499 842 1499 C 778 1499 718 1488 660 1468 C 602 1447 548 1418 499 1381 C 449 1343 404 1297 364 1244 C 324 1191 289 1132 261 1067 C 232 1001 210 931 195 855 C 179 779 172 700 172 618 C 172 531 182 451 204 378 C 225 304 256 241 297 188 C 337 134 387 91 447 61 C 507 31 575 16 651 16 Z M 651 -31 C 566 -31 491 -14 425 18 C 359 50 304 96 260 154 C 214 212 180 280 156 359 C 132 438 121 524 121 618 C 121 705 129 788 146 868 C 162 948 186 1022 217 1091 C 247 1159 284 1222 328 1278 C 371 1334 419 1382 473 1422 C 526 1461 584 1491 646 1513 C 708 1535 773 1546 842 1546 C 924 1546 997 1529 1061 1497 C 1125 1464 1179 1419 1224 1361 C 1268 1303 1301 1234 1325 1155 C 1348 1075 1360 989 1360 895 C 1360 813 1352 733 1337 655 C 1321 577 1299 503 1270 435 C 1240 366 1205 303 1163 246 C 1121 189 1075 140 1023 100 C 970 58 912 26 850 3 C 787 -19 721 -31 651 -31 Z M 1090 1920 L 1178 1920 L 852 1611 L 819 1611 L 1090 1920 Z" unicode="Ó" />
<glyph horiz-adv-x="1477" d="M 651 16 C 716 16 777 26 835 48 C 893 70 946 100 995 140 C 1043 178 1087 225 1126 279 C 1165 333 1198 393 1226 459 C 1252 523 1273 593 1287 667 C 1301 741 1309 817 1309 895 C 1309 981 1298 1062 1277 1136 C 1256 1210 1226 1274 1186 1328 C 1146 1381 1097 1423 1039 1453 C 981 1483 916 1499 842 1499 C 778 1499 718 1488 660 1468 C 602 1447 548 1418 499 1381 C 449 1343 404 1297 364 1244 C 324 1191 289 1132 261 1067 C 232 1001 210 931 195 855 C 179 779 172 700 172 618 C 172 531 182 451 204 378 C 225 304 256 241 297 188 C 337 134 387 91 447 61 C 507 31 575 16 651 16 Z M 651 -31 C 566 -31 491 -14 425 18 C 359 50 304 96 260 154 C 214 212 180 280 156 359 C 132 438 121 524 121 618 C 121 705 129 788 146 868 C 162 948 186 1022 217 1091 C 247 1159 284 1222 328 1278 C 371 1334 419 1382 473 1422 C 526 1461 584 1491 646 1513 C 708 1535 773 1546 842 1546 C 924 1546 997 1529 1061 1497 C 1125 1464 1179 1419 1224 1361 C 1268 1303 1301 1234 1325 1155 C 1348 1075 1360 989 1360 895 C 1360 813 1352 733 1337 655 C 1321 577 1299 503 1270 435 C 1240 366 1205 303 1163 246 C 1121 189 1075 140 1023 100 C 970 58 912 26 850 3 C 787 -19 721 -31 651 -31 Z M 928 1920 L 961 1920 L 1186 1601 L 1143 1601 L 938 1855 L 635 1601 L 592 1601 L 928 1920 Z" unicode="Ô" />
<glyph horiz-adv-x="1477" d="M 651 16 C 716 16 777 26 835 48 C 893 70 946 100 995 140 C 1043 178 1087 225 1126 279 C 1165 333 1198 393 1226 459 C 1252 523 1273 593 1287 667 C 1301 741 1309 817 1309 895 C 1309 981 1298 1062 1277 1136 C 1256 1210 1226 1274 1186 1328 C 1146 1381 1097 1423 1039 1453 C 981 1483 916 1499 842 1499 C 778 1499 718 1488 660 1468 C 602 1447 548 1418 499 1381 C 449 1343 404 1297 364 1244 C 324 1191 289 1132 261 1067 C 232 1001 210 931 195 855 C 179 779 172 700 172 618 C 172 531 182 451 204 378 C 225 304 256 241 297 188 C 337 134 387 91 447 61 C 507 31 575 16 651 16 Z M 651 -31 C 566 -31 491 -14 425 18 C 359 50 304 96 260 154 C 214 212 180 280 156 359 C 132 438 121 524 121 618 C 121 705 129 788 146 868 C 162 948 186 1022 217 1091 C 247 1159 284 1222 328 1278 C 371 1334 419 1382 473 1422 C 526 1461 584 1491 646 1513 C 708 1535 773 1546 842 1546 C 924 1546 997 1529 1061 1497 C 1125 1464 1179 1419 1224 1361 C 1268 1303 1301 1234 1325 1155 C 1348 1075 1360 989 1360 895 C 1360 813 1352 733 1337 655 C 1321 577 1299 503 1270 435 C 1240 366 1205 303 1163 246 C 1121 189 1075 140 1023 100 C 970 58 912 26 850 3 C 787 -19 721 -31 651 -31 Z M 586 1611 C 596 1671 613 1715 639 1742 C 665 1769 702 1783 752 1783 C 778 1783 804 1776 831 1763 C 858 1749 885 1735 912 1720 C 938 1704 963 1689 989 1676 C 1014 1662 1038 1656 1061 1656 C 1095 1656 1122 1666 1140 1686 C 1158 1706 1170 1739 1178 1783 L 1225 1783 C 1214 1722 1196 1678 1171 1651 C 1145 1624 1108 1611 1059 1611 C 1033 1611 1006 1617 980 1631 C 953 1644 927 1659 901 1675 C 875 1690 849 1704 824 1718 C 798 1731 774 1738 752 1738 C 716 1738 689 1727 671 1707 C 653 1687 640 1655 633 1611 L 586 1611 Z" unicode="Õ" />
<glyph horiz-adv-x="1477" d="M 651 16 C 716 16 777 26 835 48 C 893 70 946 100 995 140 C 1043 178 1087 225 1126 279 C 1165 333 1198 393 1226 459 C 1252 523 1273 593 1287 667 C 1301 741 1309 817 1309 895 C 1309 981 1298 1062 1277 1136 C 1256 1210 1226 1274 1186 1328 C 1146 1381 1097 1423 1039 1453 C 981 1483 916 1499 842 1499 C 778 1499 718 1488 660 1468 C 602 1447 548 1418 499 1381 C 449 1343 404 1297 364 1244 C 324 1191 289 1132 261 1067 C 232 1001 210 931 195 855 C 179 779 172 700 172 618 C 172 531 182 451 204 378 C 225 304 256 241 297 188 C 337 134 387 91 447 61 C 507 31 575 16 651 16 Z M 651 -31 C 566 -31 491 -14 425 18 C 359 50 304 96 260 154 C 214 212 180 280 156 359 C 132 438 121 524 121 618 C 121 705 129 788 146 868 C 162 948 186 1022 217 1091 C 247 1159 284 1222 328 1278 C 371 1334 419 1382 473 1422 C 526 1461 584 1491 646 1513 C 708 1535 773 1546 842 1546 C 924 1546 997 1529 1061 1497 C 1125 1464 1179 1419 1224 1361 C 1268 1303 1301 1234 1325 1155 C 1348 1075 1360 989 1360 895 C 1360 813 1352 733 1337 655 C 1321 577 1299 503 1270 435 C 1240 366 1205 303 1163 246 C 1121 189 1075 140 1023 100 C 970 58 912 26 850 3 C 787 -19 721 -31 651 -31 Z M 723 1711 L 791 1711 L 774 1611 L 707 1611 L 723 1711 Z M 1024 1711 L 1092 1711 L 1075 1611 L 1008 1611 L 1024 1711 Z" unicode="Ö" />
<glyph horiz-adv-x="1278" d="M 262 319 L 604 664 L 262 1008 L 295 1040 L 639 696 L 981 1040 L 1014 1008 L 670 666 L 1014 322 L 981 289 L 637 631 L 293 289 L 262 319 Z" unicode="×" />
<glyph horiz-adv-x="1477" d="M 37 -6 L 219 197 C 186 252 161 314 145 384 C 129 453 121 528 121 608 C 121 694 129 778 146 858 C 163 938 187 1013 219 1083 C 250 1152 288 1215 332 1272 C 376 1329 426 1378 482 1419 C 537 1459 597 1491 662 1513 C 727 1535 796 1546 868 1546 C 949 1546 1021 1528 1084 1493 C 1146 1457 1199 1408 1241 1346 L 1421 1546 L 1454 1522 L 1266 1311 C 1296 1256 1320 1194 1336 1126 C 1352 1057 1360 983 1360 905 C 1360 818 1351 734 1335 654 C 1319 574 1295 499 1265 430 C 1234 360 1197 297 1153 241 C 1109 184 1059 136 1004 96 C 948 55 888 24 823 2 C 758 -20 689 -31 616 -31 C 534 -31 461 -14 399 20 C 336 54 284 101 242 162 L 70 -31 L 37 -6 Z M 616 16 C 684 16 748 26 809 47 C 869 68 925 98 977 137 C 1028 175 1074 221 1115 275 C 1156 329 1191 389 1220 455 C 1248 520 1270 591 1286 667 C 1301 743 1309 822 1309 905 C 1309 975 1302 1040 1288 1102 C 1274 1163 1254 1219 1229 1270 L 276 201 C 314 143 361 97 418 65 C 475 32 541 16 616 16 Z M 1206 1307 C 1168 1366 1120 1413 1064 1447 C 1008 1481 942 1499 868 1499 C 800 1499 736 1488 676 1467 C 616 1446 560 1417 509 1379 C 457 1340 410 1293 369 1239 C 327 1185 292 1125 263 1059 C 233 993 211 922 195 846 C 179 770 172 690 172 608 C 172 536 179 468 193 406 C 207 343 227 287 254 238 L 1206 1307 Z" unicode="Ø" />
<glyph horiz-adv-x="1434" d="M 590 -31 C 504 -31 431 -17 371 9 C 310 36 262 74 227 122 C 191 169 167 225 156 290 C 145 354 146 424 160 500 L 338 1516 L 389 1516 L 209 485 C 197 421 197 360 207 303 C 217 246 237 197 269 155 C 300 112 342 78 395 53 C 448 28 512 16 586 16 C 664 16 735 27 797 49 C 859 71 913 102 959 142 C 1004 182 1041 229 1069 285 C 1097 340 1118 401 1130 469 L 1315 1516 L 1366 1516 L 1180 457 C 1166 385 1144 319 1112 259 C 1080 199 1039 147 989 105 C 939 61 880 28 814 4 C 747 -19 672 -31 590 -31 Z M 690 1920 L 770 1920 L 942 1611 L 909 1611 L 690 1920 Z" unicode="Ù" />
<glyph horiz-adv-x="1434" d="M 590 -31 C 504 -31 431 -17 371 9 C 310 36 262 74 227 122 C 191 169 167 225 156 290 C 145 354 146 424 160 500 L 338 1516 L 389 1516 L 209 485 C 197 421 197 360 207 303 C 217 246 237 197 269 155 C 300 112 342 78 395 53 C 448 28 512 16 586 16 C 664 16 735 27 797 49 C 859 71 913 102 959 142 C 1004 182 1041 229 1069 285 C 1097 340 1118 401 1130 469 L 1315 1516 L 1366 1516 L 1180 457 C 1166 385 1144 319 1112 259 C 1080 199 1039 147 989 105 C 939 61 880 28 814 4 C 747 -19 672 -31 590 -31 Z M 1069 1920 L 1157 1920 L 831 1611 L 798 1611 L 1069 1920 Z" unicode="Ú" />
<glyph horiz-adv-x="1434" d="M 590 -31 C 504 -31 431 -17 371 9 C 310 36 262 74 227 122 C 191 169 167 225 156 290 C 145 354 146 424 160 500 L 338 1516 L 389 1516 L 209 485 C 197 421 197 360 207 303 C 217 246 237 197 269 155 C 300 112 342 78 395 53 C 448 28 512 16 586 16 C 664 16 735 27 797 49 C 859 71 913 102 959 142 C 1004 182 1041 229 1069 285 C 1097 340 1118 401 1130 469 L 1315 1516 L 1366 1516 L 1180 457 C 1166 385 1144 319 1112 259 C 1080 199 1039 147 989 105 C 939 61 880 28 814 4 C 747 -19 672 -31 590 -31 Z M 907 1920 L 940 1920 L 1165 1601 L 1122 1601 L 917 1855 L 614 1601 L 571 1601 L 907 1920 Z" unicode="Û" />
<glyph horiz-adv-x="1434" d="M 590 -31 C 504 -31 431 -17 371 9 C 310 36 262 74 227 122 C 191 169 167 225 156 290 C 145 354 146 424 160 500 L 338 1516 L 389 1516 L 209 485 C 197 421 197 360 207 303 C 217 246 237 197 269 155 C 300 112 342 78 395 53 C 448 28 512 16 586 16 C 664 16 735 27 797 49 C 859 71 913 102 959 142 C 1004 182 1041 229 1069 285 C 1097 340 1118 401 1130 469 L 1315 1516 L 1366 1516 L 1180 457 C 1166 385 1144 319 1112 259 C 1080 199 1039 147 989 105 C 939 61 880 28 814 4 C 747 -19 672 -31 590 -31 Z M 702 1711 L 770 1711 L 753 1611 L 686 1611 L 702 1711 Z M 1003 1711 L 1071 1711 L 1054 1611 L 987 1611 L 1003 1711 Z" unicode="Ü" />
<glyph horiz-adv-x="1202" d="M 565 690 L 203 1516 L 256 1516 L 596 737 L 1214 1516 L 1270 1516 L 616 690 L 496 0 L 444 0 L 565 690 Z M 952 1920 L 1040 1920 L 714 1611 L 681 1611 L 952 1920 Z" unicode="Ý" />
<glyph horiz-adv-x="1229" d="M 348 1516 L 399 1516 L 352 1241 L 727 1241 C 803 1241 869 1232 925 1214 C 981 1196 1028 1172 1065 1140 C 1101 1107 1129 1068 1147 1023 C 1165 977 1174 927 1174 872 C 1174 804 1160 744 1133 693 C 1106 642 1068 600 1018 567 C 968 533 907 507 835 490 C 763 473 682 465 592 465 L 215 465 L 133 0 L 82 0 L 348 1516 Z M 592 512 C 674 512 748 519 814 534 C 879 549 935 572 981 602 C 1026 632 1061 669 1085 714 C 1109 759 1122 812 1122 872 C 1122 920 1114 963 1098 1003 C 1082 1043 1058 1077 1026 1106 C 993 1134 952 1155 902 1171 C 852 1186 794 1194 727 1194 L 344 1194 L 223 512 L 592 512 Z" unicode="Þ" />
<glyph horiz-adv-x="1167" d="M 594 -18 C 548 -18 509 -14 476 -6 C 443 2 415 12 392 24 C 368 36 347 49 331 64 C 314 78 299 92 287 106 L 322 137 C 333 125 346 112 361 100 C 375 87 393 75 415 65 C 436 53 461 44 490 37 C 519 30 554 27 594 27 C 640 27 685 35 729 53 C 773 71 813 97 848 133 C 882 168 909 212 931 265 C 952 318 963 380 963 451 C 963 512 953 566 935 614 C 916 662 889 702 854 736 C 818 768 775 793 725 810 C 674 827 617 836 553 836 L 561 881 C 631 882 692 891 742 907 C 792 923 833 946 865 975 C 896 1003 919 1036 934 1075 C 948 1113 956 1156 956 1202 C 956 1243 948 1280 934 1313 C 920 1346 900 1374 874 1398 C 848 1420 816 1438 780 1450 C 743 1462 702 1468 657 1468 C 609 1468 564 1460 524 1444 C 484 1428 448 1404 416 1371 C 384 1337 356 1295 334 1243 C 311 1191 293 1129 281 1057 L 92 0 L 45 0 L 233 1065 C 247 1143 267 1211 293 1268 C 319 1324 350 1371 386 1408 C 422 1444 462 1470 508 1487 C 554 1504 603 1513 657 1513 C 709 1513 756 1506 799 1492 C 842 1478 879 1457 910 1431 C 940 1404 964 1371 981 1333 C 997 1294 1006 1250 1006 1202 C 1006 1159 1000 1119 990 1083 C 979 1046 962 1013 940 984 C 917 954 888 929 852 908 C 816 886 773 870 723 858 C 769 845 810 826 846 802 C 882 777 912 747 937 713 C 961 677 980 638 993 594 C 1005 550 1012 502 1012 451 C 1012 372 1000 303 976 245 C 952 186 920 137 882 99 C 842 59 797 30 747 11 C 697 -8 646 -18 594 -18 Z" unicode="ß" />
<glyph horiz-adv-x="1061" d="M 307 -29 C 261 -29 221 -23 185 -11 C 149 1 119 18 94 40 C 68 61 49 87 36 117 C 22 147 16 181 16 217 C 16 283 30 340 58 389 C 86 437 133 481 198 519 C 262 556 347 589 453 618 C 559 646 689 674 844 700 L 860 795 C 866 833 868 867 866 899 C 864 930 855 957 840 981 C 824 1003 801 1021 771 1034 C 741 1046 701 1053 653 1053 C 606 1053 561 1047 519 1035 C 476 1023 436 1009 400 991 C 362 972 328 952 297 930 C 266 908 239 886 217 866 L 184 901 C 208 923 237 945 270 969 C 303 992 340 1013 380 1033 C 420 1051 462 1067 508 1079 C 554 1091 602 1098 653 1098 C 709 1098 756 1090 794 1076 C 831 1061 860 1040 880 1014 C 900 986 912 953 916 914 C 920 875 917 832 909 784 L 811 233 C 805 205 801 179 799 157 C 796 135 794 115 794 97 C 792 78 792 61 793 45 C 793 29 795 14 797 0 L 745 0 C 743 16 742 31 742 45 C 741 59 741 72 742 86 C 742 99 743 113 745 127 C 747 141 749 158 752 176 C 724 152 694 127 661 103 C 628 79 593 57 556 38 C 518 18 479 1 437 -10 C 395 -22 351 -29 307 -29 Z M 307 16 C 356 16 403 23 448 39 C 492 54 534 73 574 97 C 612 119 648 144 680 171 C 712 197 740 222 764 246 L 836 651 C 694 627 575 603 477 577 C 379 551 299 521 239 488 C 177 454 133 416 106 372 C 79 328 66 277 66 219 C 66 189 71 161 82 137 C 93 112 109 91 131 73 C 151 55 176 41 206 31 C 236 21 269 16 307 16 Z M 430 1501 L 510 1501 L 682 1192 L 649 1192 L 430 1501 Z" unicode="à" />
<glyph horiz-adv-x="1061" d="M 307 -29 C 261 -29 221 -23 185 -11 C 149 1 119 18 94 40 C 68 61 49 87 36 117 C 22 147 16 181 16 217 C 16 283 30 340 58 389 C 86 437 133 481 198 519 C 262 556 347 589 453 618 C 559 646 689 674 844 700 L 860 795 C 866 833 868 867 866 899 C 864 930 855 957 840 981 C 824 1003 801 1021 771 1034 C 741 1046 701 1053 653 1053 C 606 1053 561 1047 519 1035 C 476 1023 436 1009 400 991 C 362 972 328 952 297 930 C 266 908 239 886 217 866 L 184 901 C 208 923 237 945 270 969 C 303 992 340 1013 380 1033 C 420 1051 462 1067 508 1079 C 554 1091 602 1098 653 1098 C 709 1098 756 1090 794 1076 C 831 1061 860 1040 880 1014 C 900 986 912 953 916 914 C 920 875 917 832 909 784 L 811 233 C 805 205 801 179 799 157 C 796 135 794 115 794 97 C 792 78 792 61 793 45 C 793 29 795 14 797 0 L 745 0 C 743 16 742 31 742 45 C 741 59 741 72 742 86 C 742 99 743 113 745 127 C 747 141 749 158 752 176 C 724 152 694 127 661 103 C 628 79 593 57 556 38 C 518 18 479 1 437 -10 C 395 -22 351 -29 307 -29 Z M 307 16 C 356 16 403 23 448 39 C 492 54 534 73 574 97 C 612 119 648 144 680 171 C 712 197 740 222 764 246 L 836 651 C 694 627 575 603 477 577 C 379 551 299 521 239 488 C 177 454 133 416 106 372 C 79 328 66 277 66 219 C 66 189 71 161 82 137 C 93 112 109 91 131 73 C 151 55 176 41 206 31 C 236 21 269 16 307 16 Z M 809 1501 L 897 1501 L 571 1192 L 538 1192 L 809 1501 Z" unicode="á" />
<glyph horiz-adv-x="1061" d="M 307 -29 C 261 -29 221 -23 185 -11 C 149 1 119 18 94 40 C 68 61 49 87 36 117 C 22 147 16 181 16 217 C 16 283 30 340 58 389 C 86 437 133 481 198 519 C 262 556 347 589 453 618 C 559 646 689 674 844 700 L 860 795 C 866 833 868 867 866 899 C 864 930 855 957 840 981 C 824 1003 801 1021 771 1034 C 741 1046 701 1053 653 1053 C 606 1053 561 1047 519 1035 C 476 1023 436 1009 400 991 C 362 972 328 952 297 930 C 266 908 239 886 217 866 L 184 901 C 208 923 237 945 270 969 C 303 992 340 1013 380 1033 C 420 1051 462 1067 508 1079 C 554 1091 602 1098 653 1098 C 709 1098 756 1090 794 1076 C 831 1061 860 1040 880 1014 C 900 986 912 953 916 914 C 920 875 917 832 909 784 L 811 233 C 805 205 801 179 799 157 C 796 135 794 115 794 97 C 792 78 792 61 793 45 C 793 29 795 14 797 0 L 745 0 C 743 16 742 31 742 45 C 741 59 741 72 742 86 C 742 99 743 113 745 127 C 747 141 749 158 752 176 C 724 152 694 127 661 103 C 628 79 593 57 556 38 C 518 18 479 1 437 -10 C 395 -22 351 -29 307 -29 Z M 307 16 C 356 16 403 23 448 39 C 492 54 534 73 574 97 C 612 119 648 144 680 171 C 712 197 740 222 764 246 L 836 651 C 694 627 575 603 477 577 C 379 551 299 521 239 488 C 177 454 133 416 106 372 C 79 328 66 277 66 219 C 66 189 71 161 82 137 C 93 112 109 91 131 73 C 151 55 176 41 206 31 C 236 21 269 16 307 16 Z M 647 1501 L 680 1501 L 905 1182 L 862 1182 L 657 1436 L 354 1182 L 311 1182 L 647 1501 Z" unicode="â" />
<glyph horiz-adv-x="1061" d="M 307 -29 C 261 -29 221 -23 185 -11 C 149 1 119 18 94 40 C 68 61 49 87 36 117 C 22 147 16 181 16 217 C 16 283 30 340 58 389 C 86 437 133 481 198 519 C 262 556 347 589 453 618 C 559 646 689 674 844 700 L 860 795 C 866 833 868 867 866 899 C 864 930 855 957 840 981 C 824 1003 801 1021 771 1034 C 741 1046 701 1053 653 1053 C 606 1053 561 1047 519 1035 C 476 1023 436 1009 400 991 C 362 972 328 952 297 930 C 266 908 239 886 217 866 L 184 901 C 208 923 237 945 270 969 C 303 992 340 1013 380 1033 C 420 1051 462 1067 508 1079 C 554 1091 602 1098 653 1098 C 709 1098 756 1090 794 1076 C 831 1061 860 1040 880 1014 C 900 986 912 953 916 914 C 920 875 917 832 909 784 L 811 233 C 805 205 801 179 799 157 C 796 135 794 115 794 97 C 792 78 792 61 793 45 C 793 29 795 14 797 0 L 745 0 C 743 16 742 31 742 45 C 741 59 741 72 742 86 C 742 99 743 113 745 127 C 747 141 749 158 752 176 C 724 152 694 127 661 103 C 628 79 593 57 556 38 C 518 18 479 1 437 -10 C 395 -22 351 -29 307 -29 Z M 307 16 C 356 16 403 23 448 39 C 492 54 534 73 574 97 C 612 119 648 144 680 171 C 712 197 740 222 764 246 L 836 651 C 694 627 575 603 477 577 C 379 551 299 521 239 488 C 177 454 133 416 106 372 C 79 328 66 277 66 219 C 66 189 71 161 82 137 C 93 112 109 91 131 73 C 151 55 176 41 206 31 C 236 21 269 16 307 16 Z M 305 1192 C 315 1252 332 1296 358 1323 C 384 1350 421 1364 471 1364 C 497 1364 523 1357 550 1344 C 577 1330 604 1316 631 1301 C 657 1285 682 1270 708 1257 C 733 1243 757 1237 780 1237 C 814 1237 841 1247 859 1267 C 877 1287 889 1320 897 1364 L 944 1364 C 933 1303 915 1259 890 1232 C 864 1205 827 1192 778 1192 C 752 1192 725 1198 699 1212 C 672 1225 646 1240 620 1256 C 594 1271 568 1285 543 1299 C 517 1312 493 1319 471 1319 C 435 1319 408 1308 390 1288 C 372 1268 359 1236 352 1192 L 305 1192 Z" unicode="ã" />
<glyph horiz-adv-x="1061" d="M 307 -29 C 261 -29 221 -23 185 -11 C 149 1 119 18 94 40 C 68 61 49 87 36 117 C 22 147 16 181 16 217 C 16 283 30 340 58 389 C 86 437 133 481 198 519 C 262 556 347 589 453 618 C 559 646 689 674 844 700 L 860 795 C 866 833 868 867 866 899 C 864 930 855 957 840 981 C 824 1003 801 1021 771 1034 C 741 1046 701 1053 653 1053 C 606 1053 561 1047 519 1035 C 476 1023 436 1009 400 991 C 362 972 328 952 297 930 C 266 908 239 886 217 866 L 184 901 C 208 923 237 945 270 969 C 303 992 340 1013 380 1033 C 420 1051 462 1067 508 1079 C 554 1091 602 1098 653 1098 C 709 1098 756 1090 794 1076 C 831 1061 860 1040 880 1014 C 900 986 912 953 916 914 C 920 875 917 832 909 784 L 811 233 C 805 205 801 179 799 157 C 796 135 794 115 794 97 C 792 78 792 61 793 45 C 793 29 795 14 797 0 L 745 0 C 743 16 742 31 742 45 C 741 59 741 72 742 86 C 742 99 743 113 745 127 C 747 141 749 158 752 176 C 724 152 694 127 661 103 C 628 79 593 57 556 38 C 518 18 479 1 437 -10 C 395 -22 351 -29 307 -29 Z M 307 16 C 356 16 403 23 448 39 C 492 54 534 73 574 97 C 612 119 648 144 680 171 C 712 197 740 222 764 246 L 836 651 C 694 627 575 603 477 577 C 379 551 299 521 239 488 C 177 454 133 416 106 372 C 79 328 66 277 66 219 C 66 189 71 161 82 137 C 93 112 109 91 131 73 C 151 55 176 41 206 31 C 236 21 269 16 307 16 Z M 442 1292 L 510 1292 L 493 1192 L 426 1192 L 442 1292 Z M 743 1292 L 811 1292 L 794 1192 L 727 1192 L 743 1292 Z" unicode="ä" />
<glyph horiz-adv-x="1061" d="M 307 -29 C 261 -29 221 -23 185 -11 C 149 1 119 18 94 40 C 68 61 49 87 36 117 C 22 147 16 181 16 217 C 16 283 30 340 58 389 C 86 437 133 481 198 519 C 262 556 347 589 453 618 C 559 646 689 674 844 700 L 860 795 C 866 833 868 867 866 899 C 864 930 855 957 840 981 C 824 1003 801 1021 771 1034 C 741 1046 701 1053 653 1053 C 606 1053 561 1047 519 1035 C 476 1023 436 1009 400 991 C 362 972 328 952 297 930 C 266 908 239 886 217 866 L 184 901 C 208 923 237 945 270 969 C 303 992 340 1013 380 1033 C 420 1051 462 1067 508 1079 C 554 1091 602 1098 653 1098 C 709 1098 756 1090 794 1076 C 831 1061 860 1040 880 1014 C 900 986 912 953 916 914 C 920 875 917 832 909 784 L 811 233 C 805 205 801 179 799 157 C 796 135 794 115 794 97 C 792 78 792 61 793 45 C 793 29 795 14 797 0 L 745 0 C 743 16 742 31 742 45 C 741 59 741 72 742 86 C 742 99 743 113 745 127 C 747 141 749 158 752 176 C 724 152 694 127 661 103 C 628 79 593 57 556 38 C 518 18 479 1 437 -10 C 395 -22 351 -29 307 -29 Z M 307 16 C 356 16 403 23 448 39 C 492 54 534 73 574 97 C 612 119 648 144 680 171 C 712 197 740 222 764 246 L 836 651 C 694 627 575 603 477 577 C 379 551 299 521 239 488 C 177 454 133 416 106 372 C 79 328 66 277 66 219 C 66 189 71 161 82 137 C 93 112 109 91 131 73 C 151 55 176 41 206 31 C 236 21 269 16 307 16 Z M 616 1196 C 592 1196 570 1200 550 1208 C 530 1216 514 1228 500 1242 C 486 1256 475 1272 467 1291 C 459 1310 456 1330 456 1352 C 456 1380 461 1407 473 1431 C 485 1455 500 1477 520 1495 C 539 1512 561 1525 586 1535 C 611 1545 637 1550 665 1550 C 689 1550 710 1546 730 1538 C 749 1530 766 1519 780 1505 C 793 1491 803 1474 811 1455 C 818 1436 822 1416 823 1395 C 823 1365 817 1337 806 1313 C 795 1289 780 1268 762 1251 C 743 1233 721 1220 696 1210 C 670 1200 644 1196 616 1196 Z M 616 1239 C 640 1239 662 1242 682 1250 C 702 1258 719 1269 733 1283 C 747 1297 757 1313 765 1332 C 772 1350 776 1371 776 1393 C 776 1408 773 1422 768 1436 C 762 1450 755 1462 746 1473 C 736 1483 724 1492 710 1498 C 696 1504 681 1507 665 1507 C 641 1507 619 1503 599 1495 C 579 1487 562 1476 548 1463 C 534 1449 523 1432 515 1413 C 507 1394 503 1374 503 1352 C 503 1336 505 1322 511 1309 C 517 1295 525 1283 535 1273 C 545 1262 556 1254 570 1248 C 584 1242 599 1239 616 1239 Z" unicode="å" />
<glyph horiz-adv-x="1815" d="M 307 -29 C 270 -29 234 -24 199 -15 C 164 -5 133 9 107 29 C 79 49 57 74 41 105 C 24 136 16 173 16 217 C 16 295 35 359 74 411 C 112 462 168 505 240 541 C 311 576 398 606 500 630 C 602 654 716 677 844 700 L 860 795 C 866 833 868 867 866 899 C 864 931 855 958 840 981 C 824 1003 801 1021 771 1034 C 741 1046 701 1053 653 1053 C 605 1053 559 1047 517 1035 C 474 1023 434 1008 398 990 C 361 971 327 951 297 929 C 267 907 240 886 217 866 L 184 901 C 208 923 237 945 270 969 C 303 992 340 1013 380 1033 C 420 1051 462 1067 508 1079 C 554 1091 602 1098 653 1098 C 707 1098 752 1091 787 1078 C 822 1064 849 1045 869 1021 C 888 996 900 966 905 931 C 910 895 910 856 905 813 C 929 859 957 899 989 935 C 1021 971 1055 1001 1093 1026 C 1129 1050 1168 1068 1209 1081 C 1250 1093 1291 1100 1333 1100 C 1385 1100 1433 1090 1475 1071 C 1517 1052 1553 1025 1583 991 C 1612 955 1635 913 1651 863 C 1667 813 1675 758 1675 696 C 1675 673 1674 650 1672 627 C 1670 604 1666 579 1661 551 L 866 551 C 864 533 862 516 861 498 C 860 480 860 462 860 444 C 860 390 865 337 877 287 C 889 236 908 191 934 153 C 959 113 992 82 1033 58 C 1074 34 1124 23 1184 23 C 1227 23 1267 28 1304 40 C 1340 52 1374 68 1406 89 C 1437 109 1466 132 1493 159 C 1519 186 1545 215 1569 246 L 1608 217 C 1582 183 1554 152 1525 123 C 1495 94 1464 69 1430 48 C 1395 26 1357 8 1317 -4 C 1277 -16 1232 -23 1184 -23 C 1134 -23 1091 -16 1053 -2 C 1015 11 982 30 954 55 C 926 79 902 108 884 141 C 865 174 850 210 840 250 C 804 216 766 183 725 150 C 683 116 640 87 596 61 C 550 34 503 12 455 -4 C 406 -20 357 -29 307 -29 Z M 307 16 C 353 16 399 23 445 39 C 491 55 537 76 582 102 C 626 128 668 157 710 191 C 752 224 791 259 829 295 C 825 313 822 334 819 356 C 816 378 815 404 815 433 C 814 461 815 492 819 528 C 822 564 828 605 838 651 C 700 628 582 604 484 579 C 386 554 307 525 245 492 C 183 458 137 420 109 376 C 80 332 66 279 66 219 C 66 183 73 152 87 127 C 101 101 119 80 143 64 C 165 47 191 35 220 27 C 248 19 277 16 307 16 Z M 1618 596 C 1621 615 1623 633 1624 649 C 1625 665 1626 680 1626 696 C 1626 750 1619 800 1605 844 C 1591 888 1572 926 1547 958 C 1521 988 1490 1012 1454 1029 C 1418 1046 1377 1055 1333 1055 C 1283 1055 1234 1044 1185 1024 C 1136 1003 1091 973 1050 935 C 1008 895 971 847 940 790 C 908 733 886 668 872 596 L 1618 596 Z" unicode="æ" />
<glyph horiz-adv-x="1057" d="M 416 -23 C 358 -23 308 -10 266 14 C 223 38 187 72 159 114 C 129 156 107 204 93 260 C 79 316 72 375 72 438 C 72 509 79 575 94 635 C 109 695 130 749 156 799 C 182 847 212 890 247 928 C 282 965 320 996 360 1022 C 399 1046 440 1065 483 1078 C 525 1091 568 1098 610 1098 C 664 1098 710 1091 748 1078 C 785 1064 816 1045 842 1020 C 867 994 887 963 903 927 C 918 891 931 850 942 805 L 895 795 C 885 835 874 871 861 903 C 847 935 830 962 809 985 C 787 1007 760 1024 728 1036 C 696 1048 656 1055 610 1055 C 572 1055 534 1049 496 1037 C 457 1025 420 1007 384 983 C 347 959 313 929 281 895 C 249 860 221 820 198 774 C 174 728 155 677 141 621 C 127 565 121 504 121 438 C 121 382 127 328 140 278 C 152 228 171 184 196 146 C 220 108 251 78 288 56 C 325 34 368 23 416 23 C 460 23 501 27 538 37 C 575 47 610 62 643 83 C 675 103 706 130 735 162 C 763 194 791 233 819 279 L 860 252 C 830 203 799 161 767 127 C 735 92 701 64 666 42 C 630 19 591 2 550 -7 C 509 -17 464 -23 416 -23 Z M 340 -397 C 294 -397 249 -389 207 -374 C 165 -359 128 -339 98 -313 L 129 -279 C 157 -302 190 -320 227 -334 C 264 -347 302 -354 340 -354 C 363 -354 387 -351 412 -347 C 436 -343 459 -336 479 -326 C 499 -315 515 -301 528 -284 C 541 -267 548 -246 548 -221 C 548 -197 540 -178 524 -164 C 508 -150 488 -143 462 -143 C 446 -143 426 -146 404 -154 C 382 -162 352 -177 315 -201 L 286 -176 L 368 0 L 413 0 L 342 -150 C 359 -135 379 -123 402 -114 C 425 -104 447 -100 469 -100 C 507 -100 537 -111 561 -133 C 584 -155 596 -185 596 -221 C 596 -253 588 -280 573 -302 C 557 -324 537 -343 513 -357 C 488 -371 460 -381 430 -387 C 400 -393 370 -397 340 -397 Z" unicode="ç" />
<glyph horiz-adv-x="1073" d="M 442 -23 C 374 -23 316 -10 269 16 C 221 42 183 76 154 120 C 124 163 103 213 90 269 C 76 325 70 384 70 444 C 70 548 85 640 116 722 C 146 803 186 872 236 928 C 285 984 341 1026 403 1056 C 465 1085 528 1100 592 1100 C 644 1100 692 1090 734 1071 C 776 1052 812 1025 842 991 C 871 955 894 913 910 863 C 926 813 934 758 934 696 C 934 673 933 650 931 627 C 929 604 925 579 920 551 L 125 551 C 123 533 121 516 120 498 C 119 480 119 462 119 444 C 119 390 124 337 136 287 C 148 236 167 191 193 153 C 218 113 251 82 292 58 C 333 34 383 23 442 23 C 485 23 525 28 562 40 C 598 52 632 68 664 89 C 695 109 724 132 751 159 C 777 186 803 215 827 246 L 866 217 C 840 183 812 152 783 123 C 754 94 723 69 689 48 C 654 26 616 8 576 -4 C 535 -16 490 -23 442 -23 Z M 877 596 C 880 615 882 633 883 649 C 884 665 885 680 885 696 C 885 750 878 800 864 844 C 850 888 831 926 806 958 C 780 988 749 1012 713 1029 C 677 1046 636 1055 592 1055 C 542 1055 492 1044 443 1024 C 394 1003 349 973 308 935 C 266 895 229 847 198 790 C 167 733 145 668 131 596 L 877 596 Z M 436 1501 L 516 1501 L 688 1192 L 655 1192 L 436 1501 Z" unicode="è" />
<glyph horiz-adv-x="1073" d="M 442 -23 C 374 -23 316 -10 269 16 C 221 42 183 76 154 120 C 124 163 103 213 90 269 C 76 325 70 384 70 444 C 70 548 85 640 116 722 C 146 803 186 872 236 928 C 285 984 341 1026 403 1056 C 465 1085 528 1100 592 1100 C 644 1100 692 1090 734 1071 C 776 1052 812 1025 842 991 C 871 955 894 913 910 863 C 926 813 934 758 934 696 C 934 673 933 650 931 627 C 929 604 925 579 920 551 L 125 551 C 123 533 121 516 120 498 C 119 480 119 462 119 444 C 119 390 124 337 136 287 C 148 236 167 191 193 153 C 218 113 251 82 292 58 C 333 34 383 23 442 23 C 485 23 525 28 562 40 C 598 52 632 68 664 89 C 695 109 724 132 751 159 C 777 186 803 215 827 246 L 866 217 C 840 183 812 152 783 123 C 754 94 723 69 689 48 C 654 26 616 8 576 -4 C 535 -16 490 -23 442 -23 Z M 877 596 C 880 615 882 633 883 649 C 884 665 885 680 885 696 C 885 750 878 800 864 844 C 850 888 831 926 806 958 C 780 988 749 1012 713 1029 C 677 1046 636 1055 592 1055 C 542 1055 492 1044 443 1024 C 394 1003 349 973 308 935 C 266 895 229 847 198 790 C 167 733 145 668 131 596 L 877 596 Z M 815 1501 L 903 1501 L 577 1192 L 544 1192 L 815 1501 Z" unicode="é" />
<glyph horiz-adv-x="1073" d="M 442 -23 C 374 -23 316 -10 269 16 C 221 42 183 76 154 120 C 124 163 103 213 90 269 C 76 325 70 384 70 444 C 70 548 85 640 116 722 C 146 803 186 872 236 928 C 285 984 341 1026 403 1056 C 465 1085 528 1100 592 1100 C 644 1100 692 1090 734 1071 C 776 1052 812 1025 842 991 C 871 955 894 913 910 863 C 926 813 934 758 934 696 C 934 673 933 650 931 627 C 929 604 925 579 920 551 L 125 551 C 123 533 121 516 120 498 C 119 480 119 462 119 444 C 119 390 124 337 136 287 C 148 236 167 191 193 153 C 218 113 251 82 292 58 C 333 34 383 23 442 23 C 485 23 525 28 562 40 C 598 52 632 68 664 89 C 695 109 724 132 751 159 C 777 186 803 215 827 246 L 866 217 C 840 183 812 152 783 123 C 754 94 723 69 689 48 C 654 26 616 8 576 -4 C 535 -16 490 -23 442 -23 Z M 877 596 C 880 615 882 633 883 649 C 884 665 885 680 885 696 C 885 750 878 800 864 844 C 850 888 831 926 806 958 C 780 988 749 1012 713 1029 C 677 1046 636 1055 592 1055 C 542 1055 492 1044 443 1024 C 394 1003 349 973 308 935 C 266 895 229 847 198 790 C 167 733 145 668 131 596 L 877 596 Z M 653 1501 L 686 1501 L 911 1182 L 868 1182 L 663 1436 L 360 1182 L 317 1182 L 653 1501 Z" unicode="ê" />
<glyph horiz-adv-x="1073" d="M 442 -23 C 374 -23 316 -10 269 16 C 221 42 183 76 154 120 C 124 163 103 213 90 269 C 76 325 70 384 70 444 C 70 548 85 640 116 722 C 146 803 186 872 236 928 C 285 984 341 1026 403 1056 C 465 1085 528 1100 592 1100 C 644 1100 692 1090 734 1071 C 776 1052 812 1025 842 991 C 871 955 894 913 910 863 C 926 813 934 758 934 696 C 934 673 933 650 931 627 C 929 604 925 579 920 551 L 125 551 C 123 533 121 516 120 498 C 119 480 119 462 119 444 C 119 390 124 337 136 287 C 148 236 167 191 193 153 C 218 113 251 82 292 58 C 333 34 383 23 442 23 C 485 23 525 28 562 40 C 598 52 632 68 664 89 C 695 109 724 132 751 159 C 777 186 803 215 827 246 L 866 217 C 840 183 812 152 783 123 C 754 94 723 69 689 48 C 654 26 616 8 576 -4 C 535 -16 490 -23 442 -23 Z M 877 596 C 880 615 882 633 883 649 C 884 665 885 680 885 696 C 885 750 878 800 864 844 C 850 888 831 926 806 958 C 780 988 749 1012 713 1029 C 677 1046 636 1055 592 1055 C 542 1055 492 1044 443 1024 C 394 1003 349 973 308 935 C 266 895 229 847 198 790 C 167 733 145 668 131 596 L 877 596 Z M 448 1292 L 516 1292 L 499 1192 L 432 1192 L 448 1292 Z M 749 1292 L 817 1292 L 800 1192 L 733 1192 L 749 1292 Z" unicode="ë" />
<glyph horiz-adv-x="420" d="M 246 1075 L 295 1075 L 104 0 L 55 0 L 246 1075 Z M 52 1501 L 132 1501 L 304 1192 L 271 1192 L 52 1501 Z" unicode="ì" />
<glyph horiz-adv-x="420" d="M 246 1075 L 295 1075 L 104 0 L 55 0 L 246 1075 Z M 538 1501 L 626 1501 L 300 1192 L 267 1192 L 538 1501 Z" unicode="í" />
<glyph horiz-adv-x="420" d="M 246 1075 L 295 1075 L 104 0 L 55 0 L 246 1075 Z M 326 1501 L 359 1501 L 584 1182 L 541 1182 L 336 1436 L 33 1182 L -10 1182 L 326 1501 Z" unicode="î" />
<glyph horiz-adv-x="420" d="M 246 1075 L 295 1075 L 104 0 L 55 0 L 246 1075 Z M 121 1292 L 189 1292 L 172 1192 L 105 1192 L 121 1292 Z M 422 1292 L 490 1292 L 473 1192 L 406 1192 L 422 1292 Z" unicode="ï" />
<glyph horiz-adv-x="1141" d="M 469 -23 C 406 -23 350 -10 301 14 C 252 38 211 72 177 116 C 143 159 117 210 99 269 C 81 327 72 391 72 459 C 72 519 78 577 92 632 C 106 687 125 738 150 786 C 174 833 203 876 237 915 C 271 953 308 986 348 1014 C 388 1040 430 1061 474 1076 C 518 1090 564 1098 610 1098 C 684 1098 747 1079 800 1043 C 853 1007 896 958 928 897 C 913 979 893 1054 868 1120 C 842 1186 811 1246 774 1300 L 567 1210 L 559 1251 L 752 1333 C 730 1361 708 1389 684 1415 C 660 1441 634 1465 608 1489 L 641 1524 C 671 1496 699 1469 725 1441 C 751 1413 776 1384 799 1354 L 1047 1462 L 1055 1421 L 823 1321 C 851 1279 875 1235 897 1188 C 918 1140 936 1088 951 1032 C 965 974 975 912 983 844 C 991 776 995 700 995 618 C 995 558 988 501 974 447 C 960 393 941 342 917 295 C 892 247 863 203 830 164 C 796 125 760 92 722 65 C 682 37 641 15 598 0 C 555 -15 512 -23 469 -23 Z M 469 23 C 508 23 547 30 586 44 C 625 58 662 78 698 104 C 733 130 766 161 796 197 C 826 233 853 273 875 318 C 897 362 914 409 927 460 C 939 510 946 563 946 618 C 946 680 938 738 923 791 C 907 844 885 890 857 929 C 827 967 792 998 750 1020 C 708 1042 662 1053 610 1053 C 568 1053 526 1046 486 1032 C 446 1018 408 999 372 974 C 335 948 301 918 271 882 C 240 846 214 807 192 763 C 169 719 151 671 139 620 C 127 568 121 515 121 459 C 121 397 128 340 144 287 C 160 233 183 187 213 149 C 243 109 279 78 322 56 C 365 34 414 23 469 23 Z" unicode="ð" />
<glyph horiz-adv-x="1135" d="M 236 1075 L 285 1075 L 254 895 C 282 916 313 939 349 963 C 385 987 423 1009 463 1029 C 503 1049 544 1065 588 1078 C 631 1091 675 1098 719 1098 C 777 1098 826 1090 864 1075 C 902 1059 931 1037 951 1009 C 971 979 982 944 986 902 C 990 860 987 812 977 758 L 844 0 L 795 0 L 930 766 C 936 805 939 842 937 877 C 935 912 927 943 913 969 C 897 995 874 1015 843 1030 C 812 1045 771 1053 719 1053 C 675 1053 630 1045 585 1029 C 539 1013 496 994 454 972 C 411 948 371 924 335 898 C 299 872 268 849 242 829 L 94 0 L 45 0 L 236 1075 Z M 342 1192 C 352 1252 369 1296 395 1323 C 421 1350 458 1364 508 1364 C 534 1364 560 1357 587 1344 C 614 1330 641 1316 668 1301 C 694 1285 719 1270 745 1257 C 770 1243 794 1237 817 1237 C 851 1237 878 1247 896 1267 C 914 1287 926 1320 934 1364 L 981 1364 C 970 1303 952 1259 927 1232 C 901 1205 864 1192 815 1192 C 789 1192 762 1198 736 1212 C 709 1225 683 1240 657 1256 C 631 1271 605 1285 580 1299 C 554 1312 530 1319 508 1319 C 472 1319 445 1308 427 1288 C 409 1268 396 1236 389 1192 L 342 1192 Z" unicode="ñ" />
<glyph horiz-adv-x="1143" d="M 467 23 C 539 23 604 39 663 73 C 721 106 772 151 814 207 C 856 263 888 328 911 402 C 934 476 946 553 946 635 C 946 695 938 750 923 801 C 908 852 886 896 858 934 C 828 971 793 1000 751 1021 C 709 1042 662 1053 608 1053 C 538 1053 474 1037 415 1006 C 355 974 304 931 261 877 C 217 821 183 756 158 682 C 133 607 121 526 121 440 C 121 380 128 324 144 274 C 159 223 181 179 211 142 C 240 104 276 75 319 54 C 362 33 411 23 467 23 Z M 467 -23 C 403 -23 347 -11 298 12 C 249 35 208 67 175 109 C 141 150 116 199 98 255 C 80 311 72 373 72 440 C 72 532 85 619 113 699 C 140 779 178 849 226 909 C 274 967 330 1013 396 1047 C 461 1081 532 1098 608 1098 C 669 1098 724 1086 772 1063 C 820 1039 860 1007 894 966 C 926 924 951 875 969 819 C 986 763 995 701 995 635 C 995 547 982 464 957 384 C 931 304 896 235 850 175 C 803 114 747 66 682 30 C 617 -5 545 -23 467 -23 Z M 471 1501 L 551 1501 L 723 1192 L 690 1192 L 471 1501 Z" unicode="ò" />
<glyph horiz-adv-x="1143" d="M 467 23 C 539 23 604 39 663 73 C 721 106 772 151 814 207 C 856 263 888 328 911 402 C 934 476 946 553 946 635 C 946 695 938 750 923 801 C 908 852 886 896 858 934 C 828 971 793 1000 751 1021 C 709 1042 662 1053 608 1053 C 538 1053 474 1037 415 1006 C 355 974 304 931 261 877 C 217 821 183 756 158 682 C 133 607 121 526 121 440 C 121 380 128 324 144 274 C 159 223 181 179 211 142 C 240 104 276 75 319 54 C 362 33 411 23 467 23 Z M 467 -23 C 403 -23 347 -11 298 12 C 249 35 208 67 175 109 C 141 150 116 199 98 255 C 80 311 72 373 72 440 C 72 532 85 619 113 699 C 140 779 178 849 226 909 C 274 967 330 1013 396 1047 C 461 1081 532 1098 608 1098 C 669 1098 724 1086 772 1063 C 820 1039 860 1007 894 966 C 926 924 951 875 969 819 C 986 763 995 701 995 635 C 995 547 982 464 957 384 C 931 304 896 235 850 175 C 803 114 747 66 682 30 C 617 -5 545 -23 467 -23 Z M 850 1501 L 938 1501 L 612 1192 L 579 1192 L 850 1501 Z" unicode="ó" />
<glyph horiz-adv-x="1143" d="M 467 23 C 539 23 604 39 663 73 C 721 106 772 151 814 207 C 856 263 888 328 911 402 C 934 476 946 553 946 635 C 946 695 938 750 923 801 C 908 852 886 896 858 934 C 828 971 793 1000 751 1021 C 709 1042 662 1053 608 1053 C 538 1053 474 1037 415 1006 C 355 974 304 931 261 877 C 217 821 183 756 158 682 C 133 607 121 526 121 440 C 121 380 128 324 144 274 C 159 223 181 179 211 142 C 240 104 276 75 319 54 C 362 33 411 23 467 23 Z M 467 -23 C 403 -23 347 -11 298 12 C 249 35 208 67 175 109 C 141 150 116 199 98 255 C 80 311 72 373 72 440 C 72 532 85 619 113 699 C 140 779 178 849 226 909 C 274 967 330 1013 396 1047 C 461 1081 532 1098 608 1098 C 669 1098 724 1086 772 1063 C 820 1039 860 1007 894 966 C 926 924 951 875 969 819 C 986 763 995 701 995 635 C 995 547 982 464 957 384 C 931 304 896 235 850 175 C 803 114 747 66 682 30 C 617 -5 545 -23 467 -23 Z M 688 1501 L 721 1501 L 946 1182 L 903 1182 L 698 1436 L 395 1182 L 352 1182 L 688 1501 Z" unicode="ô" />
<glyph horiz-adv-x="1143" d="M 467 23 C 539 23 604 39 663 73 C 721 106 772 151 814 207 C 856 263 888 328 911 402 C 934 476 946 553 946 635 C 946 695 938 750 923 801 C 908 852 886 896 858 934 C 828 971 793 1000 751 1021 C 709 1042 662 1053 608 1053 C 538 1053 474 1037 415 1006 C 355 974 304 931 261 877 C 217 821 183 756 158 682 C 133 607 121 526 121 440 C 121 380 128 324 144 274 C 159 223 181 179 211 142 C 240 104 276 75 319 54 C 362 33 411 23 467 23 Z M 467 -23 C 403 -23 347 -11 298 12 C 249 35 208 67 175 109 C 141 150 116 199 98 255 C 80 311 72 373 72 440 C 72 532 85 619 113 699 C 140 779 178 849 226 909 C 274 967 330 1013 396 1047 C 461 1081 532 1098 608 1098 C 669 1098 724 1086 772 1063 C 820 1039 860 1007 894 966 C 926 924 951 875 969 819 C 986 763 995 701 995 635 C 995 547 982 464 957 384 C 931 304 896 235 850 175 C 803 114 747 66 682 30 C 617 -5 545 -23 467 -23 Z M 346 1192 C 356 1252 373 1296 399 1323 C 425 1350 462 1364 512 1364 C 538 1364 564 1357 591 1344 C 618 1330 645 1316 672 1301 C 698 1285 723 1270 749 1257 C 774 1243 798 1237 821 1237 C 855 1237 882 1247 900 1267 C 918 1287 930 1320 938 1364 L 985 1364 C 974 1303 956 1259 931 1232 C 905 1205 868 1192 819 1192 C 793 1192 766 1198 740 1212 C 713 1225 687 1240 661 1256 C 635 1271 609 1285 584 1299 C 558 1312 534 1319 512 1319 C 476 1319 449 1308 431 1288 C 413 1268 400 1236 393 1192 L 346 1192 Z" unicode="õ" />
<glyph horiz-adv-x="1143" d="M 467 23 C 539 23 604 39 663 73 C 721 106 772 151 814 207 C 856 263 888 328 911 402 C 934 476 946 553 946 635 C 946 695 938 750 923 801 C 908 852 886 896 858 934 C 828 971 793 1000 751 1021 C 709 1042 662 1053 608 1053 C 538 1053 474 1037 415 1006 C 355 974 304 931 261 877 C 217 821 183 756 158 682 C 133 607 121 526 121 440 C 121 380 128 324 144 274 C 159 223 181 179 211 142 C 240 104 276 75 319 54 C 362 33 411 23 467 23 Z M 467 -23 C 403 -23 347 -11 298 12 C 249 35 208 67 175 109 C 141 150 116 199 98 255 C 80 311 72 373 72 440 C 72 532 85 619 113 699 C 140 779 178 849 226 909 C 274 967 330 1013 396 1047 C 461 1081 532 1098 608 1098 C 669 1098 724 1086 772 1063 C 820 1039 860 1007 894 966 C 926 924 951 875 969 819 C 986 763 995 701 995 635 C 995 547 982 464 957 384 C 931 304 896 235 850 175 C 803 114 747 66 682 30 C 617 -5 545 -23 467 -23 Z M 483 1292 L 551 1292 L 534 1192 L 467 1192 L 483 1292 Z M 784 1292 L 852 1292 L 835 1192 L 768 1192 L 784 1292 Z" unicode="ö" />
<glyph horiz-adv-x="1284" d="M 598 375 L 684 375 L 684 258 L 598 258 L 598 375 Z M 133 688 L 1151 688 L 1151 641 L 133 641 L 133 688 Z M 598 1069 L 684 1069 L 684 952 L 598 952 L 598 1069 Z" unicode="÷" />
<glyph horiz-adv-x="1141" d="M 80 -68 L 188 86 C 150 128 121 179 101 241 C 81 302 72 370 72 444 C 72 538 86 626 116 706 C 145 786 185 855 237 913 C 287 971 347 1016 415 1049 C 483 1081 555 1098 633 1098 C 676 1098 716 1090 753 1076 C 790 1061 823 1040 852 1014 L 950 1149 L 983 1128 L 881 985 C 917 943 945 891 965 831 C 985 770 995 703 995 631 C 995 569 988 510 975 454 C 961 398 943 346 919 298 C 894 249 864 205 830 165 C 796 125 758 92 717 65 C 675 37 630 15 582 0 C 534 -15 485 -23 434 -23 C 390 -23 350 -16 314 -2 C 278 12 245 31 217 57 L 113 -88 L 80 -68 Z M 434 23 C 504 23 570 38 632 70 C 694 101 749 144 796 199 C 842 253 878 318 905 392 C 932 466 946 545 946 631 C 946 695 937 754 921 807 C 905 860 882 906 852 944 L 246 98 C 270 74 298 56 330 43 C 361 29 396 23 434 23 Z M 825 975 C 799 999 770 1018 738 1032 C 706 1046 671 1053 633 1053 C 563 1053 496 1037 434 1007 C 372 977 318 935 272 881 C 225 827 188 762 161 688 C 134 613 121 532 121 444 C 121 379 129 319 146 265 C 162 211 186 165 217 127 L 825 975 Z" unicode="ø" />
<glyph horiz-adv-x="1133" d="M 342 -23 C 282 -23 234 -15 196 0 C 158 15 130 37 110 67 C 90 95 78 131 74 173 C 70 215 74 263 84 317 L 217 1075 L 266 1075 L 131 309 C 123 269 120 232 122 198 C 124 163 132 133 148 107 C 163 81 186 60 217 45 C 248 30 290 23 342 23 C 386 23 430 30 476 46 C 521 62 565 81 608 104 C 650 126 689 150 725 176 C 761 202 793 225 819 246 L 967 1075 L 1016 1075 L 825 0 L 776 0 L 809 180 C 781 158 749 136 713 112 C 677 88 640 66 600 46 C 559 26 517 9 473 -3 C 429 -16 386 -23 342 -23 Z M 465 1501 L 545 1501 L 717 1192 L 684 1192 L 465 1501 Z" unicode="ù" />
<glyph horiz-adv-x="1133" d="M 342 -23 C 282 -23 234 -15 196 0 C 158 15 130 37 110 67 C 90 95 78 131 74 173 C 70 215 74 263 84 317 L 217 1075 L 266 1075 L 131 309 C 123 269 120 232 122 198 C 124 163 132 133 148 107 C 163 81 186 60 217 45 C 248 30 290 23 342 23 C 386 23 430 30 476 46 C 521 62 565 81 608 104 C 650 126 689 150 725 176 C 761 202 793 225 819 246 L 967 1075 L 1016 1075 L 825 0 L 776 0 L 809 180 C 781 158 749 136 713 112 C 677 88 640 66 600 46 C 559 26 517 9 473 -3 C 429 -16 386 -23 342 -23 Z M 844 1501 L 932 1501 L 606 1192 L 573 1192 L 844 1501 Z" unicode="ú" />
<glyph horiz-adv-x="1133" d="M 342 -23 C 282 -23 234 -15 196 0 C 158 15 130 37 110 67 C 90 95 78 131 74 173 C 70 215 74 263 84 317 L 217 1075 L 266 1075 L 131 309 C 123 269 120 232 122 198 C 124 163 132 133 148 107 C 163 81 186 60 217 45 C 248 30 290 23 342 23 C 386 23 430 30 476 46 C 521 62 565 81 608 104 C 650 126 689 150 725 176 C 761 202 793 225 819 246 L 967 1075 L 1016 1075 L 825 0 L 776 0 L 809 180 C 781 158 749 136 713 112 C 677 88 640 66 600 46 C 559 26 517 9 473 -3 C 429 -16 386 -23 342 -23 Z M 682 1501 L 715 1501 L 940 1182 L 897 1182 L 692 1436 L 389 1182 L 346 1182 L 682 1501 Z" unicode="û" />
<glyph horiz-adv-x="1133" d="M 342 -23 C 282 -23 234 -15 196 0 C 158 15 130 37 110 67 C 90 95 78 131 74 173 C 70 215 74 263 84 317 L 217 1075 L 266 1075 L 131 309 C 123 269 120 232 122 198 C 124 163 132 133 148 107 C 163 81 186 60 217 45 C 248 30 290 23 342 23 C 386 23 430 30 476 46 C 521 62 565 81 608 104 C 650 126 689 150 725 176 C 761 202 793 225 819 246 L 967 1075 L 1016 1075 L 825 0 L 776 0 L 809 180 C 781 158 749 136 713 112 C 677 88 640 66 600 46 C 559 26 517 9 473 -3 C 429 -16 386 -23 342 -23 Z M 477 1292 L 545 1292 L 528 1192 L 461 1192 L 477 1292 Z M 778 1292 L 846 1292 L 829 1192 L 762 1192 L 778 1292 Z" unicode="ü" />
<glyph horiz-adv-x="1001" d="M -66 -416 C -91 -416 -117 -414 -143 -411 C -169 -407 -199 -401 -231 -393 L -215 -346 C -185 -354 -157 -360 -131 -364 C -105 -368 -80 -371 -57 -371 C -21 -371 10 -366 39 -358 C 67 -350 94 -338 118 -322 C 142 -305 164 -284 184 -260 C 204 -235 224 -206 242 -174 L 334 -8 L 135 1075 L 182 1075 L 371 55 L 936 1075 L 985 1075 L 281 -193 C 259 -230 237 -263 214 -291 C 190 -319 165 -342 137 -361 C 109 -379 78 -392 45 -402 C 11 -411 -25 -416 -66 -416 Z M 779 1501 L 867 1501 L 541 1192 L 508 1192 L 779 1501 Z" unicode="ý" />
<glyph horiz-adv-x="1159" d="M 313 1516 L 362 1516 L 256 915 C 282 938 311 961 343 983 C 374 1005 407 1024 443 1042 C 477 1058 513 1072 551 1082 C 588 1092 626 1098 664 1098 C 718 1098 766 1087 810 1066 C 853 1045 890 1015 921 977 C 951 937 974 890 991 835 C 1007 779 1016 717 1016 649 C 1016 543 1003 449 977 366 C 951 283 915 213 869 156 C 823 98 768 53 706 23 C 643 -7 575 -23 502 -23 C 455 -23 413 -18 375 -8 C 337 2 304 16 274 34 C 243 52 215 73 191 98 C 167 122 145 149 125 178 L 23 -410 L -27 -410 L 313 1516 Z M 502 23 C 568 23 629 37 686 66 C 742 94 792 136 834 190 C 875 243 907 308 931 386 C 955 463 967 551 967 649 C 967 710 959 766 945 816 C 930 866 910 908 884 944 C 857 978 825 1005 788 1024 C 750 1043 709 1053 664 1053 C 625 1053 586 1046 547 1034 C 508 1022 470 1006 434 987 C 397 967 362 944 330 920 C 297 895 268 870 244 846 L 137 242 C 155 212 176 183 200 157 C 223 130 249 107 279 87 C 308 67 341 51 378 40 C 414 28 456 23 502 23 Z" unicode="þ" />
<glyph horiz-adv-x="1001" d="M -66 -416 C -91 -416 -117 -414 -143 -411 C -169 -407 -199 -401 -231 -393 L -215 -346 C -185 -354 -157 -360 -131 -364 C -105 -368 -80 -371 -57 -371 C -21 -371 10 -366 39 -358 C 67 -350 94 -338 118 -322 C 142 -305 164 -284 184 -260 C 204 -235 224 -206 242 -174 L 334 -8 L 135 1075 L 182 1075 L 371 55 L 936 1075 L 985 1075 L 281 -193 C 259 -230 237 -263 214 -291 C 190 -319 165 -342 137 -361 C 109 -379 78 -392 45 -402 C 11 -411 -25 -416 -66 -416 Z M 412 1292 L 480 1292 L 463 1192 L 396 1192 L 412 1292 Z M 713 1292 L 781 1292 L 764 1192 L 697 1192 L 713 1292 Z" unicode="ÿ" />
<glyph horiz-adv-x="1305" d="M 762 1524 L 817 1524 L 1090 0 L 1038 0 L 942 545 L 299 545 L 10 0 L -47 0 L 762 1524 Z M 934 592 L 780 1454 L 324 592 L 934 592 Z M 628 1660 L 996 1660 L 988 1611 L 620 1611 L 628 1660 Z" unicode="Ā" />
<glyph horiz-adv-x="1061" d="M 307 -29 C 261 -29 221 -23 185 -11 C 149 1 119 18 94 40 C 68 61 49 87 36 117 C 22 147 16 181 16 217 C 16 283 30 340 58 389 C 86 437 133 481 198 519 C 262 556 347 589 453 618 C 559 646 689 674 844 700 L 860 795 C 866 833 868 867 866 899 C 864 930 855 957 840 981 C 824 1003 801 1021 771 1034 C 741 1046 701 1053 653 1053 C 606 1053 561 1047 519 1035 C 476 1023 436 1009 400 991 C 362 972 328 952 297 930 C 266 908 239 886 217 866 L 184 901 C 208 923 237 945 270 969 C 303 992 340 1013 380 1033 C 420 1051 462 1067 508 1079 C 554 1091 602 1098 653 1098 C 709 1098 756 1090 794 1076 C 831 1061 860 1040 880 1014 C 900 986 912 953 916 914 C 920 875 917 832 909 784 L 811 233 C 805 205 801 179 799 157 C 796 135 794 115 794 97 C 792 78 792 61 793 45 C 793 29 795 14 797 0 L 745 0 C 743 16 742 31 742 45 C 741 59 741 72 742 86 C 742 99 743 113 745 127 C 747 141 749 158 752 176 C 724 152 694 127 661 103 C 628 79 593 57 556 38 C 518 18 479 1 437 -10 C 395 -22 351 -29 307 -29 Z M 307 16 C 356 16 403 23 448 39 C 492 54 534 73 574 97 C 612 119 648 144 680 171 C 712 197 740 222 764 246 L 836 651 C 694 627 575 603 477 577 C 379 551 299 521 239 488 C 177 454 133 416 106 372 C 79 328 66 277 66 219 C 66 189 71 161 82 137 C 93 112 109 91 131 73 C 151 55 176 41 206 31 C 236 21 269 16 307 16 Z M 434 1241 L 802 1241 L 794 1192 L 426 1192 L 434 1241 Z" unicode="ā" />
<glyph horiz-adv-x="1305" d="M 762 1524 L 817 1524 L 1090 0 L 1038 0 L 942 545 L 299 545 L 10 0 L -47 0 L 762 1524 Z M 934 592 L 780 1454 L 324 592 L 934 592 Z M 814 1609 C 776 1609 742 1616 710 1631 C 678 1646 650 1668 628 1696 C 605 1724 588 1758 578 1798 C 568 1838 566 1884 572 1935 L 611 1935 C 605 1891 607 1851 616 1817 C 624 1782 638 1753 657 1729 C 675 1705 697 1686 725 1673 C 752 1660 782 1654 814 1654 C 846 1654 877 1660 908 1673 C 938 1686 967 1705 993 1729 C 1019 1753 1042 1782 1062 1817 C 1082 1851 1097 1891 1107 1935 L 1146 1935 C 1134 1884 1118 1838 1096 1798 C 1074 1758 1048 1724 1019 1696 C 989 1668 957 1646 922 1631 C 887 1616 851 1609 814 1609 Z" unicode="Ă" />
<glyph horiz-adv-x="1061" d="M 307 -29 C 261 -29 221 -23 185 -11 C 149 1 119 18 94 40 C 68 61 49 87 36 117 C 22 147 16 181 16 217 C 16 283 30 340 58 389 C 86 437 133 481 198 519 C 262 556 347 589 453 618 C 559 646 689 674 844 700 L 860 795 C 866 833 868 867 866 899 C 864 930 855 957 840 981 C 824 1003 801 1021 771 1034 C 741 1046 701 1053 653 1053 C 606 1053 561 1047 519 1035 C 476 1023 436 1009 400 991 C 362 972 328 952 297 930 C 266 908 239 886 217 866 L 184 901 C 208 923 237 945 270 969 C 303 992 340 1013 380 1033 C 420 1051 462 1067 508 1079 C 554 1091 602 1098 653 1098 C 709 1098 756 1090 794 1076 C 831 1061 860 1040 880 1014 C 900 986 912 953 916 914 C 920 875 917 832 909 784 L 811 233 C 805 205 801 179 799 157 C 796 135 794 115 794 97 C 792 78 792 61 793 45 C 793 29 795 14 797 0 L 745 0 C 743 16 742 31 742 45 C 741 59 741 72 742 86 C 742 99 743 113 745 127 C 747 141 749 158 752 176 C 724 152 694 127 661 103 C 628 79 593 57 556 38 C 518 18 479 1 437 -10 C 395 -22 351 -29 307 -29 Z M 307 16 C 356 16 403 23 448 39 C 492 54 534 73 574 97 C 612 119 648 144 680 171 C 712 197 740 222 764 246 L 836 651 C 694 627 575 603 477 577 C 379 551 299 521 239 488 C 177 454 133 416 106 372 C 79 328 66 277 66 219 C 66 189 71 161 82 137 C 93 112 109 91 131 73 C 151 55 176 41 206 31 C 236 21 269 16 307 16 Z M 620 1190 C 582 1190 548 1197 516 1212 C 484 1227 456 1249 434 1277 C 411 1305 394 1339 384 1379 C 374 1419 372 1465 378 1516 L 417 1516 C 411 1472 413 1432 422 1398 C 430 1363 444 1334 463 1310 C 481 1286 503 1267 531 1254 C 558 1241 588 1235 620 1235 C 652 1235 683 1241 714 1254 C 744 1267 773 1286 799 1310 C 825 1334 848 1363 868 1398 C 888 1432 903 1472 913 1516 L 952 1516 C 940 1465 924 1419 902 1379 C 880 1339 854 1305 825 1277 C 795 1249 763 1227 728 1212 C 693 1197 657 1190 620 1190 Z" unicode="ă" />
<glyph horiz-adv-x="1305" d="M 762 1524 L 817 1524 L 1090 0 L 1038 0 L 942 545 L 299 545 L 10 0 L -47 0 L 762 1524 Z M 934 592 L 780 1454 L 324 592 L 934 592 Z M 972 -379 C 918 -379 877 -366 848 -341 C 819 -316 805 -284 805 -244 C 805 -214 811 -188 825 -164 C 838 -140 856 -118 878 -98 C 899 -77 923 -58 951 -42 C 978 -25 1006 -10 1034 4 L 1093 4 C 1070 -8 1045 -22 1017 -38 C 989 -54 963 -72 939 -93 C 914 -113 893 -135 877 -161 C 860 -186 852 -214 852 -244 C 852 -274 863 -298 885 -315 C 907 -331 936 -340 972 -340 C 1000 -340 1029 -337 1059 -331 C 1089 -325 1121 -316 1153 -303 L 1167 -338 C 1131 -355 1096 -366 1062 -371 C 1028 -376 998 -379 972 -379 Z" unicode="Ą" />
<glyph horiz-adv-x="1061" d="M 307 -29 C 261 -29 221 -23 185 -11 C 149 1 119 18 94 40 C 68 61 49 87 36 117 C 22 147 16 181 16 217 C 16 283 30 340 58 389 C 86 437 133 481 198 519 C 262 556 347 589 453 618 C 559 646 689 674 844 700 L 860 795 C 866 833 868 867 866 899 C 864 930 855 957 840 981 C 824 1003 801 1021 771 1034 C 741 1046 701 1053 653 1053 C 606 1053 561 1047 519 1035 C 476 1023 436 1009 400 991 C 362 972 328 952 297 930 C 266 908 239 886 217 866 L 184 901 C 208 923 237 945 270 969 C 303 992 340 1013 380 1033 C 420 1051 462 1067 508 1079 C 554 1091 602 1098 653 1098 C 709 1098 756 1090 794 1076 C 831 1061 860 1040 880 1014 C 900 986 912 953 916 914 C 920 875 917 832 909 784 L 811 233 C 805 205 801 179 799 157 C 796 135 794 115 794 97 C 792 78 792 61 793 45 C 793 29 795 14 797 0 L 745 0 C 743 16 742 31 742 45 C 741 59 741 72 742 86 C 742 99 743 113 745 127 C 747 141 749 158 752 176 C 724 152 694 127 661 103 C 628 79 593 57 556 38 C 518 18 479 1 437 -10 C 395 -22 351 -29 307 -29 Z M 307 16 C 356 16 403 23 448 39 C 492 54 534 73 574 97 C 612 119 648 144 680 171 C 712 197 740 222 764 246 L 836 651 C 694 627 575 603 477 577 C 379 551 299 521 239 488 C 177 454 133 416 106 372 C 79 328 66 277 66 219 C 66 189 71 161 82 137 C 93 112 109 91 131 73 C 151 55 176 41 206 31 C 236 21 269 16 307 16 Z M 671 -379 C 617 -379 576 -366 547 -341 C 518 -316 504 -284 504 -244 C 504 -214 510 -188 524 -164 C 537 -140 555 -118 577 -98 C 598 -77 622 -58 650 -42 C 677 -25 705 -10 733 4 L 792 4 C 769 -8 744 -22 716 -38 C 688 -54 662 -72 638 -93 C 613 -113 592 -135 576 -161 C 559 -186 551 -214 551 -244 C 551 -274 562 -298 584 -315 C 606 -331 635 -340 671 -340 C 699 -340 728 -337 758 -331 C 788 -325 820 -316 852 -303 L 866 -338 C 830 -355 795 -366 761 -371 C 727 -376 697 -379 671 -379 Z" unicode="ą" />
<glyph horiz-adv-x="1397" d="M 629 -31 C 546 -31 473 -14 410 18 C 347 51 294 97 252 155 C 209 212 177 280 155 358 C 133 436 123 521 123 612 C 123 700 131 784 148 864 C 165 944 189 1019 221 1089 C 252 1157 289 1220 333 1276 C 377 1332 425 1381 479 1421 C 531 1461 588 1491 649 1513 C 709 1535 772 1546 838 1546 C 924 1546 996 1533 1053 1508 C 1110 1482 1156 1449 1192 1407 C 1226 1364 1252 1315 1270 1260 C 1288 1205 1301 1148 1309 1090 L 1255 1083 C 1247 1137 1236 1189 1221 1239 C 1205 1289 1182 1333 1152 1372 C 1120 1410 1079 1440 1029 1464 C 979 1487 915 1499 838 1499 C 777 1499 718 1488 662 1468 C 606 1447 553 1418 505 1380 C 455 1342 410 1296 370 1243 C 329 1189 294 1130 266 1065 C 236 999 214 927 198 851 C 182 775 174 695 174 612 C 174 528 183 449 203 377 C 223 304 252 241 291 188 C 329 134 376 92 433 62 C 489 31 555 16 629 16 C 705 16 771 29 828 55 C 885 81 935 115 978 158 C 1020 200 1056 247 1087 301 C 1118 355 1146 409 1171 465 L 1219 446 C 1203 409 1185 372 1165 334 C 1145 296 1122 260 1098 225 C 1072 189 1044 156 1013 125 C 982 94 948 67 910 44 C 871 20 828 2 782 -11 C 736 -24 685 -31 629 -31 Z M 1051 1920 L 1139 1920 L 813 1611 L 780 1611 L 1051 1920 Z" unicode="Ć" />
<glyph horiz-adv-x="1057" d="M 416 -23 C 358 -23 308 -10 266 14 C 223 38 187 72 159 114 C 129 156 107 204 93 260 C 79 316 72 375 72 438 C 72 509 79 575 94 635 C 109 695 130 749 156 799 C 182 847 212 890 247 928 C 282 965 320 996 360 1022 C 399 1046 440 1065 483 1078 C 525 1091 568 1098 610 1098 C 664 1098 710 1091 748 1078 C 785 1064 816 1045 842 1020 C 867 994 887 963 903 927 C 918 891 931 850 942 805 L 895 795 C 885 835 874 871 861 903 C 847 935 830 962 809 985 C 787 1007 760 1024 728 1036 C 696 1048 656 1055 610 1055 C 572 1055 534 1049 496 1037 C 457 1025 420 1007 384 983 C 347 959 313 929 281 895 C 249 860 221 820 198 774 C 174 728 155 677 141 621 C 127 565 121 504 121 438 C 121 382 127 328 140 278 C 152 228 171 184 196 146 C 220 108 251 78 288 56 C 325 34 368 23 416 23 C 460 23 501 27 538 37 C 575 47 610 62 643 83 C 675 103 706 130 735 162 C 763 194 791 233 819 279 L 860 252 C 830 203 799 161 767 127 C 735 92 701 64 666 42 C 630 19 591 2 550 -7 C 509 -17 464 -23 416 -23 Z M 807 1501 L 895 1501 L 569 1192 L 536 1192 L 807 1501 Z" unicode="ć" />
<glyph horiz-adv-x="1397" d="M 629 -31 C 546 -31 473 -14 410 18 C 347 51 294 97 252 155 C 209 212 177 280 155 358 C 133 436 123 521 123 612 C 123 700 131 784 148 864 C 165 944 189 1019 221 1089 C 252 1157 289 1220 333 1276 C 377 1332 425 1381 479 1421 C 531 1461 588 1491 649 1513 C 709 1535 772 1546 838 1546 C 924 1546 996 1533 1053 1508 C 1110 1482 1156 1449 1192 1407 C 1226 1364 1252 1315 1270 1260 C 1288 1205 1301 1148 1309 1090 L 1255 1083 C 1247 1137 1236 1189 1221 1239 C 1205 1289 1182 1333 1152 1372 C 1120 1410 1079 1440 1029 1464 C 979 1487 915 1499 838 1499 C 777 1499 718 1488 662 1468 C 606 1447 553 1418 505 1380 C 455 1342 410 1296 370 1243 C 329 1189 294 1130 266 1065 C 236 999 214 927 198 851 C 182 775 174 695 174 612 C 174 528 183 449 203 377 C 223 304 252 241 291 188 C 329 134 376 92 433 62 C 489 31 555 16 629 16 C 705 16 771 29 828 55 C 885 81 935 115 978 158 C 1020 200 1056 247 1087 301 C 1118 355 1146 409 1171 465 L 1219 446 C 1203 409 1185 372 1165 334 C 1145 296 1122 260 1098 225 C 1072 189 1044 156 1013 125 C 982 94 948 67 910 44 C 871 20 828 2 782 -11 C 736 -24 685 -31 629 -31 Z M 913 1912 L 946 1912 L 1171 1593 L 1128 1593 L 923 1847 L 620 1593 L 577 1593 L 913 1912 Z" unicode="Ĉ" />
<glyph horiz-adv-x="1057" d="M 416 -23 C 358 -23 308 -10 266 14 C 223 38 187 72 159 114 C 129 156 107 204 93 260 C 79 316 72 375 72 438 C 72 509 79 575 94 635 C 109 695 130 749 156 799 C 182 847 212 890 247 928 C 282 965 320 996 360 1022 C 399 1046 440 1065 483 1078 C 525 1091 568 1098 610 1098 C 664 1098 710 1091 748 1078 C 785 1064 816 1045 842 1020 C 867 994 887 963 903 927 C 918 891 931 850 942 805 L 895 795 C 885 835 874 871 861 903 C 847 935 830 962 809 985 C 787 1007 760 1024 728 1036 C 696 1048 656 1055 610 1055 C 572 1055 534 1049 496 1037 C 457 1025 420 1007 384 983 C 347 959 313 929 281 895 C 249 860 221 820 198 774 C 174 728 155 677 141 621 C 127 565 121 504 121 438 C 121 382 127 328 140 278 C 152 228 171 184 196 146 C 220 108 251 78 288 56 C 325 34 368 23 416 23 C 460 23 501 27 538 37 C 575 47 610 62 643 83 C 675 103 706 130 735 162 C 763 194 791 233 819 279 L 860 252 C 830 203 799 161 767 127 C 735 92 701 64 666 42 C 630 19 591 2 550 -7 C 509 -17 464 -23 416 -23 Z M 676 1501 L 709 1501 L 934 1182 L 891 1182 L 686 1436 L 383 1182 L 340 1182 L 676 1501 Z" unicode="ĉ" />
<glyph horiz-adv-x="1397" d="M 629 -31 C 546 -31 473 -14 410 18 C 347 51 294 97 252 155 C 209 212 177 280 155 358 C 133 436 123 521 123 612 C 123 700 131 784 148 864 C 165 944 189 1019 221 1089 C 252 1157 289 1220 333 1276 C 377 1332 425 1381 479 1421 C 531 1461 588 1491 649 1513 C 709 1535 772 1546 838 1546 C 924 1546 996 1533 1053 1508 C 1110 1482 1156 1449 1192 1407 C 1226 1364 1252 1315 1270 1260 C 1288 1205 1301 1148 1309 1090 L 1255 1083 C 1247 1137 1236 1189 1221 1239 C 1205 1289 1182 1333 1152 1372 C 1120 1410 1079 1440 1029 1464 C 979 1487 915 1499 838 1499 C 777 1499 718 1488 662 1468 C 606 1447 553 1418 505 1380 C 455 1342 410 1296 370 1243 C 329 1189 294 1130 266 1065 C 236 999 214 927 198 851 C 182 775 174 695 174 612 C 174 528 183 449 203 377 C 223 304 252 241 291 188 C 329 134 376 92 433 62 C 489 31 555 16 629 16 C 705 16 771 29 828 55 C 885 81 935 115 978 158 C 1020 200 1056 247 1087 301 C 1118 355 1146 409 1171 465 L 1219 446 C 1203 409 1185 372 1165 334 C 1145 296 1122 260 1098 225 C 1072 189 1044 156 1013 125 C 982 94 948 67 910 44 C 871 20 828 2 782 -11 C 736 -24 685 -31 629 -31 Z M 862 1803 L 931 1803 L 915 1713 L 845 1713 L 862 1803 Z" unicode="Ċ" />
<glyph horiz-adv-x="1057" d="M 416 -23 C 358 -23 308 -10 266 14 C 223 38 187 72 159 114 C 129 156 107 204 93 260 C 79 316 72 375 72 438 C 72 509 79 575 94 635 C 109 695 130 749 156 799 C 182 847 212 890 247 928 C 282 965 320 996 360 1022 C 399 1046 440 1065 483 1078 C 525 1091 568 1098 610 1098 C 664 1098 710 1091 748 1078 C 785 1064 816 1045 842 1020 C 867 994 887 963 903 927 C 918 891 931 850 942 805 L 895 795 C 885 835 874 871 861 903 C 847 935 830 962 809 985 C 787 1007 760 1024 728 1036 C 696 1048 656 1055 610 1055 C 572 1055 534 1049 496 1037 C 457 1025 420 1007 384 983 C 347 959 313 929 281 895 C 249 860 221 820 198 774 C 174 728 155 677 141 621 C 127 565 121 504 121 438 C 121 382 127 328 140 278 C 152 228 171 184 196 146 C 220 108 251 78 288 56 C 325 34 368 23 416 23 C 460 23 501 27 538 37 C 575 47 610 62 643 83 C 675 103 706 130 735 162 C 763 194 791 233 819 279 L 860 252 C 830 203 799 161 767 127 C 735 92 701 64 666 42 C 630 19 591 2 550 -7 C 509 -17 464 -23 416 -23 Z M 637 1384 L 706 1384 L 690 1294 L 620 1294 L 637 1384 Z" unicode="ċ" />
<glyph horiz-adv-x="1397" d="M 629 -31 C 546 -31 473 -14 410 18 C 347 51 294 97 252 155 C 209 212 177 280 155 358 C 133 436 123 521 123 612 C 123 700 131 784 148 864 C 165 944 189 1019 221 1089 C 252 1157 289 1220 333 1276 C 377 1332 425 1381 479 1421 C 531 1461 588 1491 649 1513 C 709 1535 772 1546 838 1546 C 924 1546 996 1533 1053 1508 C 1110 1482 1156 1449 1192 1407 C 1226 1364 1252 1315 1270 1260 C 1288 1205 1301 1148 1309 1090 L 1255 1083 C 1247 1137 1236 1189 1221 1239 C 1205 1289 1182 1333 1152 1372 C 1120 1410 1079 1440 1029 1464 C 979 1487 915 1499 838 1499 C 777 1499 718 1488 662 1468 C 606 1447 553 1418 505 1380 C 455 1342 410 1296 370 1243 C 329 1189 294 1130 266 1065 C 236 999 214 927 198 851 C 182 775 174 695 174 612 C 174 528 183 449 203 377 C 223 304 252 241 291 188 C 329 134 376 92 433 62 C 489 31 555 16 629 16 C 705 16 771 29 828 55 C 885 81 935 115 978 158 C 1020 200 1056 247 1087 301 C 1118 355 1146 409 1171 465 L 1219 446 C 1203 409 1185 372 1165 334 C 1145 296 1122 260 1098 225 C 1072 189 1044 156 1013 125 C 982 94 948 67 910 44 C 871 20 828 2 782 -11 C 736 -24 685 -31 629 -31 Z M 610 1930 L 653 1930 L 860 1676 L 1161 1930 L 1204 1930 L 868 1611 L 835 1611 L 610 1930 Z" unicode="Č" />
<glyph horiz-adv-x="1057" d="M 416 -23 C 358 -23 308 -10 266 14 C 223 38 187 72 159 114 C 129 156 107 204 93 260 C 79 316 72 375 72 438 C 72 509 79 575 94 635 C 109 695 130 749 156 799 C 182 847 212 890 247 928 C 282 965 320 996 360 1022 C 399 1046 440 1065 483 1078 C 525 1091 568 1098 610 1098 C 664 1098 710 1091 748 1078 C 785 1064 816 1045 842 1020 C 867 994 887 963 903 927 C 918 891 931 850 942 805 L 895 795 C 885 835 874 871 861 903 C 847 935 830 962 809 985 C 787 1007 760 1024 728 1036 C 696 1048 656 1055 610 1055 C 572 1055 534 1049 496 1037 C 457 1025 420 1007 384 983 C 347 959 313 929 281 895 C 249 860 221 820 198 774 C 174 728 155 677 141 621 C 127 565 121 504 121 438 C 121 382 127 328 140 278 C 152 228 171 184 196 146 C 220 108 251 78 288 56 C 325 34 368 23 416 23 C 460 23 501 27 538 37 C 575 47 610 62 643 83 C 675 103 706 130 735 162 C 763 194 791 233 819 279 L 860 252 C 830 203 799 161 767 127 C 735 92 701 64 666 42 C 630 19 591 2 550 -7 C 509 -17 464 -23 416 -23 Z M 366 1511 L 409 1511 L 616 1257 L 917 1511 L 960 1511 L 624 1192 L 591 1192 L 366 1511 Z" unicode="č" />
<glyph horiz-adv-x="1374" d="M 348 1516 L 588 1516 C 706 1516 808 1501 894 1473 C 980 1445 1051 1404 1107 1351 C 1162 1297 1203 1232 1230 1156 C 1256 1079 1270 993 1270 897 C 1270 748 1250 618 1212 506 C 1173 394 1117 300 1045 226 C 971 150 882 94 778 56 C 673 18 555 0 424 0 L 82 0 L 348 1516 Z M 424 47 C 547 47 658 64 756 100 C 854 136 938 189 1007 261 C 1075 331 1127 420 1164 526 C 1200 632 1219 756 1219 897 C 1219 985 1206 1065 1182 1136 C 1157 1206 1119 1266 1068 1316 C 1016 1365 950 1403 871 1429 C 791 1455 697 1468 588 1468 L 391 1468 L 141 47 L 424 47 Z M 577 1930 L 620 1930 L 827 1676 L 1128 1930 L 1171 1930 L 835 1611 L 802 1611 L 577 1930 Z" unicode="Ď" />
<glyph horiz-adv-x="1159" d="M 1282 1413 L 1245 1413 L 1264 1516 L 1339 1516 L 1323 1425 L 1257 1253 L 1225 1253 L 1282 1413 Z M 424 -23 C 370 -23 321 -12 278 8 C 234 29 198 59 168 99 C 137 137 113 184 97 240 C 80 295 72 357 72 426 C 72 530 85 624 111 708 C 137 791 173 862 219 920 C 265 977 319 1021 382 1052 C 444 1082 512 1098 586 1098 C 632 1098 674 1093 712 1083 C 749 1073 783 1059 814 1041 C 844 1023 872 1001 896 977 C 920 952 943 925 963 897 L 1071 1516 L 1120 1516 L 893 233 C 885 189 879 148 875 112 C 871 75 871 38 877 0 L 827 0 C 823 24 822 50 823 77 C 824 104 827 132 831 160 C 804 136 775 114 744 92 C 712 70 679 51 645 34 C 609 16 573 2 536 -7 C 499 -17 462 -23 424 -23 Z M 424 23 C 462 23 501 29 540 41 C 579 53 617 70 654 90 C 690 109 725 131 757 155 C 789 179 818 204 844 229 L 950 834 C 930 864 909 892 886 919 C 863 945 837 969 809 989 C 779 1008 746 1023 710 1035 C 673 1047 632 1053 586 1053 C 520 1053 458 1038 402 1010 C 345 981 296 940 255 886 C 213 832 180 766 156 689 C 132 611 121 524 121 426 C 121 364 128 309 142 259 C 156 209 177 167 204 133 C 230 97 262 70 300 51 C 337 32 378 23 424 23 Z" unicode="ď" />
<glyph horiz-adv-x="1374" d="M 215 766 L 53 766 L 61 813 L 223 813 L 348 1516 L 588 1516 C 706 1516 808 1501 894 1473 C 980 1445 1051 1404 1107 1351 C 1162 1297 1203 1232 1230 1156 C 1256 1079 1270 993 1270 897 C 1270 748 1250 618 1212 506 C 1173 394 1117 300 1045 226 C 971 150 882 94 778 56 C 673 18 555 0 424 0 L 82 0 L 215 766 Z M 424 47 C 547 47 658 64 756 100 C 854 136 938 189 1007 261 C 1075 331 1127 420 1164 526 C 1200 632 1219 756 1219 897 C 1219 985 1206 1065 1182 1136 C 1157 1206 1119 1266 1068 1316 C 1016 1365 950 1403 871 1429 C 791 1455 697 1468 588 1468 L 391 1468 L 274 813 L 557 813 L 549 766 L 266 766 L 141 47 L 424 47 Z" unicode="Đ" />
<glyph horiz-adv-x="1159" d="M 424 -23 C 370 -23 321 -12 278 8 C 234 29 198 59 168 99 C 137 137 113 184 97 240 C 80 295 72 357 72 426 C 72 530 85 624 111 708 C 137 791 173 862 219 920 C 265 977 319 1021 382 1052 C 444 1082 512 1098 586 1098 C 632 1098 674 1093 712 1083 C 749 1073 783 1059 814 1041 C 844 1023 872 1001 896 977 C 920 952 943 925 963 897 L 1020 1229 L 764 1229 L 772 1274 L 1028 1274 L 1071 1516 L 1120 1516 L 1077 1274 L 1266 1274 L 1257 1229 L 1069 1229 L 893 233 C 885 189 879 148 875 112 C 871 75 871 38 877 0 L 827 0 C 823 24 822 50 823 77 C 824 104 827 132 831 160 C 804 136 775 114 744 92 C 712 70 679 51 645 34 C 609 16 573 2 536 -7 C 499 -17 462 -23 424 -23 Z M 424 23 C 462 23 501 29 540 41 C 579 53 617 70 654 90 C 690 109 725 131 757 155 C 789 179 818 204 844 229 L 950 834 C 930 864 909 892 886 919 C 863 945 837 969 809 989 C 779 1008 746 1023 710 1035 C 673 1047 632 1053 586 1053 C 520 1053 458 1038 402 1010 C 345 981 296 940 255 886 C 213 832 180 766 156 689 C 132 611 121 524 121 426 C 121 364 128 309 142 259 C 156 209 177 167 204 133 C 230 97 262 70 300 51 C 337 32 378 23 424 23 Z" unicode="đ" />
<glyph horiz-adv-x="1167" d="M 348 1516 L 1184 1516 L 1176 1468 L 391 1468 L 279 829 L 868 829 L 860 782 L 270 782 L 141 47 L 940 47 L 932 0 L 82 0 L 348 1516 Z M 581 1660 L 949 1660 L 941 1611 L 573 1611 L 581 1660 Z" unicode="Ē" />
<glyph horiz-adv-x="1073" d="M 442 -23 C 374 -23 316 -10 269 16 C 221 42 183 76 154 120 C 124 163 103 213 90 269 C 76 325 70 384 70 444 C 70 548 85 640 116 722 C 146 803 186 872 236 928 C 285 984 341 1026 403 1056 C 465 1085 528 1100 592 1100 C 644 1100 692 1090 734 1071 C 776 1052 812 1025 842 991 C 871 955 894 913 910 863 C 926 813 934 758 934 696 C 934 673 933 650 931 627 C 929 604 925 579 920 551 L 125 551 C 123 533 121 516 120 498 C 119 480 119 462 119 444 C 119 390 124 337 136 287 C 148 236 167 191 193 153 C 218 113 251 82 292 58 C 333 34 383 23 442 23 C 485 23 525 28 562 40 C 598 52 632 68 664 89 C 695 109 724 132 751 159 C 777 186 803 215 827 246 L 866 217 C 840 183 812 152 783 123 C 754 94 723 69 689 48 C 654 26 616 8 576 -4 C 535 -16 490 -23 442 -23 Z M 877 596 C 880 615 882 633 883 649 C 884 665 885 680 885 696 C 885 750 878 800 864 844 C 850 888 831 926 806 958 C 780 988 749 1012 713 1029 C 677 1046 636 1055 592 1055 C 542 1055 492 1044 443 1024 C 394 1003 349 973 308 935 C 266 895 229 847 198 790 C 167 733 145 668 131 596 L 877 596 Z M 440 1241 L 808 1241 L 800 1192 L 432 1192 L 440 1241 Z" unicode="ē" />
<glyph horiz-adv-x="1167" d="M 348 1516 L 1184 1516 L 1176 1468 L 391 1468 L 279 829 L 868 829 L 860 782 L 270 782 L 141 47 L 940 47 L 932 0 L 82 0 L 348 1516 Z M 755 1609 C 717 1609 683 1616 651 1631 C 619 1646 591 1668 569 1696 C 546 1724 529 1758 519 1798 C 509 1838 507 1884 513 1935 L 552 1935 C 546 1891 548 1851 557 1817 C 565 1782 579 1753 598 1729 C 616 1705 638 1686 666 1673 C 693 1660 723 1654 755 1654 C 787 1654 818 1660 849 1673 C 879 1686 908 1705 934 1729 C 960 1753 983 1782 1003 1817 C 1023 1851 1038 1891 1048 1935 L 1087 1935 C 1075 1884 1059 1838 1037 1798 C 1015 1758 989 1724 960 1696 C 930 1668 898 1646 863 1631 C 828 1616 792 1609 755 1609 Z" unicode="Ĕ" />
<glyph horiz-adv-x="1073" d="M 442 -23 C 374 -23 316 -10 269 16 C 221 42 183 76 154 120 C 124 163 103 213 90 269 C 76 325 70 384 70 444 C 70 548 85 640 116 722 C 146 803 186 872 236 928 C 285 984 341 1026 403 1056 C 465 1085 528 1100 592 1100 C 644 1100 692 1090 734 1071 C 776 1052 812 1025 842 991 C 871 955 894 913 910 863 C 926 813 934 758 934 696 C 934 673 933 650 931 627 C 929 604 925 579 920 551 L 125 551 C 123 533 121 516 120 498 C 119 480 119 462 119 444 C 119 390 124 337 136 287 C 148 236 167 191 193 153 C 218 113 251 82 292 58 C 333 34 383 23 442 23 C 485 23 525 28 562 40 C 598 52 632 68 664 89 C 695 109 724 132 751 159 C 777 186 803 215 827 246 L 866 217 C 840 183 812 152 783 123 C 754 94 723 69 689 48 C 654 26 616 8 576 -4 C 535 -16 490 -23 442 -23 Z M 877 596 C 880 615 882 633 883 649 C 884 665 885 680 885 696 C 885 750 878 800 864 844 C 850 888 831 926 806 958 C 780 988 749 1012 713 1029 C 677 1046 636 1055 592 1055 C 542 1055 492 1044 443 1024 C 394 1003 349 973 308 935 C 266 895 229 847 198 790 C 167 733 145 668 131 596 L 877 596 Z M 616 1190 C 578 1190 544 1197 512 1212 C 480 1227 452 1249 430 1277 C 407 1305 390 1339 380 1379 C 370 1419 368 1465 374 1516 L 413 1516 C 407 1472 409 1432 418 1398 C 426 1363 440 1334 459 1310 C 477 1286 499 1267 527 1254 C 554 1241 584 1235 616 1235 C 648 1235 679 1241 710 1254 C 740 1267 769 1286 795 1310 C 821 1334 844 1363 864 1398 C 884 1432 899 1472 909 1516 L 948 1516 C 936 1465 920 1419 898 1379 C 876 1339 850 1305 821 1277 C 791 1249 759 1227 724 1212 C 689 1197 653 1190 616 1190 Z" unicode="ĕ" />
<glyph horiz-adv-x="1167" d="M 348 1516 L 1184 1516 L 1176 1468 L 391 1468 L 279 829 L 868 829 L 860 782 L 270 782 L 141 47 L 940 47 L 932 0 L 82 0 L 348 1516 Z M 755 1803 L 824 1803 L 808 1713 L 738 1713 L 755 1803 Z" unicode="Ė" />
<glyph horiz-adv-x="1073" d="M 442 -23 C 374 -23 316 -10 269 16 C 221 42 183 76 154 120 C 124 163 103 213 90 269 C 76 325 70 384 70 444 C 70 548 85 640 116 722 C 146 803 186 872 236 928 C 285 984 341 1026 403 1056 C 465 1085 528 1100 592 1100 C 644 1100 692 1090 734 1071 C 776 1052 812 1025 842 991 C 871 955 894 913 910 863 C 926 813 934 758 934 696 C 934 673 933 650 931 627 C 929 604 925 579 920 551 L 125 551 C 123 533 121 516 120 498 C 119 480 119 462 119 444 C 119 390 124 337 136 287 C 148 236 167 191 193 153 C 218 113 251 82 292 58 C 333 34 383 23 442 23 C 485 23 525 28 562 40 C 598 52 632 68 664 89 C 695 109 724 132 751 159 C 777 186 803 215 827 246 L 866 217 C 840 183 812 152 783 123 C 754 94 723 69 689 48 C 654 26 616 8 576 -4 C 535 -16 490 -23 442 -23 Z M 877 596 C 880 615 882 633 883 649 C 884 665 885 680 885 696 C 885 750 878 800 864 844 C 850 888 831 926 806 958 C 780 988 749 1012 713 1029 C 677 1046 636 1055 592 1055 C 542 1055 492 1044 443 1024 C 394 1003 349 973 308 935 C 266 895 229 847 198 790 C 167 733 145 668 131 596 L 877 596 Z M 614 1384 L 683 1384 L 667 1294 L 597 1294 L 614 1384 Z" unicode="ė" />
<glyph horiz-adv-x="1167" d="M 348 1516 L 1184 1516 L 1176 1468 L 391 1468 L 279 829 L 868 829 L 860 782 L 270 782 L 141 47 L 940 47 L 932 0 L 82 0 L 348 1516 Z M 763 -379 C 709 -379 668 -366 639 -341 C 610 -316 596 -284 596 -244 C 596 -214 602 -188 616 -164 C 629 -140 647 -118 669 -98 C 690 -77 714 -58 742 -42 C 769 -25 797 -10 825 4 L 884 4 C 861 -8 836 -22 808 -38 C 780 -54 754 -72 730 -93 C 705 -113 684 -135 668 -161 C 651 -186 643 -214 643 -244 C 643 -274 654 -298 676 -315 C 698 -331 727 -340 763 -340 C 791 -340 820 -337 850 -331 C 880 -325 912 -316 944 -303 L 958 -338 C 922 -355 887 -366 853 -371 C 819 -376 789 -379 763 -379 Z" unicode="Ę" />
<glyph horiz-adv-x="1073" d="M 442 -23 C 374 -23 316 -10 269 16 C 221 42 183 76 154 120 C 124 163 103 213 90 269 C 76 325 70 384 70 444 C 70 548 85 640 116 722 C 146 803 186 872 236 928 C 285 984 341 1026 403 1056 C 465 1085 528 1100 592 1100 C 644 1100 692 1090 734 1071 C 776 1052 812 1025 842 991 C 871 955 894 913 910 863 C 926 813 934 758 934 696 C 934 673 933 650 931 627 C 929 604 925 579 920 551 L 125 551 C 123 533 121 516 120 498 C 119 480 119 462 119 444 C 119 390 124 337 136 287 C 148 236 167 191 193 153 C 218 113 251 82 292 58 C 333 34 383 23 442 23 C 485 23 525 28 562 40 C 598 52 632 68 664 89 C 695 109 724 132 751 159 C 777 186 803 215 827 246 L 866 217 C 840 183 812 152 783 123 C 754 94 723 69 689 48 C 654 26 616 8 576 -4 C 535 -16 490 -23 442 -23 Z M 877 596 C 880 615 882 633 883 649 C 884 665 885 680 885 696 C 885 750 878 800 864 844 C 850 888 831 926 806 958 C 780 988 749 1012 713 1029 C 677 1046 636 1055 592 1055 C 542 1055 492 1044 443 1024 C 394 1003 349 973 308 935 C 266 895 229 847 198 790 C 167 733 145 668 131 596 L 877 596 Z M 452 -379 C 398 -379 357 -366 328 -341 C 299 -316 285 -284 285 -244 C 285 -214 291 -188 305 -164 C 318 -140 336 -118 358 -98 C 379 -77 403 -58 431 -42 C 458 -25 486 -10 514 4 L 573 4 C 550 -8 525 -22 497 -38 C 469 -54 443 -72 419 -93 C 394 -113 373 -135 357 -161 C 340 -186 332 -214 332 -244 C 332 -274 343 -298 365 -315 C 387 -331 416 -340 452 -340 C 480 -340 509 -337 539 -331 C 569 -325 601 -316 633 -303 L 647 -338 C 611 -355 576 -366 542 -371 C 508 -376 478 -379 452 -379 Z" unicode="ę" />
<glyph horiz-adv-x="1167" d="M 348 1516 L 1184 1516 L 1176 1468 L 391 1468 L 279 829 L 868 829 L 860 782 L 270 782 L 141 47 L 940 47 L 932 0 L 82 0 L 348 1516 Z M 515 1930 L 558 1930 L 765 1676 L 1066 1930 L 1109 1930 L 773 1611 L 740 1611 L 515 1930 Z" unicode="Ě" />
<glyph horiz-adv-x="1073" d="M 442 -23 C 374 -23 316 -10 269 16 C 221 42 183 76 154 120 C 124 163 103 213 90 269 C 76 325 70 384 70 444 C 70 548 85 640 116 722 C 146 803 186 872 236 928 C 285 984 341 1026 403 1056 C 465 1085 528 1100 592 1100 C 644 1100 692 1090 734 1071 C 776 1052 812 1025 842 991 C 871 955 894 913 910 863 C 926 813 934 758 934 696 C 934 673 933 650 931 627 C 929 604 925 579 920 551 L 125 551 C 123 533 121 516 120 498 C 119 480 119 462 119 444 C 119 390 124 337 136 287 C 148 236 167 191 193 153 C 218 113 251 82 292 58 C 333 34 383 23 442 23 C 485 23 525 28 562 40 C 598 52 632 68 664 89 C 695 109 724 132 751 159 C 777 186 803 215 827 246 L 866 217 C 840 183 812 152 783 123 C 754 94 723 69 689 48 C 654 26 616 8 576 -4 C 535 -16 490 -23 442 -23 Z M 877 596 C 880 615 882 633 883 649 C 884 665 885 680 885 696 C 885 750 878 800 864 844 C 850 888 831 926 806 958 C 780 988 749 1012 713 1029 C 677 1046 636 1055 592 1055 C 542 1055 492 1044 443 1024 C 394 1003 349 973 308 935 C 266 895 229 847 198 790 C 167 733 145 668 131 596 L 877 596 Z M 374 1511 L 417 1511 L 624 1257 L 925 1511 L 968 1511 L 632 1192 L 599 1192 L 374 1511 Z" unicode="ě" />
<glyph horiz-adv-x="1448" d="M 612 -23 C 541 -23 475 -10 415 15 C 355 41 303 80 259 132 C 214 183 179 247 154 325 C 129 403 117 494 117 598 C 117 671 125 745 141 821 C 157 896 180 969 211 1040 C 241 1110 278 1175 322 1237 C 366 1298 415 1352 471 1398 C 526 1444 587 1480 653 1506 C 719 1532 790 1546 866 1546 C 943 1546 1008 1534 1061 1510 C 1114 1486 1158 1454 1193 1412 C 1227 1370 1254 1320 1274 1263 C 1294 1205 1309 1143 1321 1075 L 1270 1067 C 1260 1129 1246 1186 1228 1239 C 1210 1291 1185 1337 1155 1376 C 1124 1414 1085 1444 1038 1466 C 991 1488 934 1499 866 1499 C 796 1499 730 1486 668 1461 C 606 1436 549 1402 498 1359 C 446 1315 399 1263 359 1205 C 318 1146 284 1083 256 1017 C 227 950 205 881 190 809 C 175 737 168 667 168 598 C 168 502 179 418 201 346 C 223 274 255 214 295 167 C 334 119 381 84 435 60 C 489 36 548 25 612 25 C 679 25 744 37 807 63 C 870 88 928 126 980 176 C 1031 226 1075 288 1113 363 C 1150 437 1176 524 1192 623 L 797 623 L 803 670 L 1251 670 L 1133 0 L 1081 0 L 1139 315 C 1111 262 1078 215 1040 173 C 1002 131 960 95 916 67 C 870 37 822 15 771 0 C 719 -15 666 -23 612 -23 Z M 911 1920 L 944 1920 L 1169 1601 L 1126 1601 L 921 1855 L 618 1601 L 575 1601 L 911 1920 Z" unicode="Ĝ" />
<glyph horiz-adv-x="1114" d="M 367 -410 C 209 -410 90 -387 10 -342 C -69 -296 -108 -234 -106 -156 C -106 -117 -97 -83 -81 -53 C -64 -23 -43 3 -17 27 C 9 49 39 69 71 85 C 103 101 136 115 168 127 C 136 139 113 155 101 174 C 88 192 82 218 82 250 C 82 288 96 320 125 348 C 153 375 192 400 240 424 C 204 454 176 491 156 535 C 136 579 127 628 127 682 C 127 741 138 796 161 847 C 183 898 214 942 254 980 C 292 1016 338 1045 391 1066 C 444 1087 501 1098 563 1098 C 613 1098 658 1090 699 1076 C 739 1061 775 1040 807 1012 C 829 1026 852 1040 878 1052 C 903 1064 929 1076 955 1086 C 980 1095 1005 1103 1030 1110 C 1054 1117 1077 1122 1098 1126 L 1090 1081 C 1070 1077 1050 1072 1028 1066 C 1006 1059 985 1051 963 1043 C 941 1033 919 1023 898 1013 C 876 1002 856 991 836 981 C 860 952 879 919 893 882 C 906 844 913 803 913 758 C 913 696 901 641 879 591 C 857 541 826 498 786 463 C 746 427 698 399 643 379 C 588 359 528 350 463 350 C 425 350 391 354 361 362 C 330 370 302 383 276 399 C 232 377 196 355 169 331 C 142 307 129 280 129 250 C 129 230 133 214 142 202 C 150 189 166 178 190 169 C 213 159 245 151 285 143 C 325 135 376 127 440 119 C 512 109 573 98 624 86 C 675 74 717 60 751 42 C 783 23 807 0 823 -26 C 838 -52 846 -85 846 -125 C 846 -170 834 -210 812 -246 C 789 -281 757 -311 716 -336 C 674 -360 623 -378 564 -391 C 505 -403 439 -410 367 -410 Z M 367 -365 C 434 -365 494 -359 548 -349 C 601 -338 646 -323 684 -303 C 720 -282 748 -257 768 -227 C 787 -197 797 -163 797 -125 C 797 -95 790 -69 777 -48 C 764 -27 743 -9 715 6 C 686 20 649 33 603 44 C 557 54 500 64 434 74 C 392 79 355 84 323 89 C 291 94 262 100 238 106 C 194 92 154 76 118 59 C 82 42 51 23 25 2 C -1 -20 -21 -44 -35 -70 C -49 -96 -57 -126 -57 -158 C -59 -222 -24 -273 46 -310 C 117 -346 224 -365 367 -365 Z M 463 395 C 521 395 574 403 624 421 C 673 438 715 463 751 495 C 786 527 814 565 834 610 C 854 654 864 704 864 758 C 864 802 856 843 841 879 C 826 915 806 947 780 973 C 753 998 721 1018 684 1032 C 647 1046 607 1053 563 1053 C 509 1053 458 1043 411 1024 C 363 1005 322 979 288 947 C 253 913 226 874 206 829 C 186 783 176 734 176 682 C 176 640 182 602 196 567 C 209 532 228 502 254 477 C 278 451 308 431 344 417 C 379 402 419 395 463 395 Z M 623 1501 L 656 1501 L 881 1182 L 838 1182 L 633 1436 L 330 1182 L 287 1182 L 623 1501 Z" unicode="ĝ" />
<glyph horiz-adv-x="1448" d="M 612 -23 C 541 -23 475 -10 415 15 C 355 41 303 80 259 132 C 214 183 179 247 154 325 C 129 403 117 494 117 598 C 117 671 125 745 141 821 C 157 896 180 969 211 1040 C 241 1110 278 1175 322 1237 C 366 1298 415 1352 471 1398 C 526 1444 587 1480 653 1506 C 719 1532 790 1546 866 1546 C 943 1546 1008 1534 1061 1510 C 1114 1486 1158 1454 1193 1412 C 1227 1370 1254 1320 1274 1263 C 1294 1205 1309 1143 1321 1075 L 1270 1067 C 1260 1129 1246 1186 1228 1239 C 1210 1291 1185 1337 1155 1376 C 1124 1414 1085 1444 1038 1466 C 991 1488 934 1499 866 1499 C 796 1499 730 1486 668 1461 C 606 1436 549 1402 498 1359 C 446 1315 399 1263 359 1205 C 318 1146 284 1083 256 1017 C 227 950 205 881 190 809 C 175 737 168 667 168 598 C 168 502 179 418 201 346 C 223 274 255 214 295 167 C 334 119 381 84 435 60 C 489 36 548 25 612 25 C 679 25 744 37 807 63 C 870 88 928 126 980 176 C 1031 226 1075 288 1113 363 C 1150 437 1176 524 1192 623 L 797 623 L 803 670 L 1251 670 L 1133 0 L 1081 0 L 1139 315 C 1111 262 1078 215 1040 173 C 1002 131 960 95 916 67 C 870 37 822 15 771 0 C 719 -15 666 -23 612 -23 Z M 886 1609 C 848 1609 814 1616 782 1631 C 750 1646 722 1668 700 1696 C 677 1724 660 1758 650 1798 C 640 1838 638 1884 644 1935 L 683 1935 C 677 1891 679 1851 688 1817 C 696 1782 710 1753 729 1729 C 747 1705 769 1686 797 1673 C 824 1660 854 1654 886 1654 C 918 1654 949 1660 980 1673 C 1010 1686 1039 1705 1065 1729 C 1091 1753 1114 1782 1134 1817 C 1154 1851 1169 1891 1179 1935 L 1218 1935 C 1206 1884 1190 1838 1168 1798 C 1146 1758 1120 1724 1091 1696 C 1061 1668 1029 1646 994 1631 C 959 1616 923 1609 886 1609 Z" unicode="Ğ" />
<glyph horiz-adv-x="1114" d="M 367 -410 C 209 -410 90 -387 10 -342 C -69 -296 -108 -234 -106 -156 C -106 -117 -97 -83 -81 -53 C -64 -23 -43 3 -17 27 C 9 49 39 69 71 85 C 103 101 136 115 168 127 C 136 139 113 155 101 174 C 88 192 82 218 82 250 C 82 288 96 320 125 348 C 153 375 192 400 240 424 C 204 454 176 491 156 535 C 136 579 127 628 127 682 C 127 741 138 796 161 847 C 183 898 214 942 254 980 C 292 1016 338 1045 391 1066 C 444 1087 501 1098 563 1098 C 613 1098 658 1090 699 1076 C 739 1061 775 1040 807 1012 C 829 1026 852 1040 878 1052 C 903 1064 929 1076 955 1086 C 980 1095 1005 1103 1030 1110 C 1054 1117 1077 1122 1098 1126 L 1090 1081 C 1070 1077 1050 1072 1028 1066 C 1006 1059 985 1051 963 1043 C 941 1033 919 1023 898 1013 C 876 1002 856 991 836 981 C 860 952 879 919 893 882 C 906 844 913 803 913 758 C 913 696 901 641 879 591 C 857 541 826 498 786 463 C 746 427 698 399 643 379 C 588 359 528 350 463 350 C 425 350 391 354 361 362 C 330 370 302 383 276 399 C 232 377 196 355 169 331 C 142 307 129 280 129 250 C 129 230 133 214 142 202 C 150 189 166 178 190 169 C 213 159 245 151 285 143 C 325 135 376 127 440 119 C 512 109 573 98 624 86 C 675 74 717 60 751 42 C 783 23 807 0 823 -26 C 838 -52 846 -85 846 -125 C 846 -170 834 -210 812 -246 C 789 -281 757 -311 716 -336 C 674 -360 623 -378 564 -391 C 505 -403 439 -410 367 -410 Z M 367 -365 C 434 -365 494 -359 548 -349 C 601 -338 646 -323 684 -303 C 720 -282 748 -257 768 -227 C 787 -197 797 -163 797 -125 C 797 -95 790 -69 777 -48 C 764 -27 743 -9 715 6 C 686 20 649 33 603 44 C 557 54 500 64 434 74 C 392 79 355 84 323 89 C 291 94 262 100 238 106 C 194 92 154 76 118 59 C 82 42 51 23 25 2 C -1 -20 -21 -44 -35 -70 C -49 -96 -57 -126 -57 -158 C -59 -222 -24 -273 46 -310 C 117 -346 224 -365 367 -365 Z M 463 395 C 521 395 574 403 624 421 C 673 438 715 463 751 495 C 786 527 814 565 834 610 C 854 654 864 704 864 758 C 864 802 856 843 841 879 C 826 915 806 947 780 973 C 753 998 721 1018 684 1032 C 647 1046 607 1053 563 1053 C 509 1053 458 1043 411 1024 C 363 1005 322 979 288 947 C 253 913 226 874 206 829 C 186 783 176 734 176 682 C 176 640 182 602 196 567 C 209 532 228 502 254 477 C 278 451 308 431 344 417 C 379 402 419 395 463 395 Z M 626 1190 C 588 1190 554 1197 522 1212 C 490 1227 462 1249 440 1277 C 417 1305 400 1339 390 1379 C 380 1419 378 1465 384 1516 L 423 1516 C 417 1472 419 1432 428 1398 C 436 1363 450 1334 469 1310 C 487 1286 509 1267 537 1254 C 564 1241 594 1235 626 1235 C 658 1235 689 1241 720 1254 C 750 1267 779 1286 805 1310 C 831 1334 854 1363 874 1398 C 894 1432 909 1472 919 1516 L 958 1516 C 946 1465 930 1419 908 1379 C 886 1339 860 1305 831 1277 C 801 1249 769 1227 734 1212 C 699 1197 663 1190 626 1190 Z" unicode="ğ" />
<glyph horiz-adv-x="1448" d="M 612 -23 C 541 -23 475 -10 415 15 C 355 41 303 80 259 132 C 214 183 179 247 154 325 C 129 403 117 494 117 598 C 117 671 125 745 141 821 C 157 896 180 969 211 1040 C 241 1110 278 1175 322 1237 C 366 1298 415 1352 471 1398 C 526 1444 587 1480 653 1506 C 719 1532 790 1546 866 1546 C 943 1546 1008 1534 1061 1510 C 1114 1486 1158 1454 1193 1412 C 1227 1370 1254 1320 1274 1263 C 1294 1205 1309 1143 1321 1075 L 1270 1067 C 1260 1129 1246 1186 1228 1239 C 1210 1291 1185 1337 1155 1376 C 1124 1414 1085 1444 1038 1466 C 991 1488 934 1499 866 1499 C 796 1499 730 1486 668 1461 C 606 1436 549 1402 498 1359 C 446 1315 399 1263 359 1205 C 318 1146 284 1083 256 1017 C 227 950 205 881 190 809 C 175 737 168 667 168 598 C 168 502 179 418 201 346 C 223 274 255 214 295 167 C 334 119 381 84 435 60 C 489 36 548 25 612 25 C 679 25 744 37 807 63 C 870 88 928 126 980 176 C 1031 226 1075 288 1113 363 C 1150 437 1176 524 1192 623 L 797 623 L 803 670 L 1251 670 L 1133 0 L 1081 0 L 1139 315 C 1111 262 1078 215 1040 173 C 1002 131 960 95 916 67 C 870 37 822 15 771 0 C 719 -15 666 -23 612 -23 Z M 878 1803 L 947 1803 L 931 1713 L 861 1713 L 878 1803 Z" unicode="Ġ" />
<glyph horiz-adv-x="1114" d="M 367 -410 C 209 -410 90 -387 10 -342 C -69 -296 -108 -234 -106 -156 C -106 -117 -97 -83 -81 -53 C -64 -23 -43 3 -17 27 C 9 49 39 69 71 85 C 103 101 136 115 168 127 C 136 139 113 155 101 174 C 88 192 82 218 82 250 C 82 288 96 320 125 348 C 153 375 192 400 240 424 C 204 454 176 491 156 535 C 136 579 127 628 127 682 C 127 741 138 796 161 847 C 183 898 214 942 254 980 C 292 1016 338 1045 391 1066 C 444 1087 501 1098 563 1098 C 613 1098 658 1090 699 1076 C 739 1061 775 1040 807 1012 C 829 1026 852 1040 878 1052 C 903 1064 929 1076 955 1086 C 980 1095 1005 1103 1030 1110 C 1054 1117 1077 1122 1098 1126 L 1090 1081 C 1070 1077 1050 1072 1028 1066 C 1006 1059 985 1051 963 1043 C 941 1033 919 1023 898 1013 C 876 1002 856 991 836 981 C 860 952 879 919 893 882 C 906 844 913 803 913 758 C 913 696 901 641 879 591 C 857 541 826 498 786 463 C 746 427 698 399 643 379 C 588 359 528 350 463 350 C 425 350 391 354 361 362 C 330 370 302 383 276 399 C 232 377 196 355 169 331 C 142 307 129 280 129 250 C 129 230 133 214 142 202 C 150 189 166 178 190 169 C 213 159 245 151 285 143 C 325 135 376 127 440 119 C 512 109 573 98 624 86 C 675 74 717 60 751 42 C 783 23 807 0 823 -26 C 838 -52 846 -85 846 -125 C 846 -170 834 -210 812 -246 C 789 -281 757 -311 716 -336 C 674 -360 623 -378 564 -391 C 505 -403 439 -410 367 -410 Z M 367 -365 C 434 -365 494 -359 548 -349 C 601 -338 646 -323 684 -303 C 720 -282 748 -257 768 -227 C 787 -197 797 -163 797 -125 C 797 -95 790 -69 777 -48 C 764 -27 743 -9 715 6 C 686 20 649 33 603 44 C 557 54 500 64 434 74 C 392 79 355 84 323 89 C 291 94 262 100 238 106 C 194 92 154 76 118 59 C 82 42 51 23 25 2 C -1 -20 -21 -44 -35 -70 C -49 -96 -57 -126 -57 -158 C -59 -222 -24 -273 46 -310 C 117 -346 224 -365 367 -365 Z M 463 395 C 521 395 574 403 624 421 C 673 438 715 463 751 495 C 786 527 814 565 834 610 C 854 654 864 704 864 758 C 864 802 856 843 841 879 C 826 915 806 947 780 973 C 753 998 721 1018 684 1032 C 647 1046 607 1053 563 1053 C 509 1053 458 1043 411 1024 C 363 1005 322 979 288 947 C 253 913 226 874 206 829 C 186 783 176 734 176 682 C 176 640 182 602 196 567 C 209 532 228 502 254 477 C 278 451 308 431 344 417 C 379 402 419 395 463 395 Z M 576 1384 L 645 1384 L 629 1294 L 559 1294 L 576 1384 Z" unicode="ġ" />
<glyph horiz-adv-x="1448" d="M 612 -23 C 541 -23 475 -10 415 15 C 355 41 303 80 259 132 C 214 183 179 247 154 325 C 129 403 117 494 117 598 C 117 671 125 745 141 821 C 157 896 180 969 211 1040 C 241 1110 278 1175 322 1237 C 366 1298 415 1352 471 1398 C 526 1444 587 1480 653 1506 C 719 1532 790 1546 866 1546 C 943 1546 1008 1534 1061 1510 C 1114 1486 1158 1454 1193 1412 C 1227 1370 1254 1320 1274 1263 C 1294 1205 1309 1143 1321 1075 L 1270 1067 C 1260 1129 1246 1186 1228 1239 C 1210 1291 1185 1337 1155 1376 C 1124 1414 1085 1444 1038 1466 C 991 1488 934 1499 866 1499 C 796 1499 730 1486 668 1461 C 606 1436 549 1402 498 1359 C 446 1315 399 1263 359 1205 C 318 1146 284 1083 256 1017 C 227 950 205 881 190 809 C 175 737 168 667 168 598 C 168 502 179 418 201 346 C 223 274 255 214 295 167 C 334 119 381 84 435 60 C 489 36 548 25 612 25 C 679 25 744 37 807 63 C 870 88 928 126 980 176 C 1031 226 1075 288 1113 363 C 1150 437 1176 524 1192 623 L 797 623 L 803 670 L 1251 670 L 1133 0 L 1081 0 L 1139 315 C 1111 262 1078 215 1040 173 C 1002 131 960 95 916 67 C 870 37 822 15 771 0 C 719 -15 666 -23 612 -23 Z M 544 -268 L 507 -268 L 525 -166 L 601 -166 L 585 -256 L 519 -428 L 487 -428 L 544 -268 Z" unicode="Ģ" />
<glyph horiz-adv-x="1114" d="M 367 -410 C 209 -410 90 -387 10 -342 C -69 -296 -108 -234 -106 -156 C -106 -117 -97 -83 -81 -53 C -64 -23 -43 3 -17 27 C 9 49 39 69 71 85 C 103 101 136 115 168 127 C 136 139 113 155 101 174 C 88 192 82 218 82 250 C 82 288 96 320 125 348 C 153 375 192 400 240 424 C 204 454 176 491 156 535 C 136 579 127 628 127 682 C 127 741 138 796 161 847 C 183 898 214 942 254 980 C 292 1016 338 1045 391 1066 C 444 1087 501 1098 563 1098 C 613 1098 658 1090 699 1076 C 739 1061 775 1040 807 1012 C 829 1026 852 1040 878 1052 C 903 1064 929 1076 955 1086 C 980 1095 1005 1103 1030 1110 C 1054 1117 1077 1122 1098 1126 L 1090 1081 C 1070 1077 1050 1072 1028 1066 C 1006 1059 985 1051 963 1043 C 941 1033 919 1023 898 1013 C 876 1002 856 991 836 981 C 860 952 879 919 893 882 C 906 844 913 803 913 758 C 913 696 901 641 879 591 C 857 541 826 498 786 463 C 746 427 698 399 643 379 C 588 359 528 350 463 350 C 425 350 391 354 361 362 C 330 370 302 383 276 399 C 232 377 196 355 169 331 C 142 307 129 280 129 250 C 129 230 133 214 142 202 C 150 189 166 178 190 169 C 213 159 245 151 285 143 C 325 135 376 127 440 119 C 512 109 573 98 624 86 C 675 74 717 60 751 42 C 783 23 807 0 823 -26 C 838 -52 846 -85 846 -125 C 846 -170 834 -210 812 -246 C 789 -281 757 -311 716 -336 C 674 -360 623 -378 564 -391 C 505 -403 439 -410 367 -410 Z M 367 -365 C 434 -365 494 -359 548 -349 C 601 -338 646 -323 684 -303 C 720 -282 748 -257 768 -227 C 787 -197 797 -163 797 -125 C 797 -95 790 -69 777 -48 C 764 -27 743 -9 715 6 C 686 20 649 33 603 44 C 557 54 500 64 434 74 C 392 79 355 84 323 89 C 291 94 262 100 238 106 C 194 92 154 76 118 59 C 82 42 51 23 25 2 C -1 -20 -21 -44 -35 -70 C -49 -96 -57 -126 -57 -158 C -59 -222 -24 -273 46 -310 C 117 -346 224 -365 367 -365 Z M 463 395 C 521 395 574 403 624 421 C 673 438 715 463 751 495 C 786 527 814 565 834 610 C 854 654 864 704 864 758 C 864 802 856 843 841 879 C 826 915 806 947 780 973 C 753 998 721 1018 684 1032 C 647 1046 607 1053 563 1053 C 509 1053 458 1043 411 1024 C 363 1005 322 979 288 947 C 253 913 226 874 206 829 C 186 783 176 734 176 682 C 176 640 182 602 196 567 C 209 532 228 502 254 477 C 278 451 308 431 344 417 C 379 402 419 395 463 395 Z M 602 1323 L 667 1495 L 700 1495 L 643 1335 L 679 1335 L 661 1233 L 585 1233 L 602 1323 Z" unicode="ģ" />
<glyph horiz-adv-x="1458" d="M 348 1516 L 399 1516 L 279 829 L 1208 829 L 1329 1516 L 1380 1516 L 1114 0 L 1063 0 L 1200 782 L 270 782 L 133 0 L 82 0 L 348 1516 Z M 917 1920 L 950 1920 L 1175 1601 L 1132 1601 L 927 1855 L 624 1601 L 581 1601 L 917 1920 Z" unicode="Ĥ" />
<glyph horiz-adv-x="1135" d="M 313 1516 L 362 1516 L 252 895 C 280 916 311 939 347 963 C 383 987 421 1009 462 1029 C 502 1049 543 1065 587 1078 C 631 1091 675 1098 719 1098 C 777 1098 826 1090 864 1075 C 902 1059 931 1037 951 1009 C 971 979 982 944 986 902 C 990 860 987 812 977 758 L 844 0 L 795 0 L 930 766 C 936 805 939 842 937 877 C 935 912 927 943 913 969 C 897 995 874 1015 843 1030 C 812 1045 771 1053 719 1053 C 675 1053 630 1045 585 1029 C 539 1013 496 994 454 972 C 411 948 371 924 335 898 C 299 872 268 849 242 829 L 94 0 L 45 0 L 313 1516 Z M 392 1920 L 425 1920 L 650 1601 L 607 1601 L 402 1855 L 99 1601 L 56 1601 L 392 1920 Z" unicode="ĥ" />
<glyph horiz-adv-x="1458" d="M 131 1202 L 293 1202 L 348 1516 L 399 1516 L 344 1202 L 1274 1202 L 1329 1516 L 1380 1516 L 1325 1202 L 1491 1202 L 1481 1155 L 1316 1155 L 1114 0 L 1063 0 L 1200 782 L 270 782 L 133 0 L 82 0 L 284 1155 L 121 1155 L 131 1202 Z M 1208 829 L 1265 1155 L 336 1155 L 279 829 L 1208 829 Z" unicode="Ħ" />
<glyph horiz-adv-x="1135" d="M 82 1274 L 270 1274 L 313 1516 L 362 1516 L 319 1274 L 565 1274 L 557 1229 L 311 1229 L 252 895 C 280 916 311 939 347 963 C 383 987 421 1009 462 1029 C 502 1049 543 1065 587 1078 C 631 1091 675 1098 719 1098 C 777 1098 826 1090 864 1075 C 902 1059 931 1037 951 1009 C 971 979 982 944 986 902 C 990 860 987 812 977 758 L 844 0 L 795 0 L 930 766 C 936 805 939 842 937 877 C 935 912 927 943 913 969 C 897 995 874 1015 843 1030 C 812 1045 771 1053 719 1053 C 675 1053 630 1045 585 1029 C 539 1013 496 994 454 972 C 411 948 371 924 335 898 C 299 872 268 849 242 829 L 94 0 L 45 0 L 262 1229 L 74 1229 L 82 1274 Z" unicode="ħ" />
<glyph horiz-adv-x="502" d="M 360 1516 L 412 1516 L 145 0 L 94 0 L 360 1516 Z M 97 1611 C 107 1671 124 1715 150 1742 C 176 1769 213 1783 263 1783 C 289 1783 315 1776 342 1763 C 369 1749 396 1735 423 1720 C 449 1704 474 1689 500 1676 C 525 1662 549 1656 572 1656 C 606 1656 633 1666 651 1686 C 669 1706 681 1739 689 1783 L 736 1783 C 725 1722 707 1678 682 1651 C 656 1624 619 1611 570 1611 C 544 1611 517 1617 491 1631 C 464 1644 438 1659 412 1675 C 386 1690 360 1704 335 1718 C 309 1731 285 1738 263 1738 C 227 1738 200 1727 182 1707 C 164 1687 151 1655 144 1611 L 97 1611 Z" unicode="Ĩ" />
<glyph horiz-adv-x="420" d="M 246 1075 L 295 1075 L 104 0 L 55 0 L 246 1075 Z M -16 1192 C -6 1252 11 1296 37 1323 C 63 1350 100 1364 150 1364 C 176 1364 202 1357 229 1344 C 256 1330 283 1316 310 1301 C 336 1285 361 1270 387 1257 C 412 1243 436 1237 459 1237 C 493 1237 520 1247 538 1267 C 556 1287 568 1320 576 1364 L 623 1364 C 612 1303 594 1259 569 1232 C 543 1205 506 1192 457 1192 C 431 1192 404 1198 378 1212 C 351 1225 325 1240 299 1256 C 273 1271 247 1285 222 1299 C 196 1312 172 1319 150 1319 C 114 1319 87 1308 69 1288 C 51 1268 38 1236 31 1192 L -16 1192 Z" unicode="ĩ" />
<glyph horiz-adv-x="502" d="M 360 1516 L 412 1516 L 145 0 L 94 0 L 360 1516 Z M 228 1660 L 596 1660 L 588 1611 L 220 1611 L 228 1660 Z" unicode="Ī" />
<glyph horiz-adv-x="420" d="M 246 1075 L 295 1075 L 104 0 L 55 0 L 246 1075 Z M 113 1241 L 481 1241 L 473 1192 L 105 1192 L 113 1241 Z" unicode="ī" />
<glyph horiz-adv-x="502" d="M 360 1516 L 412 1516 L 145 0 L 94 0 L 360 1516 Z M 412 1609 C 374 1609 340 1616 308 1631 C 276 1646 248 1668 226 1696 C 203 1724 186 1758 176 1798 C 166 1838 164 1884 170 1935 L 209 1935 C 203 1891 205 1851 214 1817 C 222 1782 236 1753 255 1729 C 273 1705 295 1686 323 1673 C 350 1660 380 1654 412 1654 C 444 1654 475 1660 506 1673 C 536 1686 565 1705 591 1729 C 617 1753 640 1782 660 1817 C 680 1851 695 1891 705 1935 L 744 1935 C 732 1884 716 1838 694 1798 C 672 1758 646 1724 617 1696 C 587 1668 555 1646 520 1631 C 485 1616 449 1609 412 1609 Z" unicode="Ĭ" />
<glyph horiz-adv-x="420" d="M 246 1075 L 295 1075 L 104 0 L 55 0 L 246 1075 Z M 299 1190 C 261 1190 227 1197 195 1212 C 163 1227 135 1249 113 1277 C 90 1305 73 1339 63 1379 C 53 1419 51 1465 57 1516 L 96 1516 C 90 1472 92 1432 101 1398 C 109 1363 123 1334 142 1310 C 160 1286 182 1267 210 1254 C 237 1241 267 1235 299 1235 C 331 1235 362 1241 393 1254 C 423 1267 452 1286 478 1310 C 504 1334 527 1363 547 1398 C 567 1432 582 1472 592 1516 L 631 1516 C 619 1465 603 1419 581 1379 C 559 1339 533 1305 504 1277 C 474 1249 442 1227 407 1212 C 372 1197 336 1190 299 1190 Z" unicode="ĭ" />
<glyph horiz-adv-x="502" d="M 360 1516 L 412 1516 L 145 0 L 94 0 L 360 1516 Z M 18 -379 C -35 -379 -76 -366 -105 -341 C -134 -316 -149 -284 -149 -244 C -149 -214 -142 -188 -129 -164 C -115 -140 -98 -118 -76 -98 C -54 -77 -30 -58 -3 -42 C 24 -25 52 -10 80 4 L 139 4 C 116 -8 91 -22 63 -38 C 35 -54 9 -72 -15 -93 C -39 -113 -60 -135 -77 -161 C -93 -186 -102 -214 -102 -244 C -102 -274 -91 -298 -69 -315 C -47 -331 -18 -340 18 -340 C 46 -340 75 -337 105 -331 C 135 -325 167 -316 199 -303 L 213 -338 C 177 -355 142 -366 108 -371 C 74 -376 44 -379 18 -379 Z" unicode="Į" />
<glyph horiz-adv-x="420" d="M 246 1075 L 295 1075 L 104 0 L 55 0 L 246 1075 Z M 301 1442 L 367 1442 L 352 1356 L 287 1356 L 301 1442 Z M -21 -379 C -74 -379 -115 -366 -144 -341 C -173 -316 -188 -284 -188 -244 C -188 -214 -181 -188 -168 -164 C -154 -140 -137 -118 -115 -98 C -93 -77 -69 -58 -42 -42 C -14 -25 13 -10 41 4 L 100 4 C 77 -8 52 -22 24 -38 C -4 -54 -30 -72 -54 -93 C -78 -113 -99 -135 -116 -161 C -132 -186 -141 -214 -141 -244 C -141 -274 -130 -298 -108 -315 C -86 -331 -57 -340 -21 -340 C 7 -340 36 -337 66 -331 C 96 -325 128 -316 160 -303 L 174 -338 C 138 -355 103 -366 69 -371 C 35 -376 5 -379 -21 -379 Z" unicode="į" />
<glyph horiz-adv-x="502" d="M 360 1516 L 412 1516 L 145 0 L 94 0 L 360 1516 Z M 402 1803 L 471 1803 L 455 1713 L 385 1713 L 402 1803 Z" unicode="İ" />
<glyph horiz-adv-x="420" d="M 246 1075 L 295 1075 L 104 0 L 55 0 L 246 1075 Z" unicode="ı" />
<glyph horiz-adv-x="1415" d="M 360 1516 L 412 1516 L 145 0 L 94 0 L 360 1516 Z M 743 -31 C 687 -31 640 -24 601 -10 C 561 3 528 21 502 43 C 474 64 452 88 436 115 C 420 142 407 169 399 197 L 448 211 C 455 187 466 164 480 141 C 494 118 512 97 536 79 C 559 60 587 45 621 33 C 655 21 695 16 743 16 C 785 16 824 22 862 35 C 900 47 934 68 965 98 C 995 126 1022 164 1045 211 C 1067 257 1085 315 1097 383 L 1298 1516 L 1349 1516 L 1148 377 C 1134 299 1114 235 1088 183 C 1062 131 1032 89 998 58 C 962 26 923 3 880 -10 C 837 -24 791 -31 743 -31 Z" unicode="Ĳ" />
<glyph horiz-adv-x="840" d="M 246 1075 L 295 1075 L 104 0 L 55 0 L 246 1075 Z M 301 1442 L 367 1442 L 352 1356 L 287 1356 L 301 1442 Z M 317 -412 C 301 -412 287 -411 275 -409 C 262 -407 253 -405 247 -403 L 259 -360 C 267 -362 276 -364 285 -366 C 294 -368 303 -369 313 -369 C 325 -369 338 -367 350 -364 C 362 -361 374 -355 384 -347 C 394 -338 403 -326 411 -312 C 419 -298 425 -279 429 -256 L 665 1075 L 714 1075 L 478 -254 C 472 -288 463 -315 452 -336 C 440 -357 427 -373 413 -385 C 398 -395 382 -402 366 -406 C 349 -410 333 -412 317 -412 Z M 720 1442 L 786 1442 L 771 1356 L 706 1356 L 720 1442 Z" unicode="ĳ" />
<glyph horiz-adv-x="995" d="M 324 -31 C 268 -31 221 -24 182 -10 C 142 3 109 21 83 43 C 55 64 33 88 17 115 C 1 142 -11 169 -20 197 L 29 211 C 36 187 47 164 61 141 C 75 118 93 97 117 79 C 140 60 168 45 202 33 C 236 21 276 16 324 16 C 366 16 405 22 443 35 C 481 47 515 68 546 98 C 576 126 603 164 626 211 C 648 257 666 315 678 383 L 879 1516 L 930 1516 L 729 377 C 715 299 695 235 669 183 C 643 131 613 89 579 58 C 543 26 504 3 461 -10 C 418 -24 372 -31 324 -31 Z M 934 1920 L 967 1920 L 1192 1601 L 1149 1601 L 944 1855 L 641 1601 L 598 1601 L 934 1920 Z" unicode="Ĵ" />
<glyph horiz-adv-x="420" d="M -102 -412 C -117 -412 -131 -411 -144 -409 C -156 -407 -166 -405 -172 -403 L -160 -360 C -151 -362 -142 -364 -133 -366 C -124 -368 -115 -369 -106 -369 C -93 -369 -80 -367 -68 -364 C -56 -361 -45 -355 -35 -347 C -24 -338 -15 -326 -7 -312 C 0 -298 6 -279 10 -256 L 246 1075 L 295 1075 L 59 -254 C 53 -288 44 -315 33 -336 C 21 -357 8 -373 -6 -385 C -20 -395 -36 -402 -53 -406 C -69 -410 -86 -412 -102 -412 Z M 326 1501 L 359 1501 L 584 1182 L 541 1182 L 336 1436 L 33 1182 L -10 1182 L 326 1501 Z" unicode="ĵ" />
<glyph horiz-adv-x="1290" d="M 348 1516 L 399 1516 L 242 621 L 1225 1516 L 1290 1516 L 664 946 L 1106 0 L 1053 0 L 627 911 L 229 549 L 133 0 L 82 0 L 348 1516 Z M 467 -268 L 430 -268 L 448 -166 L 524 -166 L 508 -256 L 442 -428 L 410 -428 L 467 -268 Z" unicode="Ķ" />
<glyph horiz-adv-x="1028" d="M 313 1516 L 362 1516 L 168 420 L 891 1075 L 950 1075 L 524 688 L 811 0 L 760 0 L 487 655 L 158 356 L 94 0 L 45 0 L 313 1516 Z M 335 -268 L 298 -268 L 316 -166 L 392 -166 L 376 -256 L 310 -428 L 278 -428 L 335 -268 Z" unicode="ķ" />
<glyph horiz-adv-x="1028" d="M 285 1075 L 168 420 L 891 1075 L 950 1075 L 524 688 L 811 0 L 760 0 L 487 655 L 158 356 L 94 0 L 45 0 L 236 1075 L 285 1075 Z" unicode="ĸ" />
<glyph horiz-adv-x="1124" d="M 348 1516 L 399 1516 L 141 47 L 909 47 L 901 0 L 82 0 L 348 1516 Z M 642 1920 L 730 1920 L 404 1611 L 371 1611 L 642 1920 Z" unicode="Ĺ" />
<glyph horiz-adv-x="420" d="M 324 1516 L 373 1516 L 104 0 L 55 0 L 324 1516 Z M 615 1916 L 703 1916 L 377 1607 L 344 1607 L 615 1916 Z" unicode="ĺ" />
<glyph horiz-adv-x="1124" d="M 348 1516 L 399 1516 L 141 47 L 909 47 L 901 0 L 82 0 L 348 1516 Z M 383 -268 L 346 -268 L 364 -166 L 440 -166 L 424 -256 L 358 -428 L 326 -428 L 383 -268 Z" unicode="Ļ" />
<glyph horiz-adv-x="420" d="M 324 1516 L 373 1516 L 104 0 L 55 0 L 324 1516 Z M 31 -268 L -6 -268 L 12 -166 L 88 -166 L 72 -256 L 6 -428 L -26 -428 L 31 -268 Z" unicode="ļ" />
<glyph horiz-adv-x="1124" d="M 729 1413 L 692 1413 L 711 1516 L 786 1516 L 770 1425 L 705 1253 L 672 1253 L 729 1413 Z M 348 1516 L 399 1516 L 141 47 L 909 47 L 901 0 L 82 0 L 348 1516 Z" unicode="Ľ" />
<glyph horiz-adv-x="420" d="M 535 1413 L 498 1413 L 516 1516 L 592 1516 L 575 1425 L 510 1253 L 477 1253 L 535 1413 Z M 324 1516 L 373 1516 L 104 0 L 55 0 L 324 1516 Z" unicode="ľ" />
<glyph horiz-adv-x="1098" d="M 739 729 L 756 819 L 825 819 L 809 729 L 739 729 Z M 348 1516 L 399 1516 L 141 47 L 909 47 L 901 0 L 82 0 L 348 1516 Z" unicode="Ŀ" />
<glyph horiz-adv-x="551" d="M 424 596 L 440 686 L 510 686 L 494 596 L 424 596 Z M 324 1516 L 373 1516 L 104 0 L 55 0 L 324 1516 Z" unicode="ŀ" />
<glyph horiz-adv-x="1124" d="M 209 717 L 35 664 L 43 711 L 217 764 L 348 1516 L 399 1516 L 270 780 L 567 874 L 559 827 L 262 735 L 141 47 L 909 47 L 901 0 L 82 0 L 209 717 Z" unicode="Ł" />
<glyph horiz-adv-x="520" d="M 279 983 L 41 909 L 49 956 L 287 1030 L 371 1516 L 418 1516 L 336 1047 L 573 1120 L 565 1073 L 328 999 L 152 0 L 104 0 L 279 983 Z" unicode="ł" />
<glyph horiz-adv-x="1466" d="M 348 1516 L 395 1516 L 1090 94 L 1339 1516 L 1389 1516 L 1122 0 L 1081 0 L 383 1434 L 131 0 L 82 0 L 348 1516 Z M 1085 1920 L 1173 1920 L 847 1611 L 814 1611 L 1085 1920 Z" unicode="Ń" />
<glyph horiz-adv-x="1135" d="M 236 1075 L 285 1075 L 254 895 C 282 916 313 939 349 963 C 385 987 423 1009 463 1029 C 503 1049 544 1065 588 1078 C 631 1091 675 1098 719 1098 C 777 1098 826 1090 864 1075 C 902 1059 931 1037 951 1009 C 971 979 982 944 986 902 C 990 860 987 812 977 758 L 844 0 L 795 0 L 930 766 C 936 805 939 842 937 877 C 935 912 927 943 913 969 C 897 995 874 1015 843 1030 C 812 1045 771 1053 719 1053 C 675 1053 630 1045 585 1029 C 539 1013 496 994 454 972 C 411 948 371 924 335 898 C 299 872 268 849 242 829 L 94 0 L 45 0 L 236 1075 Z M 846 1501 L 934 1501 L 608 1192 L 575 1192 L 846 1501 Z" unicode="ń" />
<glyph horiz-adv-x="1466" d="M 348 1516 L 395 1516 L 1090 94 L 1339 1516 L 1389 1516 L 1122 0 L 1081 0 L 383 1434 L 131 0 L 82 0 L 348 1516 Z M 555 -268 L 518 -268 L 536 -166 L 612 -166 L 596 -256 L 530 -428 L 498 -428 L 555 -268 Z" unicode="Ņ" />
<glyph horiz-adv-x="1135" d="M 236 1075 L 285 1075 L 254 895 C 282 916 313 939 349 963 C 385 987 423 1009 463 1029 C 503 1049 544 1065 588 1078 C 631 1091 675 1098 719 1098 C 777 1098 826 1090 864 1075 C 902 1059 931 1037 951 1009 C 971 979 982 944 986 902 C 990 860 987 812 977 758 L 844 0 L 795 0 L 930 766 C 936 805 939 842 937 877 C 935 912 927 943 913 969 C 897 995 874 1015 843 1030 C 812 1045 771 1053 719 1053 C 675 1053 630 1045 585 1029 C 539 1013 496 994 454 972 C 411 948 371 924 335 898 C 299 872 268 849 242 829 L 94 0 L 45 0 L 236 1075 Z M 389 -268 L 352 -268 L 370 -166 L 446 -166 L 430 -256 L 364 -428 L 332 -428 L 389 -268 Z" unicode="ņ" />
<glyph horiz-adv-x="1466" d="M 348 1516 L 395 1516 L 1090 94 L 1339 1516 L 1389 1516 L 1122 0 L 1081 0 L 383 1434 L 131 0 L 82 0 L 348 1516 Z M 644 1930 L 687 1930 L 894 1676 L 1195 1930 L 1238 1930 L 902 1611 L 869 1611 L 644 1930 Z" unicode="Ň" />
<glyph horiz-adv-x="1135" d="M 236 1075 L 285 1075 L 254 895 C 282 916 313 939 349 963 C 385 987 423 1009 463 1029 C 503 1049 544 1065 588 1078 C 631 1091 675 1098 719 1098 C 777 1098 826 1090 864 1075 C 902 1059 931 1037 951 1009 C 971 979 982 944 986 902 C 990 860 987 812 977 758 L 844 0 L 795 0 L 930 766 C 936 805 939 842 937 877 C 935 912 927 943 913 969 C 897 995 874 1015 843 1030 C 812 1045 771 1053 719 1053 C 675 1053 630 1045 585 1029 C 539 1013 496 994 454 972 C 411 948 371 924 335 898 C 299 872 268 849 242 829 L 94 0 L 45 0 L 236 1075 Z M 405 1511 L 448 1511 L 655 1257 L 956 1511 L 999 1511 L 663 1192 L 630 1192 L 405 1511 Z" unicode="ň" />
<glyph horiz-adv-x="1466" d="M 348 1516 L 395 1516 L 1090 94 L 1092 102 L 1339 1516 L 1389 1516 L 1122 -4 C 1108 -81 1088 -146 1063 -198 C 1037 -250 1007 -292 973 -324 C 937 -355 898 -377 856 -391 C 813 -405 767 -412 719 -412 C 664 -412 617 -405 578 -391 C 538 -377 505 -360 479 -339 C 451 -317 429 -292 413 -265 C 397 -238 384 -211 375 -184 L 424 -170 C 432 -193 443 -216 457 -239 C 471 -262 489 -283 513 -302 C 535 -320 563 -335 597 -347 C 631 -359 671 -365 719 -365 C 761 -365 800 -358 838 -346 C 876 -333 910 -312 941 -283 C 971 -253 998 -214 1021 -166 C 1044 -118 1062 -58 1075 12 L 383 1434 L 381 1423 L 131 0 L 82 0 L 348 1516 Z" unicode="Ŋ" />
<glyph horiz-adv-x="1135" d="M 236 1075 L 285 1075 L 254 895 C 282 916 313 939 349 963 C 385 987 423 1009 463 1029 C 503 1049 544 1065 588 1078 C 631 1091 675 1098 719 1098 C 777 1098 826 1090 864 1075 C 902 1059 931 1037 951 1009 C 971 979 982 944 986 902 C 990 860 987 812 977 758 L 799 -254 C 793 -288 784 -315 772 -336 C 760 -357 747 -373 733 -385 C 718 -395 702 -402 686 -406 C 669 -410 653 -412 637 -412 C 621 -412 607 -411 595 -409 C 583 -407 573 -405 567 -403 L 580 -360 C 588 -362 596 -364 605 -366 C 614 -368 623 -369 633 -369 C 645 -369 658 -367 670 -364 C 682 -361 694 -355 705 -347 C 715 -338 724 -326 732 -312 C 740 -298 746 -279 750 -256 L 930 766 C 936 805 939 842 937 877 C 935 912 927 943 913 969 C 897 995 874 1015 843 1030 C 812 1045 771 1053 719 1053 C 675 1053 630 1045 585 1029 C 539 1013 496 994 454 972 C 411 948 371 924 335 898 C 299 872 268 849 242 829 L 94 0 L 45 0 L 236 1075 Z" unicode="ŋ" />
<glyph horiz-adv-x="1477" d="M 651 16 C 716 16 777 26 835 48 C 893 70 946 100 995 140 C 1043 178 1087 225 1126 279 C 1165 333 1198 393 1226 459 C 1252 523 1273 593 1287 667 C 1301 741 1309 817 1309 895 C 1309 981 1298 1062 1277 1136 C 1256 1210 1226 1274 1186 1328 C 1146 1381 1097 1423 1039 1453 C 981 1483 916 1499 842 1499 C 778 1499 718 1488 660 1468 C 602 1447 548 1418 499 1381 C 449 1343 404 1297 364 1244 C 324 1191 289 1132 261 1067 C 232 1001 210 931 195 855 C 179 779 172 700 172 618 C 172 531 182 451 204 378 C 225 304 256 241 297 188 C 337 134 387 91 447 61 C 507 31 575 16 651 16 Z M 651 -31 C 566 -31 491 -14 425 18 C 359 50 304 96 260 154 C 214 212 180 280 156 359 C 132 438 121 524 121 618 C 121 705 129 788 146 868 C 162 948 186 1022 217 1091 C 247 1159 284 1222 328 1278 C 371 1334 419 1382 473 1422 C 526 1461 584 1491 646 1513 C 708 1535 773 1546 842 1546 C 924 1546 997 1529 1061 1497 C 1125 1464 1179 1419 1224 1361 C 1268 1303 1301 1234 1325 1155 C 1348 1075 1360 989 1360 895 C 1360 813 1352 733 1337 655 C 1321 577 1299 503 1270 435 C 1240 366 1205 303 1163 246 C 1121 189 1075 140 1023 100 C 970 58 912 26 850 3 C 787 -19 721 -31 651 -31 Z M 715 1660 L 1083 1660 L 1075 1611 L 707 1611 L 715 1660 Z" unicode="Ō" />
<glyph horiz-adv-x="1143" d="M 467 23 C 539 23 604 39 663 73 C 721 106 772 151 814 207 C 856 263 888 328 911 402 C 934 476 946 553 946 635 C 946 695 938 750 923 801 C 908 852 886 896 858 934 C 828 971 793 1000 751 1021 C 709 1042 662 1053 608 1053 C 538 1053 474 1037 415 1006 C 355 974 304 931 261 877 C 217 821 183 756 158 682 C 133 607 121 526 121 440 C 121 380 128 324 144 274 C 159 223 181 179 211 142 C 240 104 276 75 319 54 C 362 33 411 23 467 23 Z M 467 -23 C 403 -23 347 -11 298 12 C 249 35 208 67 175 109 C 141 150 116 199 98 255 C 80 311 72 373 72 440 C 72 532 85 619 113 699 C 140 779 178 849 226 909 C 274 967 330 1013 396 1047 C 461 1081 532 1098 608 1098 C 669 1098 724 1086 772 1063 C 820 1039 860 1007 894 966 C 926 924 951 875 969 819 C 986 763 995 701 995 635 C 995 547 982 464 957 384 C 931 304 896 235 850 175 C 803 114 747 66 682 30 C 617 -5 545 -23 467 -23 Z M 475 1241 L 843 1241 L 835 1192 L 467 1192 L 475 1241 Z" unicode="ō" />
<glyph horiz-adv-x="1477" d="M 651 16 C 716 16 777 26 835 48 C 893 70 946 100 995 140 C 1043 178 1087 225 1126 279 C 1165 333 1198 393 1226 459 C 1252 523 1273 593 1287 667 C 1301 741 1309 817 1309 895 C 1309 981 1298 1062 1277 1136 C 1256 1210 1226 1274 1186 1328 C 1146 1381 1097 1423 1039 1453 C 981 1483 916 1499 842 1499 C 778 1499 718 1488 660 1468 C 602 1447 548 1418 499 1381 C 449 1343 404 1297 364 1244 C 324 1191 289 1132 261 1067 C 232 1001 210 931 195 855 C 179 779 172 700 172 618 C 172 531 182 451 204 378 C 225 304 256 241 297 188 C 337 134 387 91 447 61 C 507 31 575 16 651 16 Z M 651 -31 C 566 -31 491 -14 425 18 C 359 50 304 96 260 154 C 214 212 180 280 156 359 C 132 438 121 524 121 618 C 121 705 129 788 146 868 C 162 948 186 1022 217 1091 C 247 1159 284 1222 328 1278 C 371 1334 419 1382 473 1422 C 526 1461 584 1491 646 1513 C 708 1535 773 1546 842 1546 C 924 1546 997 1529 1061 1497 C 1125 1464 1179 1419 1224 1361 C 1268 1303 1301 1234 1325 1155 C 1348 1075 1360 989 1360 895 C 1360 813 1352 733 1337 655 C 1321 577 1299 503 1270 435 C 1240 366 1205 303 1163 246 C 1121 189 1075 140 1023 100 C 970 58 912 26 850 3 C 787 -19 721 -31 651 -31 Z M 898 1609 C 860 1609 826 1616 794 1631 C 762 1646 734 1668 712 1696 C 689 1724 672 1758 662 1798 C 652 1838 650 1884 656 1935 L 695 1935 C 689 1891 691 1851 700 1817 C 708 1782 722 1753 741 1729 C 759 1705 781 1686 809 1673 C 836 1660 866 1654 898 1654 C 930 1654 961 1660 992 1673 C 1022 1686 1051 1705 1077 1729 C 1103 1753 1126 1782 1146 1817 C 1166 1851 1181 1891 1191 1935 L 1230 1935 C 1218 1884 1202 1838 1180 1798 C 1158 1758 1132 1724 1103 1696 C 1073 1668 1041 1646 1006 1631 C 971 1616 935 1609 898 1609 Z" unicode="Ŏ" />
<glyph horiz-adv-x="1143" d="M 467 23 C 539 23 604 39 663 73 C 721 106 772 151 814 207 C 856 263 888 328 911 402 C 934 476 946 553 946 635 C 946 695 938 750 923 801 C 908 852 886 896 858 934 C 828 971 793 1000 751 1021 C 709 1042 662 1053 608 1053 C 538 1053 474 1037 415 1006 C 355 974 304 931 261 877 C 217 821 183 756 158 682 C 133 607 121 526 121 440 C 121 380 128 324 144 274 C 159 223 181 179 211 142 C 240 104 276 75 319 54 C 362 33 411 23 467 23 Z M 467 -23 C 403 -23 347 -11 298 12 C 249 35 208 67 175 109 C 141 150 116 199 98 255 C 80 311 72 373 72 440 C 72 532 85 619 113 699 C 140 779 178 849 226 909 C 274 967 330 1013 396 1047 C 461 1081 532 1098 608 1098 C 669 1098 724 1086 772 1063 C 820 1039 860 1007 894 966 C 926 924 951 875 969 819 C 986 763 995 701 995 635 C 995 547 982 464 957 384 C 931 304 896 235 850 175 C 803 114 747 66 682 30 C 617 -5 545 -23 467 -23 Z M 661 1190 C 623 1190 589 1197 557 1212 C 525 1227 497 1249 475 1277 C 452 1305 435 1339 425 1379 C 415 1419 413 1465 419 1516 L 458 1516 C 452 1472 454 1432 463 1398 C 471 1363 485 1334 504 1310 C 522 1286 544 1267 572 1254 C 599 1241 629 1235 661 1235 C 693 1235 724 1241 755 1254 C 785 1267 814 1286 840 1310 C 866 1334 889 1363 909 1398 C 929 1432 944 1472 954 1516 L 993 1516 C 981 1465 965 1419 943 1379 C 921 1339 895 1305 866 1277 C 836 1249 804 1227 769 1212 C 734 1197 698 1190 661 1190 Z" unicode="ŏ" />
<glyph horiz-adv-x="1477" d="M 651 16 C 716 16 777 26 835 48 C 893 70 946 100 995 140 C 1043 178 1087 225 1126 279 C 1165 333 1198 393 1226 459 C 1252 523 1273 593 1287 667 C 1301 741 1309 817 1309 895 C 1309 981 1298 1062 1277 1136 C 1256 1210 1226 1274 1186 1328 C 1146 1381 1097 1423 1039 1453 C 981 1483 916 1499 842 1499 C 778 1499 718 1488 660 1468 C 602 1447 548 1418 499 1381 C 449 1343 404 1297 364 1244 C 324 1191 289 1132 261 1067 C 232 1001 210 931 195 855 C 179 779 172 700 172 618 C 172 531 182 451 204 378 C 225 304 256 241 297 188 C 337 134 387 91 447 61 C 507 31 575 16 651 16 Z M 651 -31 C 566 -31 491 -14 425 18 C 359 50 304 96 260 154 C 214 212 180 280 156 359 C 132 438 121 524 121 618 C 121 705 129 788 146 868 C 162 948 186 1022 217 1091 C 247 1159 284 1222 328 1278 C 371 1334 419 1382 473 1422 C 526 1461 584 1491 646 1513 C 708 1535 773 1546 842 1546 C 924 1546 997 1529 1061 1497 C 1125 1464 1179 1419 1224 1361 C 1268 1303 1301 1234 1325 1155 C 1348 1075 1360 989 1360 895 C 1360 813 1352 733 1337 655 C 1321 577 1299 503 1270 435 C 1240 366 1205 303 1163 246 C 1121 189 1075 140 1023 100 C 970 58 912 26 850 3 C 787 -19 721 -31 651 -31 Z M 940 1920 L 1028 1920 L 702 1611 L 670 1611 L 940 1920 Z M 1241 1920 L 1329 1920 L 1004 1611 L 971 1611 L 1241 1920 Z" unicode="Ő" />
<glyph horiz-adv-x="1143" d="M 467 23 C 539 23 604 39 663 73 C 721 106 772 151 814 207 C 856 263 888 328 911 402 C 934 476 946 553 946 635 C 946 695 938 750 923 801 C 908 852 886 896 858 934 C 828 971 793 1000 751 1021 C 709 1042 662 1053 608 1053 C 538 1053 474 1037 415 1006 C 355 974 304 931 261 877 C 217 821 183 756 158 682 C 133 607 121 526 121 440 C 121 380 128 324 144 274 C 159 223 181 179 211 142 C 240 104 276 75 319 54 C 362 33 411 23 467 23 Z M 467 -23 C 403 -23 347 -11 298 12 C 249 35 208 67 175 109 C 141 150 116 199 98 255 C 80 311 72 373 72 440 C 72 532 85 619 113 699 C 140 779 178 849 226 909 C 274 967 330 1013 396 1047 C 461 1081 532 1098 608 1098 C 669 1098 724 1086 772 1063 C 820 1039 860 1007 894 966 C 926 924 951 875 969 819 C 986 763 995 701 995 635 C 995 547 982 464 957 384 C 931 304 896 235 850 175 C 803 114 747 66 682 30 C 617 -5 545 -23 467 -23 Z M 700 1501 L 788 1501 L 462 1192 L 430 1192 L 700 1501 Z M 1001 1501 L 1089 1501 L 764 1192 L 731 1192 L 1001 1501 Z" unicode="ő" />
</font>
</defs>
</svg>
