<?xml version="1.0" encoding="utf-8" ?><svg version="1.1" xmlns = 'http://www.w3.org/2000/svg'><defs><font id='web' horiz-adv-x="1000">
<font-face font-family="web" descent="-516" cap-height="1475" units-per-em="2048" bbox="-348,-538,2623,1949" x-height="977" ascent="1532" />
<missing-glyph horiz-adv-x="430" d="" /><glyph horiz-adv-x="430" d="" unicode=" " />
<glyph horiz-adv-x="618" d="M 133 1145 C 133 1176 137 1210 147 1246 C 157 1282 170 1316 186 1348 C 202 1379 221 1405 243 1426 C 265 1447 287 1458 311 1458 C 333 1458 354 1447 375 1426 C 396 1405 415 1379 431 1348 C 447 1316 460 1282 470 1246 C 480 1210 485 1176 485 1145 C 481 1136 471 1115 457 1082 C 442 1048 426 1001 409 940 C 391 878 375 802 359 712 C 343 621 332 514 326 391 L 301 391 C 293 514 280 621 264 711 C 247 801 230 877 212 938 C 194 999 178 1046 163 1080 C 147 1113 137 1135 133 1145 Z M 311 293 C 331 293 351 289 369 281 C 387 273 404 262 418 248 C 432 234 443 219 451 201 C 459 183 463 163 463 143 C 463 121 459 101 451 83 C 443 65 432 49 418 36 C 404 22 387 12 369 5 C 351 -2 331 -6 311 -6 C 290 -6 270 -2 252 4 C 234 11 218 21 204 34 C 190 46 178 62 170 80 C 162 98 158 119 158 143 C 158 165 162 186 170 204 C 178 222 190 238 204 251 C 218 264 234 274 252 282 C 270 289 290 293 311 293 Z" unicode="!" />
<glyph horiz-adv-x="774" d="M 668 1374 C 668 1354 663 1330 655 1301 C 647 1272 637 1237 625 1197 C 613 1156 601 1108 589 1054 C 577 1000 567 938 559 868 L 535 868 C 527 938 518 999 506 1053 C 494 1107 482 1154 470 1194 C 458 1234 448 1269 440 1298 C 432 1326 428 1351 428 1372 C 428 1386 431 1401 437 1415 C 443 1429 452 1441 463 1452 C 474 1462 487 1471 501 1477 C 515 1483 531 1487 547 1487 C 563 1487 578 1483 593 1477 C 607 1471 620 1462 631 1452 C 642 1441 651 1429 658 1416 C 664 1402 668 1388 668 1374 Z M 346 1374 C 346 1354 341 1330 333 1301 C 325 1272 315 1237 303 1197 C 291 1156 279 1108 267 1054 C 255 1000 245 938 238 868 L 213 868 C 205 938 196 999 184 1053 C 172 1107 160 1154 148 1194 C 136 1234 126 1269 118 1298 C 110 1326 106 1351 106 1372 C 106 1386 109 1401 115 1415 C 121 1429 130 1441 141 1452 C 152 1462 165 1471 179 1477 C 193 1483 209 1487 225 1487 C 241 1487 257 1483 272 1477 C 286 1471 299 1462 310 1452 C 321 1441 330 1429 336 1416 C 342 1402 346 1388 346 1374 Z" unicode="&#x22;" />
<glyph horiz-adv-x="1534" d="M 1376 885 L 1024 885 L 920 586 L 1292 586 L 1227 424 L 862 424 L 696 -43 L 641 -29 L 801 424 L 514 424 L 348 -43 L 293 -29 L 455 424 L 96 424 L 162 586 L 510 586 L 616 885 L 246 885 L 309 1047 L 674 1047 L 842 1513 L 899 1499 L 739 1047 L 1022 1047 L 1190 1513 L 1245 1499 L 1081 1047 L 1444 1047 L 1376 885 Z M 674 885 L 561 586 L 862 586 L 971 885 L 674 885 Z" unicode="#" />
<glyph horiz-adv-x="1069" d="M 1028 426 C 1028 378 1020 331 1004 287 C 988 242 963 202 931 166 C 898 130 857 99 809 74 C 760 48 703 31 639 23 L 643 -195 L 602 -195 L 604 16 C 594 14 583 14 573 14 C 563 14 552 14 541 14 C 532 14 523 14 515 14 C 507 14 499 14 492 16 L 494 -195 L 453 -195 L 455 18 C 399 24 347 34 298 49 C 249 63 206 82 170 106 C 134 130 105 158 84 191 C 63 223 53 261 53 305 C 53 325 56 345 64 363 C 71 381 81 397 94 410 C 107 423 122 433 140 441 C 157 449 175 453 195 453 C 209 453 222 451 236 447 C 249 443 261 438 273 430 C 285 422 295 412 304 400 C 313 387 320 372 324 354 C 320 344 317 330 314 313 C 310 295 309 276 309 256 C 309 204 321 162 345 131 C 369 99 406 76 455 61 L 455 635 C 439 640 422 646 403 653 C 383 659 363 668 342 680 C 303 696 268 716 236 739 C 204 762 177 789 154 819 C 131 849 113 884 101 922 C 88 960 82 1003 82 1051 C 82 1099 90 1146 107 1190 C 123 1234 148 1273 180 1308 C 212 1342 251 1371 297 1395 C 343 1419 395 1435 455 1444 L 453 1614 L 494 1614 L 492 1450 C 498 1451 506 1452 516 1452 C 526 1452 536 1452 547 1452 C 556 1452 566 1452 578 1452 C 590 1452 598 1451 604 1450 L 602 1614 L 643 1614 L 639 1446 C 681 1439 724 1429 767 1416 C 809 1402 848 1385 882 1363 C 916 1341 944 1314 966 1282 C 988 1250 999 1212 999 1169 C 999 1145 995 1123 987 1105 C 979 1086 969 1070 957 1058 C 945 1046 931 1036 916 1030 C 900 1023 885 1020 870 1020 C 854 1020 839 1022 825 1027 C 811 1031 798 1038 786 1046 C 774 1054 763 1065 755 1077 C 747 1089 741 1102 739 1116 C 743 1132 747 1148 750 1163 C 752 1177 754 1194 754 1214 C 754 1258 743 1295 723 1325 C 702 1355 674 1379 639 1399 L 639 838 C 654 832 671 827 689 821 C 707 815 726 809 748 801 C 789 785 827 766 861 743 C 895 719 925 692 950 661 C 974 630 993 595 1007 556 C 1021 516 1028 473 1028 426 Z M 455 1403 C 433 1394 413 1382 395 1367 C 377 1352 361 1334 348 1314 C 334 1294 324 1271 316 1246 C 308 1221 305 1195 305 1167 C 305 1131 309 1100 317 1074 C 325 1048 337 1025 351 1005 C 365 985 381 968 399 954 C 417 939 435 926 455 915 L 455 1403 Z M 604 1413 C 594 1416 585 1418 576 1419 C 566 1420 556 1421 545 1421 C 535 1421 526 1420 517 1420 C 507 1419 499 1418 492 1417 L 492 897 C 506 891 522 883 540 875 C 558 866 579 858 604 850 L 604 1413 Z M 604 582 C 583 589 564 596 546 603 C 528 609 510 616 492 623 L 492 51 C 499 49 507 48 515 47 C 523 45 531 45 541 45 C 552 45 563 45 573 47 C 583 49 594 51 604 53 L 604 582 Z M 805 317 C 805 351 800 382 792 408 C 784 434 772 457 757 477 C 742 497 724 514 704 528 C 684 542 662 555 639 567 L 639 68 C 661 78 683 91 703 107 C 723 123 740 141 755 162 C 770 183 782 207 791 233 C 800 259 805 287 805 317 Z" unicode="$" />
<glyph horiz-adv-x="1456" d="M 707 1133 C 707 1080 697 1031 679 987 C 661 942 636 903 606 871 C 576 839 541 813 502 795 C 462 777 421 768 379 768 C 337 768 297 776 258 794 C 219 812 184 837 154 869 C 124 901 99 939 81 983 C 62 1027 53 1075 53 1128 C 53 1182 62 1232 81 1276 C 100 1320 125 1358 156 1390 C 187 1421 223 1445 263 1463 C 303 1480 344 1489 387 1489 C 429 1489 470 1480 509 1464 C 548 1447 582 1423 611 1393 C 640 1362 663 1325 681 1281 C 698 1237 707 1187 707 1133 Z M 256 14 L 207 45 L 1163 1434 L 1212 1401 L 256 14 Z M 1403 356 C 1403 303 1393 254 1375 210 C 1357 165 1332 126 1302 94 C 1272 62 1237 37 1198 19 C 1158 1 1117 -8 1075 -8 C 1033 -8 993 0 955 18 C 916 36 881 61 851 93 C 820 125 795 163 777 207 C 759 251 750 299 750 352 C 750 406 759 455 778 500 C 796 544 821 582 852 614 C 883 645 919 669 959 687 C 999 704 1040 713 1083 713 C 1125 713 1166 704 1205 688 C 1244 671 1278 647 1307 616 C 1336 585 1359 548 1377 504 C 1394 460 1403 410 1403 356 Z M 514 1133 C 514 1171 511 1210 507 1249 C 503 1288 495 1323 485 1354 C 475 1385 461 1410 444 1430 C 426 1450 405 1460 379 1460 C 353 1460 331 1450 314 1431 C 297 1412 284 1387 274 1356 C 264 1324 257 1288 253 1248 C 249 1208 248 1166 248 1124 C 248 1080 250 1038 254 999 C 258 959 266 925 276 895 C 286 865 300 842 318 825 C 335 807 357 799 383 799 C 407 799 428 808 445 828 C 462 847 476 872 486 904 C 496 936 503 971 507 1011 C 511 1051 514 1091 514 1133 Z M 1210 356 C 1210 394 1207 433 1203 473 C 1199 512 1191 547 1181 578 C 1171 609 1157 634 1140 654 C 1122 674 1101 684 1075 684 C 1049 684 1027 674 1010 655 C 993 636 980 611 970 580 C 960 548 954 512 950 472 C 946 432 944 390 944 348 C 944 304 946 262 950 223 C 954 183 962 149 972 119 C 982 89 996 66 1014 49 C 1031 31 1053 23 1079 23 C 1104 23 1125 32 1142 52 C 1158 71 1172 96 1182 128 C 1192 160 1199 195 1203 235 C 1207 275 1210 315 1210 356 Z" unicode="%" />
<glyph horiz-adv-x="1749" d="M 1792 1001 C 1723 992 1661 970 1605 936 C 1549 902 1496 859 1446 809 C 1396 759 1347 703 1299 642 C 1251 581 1201 520 1149 459 C 1161 441 1173 424 1185 407 C 1197 390 1210 373 1224 355 C 1238 337 1253 318 1270 299 C 1287 279 1307 258 1329 236 C 1347 217 1364 201 1382 188 C 1399 174 1417 163 1436 155 C 1455 147 1476 141 1498 137 C 1520 133 1544 131 1571 131 C 1597 131 1623 135 1647 144 C 1671 152 1694 163 1714 177 C 1734 191 1753 206 1769 223 C 1785 240 1798 257 1808 274 L 1827 266 C 1817 238 1801 207 1777 173 C 1753 139 1723 106 1685 76 C 1647 46 1603 20 1553 0 C 1503 -20 1446 -31 1384 -31 C 1326 -31 1276 -23 1232 -8 C 1188 7 1150 27 1116 53 C 1082 79 1051 108 1025 142 C 998 176 973 211 950 248 C 926 216 898 184 865 152 C 832 120 795 92 753 66 C 711 40 666 20 617 4 C 567 -12 515 -20 459 -20 C 395 -20 339 -10 289 9 C 239 29 196 55 162 89 C 127 123 100 162 82 207 C 64 251 55 298 55 348 C 55 406 67 460 91 508 C 115 556 146 600 184 639 C 222 677 264 712 312 742 C 360 772 407 799 455 823 C 425 853 397 881 371 906 C 345 931 322 957 304 984 C 285 1010 270 1040 260 1072 C 249 1104 244 1142 244 1188 C 244 1232 254 1274 275 1312 C 295 1350 323 1382 359 1410 C 395 1438 437 1459 485 1475 C 533 1491 584 1499 639 1499 C 687 1499 734 1493 779 1483 C 823 1472 863 1456 897 1434 C 931 1412 959 1385 979 1353 C 999 1320 1010 1282 1010 1239 C 1010 1192 1000 1151 980 1116 C 960 1081 935 1051 907 1025 C 879 999 849 978 819 962 C 789 945 763 932 743 922 C 785 888 824 854 860 818 C 896 782 931 745 965 707 C 995 673 1024 637 1052 598 C 1080 558 1107 521 1133 485 C 1161 522 1187 558 1211 594 C 1234 629 1254 662 1271 694 C 1287 726 1300 755 1309 783 C 1318 811 1323 836 1323 858 C 1323 888 1316 911 1302 927 C 1288 943 1269 956 1246 964 C 1223 972 1197 978 1168 980 C 1138 982 1108 983 1077 985 L 1077 1010 L 1792 1026 L 1792 1001 Z M 797 1198 C 797 1229 793 1260 787 1291 C 781 1322 771 1350 758 1375 C 745 1400 729 1420 710 1436 C 690 1452 668 1460 643 1460 C 619 1460 599 1454 582 1442 C 564 1430 550 1416 539 1399 C 527 1381 519 1363 513 1343 C 507 1323 504 1306 504 1290 C 504 1268 504 1248 506 1232 C 507 1216 510 1201 514 1187 C 518 1173 523 1160 530 1148 C 536 1135 545 1122 555 1108 C 567 1091 579 1076 591 1062 C 603 1048 615 1035 629 1022 C 643 1009 657 996 673 983 C 689 969 706 954 725 938 C 752 970 771 1008 781 1050 C 791 1092 797 1141 797 1198 Z M 936 270 C 917 300 899 329 882 355 C 865 381 847 406 829 430 C 811 454 791 479 771 505 C 750 530 727 558 702 588 C 688 604 671 622 651 642 C 631 662 610 683 589 703 C 567 723 547 742 527 760 C 507 778 490 793 477 805 C 457 783 440 761 425 737 C 409 713 396 686 386 656 C 375 626 367 594 361 559 C 355 523 352 484 352 442 C 352 399 358 360 372 325 C 386 289 404 259 428 233 C 451 207 478 187 510 173 C 541 159 574 152 610 152 C 648 152 681 154 709 158 C 737 162 763 168 787 177 C 811 186 834 198 857 213 C 880 228 906 247 936 270 Z" unicode="&#x26;" />
<glyph horiz-adv-x="453" d="M 346 1374 C 346 1354 341 1330 333 1301 C 325 1272 315 1237 303 1197 C 291 1156 279 1108 267 1054 C 255 1000 245 938 238 868 L 213 868 C 205 938 196 999 184 1053 C 172 1107 160 1154 148 1194 C 136 1234 126 1269 118 1298 C 110 1326 106 1351 106 1372 C 106 1386 109 1401 115 1415 C 121 1429 130 1441 141 1452 C 152 1462 165 1471 179 1477 C 193 1483 209 1487 225 1487 C 241 1487 257 1483 272 1477 C 286 1471 299 1462 310 1452 C 321 1441 330 1429 336 1416 C 342 1402 346 1388 346 1374 Z" unicode="'" />
<glyph horiz-adv-x="662" d="M 594 -293 C 554 -263 514 -232 473 -198 C 431 -164 391 -128 353 -88 C 315 -48 279 -4 245 43 C 211 90 181 142 156 199 C 130 255 110 317 96 384 C 81 451 74 524 74 604 C 74 680 81 751 95 816 C 109 881 128 941 152 997 C 176 1053 205 1104 239 1152 C 272 1199 308 1243 346 1284 C 384 1324 424 1362 466 1397 C 508 1432 550 1465 592 1497 L 621 1470 C 563 1426 506 1377 452 1323 C 398 1268 350 1205 308 1135 C 266 1065 233 986 208 898 C 182 810 170 712 170 604 C 170 492 183 391 210 301 C 236 211 271 130 314 59 C 356 -12 404 -74 458 -128 C 512 -182 566 -228 621 -266 L 594 -293 Z" unicode="(" />
<glyph horiz-adv-x="662" d="M 588 604 C 588 524 580 451 566 384 C 551 317 531 255 506 199 C 480 142 451 90 417 43 C 383 -4 346 -48 308 -88 C 269 -128 229 -164 188 -198 C 147 -232 107 -263 68 -293 L 41 -266 C 95 -228 149 -182 203 -128 C 257 -74 305 -12 348 59 C 390 130 425 211 452 301 C 478 391 492 492 492 604 C 492 712 479 810 454 898 C 428 986 395 1065 353 1135 C 311 1205 263 1268 209 1323 C 155 1377 99 1426 41 1470 L 70 1497 C 111 1465 152 1432 194 1397 C 236 1362 276 1324 315 1284 C 353 1243 389 1199 422 1152 C 455 1104 484 1053 509 997 C 533 941 553 881 567 816 C 581 751 588 680 588 604 Z" unicode=")" />
<glyph horiz-adv-x="795" d="M 705 950 C 691 950 677 949 663 949 C 649 948 636 948 623 949 C 609 950 596 952 584 955 C 571 958 559 963 547 971 C 534 978 523 987 513 999 C 503 1010 493 1022 484 1034 C 475 1046 466 1059 456 1072 C 446 1085 436 1097 424 1108 L 403 1098 C 406 1081 411 1065 419 1051 C 426 1036 433 1022 441 1008 C 449 994 456 980 462 966 C 468 952 471 938 471 924 C 471 909 469 895 465 883 C 461 870 455 858 449 846 C 443 834 435 822 427 810 C 419 798 411 786 403 774 L 387 774 C 379 786 372 798 364 810 C 356 822 349 834 343 846 C 337 858 332 870 328 883 C 324 895 322 909 322 924 C 322 940 324 956 330 970 C 336 984 342 997 350 1011 C 357 1024 364 1037 371 1051 C 378 1065 383 1080 387 1098 L 369 1106 C 355 1096 344 1084 334 1072 C 324 1059 314 1046 305 1034 C 296 1022 287 1010 277 999 C 267 987 256 978 244 971 C 220 956 196 949 171 949 C 145 949 118 950 88 952 L 80 965 C 87 977 94 990 100 1002 C 106 1014 113 1025 121 1036 C 129 1047 137 1057 146 1066 C 155 1075 166 1083 178 1090 C 192 1098 207 1104 222 1106 C 236 1108 251 1110 266 1111 C 280 1111 295 1112 311 1112 C 326 1112 342 1115 358 1120 L 358 1147 C 342 1152 325 1155 309 1157 C 293 1158 277 1159 261 1160 C 245 1161 230 1163 215 1166 C 200 1168 186 1174 174 1182 C 162 1188 151 1197 142 1207 C 133 1217 125 1227 118 1238 C 111 1249 105 1261 99 1273 C 93 1285 88 1297 82 1309 L 88 1323 C 116 1325 144 1325 170 1324 C 196 1323 221 1315 246 1300 C 264 1288 277 1277 287 1265 C 297 1253 305 1242 313 1230 C 320 1218 327 1207 335 1196 C 343 1184 353 1173 367 1163 L 387 1176 C 383 1192 378 1206 371 1220 C 363 1234 356 1247 349 1261 C 341 1275 335 1289 330 1303 C 324 1317 322 1333 322 1350 C 322 1378 328 1404 342 1426 C 355 1448 370 1472 387 1497 L 403 1497 C 411 1485 419 1473 427 1462 C 435 1450 443 1439 449 1427 C 455 1415 461 1402 465 1390 C 469 1377 471 1364 471 1350 C 471 1335 468 1321 462 1307 C 456 1293 450 1280 443 1266 C 435 1252 428 1237 421 1222 C 413 1207 408 1192 406 1176 L 428 1163 C 440 1173 451 1185 459 1197 C 467 1209 476 1222 485 1234 C 493 1246 503 1257 513 1269 C 523 1280 537 1290 555 1300 C 570 1308 584 1315 596 1319 C 608 1323 620 1325 632 1326 C 644 1327 655 1327 667 1326 C 679 1324 691 1323 705 1323 L 713 1309 C 707 1297 701 1285 696 1274 C 690 1262 684 1251 678 1241 C 671 1231 663 1221 654 1212 C 645 1202 634 1194 621 1186 C 605 1176 590 1170 575 1167 C 559 1164 544 1162 529 1161 C 513 1159 498 1158 482 1157 C 466 1155 451 1152 436 1147 L 436 1120 C 452 1115 468 1112 484 1112 C 500 1112 515 1111 531 1111 C 547 1110 562 1108 577 1106 C 591 1104 606 1098 621 1090 C 635 1081 646 1072 656 1062 C 666 1052 674 1042 680 1032 C 686 1021 692 1010 697 998 C 702 986 707 975 713 963 L 705 950 Z" unicode="*" />
<glyph horiz-adv-x="1434" d="M 758 698 L 758 276 L 676 276 L 676 698 L 256 698 L 256 778 L 676 778 L 676 1198 L 758 1198 L 758 778 L 1178 778 L 1178 698 L 758 698 Z" unicode="+" />
<glyph horiz-adv-x="524" d="M 446 35 C 446 -37 425 -103 383 -161 C 341 -219 283 -265 211 -301 L 197 -287 C 221 -269 243 -248 262 -224 C 280 -200 296 -176 309 -150 C 321 -124 331 -97 337 -71 C 343 -44 346 -18 346 6 C 346 21 344 34 340 44 C 336 54 332 62 328 68 C 322 59 316 50 310 42 C 304 33 298 25 290 19 C 282 12 273 6 262 2 C 251 -1 237 -4 221 -4 C 201 -4 183 0 167 6 C 151 13 137 23 125 36 C 113 48 104 63 98 81 C 91 98 88 117 88 139 C 88 164 92 186 101 206 C 110 226 122 242 138 256 C 153 270 171 280 191 288 C 211 295 233 299 256 299 C 287 299 314 291 338 277 C 362 262 382 242 398 218 C 414 194 426 166 434 134 C 442 102 446 69 446 35 Z" unicode="," />
<glyph horiz-adv-x="553" d="M 39 424 L 39 641 L 512 641 L 512 424 L 39 424 Z" unicode="-" />
<glyph horiz-adv-x="524" d="M 102 154 C 102 176 106 196 114 216 C 122 235 134 252 149 266 C 163 280 180 292 200 300 C 219 308 240 313 262 313 C 284 313 304 308 324 300 C 343 292 360 280 375 266 C 389 252 401 235 409 216 C 417 196 422 176 422 154 C 422 132 417 111 409 92 C 401 72 389 55 375 41 C 360 26 343 14 324 6 C 304 -1 284 -6 262 -6 C 240 -6 219 -1 200 6 C 180 14 163 26 149 41 C 134 55 122 72 114 92 C 106 111 102 132 102 154 Z" unicode="." />
<glyph horiz-adv-x="637" d="M -37 -295 L -104 -270 L 655 1556 L 723 1530 L -37 -295 Z" unicode="/" />
<glyph horiz-adv-x="1241" d="M 1192 745 C 1192 663 1183 588 1167 519 C 1151 450 1129 388 1101 332 C 1073 276 1040 226 1003 184 C 965 141 925 105 883 76 C 840 47 796 25 751 10 C 705 -4 661 -12 618 -12 C 576 -12 532 -4 488 10 C 444 24 401 46 359 75 C 317 104 277 140 239 183 C 201 225 168 274 140 330 C 112 385 89 447 73 515 C 57 583 49 657 49 737 C 49 821 57 899 74 969 C 91 1039 114 1102 143 1158 C 172 1214 206 1262 244 1304 C 282 1345 323 1379 367 1407 C 411 1434 455 1454 501 1468 C 547 1482 591 1489 635 1489 C 683 1489 730 1482 776 1468 C 822 1454 865 1434 907 1407 C 948 1380 986 1346 1021 1305 C 1055 1264 1085 1216 1111 1161 C 1136 1105 1156 1043 1170 974 C 1184 904 1192 828 1192 745 Z M 901 743 C 901 797 899 853 897 910 C 894 966 889 1021 881 1074 C 873 1127 863 1177 850 1223 C 837 1269 820 1310 800 1344 C 779 1378 754 1406 725 1426 C 695 1446 661 1456 621 1456 C 579 1456 544 1446 514 1426 C 484 1406 458 1379 438 1345 C 417 1311 400 1270 388 1224 C 376 1178 366 1128 359 1074 C 352 1020 347 964 345 906 C 343 847 342 789 342 731 C 342 669 343 609 346 550 C 349 491 354 435 362 383 C 369 330 379 281 393 237 C 407 193 424 154 445 122 C 465 90 490 65 520 47 C 550 29 585 20 625 20 C 664 20 698 30 727 50 C 755 70 780 97 801 132 C 821 166 838 207 851 254 C 864 300 874 350 882 404 C 889 458 894 513 897 571 C 899 629 901 686 901 743 Z" unicode="0" />
<glyph horiz-adv-x="647" d="M 63 0 L 63 23 C 85 23 106 25 125 29 C 144 33 161 38 175 46 C 189 54 199 63 207 75 C 215 86 219 99 219 115 L 219 1227 C 219 1243 216 1258 210 1272 C 204 1286 193 1297 177 1307 C 161 1316 140 1322 112 1325 C 84 1327 49 1325 6 1317 L 6 1339 L 455 1489 L 475 1489 C 474 1478 473 1465 473 1450 C 472 1436 471 1420 471 1402 C 471 1383 471 1362 471 1339 L 471 113 C 471 95 475 81 484 70 C 492 58 504 49 519 42 C 534 35 552 30 572 28 C 592 25 613 23 635 23 L 635 0 L 63 0 Z" unicode="1" />
<glyph horiz-adv-x="1036" d="M 881 0 L -23 0 L -31 25 C 13 67 62 114 114 164 C 166 214 219 267 271 323 C 323 378 374 435 423 495 C 471 555 514 615 552 677 C 589 739 618 801 640 864 C 662 926 672 989 672 1051 C 671 1087 665 1121 655 1151 C 644 1181 629 1207 609 1229 C 589 1251 564 1268 536 1280 C 508 1292 476 1298 442 1298 C 360 1298 291 1277 237 1237 C 182 1197 137 1139 102 1063 L 72 1077 C 89 1129 111 1180 139 1230 C 166 1280 199 1324 239 1362 C 278 1400 323 1431 375 1454 C 427 1477 485 1489 551 1489 C 615 1489 671 1479 719 1461 C 766 1442 805 1416 837 1384 C 869 1351 892 1312 908 1268 C 923 1224 931 1176 932 1126 C 933 1061 922 999 899 940 C 875 880 844 823 805 769 C 765 715 720 663 670 613 C 620 563 568 515 516 469 C 463 423 411 378 361 335 C 310 292 265 251 227 211 L 727 211 C 766 211 799 215 826 224 C 852 232 874 244 892 259 C 910 274 924 291 936 311 C 947 331 957 352 967 375 L 1001 365 L 881 0 Z" unicode="2" />
<glyph horiz-adv-x="848" d="M 821 487 C 821 411 805 343 773 281 C 741 219 696 167 638 123 C 580 79 512 44 433 20 C 353 -3 266 -16 172 -16 C 140 -16 111 -12 85 -4 C 59 3 36 14 17 29 C -2 43 -17 61 -28 81 C -39 101 -45 124 -45 150 C -45 165 -42 180 -38 194 C -33 208 -26 221 -16 233 C -6 244 6 253 21 260 C 36 266 54 270 76 270 C 102 270 124 264 142 252 C 160 240 175 225 187 207 C 199 189 210 170 219 149 C 228 128 237 109 246 91 C 254 73 263 59 273 47 C 283 35 295 29 309 29 C 316 29 327 30 343 34 C 358 38 375 44 394 54 C 413 63 433 76 453 93 C 473 109 491 131 508 157 C 524 183 538 214 549 250 C 559 286 565 329 565 379 C 565 425 554 467 534 503 C 513 539 486 569 453 594 C 419 618 381 637 339 650 C 296 663 253 670 209 670 L 170 670 L 164 688 C 208 718 251 747 291 775 C 331 803 366 833 396 865 C 426 897 449 933 467 972 C 485 1011 494 1056 494 1108 C 494 1139 488 1167 476 1191 C 464 1215 449 1236 429 1252 C 409 1268 387 1281 362 1290 C 336 1298 310 1303 283 1303 C 227 1303 181 1292 143 1271 C 105 1250 71 1218 41 1176 L 20 1188 C 32 1226 48 1263 69 1299 C 90 1335 116 1367 148 1395 C 179 1423 215 1445 257 1463 C 299 1480 347 1489 401 1489 C 455 1489 503 1481 547 1467 C 591 1452 628 1432 659 1406 C 690 1380 714 1350 731 1316 C 747 1282 756 1245 756 1206 C 756 1134 727 1069 669 1011 C 611 953 527 900 418 852 C 473 848 525 837 574 817 C 623 797 666 771 702 739 C 738 707 767 669 789 626 C 810 583 821 537 821 487 Z" unicode="3" />
<glyph horiz-adv-x="1145" d="M 897 358 L 897 0 L 639 0 L 639 358 L 10 358 C 0 358 -7 359 -12 362 C -16 364 -15 371 -8 383 L 94 520 L 823 1503 L 893 1503 L 893 543 L 1073 543 L 1073 358 L 897 358 Z M 639 1192 L 160 543 L 639 543 L 639 1192 Z" unicode="4" />
<glyph horiz-adv-x="897" d="M 870 1540 C 865 1528 859 1510 852 1487 C 844 1463 836 1437 828 1407 C 819 1377 810 1346 800 1313 C 790 1280 781 1248 772 1217 L 207 1217 L 178 909 C 204 915 231 920 257 924 C 283 928 313 930 348 930 C 430 930 503 919 565 897 C 627 875 679 845 721 807 C 763 769 794 723 815 671 C 835 619 846 562 846 502 C 846 426 831 355 801 291 C 771 227 732 171 682 125 C 632 78 575 42 510 16 C 444 -10 376 -23 305 -23 C 255 -23 211 -19 172 -11 C 133 -3 100 7 73 21 C 45 35 24 53 10 74 C -4 95 -12 119 -12 147 C -12 162 -9 177 -5 192 C 0 206 7 219 17 231 C 27 242 39 251 54 258 C 69 264 87 268 109 268 C 137 268 160 261 177 249 C 193 237 207 221 218 203 C 228 184 237 164 245 143 C 252 121 260 101 270 83 C 279 64 291 48 305 36 C 319 24 338 18 362 18 C 403 18 439 28 469 50 C 499 71 524 98 544 132 C 564 166 578 204 588 246 C 597 288 602 329 602 371 C 602 428 594 476 578 515 C 562 553 542 584 518 608 C 494 632 467 649 438 659 C 408 669 380 674 352 674 C 293 674 245 663 207 643 C 169 623 142 596 127 563 L 104 567 L 195 1462 L 715 1462 C 737 1462 756 1463 770 1467 C 784 1471 795 1476 805 1483 C 814 1490 822 1499 828 1510 C 834 1521 840 1534 846 1548 L 870 1540 Z" unicode="5" />
<glyph horiz-adv-x="1085" d="M 1057 483 C 1057 417 1044 355 1019 296 C 994 237 959 185 914 140 C 868 94 814 58 750 32 C 686 5 616 -8 539 -8 C 467 -8 401 5 339 33 C 277 61 224 98 179 145 C 133 192 98 247 72 309 C 46 371 33 437 33 506 C 33 594 46 678 74 756 C 101 834 138 907 186 975 C 234 1043 289 1104 353 1160 C 417 1216 485 1265 558 1309 C 630 1353 705 1390 783 1420 C 860 1450 936 1474 1012 1491 L 1028 1466 C 978 1441 926 1411 873 1377 C 819 1343 767 1303 717 1257 C 666 1211 618 1158 573 1100 C 528 1042 489 977 455 905 C 476 912 497 917 518 919 C 539 921 564 922 594 922 C 660 922 722 910 778 888 C 834 866 883 835 925 795 C 966 755 998 709 1022 656 C 1045 602 1057 545 1057 483 Z M 784 399 C 784 435 781 473 777 511 C 773 549 766 586 757 622 C 747 657 735 690 721 722 C 707 753 690 780 670 804 C 650 827 627 845 601 859 C 575 872 546 879 514 879 C 493 879 474 875 458 869 C 441 862 427 852 416 838 C 392 808 373 777 358 743 C 343 709 331 673 322 637 C 312 600 306 563 302 525 C 298 487 297 450 297 414 C 297 352 302 298 314 250 C 326 202 342 161 363 128 C 384 94 410 69 440 51 C 470 33 503 25 541 25 C 577 25 609 33 639 49 C 669 65 694 88 716 120 C 737 151 754 190 766 237 C 778 283 784 337 784 399 Z" unicode="6" />
<glyph horiz-adv-x="909" d="M 958 1462 C 954 1452 942 1424 923 1377 C 903 1330 878 1269 848 1195 C 818 1121 783 1036 745 940 C 706 844 665 742 623 636 C 581 529 538 420 494 308 C 450 196 407 88 367 -18 L 229 -12 C 234 -2 244 17 258 47 C 272 76 290 112 312 155 C 334 198 358 247 385 301 C 412 355 441 413 471 474 C 501 535 531 598 563 664 C 595 729 626 794 657 859 C 687 923 717 986 745 1048 C 773 1110 799 1167 823 1221 L 268 1221 C 224 1221 188 1214 160 1202 C 132 1189 109 1173 91 1155 C 73 1137 60 1117 50 1097 C 40 1076 31 1058 25 1042 L 0 1051 L 160 1462 L 958 1462 Z" unicode="7" />
<glyph horiz-adv-x="1032" d="M 987 416 C 987 354 974 296 948 244 C 922 192 886 147 842 109 C 798 71 746 41 686 20 C 626 -1 563 -12 496 -12 C 443 -12 390 -4 337 10 C 283 24 235 45 193 73 C 150 101 115 134 89 173 C 62 212 49 256 49 305 C 49 350 57 391 75 428 C 93 464 116 498 145 528 C 174 558 207 585 244 609 C 281 633 319 655 358 676 C 316 702 278 728 243 755 C 208 782 178 812 152 845 C 126 877 106 913 92 953 C 77 993 70 1038 70 1090 C 70 1146 83 1199 109 1248 C 135 1296 169 1338 212 1374 C 254 1410 302 1438 356 1458 C 410 1478 464 1489 520 1489 C 590 1489 652 1481 707 1466 C 762 1450 809 1429 847 1402 C 885 1375 914 1343 934 1307 C 954 1270 965 1230 965 1188 C 965 1146 957 1108 942 1073 C 927 1038 906 1006 879 976 C 851 946 819 918 781 893 C 743 867 701 844 655 823 C 677 811 701 799 727 785 C 752 771 777 755 801 738 C 825 720 849 701 872 679 C 894 657 914 633 931 607 C 948 581 962 552 972 520 C 982 488 987 454 987 416 Z M 745 1186 C 745 1218 740 1250 730 1282 C 720 1314 705 1342 686 1368 C 667 1394 644 1414 616 1430 C 588 1446 556 1454 520 1454 C 491 1454 463 1448 437 1438 C 410 1427 386 1412 366 1392 C 346 1372 329 1348 317 1320 C 305 1292 299 1261 299 1227 C 299 1176 310 1130 332 1089 C 354 1047 381 1010 414 978 C 447 946 483 918 522 894 C 560 870 597 851 631 836 C 653 854 672 875 687 900 C 702 924 714 951 722 981 C 730 1011 736 1043 740 1077 C 743 1111 745 1148 745 1186 Z M 737 266 C 737 310 728 351 711 389 C 693 427 669 463 638 496 C 607 528 570 558 527 586 C 484 614 437 639 385 662 C 363 643 346 619 332 591 C 318 563 308 533 300 501 C 292 469 286 436 283 404 C 280 371 279 341 279 313 C 279 267 286 226 300 190 C 314 154 332 123 355 99 C 377 74 403 55 433 42 C 462 29 492 23 522 23 C 560 23 593 30 621 46 C 648 61 670 80 688 104 C 705 127 717 153 725 182 C 733 210 737 238 737 266 Z" unicode="8" />
<glyph horiz-adv-x="1085" d="M 1055 969 C 1055 881 1042 797 1017 718 C 991 639 956 565 912 496 C 868 427 816 364 756 306 C 696 248 631 196 562 150 C 493 104 421 66 347 34 C 272 2 198 -22 125 -39 L 109 -8 C 163 16 216 44 269 78 C 321 112 372 152 420 200 C 468 247 512 302 554 365 C 596 428 633 501 666 584 C 638 571 610 562 582 558 C 554 553 524 551 492 551 C 420 551 355 563 298 587 C 240 611 192 643 153 685 C 113 726 83 774 62 829 C 41 884 31 943 31 1006 C 31 1070 43 1131 69 1189 C 95 1247 130 1299 176 1343 C 222 1387 276 1423 338 1449 C 400 1475 467 1489 539 1489 C 611 1489 679 1474 742 1446 C 804 1418 859 1380 905 1332 C 951 1284 988 1228 1015 1166 C 1041 1103 1055 1037 1055 969 Z M 791 1034 C 791 1086 786 1137 776 1187 C 766 1237 750 1282 730 1322 C 709 1362 683 1394 652 1419 C 621 1443 585 1456 543 1456 C 505 1456 471 1448 441 1432 C 411 1416 385 1392 364 1362 C 343 1331 327 1294 316 1250 C 304 1206 299 1157 299 1102 C 299 1066 301 1028 306 989 C 311 950 319 912 329 875 C 339 838 352 803 368 770 C 384 736 402 707 423 682 C 443 656 466 636 492 622 C 518 607 546 600 578 600 C 602 600 625 604 647 612 C 669 620 686 633 698 651 C 716 678 732 707 744 737 C 756 767 765 799 772 832 C 779 864 784 898 787 932 C 789 966 791 1000 791 1034 Z" unicode="9" />
<glyph horiz-adv-x="573" d="M 135 778 C 135 800 139 821 147 839 C 155 857 167 873 181 886 C 195 899 211 909 230 917 C 248 924 268 928 289 928 C 309 928 329 924 347 916 C 365 908 381 897 395 883 C 409 869 420 854 428 836 C 436 818 440 798 440 778 C 440 756 436 736 428 718 C 420 700 409 684 395 671 C 381 657 365 647 347 640 C 329 632 309 629 289 629 C 268 629 248 632 230 639 C 211 646 195 656 181 669 C 167 681 155 697 147 715 C 139 733 135 754 135 778 Z M 135 143 C 135 165 139 186 147 204 C 155 222 167 238 181 251 C 195 264 211 274 230 282 C 248 289 268 293 289 293 C 309 293 329 289 347 281 C 365 273 381 262 395 248 C 409 234 420 219 428 201 C 436 183 440 163 440 143 C 440 121 436 101 428 83 C 420 65 409 49 395 36 C 381 22 365 12 347 5 C 329 -2 309 -6 289 -6 C 268 -6 248 -2 230 4 C 211 11 195 21 181 34 C 167 46 155 62 147 80 C 139 98 135 119 135 143 Z" unicode=":" />
<glyph horiz-adv-x="573" d="M 135 778 C 135 800 139 821 147 839 C 155 857 167 873 181 886 C 195 899 211 909 230 917 C 248 924 268 928 289 928 C 309 928 329 924 347 916 C 365 908 381 897 395 883 C 409 869 420 854 428 836 C 436 818 440 798 440 778 C 440 756 436 736 428 718 C 420 700 409 684 395 671 C 381 657 365 647 347 640 C 329 632 309 629 289 629 C 268 629 248 632 230 639 C 211 646 195 656 181 669 C 167 681 155 697 147 715 C 139 733 135 754 135 778 Z M 485 25 C 485 -11 478 -46 466 -82 C 454 -117 435 -150 411 -180 C 386 -210 355 -236 318 -259 C 281 -282 238 -299 188 -311 L 182 -287 C 224 -275 259 -259 287 -237 C 314 -215 335 -191 351 -165 C 366 -139 376 -111 382 -83 C 388 -55 391 -28 391 -4 C 391 11 388 23 383 33 C 378 42 373 51 367 59 C 361 50 355 41 349 33 C 343 25 337 17 329 11 C 321 4 312 -1 301 -5 C 290 -9 276 -12 260 -12 C 240 -12 222 -8 206 -1 C 190 6 176 16 164 28 C 152 40 143 55 137 73 C 130 90 127 109 127 129 C 127 152 131 173 140 193 C 149 212 161 228 176 242 C 191 256 209 266 229 274 C 249 281 270 285 293 285 C 324 285 352 277 376 263 C 400 249 420 230 436 206 C 452 182 464 154 472 123 C 480 91 485 59 485 25 Z" unicode=";" />
<glyph horiz-adv-x="1434" d="M 1028 285 L 317 717 L 317 768 L 1028 1196 L 1067 1126 L 432 741 L 1073 352 L 1028 285 Z" unicode="&#x3C;" />
<glyph horiz-adv-x="1434" d="M 297 819 L 297 899 L 1137 899 L 1137 819 L 297 819 Z M 297 586 L 297 666 L 1137 666 L 1137 586 L 297 586 Z" unicode="=" />
<glyph horiz-adv-x="1434" d="M 1001 741 L 367 1126 L 406 1196 L 1116 768 L 1116 717 L 406 285 L 360 352 L 1001 741 Z" unicode="&#x3E;" />
<glyph horiz-adv-x="743" d="M 643 915 C 643 889 641 861 638 830 C 635 798 630 767 624 737 C 618 707 610 679 600 653 C 590 627 577 608 563 594 C 537 569 512 550 488 536 C 464 522 438 512 410 504 C 382 496 352 489 320 484 C 287 479 250 473 209 467 L 209 346 L 172 346 L 172 760 C 212 765 252 771 293 777 C 334 783 374 790 412 799 C 444 805 471 813 495 823 C 519 832 538 843 554 856 C 570 869 582 884 590 902 C 598 920 602 941 602 965 C 602 999 593 1026 577 1046 C 560 1066 538 1081 512 1092 C 485 1102 455 1109 422 1113 C 388 1116 355 1118 322 1118 C 294 1118 267 1115 241 1111 C 215 1107 191 1104 170 1102 L 170 1491 L 205 1491 L 205 1419 C 235 1419 265 1418 293 1416 C 321 1414 347 1409 373 1403 C 399 1396 423 1387 447 1375 C 471 1363 494 1347 516 1327 C 544 1301 566 1272 583 1238 C 600 1204 613 1169 622 1132 C 630 1095 636 1058 639 1020 C 641 982 643 947 643 915 Z M 358 143 C 358 121 354 101 346 83 C 338 65 327 49 313 36 C 299 22 283 12 265 5 C 247 -2 227 -6 207 -6 C 186 -6 166 -2 148 4 C 129 11 113 21 99 34 C 85 46 73 62 65 80 C 57 98 53 119 53 143 C 53 165 57 186 65 204 C 73 222 85 238 99 251 C 113 264 129 274 148 282 C 166 289 186 293 207 293 C 227 293 247 289 265 281 C 283 273 299 262 313 248 C 327 234 338 219 346 201 C 354 183 358 163 358 143 Z" unicode="?" />
<glyph horiz-adv-x="1839" d="M 1782 690 C 1782 632 1775 575 1761 520 C 1747 465 1728 413 1703 365 C 1677 317 1646 272 1610 232 C 1573 192 1531 157 1485 128 C 1439 99 1388 77 1334 61 C 1279 45 1221 37 1159 37 C 1134 37 1110 37 1087 39 C 1063 40 1041 42 1021 45 C 1000 48 981 52 965 56 C 948 60 934 66 924 72 L 1069 408 L 1057 412 C 1023 370 985 328 943 284 C 901 240 857 200 811 164 C 765 128 718 98 671 75 C 623 52 578 41 535 41 C 515 41 497 43 479 47 C 461 51 446 59 433 70 C 420 80 410 95 402 113 C 394 131 391 155 391 184 C 391 236 403 291 427 349 C 451 407 484 464 524 521 C 564 577 611 631 663 683 C 715 734 769 779 825 818 C 881 857 936 888 992 911 C 1047 934 1098 946 1145 946 C 1169 946 1190 940 1207 930 C 1223 919 1239 904 1255 885 L 1307 956 L 1509 956 L 1161 121 C 1169 119 1179 117 1189 116 C 1199 115 1210 115 1221 115 C 1302 115 1374 131 1437 164 C 1500 196 1553 240 1597 294 C 1640 348 1673 411 1695 481 C 1717 551 1729 623 1729 698 C 1729 776 1713 848 1681 913 C 1649 978 1606 1034 1552 1081 C 1497 1127 1433 1163 1361 1189 C 1288 1214 1210 1227 1128 1227 C 1036 1227 950 1214 870 1190 C 789 1166 715 1132 647 1090 C 579 1047 519 996 465 938 C 411 879 365 816 328 748 C 290 680 262 608 242 533 C 222 457 213 381 213 305 C 213 207 230 118 266 40 C 301 -38 350 -105 414 -160 C 478 -214 554 -256 643 -286 C 732 -315 830 -330 938 -330 C 1058 -330 1170 -310 1276 -271 C 1381 -231 1477 -175 1565 -102 L 1583 -127 C 1541 -167 1494 -204 1442 -236 C 1390 -268 1334 -295 1276 -317 C 1217 -339 1156 -357 1093 -369 C 1030 -381 967 -387 903 -387 C 782 -387 672 -368 572 -332 C 472 -295 387 -244 315 -179 C 243 -114 188 -37 149 51 C 109 139 90 236 90 340 C 90 424 102 507 126 587 C 150 667 184 743 228 814 C 272 885 324 950 386 1009 C 447 1068 515 1119 589 1161 C 663 1203 742 1236 827 1260 C 912 1284 1000 1296 1092 1296 C 1152 1296 1211 1289 1269 1275 C 1327 1261 1381 1242 1432 1216 C 1483 1190 1530 1160 1573 1124 C 1616 1088 1653 1047 1684 1002 C 1714 957 1738 908 1756 856 C 1773 803 1782 748 1782 690 Z M 1188 797 C 1188 809 1186 822 1182 835 C 1178 848 1172 860 1165 871 C 1157 881 1148 890 1137 897 C 1125 903 1112 907 1098 907 C 1074 907 1045 895 1012 871 C 978 847 944 815 909 776 C 873 737 838 693 804 643 C 770 593 739 543 712 493 C 684 442 662 393 646 346 C 629 298 621 257 621 223 C 621 202 627 185 639 172 C 651 158 669 152 694 152 C 715 152 742 162 775 182 C 807 202 842 229 878 263 C 914 297 951 336 988 380 C 1025 424 1058 469 1088 517 C 1117 565 1141 613 1160 661 C 1178 709 1188 755 1188 797 Z" unicode="@" />
<glyph horiz-adv-x="1430" d="M 821 0 L 821 20 C 835 22 852 24 871 27 C 889 29 907 34 924 41 C 941 47 955 56 967 68 C 979 80 985 95 985 115 C 985 127 981 146 974 173 C 966 200 956 233 944 272 C 931 310 916 354 899 402 C 881 450 862 501 842 555 L 330 555 C 320 529 310 505 300 482 C 290 458 281 435 272 413 C 262 390 253 367 244 344 C 235 321 226 298 217 274 C 202 237 191 205 184 179 C 177 152 174 132 174 119 C 174 101 179 86 190 74 C 201 62 215 53 232 46 C 248 38 267 33 287 29 C 307 25 326 22 344 20 L 344 0 L -96 0 L -96 23 C -78 25 -61 28 -45 34 C -29 39 -15 45 -3 51 C 9 57 20 63 28 69 C 36 75 41 79 43 82 C 52 91 67 113 89 149 C 111 184 138 237 170 307 C 199 371 230 442 264 518 C 297 594 331 673 366 755 C 400 837 435 919 470 1002 C 505 1084 539 1164 571 1241 L 539 1315 C 563 1323 588 1335 613 1350 C 638 1364 662 1380 684 1398 C 706 1416 727 1434 746 1452 C 764 1470 780 1487 793 1503 L 809 1503 L 1239 352 C 1247 330 1254 311 1261 295 C 1267 278 1274 262 1281 246 C 1287 230 1294 215 1302 200 C 1309 185 1317 169 1325 152 C 1327 146 1333 136 1343 122 C 1352 108 1365 95 1381 81 C 1397 67 1416 54 1440 43 C 1463 31 1490 25 1522 25 L 1522 0 L 821 0 Z M 825 598 C 804 651 783 705 762 761 C 740 817 719 871 699 923 C 679 975 660 1025 642 1071 C 624 1117 608 1158 594 1192 C 582 1166 568 1133 552 1093 C 535 1053 516 1007 495 956 C 473 905 450 849 426 789 C 401 728 375 664 348 598 L 825 598 Z" unicode="A" />
<glyph horiz-adv-x="1548" d="M 1450 403 C 1450 354 1442 310 1427 271 C 1411 231 1391 196 1366 166 C 1341 136 1313 110 1282 89 C 1251 68 1220 52 1188 41 C 1161 31 1132 23 1102 18 C 1071 12 1040 8 1008 6 C 976 3 943 1 911 1 C 878 0 847 0 817 0 L 45 0 L 45 20 C 61 22 78 26 96 30 C 114 34 131 40 147 47 C 163 53 177 61 191 69 C 204 77 215 87 225 98 C 231 106 237 118 242 134 C 246 150 250 168 253 188 C 255 208 257 229 259 252 C 260 274 261 297 262 319 C 262 337 263 363 263 396 C 263 428 264 464 264 503 C 264 542 265 582 265 624 C 265 666 266 705 266 743 C 266 783 266 819 266 851 C 266 883 266 913 266 943 C 266 972 265 1002 265 1034 C 265 1065 264 1101 264 1143 C 263 1167 262 1191 261 1217 C 260 1243 258 1267 255 1290 C 252 1313 248 1334 243 1352 C 237 1370 231 1384 223 1393 C 213 1403 202 1412 192 1419 C 181 1426 169 1432 157 1436 C 145 1440 131 1444 117 1447 C 102 1449 86 1452 68 1454 L 68 1475 L 827 1475 C 881 1475 932 1471 980 1465 C 1028 1459 1074 1448 1120 1432 C 1156 1418 1189 1402 1219 1382 C 1249 1362 1275 1339 1297 1312 C 1319 1285 1336 1255 1348 1221 C 1360 1187 1366 1150 1366 1110 C 1366 1065 1358 1024 1342 988 C 1326 952 1303 920 1275 892 C 1247 864 1213 840 1173 822 C 1133 803 1090 789 1042 780 L 1042 772 C 1093 766 1143 754 1192 736 C 1241 717 1285 692 1323 661 C 1361 630 1391 593 1415 550 C 1438 506 1450 457 1450 403 Z M 1124 381 C 1124 419 1118 456 1108 492 C 1097 527 1082 559 1063 588 C 1043 617 1020 642 994 664 C 968 686 939 703 907 715 C 880 724 854 730 830 734 C 805 737 776 739 743 739 L 571 739 C 571 695 571 651 571 608 C 571 564 571 523 571 484 C 571 445 571 409 571 377 C 571 345 572 317 573 295 C 574 243 576 201 580 167 C 583 133 592 105 606 84 C 616 68 632 56 653 46 C 673 36 704 31 745 31 C 779 31 815 33 855 39 C 894 45 933 59 971 82 C 1020 112 1058 152 1084 202 C 1110 252 1124 312 1124 381 Z M 1044 1110 C 1044 1144 1040 1176 1033 1206 C 1025 1236 1015 1264 1002 1290 C 988 1315 972 1337 954 1357 C 936 1376 915 1391 893 1403 C 841 1430 776 1444 696 1444 C 671 1444 649 1442 630 1440 C 610 1437 596 1434 586 1430 C 584 1421 583 1413 582 1407 C 581 1401 580 1393 580 1384 C 579 1374 578 1362 578 1348 C 577 1333 576 1313 575 1288 C 573 1256 572 1221 572 1185 C 572 1148 571 1111 571 1074 C 571 1037 571 1001 571 967 C 571 932 571 901 571 873 C 571 845 571 821 571 803 C 571 785 571 774 571 770 C 610 770 643 770 669 770 C 695 770 716 770 733 772 C 785 775 830 786 869 804 C 908 822 941 846 967 876 C 993 906 1012 940 1025 980 C 1037 1020 1044 1063 1044 1110 Z" unicode="B" />
<glyph horiz-adv-x="1561" d="M 1462 971 C 1442 1035 1413 1097 1377 1157 C 1341 1217 1298 1270 1250 1316 C 1202 1362 1149 1400 1091 1428 C 1033 1456 973 1470 911 1470 C 851 1470 797 1460 747 1441 C 697 1421 652 1394 612 1360 C 572 1326 537 1285 507 1239 C 477 1192 451 1141 431 1086 C 411 1031 396 973 386 913 C 376 853 371 792 371 731 C 371 632 383 540 408 454 C 433 368 469 293 516 230 C 563 166 621 116 689 80 C 757 43 834 25 920 25 C 962 25 1004 31 1045 45 C 1086 58 1125 76 1162 100 C 1199 123 1234 150 1266 182 C 1298 214 1326 248 1352 284 C 1378 320 1400 357 1418 396 C 1436 435 1450 474 1460 512 L 1485 512 L 1479 33 L 1454 33 C 1445 45 1436 56 1427 68 C 1417 80 1408 90 1400 100 C 1392 110 1384 118 1378 124 C 1371 130 1366 133 1364 133 C 1361 133 1349 125 1329 110 C 1308 95 1277 78 1237 60 C 1197 42 1146 25 1086 10 C 1025 -4 954 -12 872 -12 C 740 -12 623 6 519 44 C 415 81 328 133 256 199 C 184 265 128 345 90 437 C 52 529 33 631 33 741 C 33 765 34 792 37 824 C 40 855 46 889 55 925 C 64 961 77 998 93 1037 C 109 1076 130 1115 156 1155 C 185 1201 221 1246 264 1288 C 307 1330 358 1368 416 1400 C 474 1432 540 1457 614 1476 C 688 1495 772 1505 864 1505 C 946 1505 1017 1497 1079 1481 C 1141 1465 1192 1448 1234 1429 C 1276 1410 1308 1393 1330 1377 C 1352 1361 1364 1354 1368 1354 C 1370 1354 1375 1357 1383 1364 C 1390 1370 1398 1379 1408 1389 C 1417 1399 1427 1411 1437 1423 C 1447 1435 1456 1448 1464 1460 L 1487 1460 L 1487 971 L 1462 971 Z" unicode="C" />
<glyph horiz-adv-x="1729" d="M 1696 758 C 1696 654 1683 564 1659 487 C 1634 409 1601 342 1559 286 C 1517 230 1468 183 1412 147 C 1356 110 1296 81 1233 59 C 1170 37 1105 21 1039 13 C 973 4 908 0 846 0 L 49 0 L 49 20 C 65 22 83 25 101 30 C 119 34 136 40 152 46 C 168 52 183 60 197 68 C 210 76 221 86 229 96 C 235 103 240 115 244 131 C 248 147 251 165 254 185 C 256 205 258 227 259 251 C 260 274 261 297 262 319 C 262 337 263 362 263 394 C 263 425 264 460 264 498 C 264 536 265 576 265 618 C 265 660 266 701 266 743 L 266 1143 C 266 1166 265 1190 265 1215 C 265 1239 264 1262 262 1284 C 260 1306 257 1325 253 1342 C 249 1359 243 1372 236 1382 C 215 1407 189 1424 158 1434 C 126 1443 93 1450 57 1454 L 57 1475 C 85 1475 122 1475 169 1475 C 215 1475 269 1476 329 1476 C 389 1476 454 1476 525 1476 C 596 1476 670 1477 748 1477 C 790 1477 833 1476 877 1476 C 921 1476 966 1474 1011 1470 C 1056 1466 1101 1459 1147 1449 C 1192 1439 1236 1425 1280 1407 C 1336 1381 1389 1350 1439 1312 C 1489 1274 1534 1229 1572 1177 C 1610 1124 1640 1063 1662 994 C 1684 924 1696 846 1696 758 Z M 1358 754 C 1358 806 1353 858 1343 909 C 1333 960 1320 1009 1302 1056 C 1284 1103 1262 1147 1236 1188 C 1210 1229 1182 1266 1151 1298 C 1119 1330 1085 1357 1048 1379 C 1011 1401 972 1416 932 1425 C 909 1430 884 1434 858 1438 C 831 1442 797 1444 756 1444 C 740 1444 724 1443 707 1442 C 690 1441 674 1440 658 1439 C 642 1437 628 1435 615 1433 C 602 1431 592 1429 584 1427 C 577 1360 573 1268 572 1151 C 571 1033 571 893 571 731 L 571 317 C 571 297 572 276 574 254 C 575 232 577 210 580 189 C 583 168 587 149 592 132 C 596 115 602 102 610 94 C 622 80 637 69 653 61 C 669 53 685 46 702 42 C 718 37 735 34 753 33 C 770 31 787 31 803 31 C 831 31 861 32 893 36 C 924 39 954 45 983 55 C 1045 75 1100 107 1147 149 C 1194 191 1233 242 1265 302 C 1296 362 1319 430 1335 506 C 1350 582 1358 664 1358 754 Z" unicode="D" />
<glyph horiz-adv-x="1464" d="M 1372 0 L 49 0 L 49 20 C 83 25 116 34 148 47 C 180 59 206 76 225 98 C 231 106 237 118 242 134 C 246 150 250 168 253 188 C 255 208 257 229 259 252 C 260 274 261 297 262 319 C 262 337 263 362 263 394 C 263 425 264 460 264 498 C 264 536 265 576 265 618 C 265 660 266 701 266 743 L 266 1143 C 266 1167 265 1193 265 1219 C 264 1245 262 1269 260 1292 C 258 1315 254 1336 250 1354 C 245 1372 239 1386 231 1395 C 221 1405 210 1414 198 1421 C 186 1427 174 1433 161 1437 C 148 1441 134 1444 118 1446 C 102 1448 86 1451 68 1454 L 68 1475 L 1268 1475 L 1407 1116 L 1386 1106 C 1358 1140 1330 1172 1301 1203 C 1271 1234 1242 1263 1214 1289 C 1186 1315 1158 1337 1131 1357 C 1103 1377 1078 1393 1055 1405 C 1037 1414 1001 1423 945 1432 C 889 1441 816 1446 727 1446 C 698 1446 670 1445 643 1443 C 615 1441 595 1439 582 1436 C 580 1425 579 1408 578 1385 C 577 1361 576 1333 575 1301 C 573 1268 572 1231 572 1191 C 571 1150 571 1107 571 1063 C 571 1011 571 967 571 931 C 571 895 572 866 572 844 C 572 821 572 804 572 792 C 572 780 573 773 573 770 C 579 770 590 770 607 770 C 624 770 643 770 664 771 C 685 772 707 774 730 776 C 752 778 773 782 791 786 C 832 796 867 810 896 829 C 925 848 949 871 969 898 C 989 925 1005 955 1018 989 C 1030 1023 1041 1059 1049 1098 L 1073 1098 L 1073 395 L 1049 395 C 1043 416 1034 440 1024 466 C 1013 492 1001 518 988 544 C 974 570 960 593 946 615 C 932 636 919 652 907 664 C 885 683 859 699 829 711 C 798 723 762 731 721 733 C 700 733 685 734 675 735 C 665 735 657 736 649 736 C 641 736 633 737 623 737 C 613 737 597 737 575 737 C 573 727 572 715 572 701 C 572 687 571 671 571 653 C 571 635 571 617 571 598 C 571 578 571 559 571 539 C 571 520 571 499 571 477 C 571 454 571 431 571 409 C 571 386 571 365 571 345 C 571 325 572 308 573 295 C 573 273 574 251 575 230 C 576 208 578 188 580 170 C 582 152 585 135 589 120 C 593 105 598 93 604 84 C 610 74 620 66 636 60 C 651 53 669 47 690 43 C 711 39 734 36 759 34 C 783 32 808 31 834 31 C 856 31 883 32 915 34 C 946 36 976 39 1006 43 C 1090 54 1169 90 1242 151 C 1314 211 1384 300 1452 418 L 1475 412 L 1372 0 Z" unicode="E" />
<glyph horiz-adv-x="1352" d="M 1395 1100 C 1367 1132 1338 1164 1310 1196 C 1281 1228 1252 1257 1224 1285 C 1196 1312 1168 1336 1142 1357 C 1115 1378 1090 1395 1067 1407 C 1057 1411 1043 1416 1024 1421 C 1004 1425 981 1429 954 1433 C 926 1437 895 1440 861 1442 C 827 1444 790 1446 750 1446 C 735 1446 720 1445 705 1445 C 689 1445 675 1444 661 1444 C 647 1443 634 1442 622 1442 C 610 1441 601 1440 594 1440 C 592 1432 590 1423 588 1415 C 586 1407 585 1397 583 1386 C 581 1374 580 1360 579 1344 C 577 1327 576 1306 575 1282 C 573 1250 572 1215 572 1179 C 572 1143 571 1106 571 1070 C 571 1034 571 999 571 965 C 571 931 571 900 571 872 C 571 844 571 822 571 804 C 571 786 571 774 571 770 C 575 770 586 770 603 770 C 619 770 639 770 661 771 C 683 772 706 774 730 776 C 754 778 775 782 795 786 C 843 796 883 811 915 833 C 946 854 971 879 990 907 C 1008 935 1022 965 1031 998 C 1040 1030 1047 1064 1053 1098 L 1077 1098 L 1077 381 L 1053 381 C 1047 402 1039 426 1029 453 C 1019 480 1007 507 995 533 C 982 559 968 583 954 606 C 940 628 925 646 911 659 C 885 682 858 699 829 711 C 799 722 765 729 725 733 C 704 734 688 735 678 736 C 668 736 658 737 649 737 C 640 737 630 737 619 737 C 608 737 592 737 571 737 C 571 693 571 649 571 606 C 571 563 571 522 571 484 C 571 445 571 409 571 377 C 571 345 572 317 573 295 C 573 273 574 251 575 230 C 576 208 578 188 580 170 C 582 152 585 135 589 120 C 593 105 598 93 604 84 C 616 65 639 50 671 40 C 703 29 747 22 803 20 L 803 0 L 49 0 L 49 20 C 83 25 116 34 148 47 C 180 59 206 76 225 98 C 231 106 237 118 242 134 C 246 150 250 168 253 188 C 255 208 257 229 259 252 C 260 274 261 297 262 319 C 262 337 263 362 263 394 C 263 425 264 460 264 498 C 264 536 265 576 265 618 C 265 660 266 701 266 743 L 266 1143 C 266 1167 265 1193 265 1219 C 264 1245 262 1269 260 1292 C 258 1315 254 1336 250 1354 C 245 1372 239 1386 231 1395 C 221 1405 210 1414 198 1421 C 186 1427 174 1433 161 1437 C 148 1441 134 1444 118 1446 C 102 1448 86 1451 68 1454 L 68 1475 L 1276 1475 L 1415 1110 L 1395 1100 Z" unicode="F" />
<glyph horiz-adv-x="1657" d="M 1622 688 C 1609 686 1596 684 1582 681 C 1568 678 1554 674 1541 670 C 1528 665 1516 659 1506 652 C 1495 645 1487 637 1481 627 C 1475 619 1471 609 1469 597 C 1466 585 1464 571 1463 556 C 1461 540 1460 524 1460 508 C 1460 491 1460 475 1460 459 L 1460 164 C 1453 158 1440 150 1421 140 C 1401 129 1377 117 1348 104 C 1319 90 1286 77 1250 63 C 1214 49 1175 36 1133 25 C 1091 13 1048 4 1004 -3 C 959 -10 914 -14 870 -14 C 736 -14 618 3 514 38 C 410 72 323 122 252 187 C 180 252 126 331 89 424 C 51 517 33 622 33 739 C 33 773 36 813 42 858 C 48 902 60 949 78 998 C 96 1046 120 1096 150 1146 C 180 1196 220 1244 268 1290 C 302 1322 339 1351 379 1377 C 419 1403 464 1425 513 1444 C 562 1462 616 1477 675 1487 C 733 1497 798 1503 868 1503 C 952 1503 1026 1495 1090 1480 C 1153 1465 1206 1448 1249 1430 C 1291 1412 1324 1395 1347 1380 C 1369 1365 1382 1358 1386 1358 C 1387 1358 1389 1360 1393 1366 C 1397 1371 1402 1378 1408 1386 C 1414 1394 1420 1404 1428 1415 C 1436 1426 1444 1438 1454 1450 L 1475 1450 L 1475 975 L 1450 975 C 1442 1005 1431 1035 1419 1067 C 1407 1099 1393 1129 1378 1158 C 1362 1187 1346 1214 1329 1239 C 1311 1264 1294 1285 1276 1303 C 1252 1325 1227 1347 1199 1367 C 1171 1387 1140 1404 1106 1419 C 1072 1434 1036 1446 997 1455 C 957 1463 915 1468 870 1468 C 817 1468 768 1458 723 1440 C 678 1422 637 1396 600 1364 C 563 1331 530 1292 502 1246 C 474 1200 450 1151 430 1097 C 410 1043 396 985 386 924 C 376 862 371 799 371 735 C 371 633 381 538 402 450 C 422 362 453 287 494 223 C 534 159 585 108 646 72 C 707 36 778 18 858 18 C 910 18 959 30 1005 55 C 1051 79 1089 116 1118 166 C 1123 174 1128 187 1132 203 C 1136 219 1139 238 1142 258 C 1145 278 1147 300 1149 324 C 1150 348 1151 371 1151 395 C 1151 443 1148 487 1142 526 C 1136 565 1122 597 1102 623 C 1094 631 1084 639 1072 647 C 1059 654 1045 660 1029 666 C 1013 672 997 676 979 680 C 961 684 944 686 928 688 L 928 709 L 1622 709 L 1622 688 Z" unicode="G" />
<glyph horiz-adv-x="1851" d="M 1057 0 L 1057 20 C 1081 22 1105 25 1127 30 C 1149 35 1169 41 1187 48 C 1205 54 1220 62 1232 70 C 1244 78 1254 87 1260 96 C 1262 100 1265 109 1267 121 C 1269 133 1270 148 1271 164 C 1272 180 1273 197 1274 215 C 1274 233 1275 250 1276 266 C 1276 310 1277 357 1277 405 C 1277 453 1278 499 1278 543 C 1278 586 1278 624 1278 658 C 1278 691 1278 715 1278 729 L 571 729 L 571 289 C 571 269 571 250 571 230 C 571 210 572 192 574 175 C 575 157 577 142 580 128 C 582 114 586 103 592 96 C 600 84 610 74 623 66 C 636 57 650 49 665 43 C 680 36 696 31 712 27 C 728 23 743 21 758 20 L 758 0 L 55 0 L 55 20 C 71 22 88 26 106 31 C 124 35 141 41 157 47 C 173 53 187 61 201 69 C 214 77 225 86 233 96 C 239 102 243 114 247 130 C 250 146 253 164 255 185 C 257 205 258 227 259 251 C 260 274 261 297 262 319 C 262 337 263 363 263 395 C 263 427 264 463 264 502 C 264 540 265 581 265 623 C 265 665 266 705 266 743 L 266 1143 C 266 1166 265 1190 265 1215 C 265 1239 264 1262 262 1284 C 260 1306 257 1325 253 1342 C 249 1359 243 1372 236 1382 C 216 1404 191 1421 161 1432 C 130 1442 97 1450 61 1454 L 61 1475 L 770 1475 L 770 1454 C 750 1451 729 1447 707 1442 C 685 1436 664 1428 645 1416 C 625 1404 609 1388 596 1368 C 583 1348 576 1322 575 1290 C 573 1258 572 1224 572 1189 C 572 1153 571 1118 571 1082 C 571 1046 571 1012 571 978 C 571 944 571 914 571 886 C 571 858 571 833 571 813 C 571 793 571 778 571 770 L 1278 770 C 1278 814 1278 853 1278 889 C 1278 925 1278 960 1278 994 C 1278 1028 1277 1064 1277 1100 C 1277 1136 1276 1176 1276 1221 C 1275 1233 1274 1247 1274 1261 C 1274 1275 1273 1288 1271 1301 C 1269 1314 1267 1327 1264 1339 C 1261 1351 1257 1361 1251 1370 C 1239 1388 1225 1403 1210 1414 C 1194 1424 1178 1433 1162 1439 C 1146 1445 1129 1448 1113 1450 C 1096 1452 1080 1453 1065 1454 L 1065 1475 L 1780 1475 L 1780 1454 C 1763 1452 1746 1448 1729 1444 C 1711 1440 1695 1434 1679 1427 C 1663 1419 1648 1410 1635 1400 C 1622 1390 1612 1378 1606 1364 C 1600 1354 1596 1340 1594 1324 C 1591 1307 1589 1288 1588 1268 C 1586 1248 1585 1226 1585 1204 C 1585 1181 1585 1159 1585 1139 L 1585 788 C 1585 738 1585 693 1585 653 C 1585 612 1585 572 1585 533 C 1585 494 1585 454 1585 414 C 1585 373 1586 328 1587 279 C 1587 259 1587 240 1587 222 C 1587 203 1588 186 1590 170 C 1591 154 1593 139 1596 127 C 1598 115 1602 106 1606 100 C 1614 86 1625 75 1638 66 C 1650 57 1664 49 1680 43 C 1696 37 1712 32 1730 28 C 1748 24 1766 22 1784 20 L 1784 0 L 1057 0 Z" unicode="H" />
<glyph horiz-adv-x="846" d="M 59 0 L 59 20 C 93 25 126 34 158 46 C 190 58 217 76 238 100 C 244 108 249 119 253 135 C 256 150 259 168 261 188 C 263 208 264 229 264 252 C 264 274 265 297 266 319 C 266 337 267 363 267 396 C 267 428 268 464 268 503 C 268 541 269 581 269 623 C 269 665 270 705 270 743 L 270 1143 C 270 1166 269 1190 269 1215 C 269 1239 268 1262 266 1284 C 264 1306 261 1325 257 1342 C 253 1359 247 1372 240 1382 C 220 1404 195 1421 165 1432 C 135 1442 102 1450 66 1454 L 66 1475 L 776 1475 L 776 1454 C 762 1452 746 1449 729 1446 C 712 1442 695 1437 679 1431 C 663 1425 648 1416 634 1406 C 620 1396 608 1382 600 1366 C 594 1354 589 1340 586 1325 C 583 1309 581 1293 580 1277 C 579 1260 579 1243 579 1226 C 579 1209 578 1193 578 1178 C 577 1142 576 1108 576 1075 C 576 1042 575 1009 575 975 C 575 941 575 905 575 869 C 575 832 575 793 575 752 L 575 289 C 575 269 575 250 575 230 C 575 210 576 192 578 175 C 579 157 581 142 584 128 C 586 114 590 103 596 96 C 604 84 615 74 630 66 C 644 57 660 49 678 43 C 695 36 712 31 730 27 C 748 23 764 21 778 20 L 778 0 L 59 0 Z" unicode="I" />
<glyph horiz-adv-x="887" d="M 883 1454 C 868 1452 852 1449 835 1446 C 817 1442 800 1437 784 1431 C 767 1425 751 1416 737 1406 C 722 1396 710 1382 702 1366 C 696 1355 692 1342 689 1327 C 686 1311 684 1295 683 1278 C 682 1261 681 1244 681 1227 C 681 1209 680 1193 680 1178 C 679 1142 678 1108 678 1075 C 678 1042 678 1009 678 975 C 678 941 678 905 678 869 C 678 832 678 793 678 752 L 678 291 C 678 245 665 204 640 168 C 615 131 583 98 543 70 C 517 52 489 36 461 23 C 433 9 405 -1 378 -10 C 351 -19 326 -26 302 -30 C 278 -34 257 -37 240 -37 C 212 -37 183 -33 153 -27 C 123 -20 95 -9 71 4 C 47 18 27 37 11 61 C -4 84 -12 113 -12 147 C -12 170 -7 191 2 211 C 11 231 23 248 39 263 C 54 277 72 289 92 297 C 112 305 132 309 154 309 C 172 309 190 305 207 298 C 223 291 238 281 250 269 C 262 256 272 241 280 224 C 287 207 291 188 291 168 C 291 144 287 124 281 108 C 275 91 267 77 257 65 C 247 53 236 44 224 38 C 212 32 200 27 190 25 L 190 16 C 192 8 200 1 212 -4 C 224 -9 237 -12 252 -12 C 260 -12 270 -9 280 -3 C 290 2 300 10 310 21 C 320 31 329 44 337 58 C 345 72 350 88 354 106 C 356 118 359 132 361 149 C 363 165 364 183 366 203 C 367 222 368 242 369 263 C 369 283 370 304 371 324 C 371 342 372 367 372 398 C 372 428 373 462 373 500 C 373 537 373 576 373 618 C 373 660 373 701 373 743 L 373 1143 C 373 1167 373 1191 373 1216 C 373 1241 372 1265 370 1288 C 368 1310 366 1330 362 1348 C 358 1366 352 1379 344 1389 C 334 1400 321 1409 307 1417 C 293 1424 277 1430 261 1435 C 244 1440 226 1444 208 1447 C 190 1449 172 1452 154 1454 L 154 1475 L 883 1475 L 883 1454 Z" unicode="J" />
<glyph horiz-adv-x="1599" d="M 1155 0 C 1149 3 1143 7 1137 12 C 1130 16 1123 23 1116 33 C 1074 83 1035 132 998 179 C 961 225 925 271 889 317 C 853 363 818 408 782 454 C 746 500 708 547 670 596 C 654 614 641 629 631 641 C 620 653 611 662 604 668 C 597 674 591 679 587 681 C 583 683 579 684 575 684 L 569 684 C 569 648 569 611 569 574 C 569 537 569 501 569 466 C 569 431 569 398 569 368 C 569 338 570 311 571 289 C 571 269 572 250 574 231 C 575 212 577 194 579 178 C 581 162 585 147 589 133 C 593 119 599 108 606 100 C 616 86 629 75 647 66 C 664 56 682 48 702 42 C 722 35 741 30 761 27 C 780 23 797 21 811 20 L 811 0 L 55 0 L 55 20 C 71 22 88 26 106 30 C 124 34 141 38 157 44 C 173 50 187 56 201 64 C 214 71 225 80 233 90 C 240 98 246 110 250 127 C 254 143 257 162 259 183 C 261 204 262 226 262 250 C 262 274 263 297 264 319 C 264 337 265 362 265 394 C 265 425 266 460 266 498 C 266 536 266 576 266 618 C 266 660 266 701 266 743 L 266 1143 C 266 1167 265 1192 265 1217 C 264 1241 263 1264 261 1285 C 259 1306 255 1325 251 1341 C 247 1357 241 1370 233 1380 C 213 1402 189 1419 159 1431 C 129 1442 97 1450 61 1454 L 61 1475 L 795 1475 L 795 1454 C 769 1450 743 1446 718 1442 C 692 1438 669 1428 649 1412 C 628 1396 611 1372 598 1340 C 584 1308 577 1264 575 1208 C 573 1176 572 1147 572 1120 C 572 1092 571 1061 571 1026 C 571 990 571 948 571 898 C 571 848 571 785 571 709 C 587 718 606 733 629 753 C 652 773 677 796 704 822 C 731 848 759 877 788 908 C 817 938 846 969 874 1000 C 902 1031 929 1061 955 1091 C 981 1120 1004 1147 1024 1171 C 1045 1198 1064 1226 1080 1255 C 1096 1283 1104 1309 1104 1333 C 1104 1353 1100 1370 1092 1384 C 1084 1398 1073 1409 1060 1419 C 1046 1429 1031 1436 1015 1442 C 998 1447 981 1451 963 1454 L 963 1475 L 1518 1475 L 1518 1454 C 1483 1450 1448 1441 1412 1425 C 1376 1409 1341 1388 1305 1364 C 1269 1339 1234 1311 1200 1280 C 1165 1249 1132 1218 1100 1186 C 1077 1163 1054 1139 1030 1114 C 1006 1088 982 1063 958 1037 C 934 1011 910 986 887 961 C 863 935 841 911 821 889 C 834 871 852 846 876 816 C 900 786 927 752 957 714 C 987 676 1020 635 1056 591 C 1091 547 1127 503 1164 458 C 1200 413 1237 368 1273 324 C 1309 279 1343 237 1376 197 C 1388 181 1402 166 1418 150 C 1434 134 1449 120 1464 107 C 1478 94 1492 83 1504 74 C 1516 65 1526 59 1532 57 C 1536 55 1544 52 1556 48 C 1568 44 1581 41 1597 37 C 1613 33 1629 30 1647 27 C 1665 23 1682 21 1700 20 L 1700 0 L 1155 0 Z" unicode="K" />
<glyph horiz-adv-x="1438" d="M 1399 0 L 35 0 L 35 20 C 51 22 69 26 87 30 C 105 34 123 40 140 47 C 157 53 173 61 187 69 C 201 77 213 87 223 98 C 229 106 235 118 240 134 C 244 150 248 168 251 188 C 254 208 256 229 258 252 C 260 274 261 297 262 319 C 262 337 263 363 263 395 C 263 427 264 463 264 502 C 264 540 265 581 265 623 C 265 665 266 705 266 743 L 266 1141 C 266 1164 265 1188 265 1212 C 265 1236 264 1258 262 1280 C 260 1301 257 1320 253 1337 C 249 1353 243 1366 236 1376 C 226 1387 214 1397 200 1406 C 186 1414 171 1422 155 1429 C 138 1435 121 1441 103 1445 C 85 1449 67 1452 49 1454 L 49 1475 L 801 1475 L 801 1454 C 782 1451 760 1447 735 1442 C 710 1436 686 1427 663 1415 C 640 1402 620 1384 604 1362 C 587 1340 578 1310 578 1274 C 576 1226 574 1182 574 1143 C 573 1103 572 1064 572 1026 C 571 988 571 948 571 907 C 571 866 571 820 571 770 C 571 723 571 681 571 644 C 571 606 571 570 571 534 C 571 498 571 462 571 425 C 571 387 572 345 573 299 C 573 277 574 255 574 234 C 574 212 575 192 577 173 C 579 154 581 137 585 122 C 589 107 594 95 600 86 C 605 78 615 71 631 65 C 646 58 665 52 687 47 C 709 42 733 38 759 35 C 785 32 812 31 840 31 C 851 31 866 31 884 32 C 902 32 923 34 945 36 C 967 38 990 41 1015 45 C 1039 49 1063 54 1087 61 C 1141 75 1188 96 1226 124 C 1264 151 1296 182 1324 217 C 1352 252 1376 289 1396 329 C 1416 369 1435 409 1454 449 L 1475 442 L 1399 0 Z" unicode="L" />
<glyph horiz-adv-x="2030" d="M 1198 0 L 1198 23 C 1227 24 1254 28 1280 35 C 1306 41 1329 50 1349 60 C 1369 70 1387 81 1402 94 C 1416 107 1427 121 1434 135 C 1442 152 1448 174 1452 201 C 1456 227 1458 255 1460 283 C 1460 327 1461 370 1462 410 C 1462 450 1463 491 1463 531 C 1463 571 1464 612 1464 655 C 1464 698 1464 745 1464 795 L 1464 1292 C 1437 1232 1412 1176 1388 1122 C 1364 1068 1341 1016 1319 965 C 1296 914 1273 864 1251 814 C 1229 764 1206 713 1183 661 C 1159 609 1135 555 1110 500 C 1084 444 1058 386 1030 324 C 1024 310 1015 288 1003 259 C 991 230 978 200 965 170 C 952 139 940 111 930 85 C 919 59 912 43 909 35 L 856 35 C 817 127 778 218 740 308 C 702 398 665 486 629 570 C 593 654 558 734 525 810 C 492 886 462 955 435 1019 C 407 1082 383 1137 362 1185 C 341 1233 325 1271 313 1300 C 312 1245 312 1194 312 1147 C 312 1100 311 1055 311 1011 C 311 967 310 924 310 881 C 310 838 309 793 309 747 C 309 700 309 650 309 597 C 309 544 309 486 309 422 C 309 358 311 302 316 255 C 320 208 331 168 349 136 C 366 104 392 78 426 60 C 460 41 507 28 567 20 L 567 0 L 16 0 L 16 20 C 63 29 102 43 133 62 C 164 80 189 106 208 138 C 227 170 241 211 250 260 C 258 309 264 368 266 438 C 268 496 269 566 271 646 C 273 726 274 811 274 903 C 274 941 274 974 274 1002 C 274 1030 274 1056 274 1082 C 274 1107 273 1133 273 1161 C 273 1189 272 1222 272 1262 C 270 1300 262 1331 246 1355 C 230 1379 212 1397 190 1411 C 168 1425 146 1435 122 1441 C 98 1447 77 1451 61 1454 L 61 1475 L 569 1475 L 1026 410 C 1064 493 1101 576 1138 660 C 1175 743 1211 823 1245 900 C 1279 976 1310 1048 1340 1115 C 1369 1181 1395 1240 1417 1292 C 1439 1343 1457 1385 1471 1417 C 1485 1449 1493 1468 1497 1475 L 1987 1475 L 1987 1454 C 1931 1452 1887 1441 1855 1419 C 1822 1397 1800 1371 1790 1341 C 1786 1329 1782 1314 1780 1295 C 1777 1276 1775 1255 1773 1232 C 1771 1209 1770 1185 1769 1160 C 1768 1135 1767 1111 1767 1087 C 1765 1021 1765 957 1765 896 C 1765 835 1765 773 1765 711 C 1765 637 1765 564 1765 491 C 1765 417 1765 340 1767 260 C 1767 234 1768 208 1772 182 C 1776 155 1782 134 1790 119 C 1791 115 1796 108 1806 98 C 1816 88 1829 77 1847 66 C 1864 55 1885 45 1911 36 C 1936 26 1965 21 1999 20 L 1999 0 L 1198 0 Z" unicode="M" />
<glyph horiz-adv-x="1733" d="M 1710 1454 C 1660 1446 1618 1433 1584 1414 C 1550 1395 1525 1366 1509 1327 C 1504 1317 1500 1302 1498 1282 C 1495 1262 1493 1239 1491 1213 C 1489 1187 1487 1158 1486 1128 C 1484 1098 1483 1067 1483 1036 C 1481 977 1478 908 1476 828 C 1474 748 1473 663 1473 571 C 1473 532 1473 489 1473 443 C 1473 397 1474 349 1474 301 C 1474 253 1474 205 1474 159 C 1474 112 1475 69 1475 29 C 1475 16 1472 5 1466 -3 C 1460 -11 1450 -16 1436 -16 C 1424 -16 1415 -13 1407 -8 C 1399 -3 1392 2 1386 10 C 1310 99 1239 182 1173 260 C 1107 337 1044 410 984 480 C 924 550 866 617 811 681 C 755 745 700 809 646 873 C 591 937 536 1001 480 1066 C 424 1131 367 1199 307 1270 L 307 438 C 307 404 307 371 308 339 C 308 307 310 278 312 251 C 314 223 318 199 322 177 C 326 155 331 138 338 125 C 353 93 378 70 413 54 C 447 38 493 27 549 20 L 549 0 L 29 0 L 29 20 C 45 22 62 25 80 29 C 98 33 115 39 131 46 C 147 53 163 62 177 72 C 191 82 203 95 213 111 C 231 139 244 181 250 237 C 256 293 260 360 262 438 C 264 496 265 566 267 646 C 269 726 270 811 270 903 C 270 941 270 974 270 1001 C 270 1027 270 1053 270 1077 C 270 1101 269 1127 269 1154 C 269 1180 268 1213 268 1253 C 262 1292 251 1324 235 1349 C 218 1373 199 1393 177 1408 C 155 1422 133 1433 109 1439 C 85 1445 63 1450 43 1454 L 43 1475 L 526 1475 L 1438 416 L 1438 1036 C 1438 1062 1437 1089 1437 1116 C 1437 1142 1436 1168 1435 1192 C 1433 1216 1431 1238 1429 1258 C 1426 1278 1422 1296 1417 1311 C 1403 1349 1378 1380 1341 1404 C 1303 1428 1252 1444 1186 1454 L 1186 1475 L 1710 1475 L 1710 1454 Z" unicode="N" />
<glyph horiz-adv-x="1642" d="M 1610 748 C 1610 675 1600 606 1581 540 C 1561 474 1534 412 1500 356 C 1465 300 1423 249 1375 203 C 1326 157 1272 118 1214 86 C 1155 54 1092 29 1025 12 C 957 -5 888 -14 817 -14 C 746 -14 677 -5 611 11 C 545 27 482 51 424 83 C 366 114 313 152 265 197 C 217 242 175 292 141 348 C 107 404 80 464 61 530 C 42 596 33 665 33 739 C 33 817 42 890 62 958 C 82 1026 110 1088 146 1144 C 182 1200 224 1249 274 1293 C 324 1337 379 1373 439 1403 C 499 1433 563 1455 631 1471 C 699 1487 770 1495 844 1495 C 924 1495 998 1485 1067 1467 C 1135 1448 1198 1422 1255 1388 C 1312 1354 1363 1314 1407 1268 C 1451 1222 1488 1171 1518 1116 C 1548 1060 1570 1001 1586 939 C 1602 877 1610 813 1610 748 Z M 1272 745 C 1272 800 1268 856 1260 913 C 1252 969 1239 1024 1223 1077 C 1206 1130 1185 1180 1160 1227 C 1135 1273 1106 1314 1073 1348 C 1039 1382 1001 1410 959 1430 C 917 1450 870 1460 819 1460 C 766 1460 718 1450 676 1430 C 634 1410 596 1383 563 1349 C 529 1315 501 1274 477 1228 C 453 1182 433 1132 417 1078 C 401 1024 390 967 382 909 C 374 850 371 791 371 733 C 371 671 375 610 383 551 C 391 491 404 435 420 383 C 436 330 457 281 482 237 C 507 193 536 154 570 122 C 604 90 642 65 684 47 C 726 29 773 20 825 20 C 875 20 920 30 962 50 C 1004 70 1041 97 1074 132 C 1107 166 1136 207 1161 254 C 1185 300 1206 351 1223 405 C 1239 459 1252 514 1260 572 C 1268 630 1272 687 1272 745 Z" unicode="O" />
<glyph horiz-adv-x="1364" d="M 1354 1049 C 1354 999 1345 953 1329 911 C 1312 869 1290 833 1262 801 C 1234 769 1203 741 1167 718 C 1131 695 1093 677 1055 664 C 1015 650 972 639 926 632 C 880 624 835 619 791 616 C 747 613 705 612 667 612 C 628 612 596 612 571 612 C 571 568 571 531 571 501 C 571 471 571 444 571 421 C 571 398 571 377 571 358 C 571 338 572 317 573 295 C 573 251 575 213 577 182 C 579 150 586 124 600 104 C 606 95 614 86 626 77 C 637 67 651 59 668 51 C 685 43 705 36 727 30 C 749 24 775 21 803 20 L 803 0 L 49 0 L 49 20 C 65 22 81 24 99 28 C 116 32 133 36 149 42 C 165 48 180 55 194 63 C 208 71 219 82 229 94 C 236 102 242 115 246 131 C 250 147 253 166 255 186 C 257 206 259 228 260 251 C 260 274 261 297 262 319 C 262 337 263 362 263 394 C 263 425 264 460 264 498 C 264 536 265 576 265 618 C 265 660 266 701 266 743 L 266 1143 C 266 1167 265 1192 265 1218 C 264 1244 262 1268 260 1291 C 258 1313 254 1333 250 1351 C 245 1369 239 1382 231 1391 C 221 1401 208 1410 194 1417 C 180 1424 164 1430 148 1435 C 132 1439 114 1443 96 1446 C 78 1448 59 1451 41 1454 L 41 1475 C 49 1475 68 1475 96 1475 C 124 1475 157 1476 196 1476 C 235 1476 278 1476 324 1477 C 370 1477 415 1478 460 1478 C 504 1478 546 1478 586 1478 C 625 1478 658 1479 684 1479 C 730 1479 773 1478 815 1476 C 856 1474 895 1470 933 1465 C 970 1459 1006 1451 1040 1441 C 1074 1431 1107 1417 1139 1401 C 1170 1384 1199 1364 1225 1341 C 1251 1317 1274 1291 1293 1261 C 1312 1231 1327 1199 1338 1163 C 1348 1127 1354 1089 1354 1049 Z M 1036 1059 C 1036 1138 1021 1208 991 1269 C 961 1330 918 1376 862 1407 C 834 1422 804 1432 773 1438 C 742 1443 710 1446 678 1446 C 653 1446 634 1445 621 1443 C 608 1441 598 1439 590 1438 C 588 1428 586 1419 584 1411 C 582 1403 581 1394 580 1384 C 578 1373 577 1360 576 1344 C 575 1328 574 1307 573 1282 C 572 1250 571 1214 571 1172 C 571 1130 570 1086 570 1041 C 570 995 570 950 570 906 C 570 862 571 821 571 785 C 571 748 571 717 571 691 C 571 665 571 649 571 643 C 619 643 663 644 704 648 C 744 652 783 661 819 676 C 855 690 887 710 915 736 C 942 762 965 791 983 825 C 1001 858 1014 894 1023 934 C 1031 974 1036 1015 1036 1059 Z" unicode="P" />
<glyph horiz-adv-x="1642" d="M 1610 748 C 1610 654 1594 567 1563 487 C 1532 406 1489 334 1435 271 C 1381 207 1316 153 1242 109 C 1167 65 1086 32 999 12 C 999 -19 1005 -49 1017 -77 C 1029 -105 1046 -129 1068 -151 C 1090 -172 1118 -189 1150 -202 C 1182 -214 1218 -221 1260 -221 C 1282 -221 1308 -217 1336 -210 C 1364 -203 1398 -190 1438 -172 L 1448 -195 C 1420 -216 1392 -236 1365 -255 C 1337 -274 1309 -291 1279 -305 C 1249 -319 1218 -331 1185 -339 C 1151 -347 1115 -352 1077 -352 C 1013 -352 954 -344 902 -330 C 849 -316 803 -294 764 -264 C 725 -234 693 -197 668 -151 C 643 -105 626 -51 618 12 C 564 26 513 45 463 69 C 413 93 367 122 324 156 C 280 189 241 226 205 268 C 169 310 139 355 113 405 C 87 454 68 506 54 562 C 40 618 33 677 33 739 C 33 855 55 961 101 1056 C 147 1150 215 1236 307 1313 C 381 1375 464 1420 556 1450 C 647 1480 744 1495 846 1495 C 925 1495 999 1485 1068 1467 C 1136 1448 1199 1422 1256 1388 C 1312 1354 1363 1314 1407 1268 C 1451 1222 1488 1171 1518 1116 C 1548 1060 1570 1001 1586 939 C 1602 877 1610 813 1610 748 Z M 1272 745 C 1272 800 1268 856 1260 913 C 1252 969 1239 1024 1223 1077 C 1206 1130 1185 1180 1160 1227 C 1135 1273 1106 1314 1073 1348 C 1039 1382 1001 1410 959 1430 C 917 1450 870 1460 819 1460 C 767 1460 719 1450 677 1430 C 635 1410 597 1383 564 1349 C 530 1315 501 1274 477 1228 C 453 1182 433 1132 417 1078 C 401 1024 390 967 382 909 C 374 850 371 791 371 733 C 371 671 375 610 385 550 C 394 490 408 434 426 381 C 444 327 466 278 492 233 C 518 188 548 149 582 116 C 615 83 652 57 693 39 C 733 21 777 12 825 12 C 879 12 928 22 972 43 C 1015 64 1053 93 1086 129 C 1119 165 1147 207 1171 255 C 1195 303 1214 354 1229 408 C 1243 462 1254 518 1261 576 C 1268 634 1272 690 1272 745 Z" unicode="Q" />
<glyph horiz-adv-x="1589" d="M 1182 0 C 1170 12 1161 21 1155 27 C 1149 33 1143 40 1137 48 C 1130 56 1121 68 1111 84 C 1100 100 1084 124 1063 156 C 1037 194 1015 228 995 259 C 975 289 956 319 936 349 C 916 378 895 408 872 439 C 848 470 820 505 788 543 C 774 558 760 574 745 590 C 730 606 715 620 699 634 C 683 648 666 660 649 670 C 631 680 614 686 596 690 C 592 691 588 692 584 692 C 580 692 576 692 571 694 C 571 605 571 528 571 463 C 571 397 571 342 573 297 C 573 253 575 215 577 184 C 579 152 586 126 600 106 C 606 97 614 88 626 79 C 637 69 651 60 668 52 C 685 44 705 37 727 31 C 749 25 775 21 803 20 L 803 0 L 49 0 L 49 20 C 65 22 83 26 101 30 C 119 34 136 39 152 45 C 168 51 182 58 196 66 C 209 74 220 83 229 94 C 236 102 242 115 246 131 C 250 147 253 166 255 186 C 257 206 259 228 260 251 C 260 274 261 297 262 319 C 262 337 263 362 263 394 C 263 425 264 460 264 498 C 264 536 265 576 265 618 C 265 660 266 701 266 743 L 266 1143 C 266 1167 265 1192 265 1218 C 264 1244 262 1268 260 1291 C 258 1313 254 1333 250 1351 C 245 1369 239 1382 231 1391 C 221 1401 209 1410 197 1417 C 185 1424 172 1430 158 1435 C 144 1439 129 1443 113 1446 C 97 1448 79 1451 61 1454 L 61 1475 C 68 1475 85 1475 113 1475 C 141 1475 174 1475 214 1475 C 253 1475 296 1476 343 1476 C 390 1476 436 1476 482 1476 C 527 1476 569 1477 609 1477 C 648 1477 680 1477 705 1477 C 750 1477 793 1476 834 1475 C 875 1474 914 1471 950 1467 C 986 1463 1021 1456 1054 1448 C 1086 1439 1117 1427 1147 1413 C 1177 1397 1204 1379 1230 1359 C 1255 1338 1277 1314 1295 1287 C 1313 1260 1328 1230 1338 1196 C 1348 1162 1354 1125 1354 1085 C 1354 1035 1344 989 1326 949 C 1308 909 1283 873 1252 841 C 1221 809 1185 782 1144 760 C 1102 737 1058 719 1012 705 L 1012 700 C 1032 688 1055 669 1079 643 C 1103 617 1126 589 1147 561 C 1165 535 1183 508 1203 480 C 1223 451 1242 422 1262 394 C 1281 366 1300 338 1319 311 C 1338 283 1356 258 1372 236 C 1397 200 1422 169 1446 144 C 1470 118 1494 97 1519 81 C 1544 64 1570 51 1598 41 C 1626 31 1656 24 1688 20 L 1688 0 L 1182 0 Z M 1028 1094 C 1028 1162 1014 1222 987 1275 C 959 1327 918 1369 862 1401 C 834 1416 804 1427 774 1434 C 744 1440 712 1444 680 1444 C 655 1444 635 1443 620 1442 C 604 1440 593 1439 586 1438 C 584 1430 583 1423 582 1417 C 581 1411 580 1403 579 1393 C 578 1383 577 1370 577 1353 C 576 1336 575 1312 575 1282 C 573 1250 572 1215 572 1177 C 572 1139 571 1100 571 1061 C 571 1022 571 984 571 946 C 571 908 571 874 571 843 C 571 812 571 786 571 764 C 571 742 571 728 571 721 C 595 721 617 721 638 722 C 658 722 679 724 699 726 C 719 728 739 732 759 737 C 779 742 801 749 825 758 C 861 772 893 790 919 813 C 945 835 966 861 982 891 C 998 920 1009 952 1017 986 C 1024 1020 1028 1056 1028 1094 Z" unicode="R" />
<glyph horiz-adv-x="1268" d="M 1198 426 C 1198 356 1182 293 1152 238 C 1121 183 1079 137 1027 99 C 974 61 913 32 844 12 C 774 -8 701 -18 623 -18 C 554 -18 493 -12 441 -2 C 389 7 345 19 309 31 C 273 43 245 54 225 64 C 205 74 194 80 190 80 C 188 80 184 77 180 72 C 175 66 170 60 164 52 C 158 44 151 36 145 27 C 139 18 133 10 127 2 L 109 2 L 102 465 L 123 465 C 135 428 153 390 175 352 C 197 314 221 277 247 242 C 273 207 300 176 328 148 C 356 120 382 98 406 82 C 416 74 429 67 444 59 C 459 51 475 43 493 37 C 511 30 529 24 549 20 C 569 16 588 14 608 14 C 654 14 697 20 735 34 C 773 47 806 66 834 92 C 861 118 882 149 897 185 C 912 221 920 263 920 309 C 920 343 913 374 901 400 C 889 426 872 450 851 470 C 829 490 804 507 775 521 C 746 535 715 549 682 561 C 638 576 592 592 542 610 C 492 627 441 646 387 668 C 345 684 308 705 274 730 C 240 754 212 783 188 815 C 164 847 145 883 132 923 C 119 963 113 1006 113 1053 C 113 1127 128 1191 159 1247 C 190 1303 231 1349 281 1386 C 331 1423 388 1451 452 1469 C 515 1487 579 1497 645 1497 C 709 1497 764 1491 812 1480 C 859 1468 899 1456 931 1443 C 963 1429 987 1417 1005 1406 C 1022 1394 1033 1389 1038 1389 C 1040 1389 1043 1391 1048 1397 C 1053 1403 1058 1410 1064 1418 C 1070 1426 1076 1436 1082 1446 C 1088 1456 1094 1465 1100 1473 L 1122 1473 L 1122 1038 L 1100 1038 C 1088 1069 1074 1101 1057 1134 C 1040 1167 1021 1199 1000 1231 C 978 1263 955 1293 930 1321 C 904 1349 877 1373 849 1395 C 821 1416 791 1433 761 1445 C 730 1457 699 1464 668 1464 C 626 1464 588 1456 552 1442 C 516 1428 486 1408 460 1384 C 434 1359 413 1330 399 1297 C 384 1264 377 1229 377 1192 C 377 1158 383 1127 396 1101 C 408 1074 425 1050 447 1029 C 469 1008 494 990 523 974 C 551 958 582 944 614 932 C 652 916 694 900 741 883 C 787 865 835 847 883 829 C 933 809 978 787 1017 763 C 1056 738 1089 709 1116 677 C 1142 644 1163 607 1177 566 C 1191 524 1198 478 1198 426 Z" unicode="S" />
<glyph horiz-adv-x="1497" d="M 1528 1069 C 1516 1093 1501 1120 1483 1148 C 1465 1176 1448 1204 1430 1231 C 1412 1257 1394 1281 1378 1303 C 1361 1324 1347 1340 1337 1350 C 1323 1363 1308 1374 1293 1383 C 1277 1391 1261 1398 1243 1403 C 1225 1408 1206 1412 1186 1414 C 1165 1416 1142 1418 1116 1419 C 1090 1419 1069 1420 1055 1420 C 1041 1420 1027 1421 1015 1421 C 1002 1421 987 1421 971 1421 C 954 1421 931 1421 901 1421 C 900 1386 899 1344 899 1294 C 899 1244 899 1190 899 1132 C 899 1074 899 1012 899 947 C 899 882 899 817 899 752 L 899 297 C 899 278 899 259 899 240 C 899 220 900 202 902 184 C 904 166 906 151 909 137 C 912 123 916 113 922 106 C 932 91 945 79 961 69 C 977 59 995 51 1013 45 C 1031 38 1050 33 1068 29 C 1086 25 1103 22 1118 20 L 1118 0 L 354 0 L 354 20 C 372 22 390 24 408 27 C 426 30 443 35 461 41 C 479 47 496 56 513 67 C 529 77 545 91 561 109 C 567 115 572 126 576 142 C 580 158 583 176 585 196 C 587 216 588 237 588 260 C 588 283 589 306 590 328 C 590 346 591 371 591 402 C 591 432 592 466 592 503 C 592 540 593 579 593 621 C 593 662 594 703 594 743 L 594 1421 C 564 1421 541 1421 525 1421 C 509 1421 494 1421 481 1421 C 468 1421 454 1420 440 1420 C 425 1420 405 1419 379 1419 C 353 1418 329 1416 309 1413 C 288 1410 269 1406 251 1400 C 233 1394 217 1386 202 1377 C 186 1367 172 1356 158 1343 C 147 1333 133 1317 117 1296 C 100 1275 83 1252 65 1226 C 47 1200 29 1173 13 1145 C -3 1117 -17 1092 -29 1069 L -47 1075 L 18 1495 C 50 1487 83 1479 117 1472 C 151 1465 193 1461 242 1460 C 294 1458 340 1457 380 1457 C 420 1457 459 1456 497 1456 C 535 1456 574 1456 614 1456 C 654 1456 699 1456 750 1456 C 800 1456 845 1456 885 1456 C 925 1456 964 1457 1002 1457 C 1040 1457 1079 1458 1119 1458 C 1159 1458 1205 1459 1257 1460 C 1303 1461 1343 1465 1378 1471 C 1413 1477 1447 1485 1479 1495 L 1546 1075 L 1528 1069 Z" unicode="T" />
<glyph horiz-adv-x="1692" d="M 1706 1454 C 1656 1446 1614 1433 1582 1414 C 1550 1395 1525 1366 1509 1327 C 1504 1317 1500 1301 1497 1279 C 1493 1257 1491 1232 1489 1204 C 1487 1176 1485 1145 1484 1113 C 1482 1081 1481 1049 1481 1018 C 1479 959 1477 895 1475 826 C 1473 757 1470 677 1468 586 C 1467 566 1466 543 1465 515 C 1463 487 1460 457 1455 425 C 1449 393 1441 359 1431 325 C 1420 290 1405 256 1386 223 C 1366 189 1342 158 1312 128 C 1282 98 1246 71 1203 49 C 1160 26 1110 8 1052 -5 C 994 -18 928 -25 852 -25 C 752 -25 667 -13 598 8 C 529 30 472 59 427 95 C 381 130 346 169 321 212 C 295 255 277 297 265 338 C 253 378 245 415 243 449 C 241 483 240 508 240 526 C 240 544 240 566 240 592 C 240 618 241 645 241 675 C 241 705 241 736 241 769 C 241 802 242 836 242 870 L 242 1143 C 242 1166 241 1190 241 1215 C 241 1239 240 1262 238 1284 C 236 1306 233 1325 229 1342 C 225 1359 219 1372 211 1382 C 191 1404 166 1421 136 1432 C 106 1442 73 1450 37 1454 L 37 1475 L 748 1475 L 748 1454 C 728 1451 707 1447 685 1442 C 663 1436 642 1428 623 1416 C 603 1404 587 1388 574 1368 C 560 1348 553 1322 553 1290 C 551 1254 550 1223 550 1196 C 550 1168 549 1142 549 1116 C 549 1090 549 1063 549 1035 C 549 1007 549 974 549 938 C 549 914 549 886 549 853 C 549 819 550 785 550 749 C 550 713 551 679 551 645 C 551 611 552 581 553 557 C 554 484 563 418 581 358 C 599 298 625 246 659 203 C 693 160 736 127 788 103 C 839 79 899 68 967 68 C 1042 68 1105 77 1157 95 C 1209 113 1252 138 1286 170 C 1320 201 1347 237 1366 279 C 1385 320 1399 364 1409 411 C 1418 458 1424 506 1427 556 C 1429 605 1431 653 1432 700 C 1432 736 1433 768 1433 795 C 1433 822 1433 847 1433 870 C 1433 893 1432 916 1432 939 C 1432 962 1432 988 1432 1018 C 1432 1044 1431 1072 1431 1101 C 1431 1129 1430 1157 1428 1183 C 1426 1209 1424 1234 1421 1256 C 1418 1278 1414 1296 1409 1311 C 1395 1349 1371 1380 1335 1404 C 1299 1428 1248 1444 1182 1454 L 1182 1475 L 1706 1475 L 1706 1454 Z" unicode="U" />
<glyph horiz-adv-x="1386" d="M 1485 1452 C 1467 1450 1451 1446 1435 1440 C 1419 1434 1405 1427 1393 1421 C 1381 1414 1370 1408 1362 1402 C 1354 1396 1348 1391 1346 1389 C 1341 1384 1335 1377 1327 1368 C 1319 1358 1309 1345 1298 1328 C 1287 1311 1275 1290 1261 1264 C 1247 1238 1233 1205 1217 1167 C 1187 1099 1155 1025 1121 945 C 1087 864 1052 781 1016 695 C 980 609 945 523 909 437 C 873 351 839 268 807 190 L 705 -18 L 670 -18 C 622 95 577 201 535 301 C 493 401 453 497 415 589 C 377 681 340 770 304 858 C 268 945 231 1033 195 1122 C 184 1148 174 1170 166 1190 C 157 1209 149 1227 141 1243 C 133 1259 125 1275 117 1290 C 109 1305 100 1321 90 1337 C 85 1345 78 1355 70 1367 C 62 1379 50 1392 36 1404 C 21 1416 3 1427 -18 1436 C -40 1445 -66 1450 -98 1452 L -98 1475 L 604 1475 L 604 1454 C 597 1452 584 1450 566 1447 C 548 1444 529 1439 510 1432 C 490 1424 473 1414 458 1401 C 443 1387 436 1370 436 1350 C 436 1342 440 1326 448 1302 C 456 1278 467 1247 481 1211 C 495 1175 512 1134 531 1088 C 549 1042 569 993 590 943 C 611 892 633 840 656 787 C 678 733 700 681 722 631 C 744 580 764 532 784 487 C 803 441 820 401 836 365 C 850 399 867 441 888 492 C 908 542 931 599 957 661 C 982 723 1009 791 1038 863 C 1067 935 1097 1009 1128 1087 C 1142 1123 1154 1156 1164 1184 C 1173 1212 1180 1237 1186 1257 C 1192 1277 1196 1294 1198 1308 C 1200 1321 1202 1331 1202 1339 C 1202 1358 1195 1374 1181 1388 C 1167 1402 1150 1413 1130 1422 C 1110 1431 1088 1438 1065 1443 C 1042 1448 1022 1452 1004 1454 L 1004 1475 L 1485 1475 L 1485 1452 Z" unicode="V" />
<glyph horiz-adv-x="2089" d="M 2171 1454 C 2153 1452 2137 1448 2122 1443 C 2107 1437 2094 1431 2083 1425 C 2071 1419 2062 1413 2054 1407 C 2046 1401 2042 1397 2040 1395 C 2035 1390 2028 1383 2020 1374 C 2011 1364 2001 1351 1990 1334 C 1979 1317 1967 1295 1953 1269 C 1939 1242 1925 1209 1911 1169 C 1885 1101 1857 1027 1827 947 C 1796 866 1764 783 1731 697 C 1698 611 1665 524 1633 438 C 1600 351 1569 268 1540 190 L 1450 -10 L 1411 -10 C 1374 85 1339 175 1307 259 C 1274 343 1243 423 1213 501 C 1183 579 1153 654 1125 727 C 1097 799 1068 872 1040 944 C 1018 884 997 823 975 759 C 953 695 931 631 909 567 C 887 503 864 439 842 376 C 820 313 798 253 778 195 L 688 -10 L 647 -10 C 601 102 558 208 517 308 C 475 408 435 504 397 596 C 358 688 321 777 285 864 C 249 950 213 1037 178 1124 C 167 1150 158 1172 150 1192 C 142 1211 134 1229 127 1245 C 119 1261 112 1276 105 1291 C 98 1306 90 1322 82 1339 C 78 1347 71 1357 63 1369 C 55 1381 44 1394 30 1406 C 16 1418 -1 1428 -22 1437 C -43 1445 -68 1450 -98 1452 L -98 1475 L 571 1475 L 571 1454 C 564 1453 553 1451 537 1449 C 521 1447 504 1442 488 1435 C 471 1428 456 1418 443 1404 C 430 1390 424 1372 424 1350 C 424 1340 430 1316 444 1279 C 457 1241 474 1195 496 1141 C 518 1086 542 1025 570 959 C 598 893 626 826 654 758 C 682 690 710 625 737 561 C 764 497 788 441 809 393 C 819 423 832 459 848 503 C 863 547 880 595 898 648 C 916 700 935 757 955 817 C 975 877 996 940 1018 1004 C 1006 1032 993 1062 981 1093 C 968 1124 955 1154 942 1184 C 929 1213 916 1241 904 1268 C 892 1294 880 1318 870 1339 C 864 1349 857 1360 847 1373 C 837 1385 825 1397 809 1409 C 793 1420 774 1430 751 1438 C 727 1446 699 1450 666 1452 L 666 1475 L 1395 1475 L 1395 1454 C 1389 1453 1381 1452 1370 1450 C 1358 1448 1346 1446 1332 1443 C 1318 1440 1303 1436 1289 1432 C 1274 1427 1261 1421 1249 1413 C 1237 1405 1227 1396 1219 1386 C 1211 1376 1208 1364 1208 1350 C 1208 1344 1212 1328 1220 1304 C 1228 1280 1238 1249 1252 1213 C 1265 1176 1281 1134 1299 1088 C 1317 1041 1335 992 1355 941 C 1375 890 1395 838 1416 786 C 1437 733 1457 682 1477 634 C 1496 585 1514 539 1531 497 C 1548 455 1563 419 1575 389 C 1584 414 1595 444 1609 480 C 1623 516 1637 555 1653 597 C 1669 639 1685 684 1702 731 C 1719 777 1736 824 1754 872 C 1771 919 1788 965 1804 1011 C 1820 1057 1835 1100 1849 1141 C 1859 1172 1868 1199 1874 1221 C 1880 1243 1884 1262 1887 1278 C 1889 1293 1891 1306 1891 1316 C 1891 1326 1892 1334 1892 1341 C 1892 1361 1886 1377 1874 1391 C 1862 1405 1848 1416 1831 1424 C 1814 1432 1795 1439 1775 1444 C 1755 1448 1736 1452 1720 1454 L 1720 1475 L 2171 1475 L 2171 1454 Z" unicode="W" />
<glyph horiz-adv-x="1473" d="M 1501 1454 C 1466 1446 1433 1435 1403 1420 C 1373 1405 1343 1386 1315 1364 C 1286 1342 1258 1316 1230 1287 C 1202 1258 1173 1226 1143 1190 C 1121 1165 1098 1138 1073 1108 C 1048 1078 1023 1047 997 1016 C 971 985 946 954 921 924 C 895 894 872 866 852 842 L 1229 291 C 1255 251 1280 215 1302 184 C 1324 152 1345 125 1367 103 C 1388 80 1410 62 1433 48 C 1455 34 1481 24 1511 20 L 1511 0 L 754 0 L 754 20 C 772 22 793 24 815 28 C 837 32 858 37 877 44 C 896 51 912 61 925 73 C 937 85 944 101 944 121 C 944 131 941 142 937 155 C 932 168 926 182 918 198 C 910 213 900 229 890 246 C 880 263 869 281 858 299 C 847 315 835 334 821 356 C 807 378 792 402 775 429 C 757 456 738 486 716 519 C 694 551 670 587 643 627 C 621 601 598 573 574 544 C 550 514 526 485 503 456 C 479 426 457 398 436 372 C 415 345 397 321 381 301 C 360 273 342 245 326 218 C 310 191 303 165 303 141 C 303 122 309 106 322 92 C 334 78 350 66 369 56 C 387 46 407 38 429 32 C 451 26 471 22 489 20 L 489 0 L -57 0 L -57 20 C 0 34 59 64 119 109 C 179 154 240 211 303 281 C 321 301 344 326 371 358 C 397 390 425 423 455 459 C 485 494 514 529 543 564 C 572 598 598 629 621 657 C 575 722 523 798 463 884 C 403 970 334 1070 256 1184 C 228 1224 203 1258 181 1288 C 159 1317 137 1342 116 1364 C 94 1386 72 1404 49 1418 C 25 1432 -1 1444 -33 1454 L -33 1475 L 729 1475 L 729 1454 C 710 1452 689 1449 667 1445 C 644 1441 623 1436 603 1429 C 583 1422 566 1412 552 1400 C 538 1388 532 1372 532 1354 C 532 1344 534 1332 539 1320 C 544 1307 551 1293 559 1278 C 567 1262 577 1246 589 1230 C 600 1213 612 1196 625 1178 C 644 1148 671 1107 707 1054 C 742 1001 783 940 829 872 C 849 896 870 921 892 948 C 914 975 935 1002 956 1028 C 976 1054 996 1080 1015 1104 C 1033 1128 1051 1151 1067 1171 C 1075 1181 1084 1194 1094 1208 C 1104 1222 1113 1237 1121 1253 C 1129 1268 1136 1283 1142 1297 C 1148 1311 1151 1324 1151 1335 C 1151 1353 1144 1369 1132 1383 C 1119 1397 1103 1408 1085 1418 C 1067 1428 1047 1435 1026 1441 C 1004 1446 985 1450 967 1454 L 967 1475 L 1501 1475 L 1501 1454 Z" unicode="X" />
<glyph horiz-adv-x="1354" d="M 1452 1454 C 1414 1448 1381 1439 1353 1425 C 1325 1411 1300 1393 1278 1371 C 1255 1349 1233 1323 1212 1293 C 1190 1263 1167 1230 1143 1192 C 1131 1175 1117 1154 1100 1128 C 1083 1102 1065 1073 1045 1043 C 1025 1013 1005 981 984 949 C 963 916 943 885 923 855 C 903 825 885 797 868 771 C 851 745 837 725 827 709 L 827 297 C 827 277 827 258 827 238 C 827 218 828 200 830 182 C 832 164 834 148 837 134 C 840 120 844 109 850 102 C 860 87 872 75 887 66 C 901 56 917 49 934 43 C 950 37 967 32 984 29 C 1001 25 1017 22 1032 20 L 1032 0 L 303 0 L 303 20 C 321 22 338 24 354 27 C 370 29 385 33 400 39 C 415 45 430 53 444 63 C 458 73 473 86 489 104 C 495 111 500 123 504 139 C 508 155 511 173 513 194 C 515 214 516 236 516 260 C 516 283 517 306 518 328 C 519 366 520 411 521 464 C 521 516 522 580 522 655 C 519 659 511 672 498 694 C 484 716 468 743 448 775 C 428 807 406 843 382 882 C 358 921 334 960 311 998 C 287 1036 265 1071 245 1104 C 224 1137 207 1164 195 1184 C 169 1224 145 1260 123 1292 C 101 1324 80 1352 59 1376 C 37 1400 15 1418 -8 1432 C -31 1445 -57 1452 -86 1454 L -86 1475 L 631 1475 L 631 1454 C 611 1452 590 1449 569 1447 C 548 1444 529 1440 512 1434 C 494 1428 480 1419 469 1409 C 458 1399 453 1385 453 1368 C 453 1359 455 1348 461 1334 C 467 1320 474 1304 483 1287 C 491 1270 501 1252 512 1233 C 523 1214 534 1196 545 1178 C 559 1153 576 1124 597 1090 C 617 1056 639 1019 663 981 C 687 942 711 903 736 863 C 761 823 785 784 809 748 C 820 764 833 784 849 808 C 864 832 880 857 898 884 C 915 911 932 939 950 967 C 968 995 985 1021 1001 1047 C 1017 1073 1032 1097 1046 1119 C 1059 1141 1070 1159 1079 1174 C 1085 1184 1092 1196 1101 1210 C 1109 1224 1117 1240 1125 1256 C 1133 1272 1139 1288 1145 1304 C 1150 1320 1153 1336 1153 1350 C 1153 1371 1147 1388 1136 1400 C 1125 1412 1111 1422 1094 1429 C 1077 1436 1058 1441 1038 1444 C 1017 1447 997 1450 979 1454 L 979 1475 L 1452 1475 L 1452 1454 Z" unicode="Y" />
<glyph horiz-adv-x="1405" d="M 1307 0 L 10 0 L 2 14 L 1008 1438 C 978 1438 942 1438 899 1438 C 855 1438 811 1437 766 1437 C 720 1437 677 1436 635 1436 C 593 1435 560 1434 535 1434 C 483 1432 436 1421 394 1403 C 352 1385 315 1362 281 1335 C 263 1321 243 1303 219 1279 C 195 1255 171 1228 147 1200 C 123 1172 99 1143 76 1113 C 53 1083 34 1056 20 1032 L -2 1040 L 147 1477 C 161 1475 185 1474 219 1474 C 253 1473 295 1472 343 1472 C 391 1471 445 1470 505 1470 C 564 1470 625 1470 689 1470 C 753 1470 817 1470 882 1470 C 947 1470 1010 1470 1070 1470 C 1130 1470 1187 1470 1239 1470 C 1291 1470 1336 1470 1374 1470 L 1380 1458 L 377 37 C 411 36 441 35 469 35 C 496 35 522 35 547 35 C 571 35 595 35 619 35 C 643 35 668 35 696 35 C 718 35 748 35 785 37 C 821 38 859 41 899 45 C 954 51 1006 65 1056 89 C 1106 112 1153 142 1197 179 C 1241 215 1283 258 1322 308 C 1361 357 1398 411 1432 469 L 1454 461 L 1307 0 Z" unicode="Z" />
<glyph horiz-adv-x="688" d="M 100 -219 L 100 1475 L 586 1475 L 586 1425 L 178 1425 L 178 -170 L 586 -170 L 586 -219 L 100 -219 Z" unicode="[" />
<glyph horiz-adv-x="637" d="M 674 -295 L -86 1530 L -18 1556 L 741 -270 L 674 -295 Z" unicode="\" />
<glyph horiz-adv-x="688" d="M 100 -219 L 100 -170 L 508 -170 L 508 1425 L 100 1425 L 100 1475 L 586 1475 L 586 -219 L 100 -219 Z" unicode="]" />
<glyph horiz-adv-x="1024" d="M 887 958 L 510 1268 L 135 961 L 121 973 L 489 1475 L 535 1475 L 903 973 L 887 958 Z" unicode="^" />
<glyph horiz-adv-x="1024" d="M 0 -283 L 0 -182 L 1024 -182 L 1024 -283 L 0 -283 Z" unicode="_" />
<glyph horiz-adv-x="1024" d="M 629 1073 L 262 1280 L 262 1290 C 277 1333 300 1368 330 1396 C 360 1424 396 1440 436 1446 L 649 1085 L 629 1073 Z" unicode="`" />
<glyph horiz-adv-x="956" d="M 1012 236 C 1010 210 1003 182 991 153 C 979 124 962 97 941 73 C 919 49 894 29 865 13 C 835 -2 803 -10 768 -10 C 741 -10 715 -5 691 2 C 666 10 644 23 624 39 C 604 55 588 76 576 100 C 564 124 557 152 555 184 L 551 186 C 540 160 526 136 509 112 C 491 88 471 68 447 50 C 423 32 395 17 365 6 C 334 -4 300 -10 262 -10 C 236 -10 212 -6 188 2 C 164 10 142 22 123 39 C 103 55 88 77 76 103 C 64 129 59 159 59 195 C 59 215 63 235 71 255 C 79 275 91 294 105 313 C 119 332 136 350 156 367 C 176 383 197 398 221 412 C 267 437 307 459 342 478 C 377 496 408 512 434 526 C 460 540 482 552 501 562 C 520 572 537 581 551 590 L 551 745 C 547 765 541 784 532 802 C 523 820 512 836 498 850 C 484 864 469 875 452 885 C 434 894 416 900 397 903 C 375 899 358 894 346 888 C 334 881 324 873 318 864 C 312 855 308 846 306 836 C 304 826 303 817 303 809 L 303 651 C 303 641 298 631 290 622 C 282 612 271 604 258 596 C 244 588 229 582 213 578 C 196 573 180 571 164 571 C 148 571 134 573 120 578 C 106 583 93 590 83 598 C 72 606 63 617 57 629 C 50 641 47 654 47 668 C 47 688 49 705 55 721 C 61 736 69 750 80 763 C 90 775 103 787 117 798 C 131 808 146 819 164 829 C 196 848 232 867 272 887 C 312 907 352 925 391 941 C 430 957 466 970 500 980 C 534 990 560 995 580 997 C 603 995 625 992 645 987 C 665 982 684 974 702 964 C 719 954 735 940 750 924 C 764 907 778 886 791 862 C 793 857 795 850 797 842 C 798 833 799 823 800 812 C 801 801 802 789 802 777 C 802 765 803 753 803 741 C 803 708 802 679 802 654 C 802 629 801 606 801 585 C 801 563 800 543 800 523 C 799 503 798 483 798 462 C 798 441 797 418 797 394 C 797 370 797 342 797 311 C 797 280 799 255 805 235 C 811 215 818 200 828 188 C 837 176 848 168 860 164 C 872 160 885 158 899 158 C 915 158 928 160 940 164 C 951 168 960 174 968 181 C 976 188 982 196 986 206 C 990 216 994 226 997 236 L 1012 236 Z M 551 561 C 529 545 505 529 477 514 C 449 499 422 482 397 462 C 372 442 351 418 334 390 C 317 362 309 327 309 285 C 309 267 312 251 318 237 C 324 222 333 209 344 198 C 354 186 367 177 381 171 C 395 165 409 162 424 162 C 434 162 445 162 457 164 C 469 165 480 167 491 170 C 502 173 512 177 521 181 C 529 185 535 191 539 197 C 544 205 547 212 549 220 C 550 228 551 237 551 248 L 551 561 Z" unicode="a" />
<glyph horiz-adv-x="1118" d="M 1090 510 C 1090 436 1078 368 1054 305 C 1030 241 996 186 952 140 C 908 93 856 56 796 30 C 736 3 670 -10 598 -10 C 458 -10 333 31 223 113 L 213 113 L 125 -8 L 111 -8 L 111 1241 C 98 1249 80 1259 57 1271 C 34 1283 11 1296 -12 1309 L -12 1321 L 348 1487 L 365 1487 L 358 760 L 362 758 C 374 785 390 813 412 841 C 434 869 459 895 489 918 C 519 941 552 960 588 975 C 624 989 662 997 702 997 C 764 997 819 983 867 956 C 915 929 955 893 988 848 C 1021 802 1046 750 1064 692 C 1081 633 1090 572 1090 510 Z M 817 459 C 817 507 811 554 801 599 C 791 643 775 682 754 716 C 732 750 705 777 672 797 C 639 817 600 827 555 827 C 522 827 494 822 470 812 C 446 802 426 791 410 778 C 394 765 383 752 375 738 C 367 724 362 713 362 705 C 361 697 360 686 360 673 C 360 659 359 645 359 630 C 359 614 358 598 358 582 C 358 566 358 551 358 537 C 358 513 358 486 359 456 C 359 426 360 398 362 373 C 363 351 366 327 371 301 C 376 275 383 249 392 223 C 401 197 412 172 425 148 C 437 124 452 102 468 84 C 484 65 503 50 523 39 C 543 28 566 23 590 23 C 624 23 656 33 684 55 C 712 77 735 107 755 146 C 775 184 790 230 801 284 C 811 337 817 395 817 459 Z" unicode="b" />
<glyph horiz-adv-x="893" d="M 911 334 C 899 293 882 252 860 211 C 838 169 810 132 777 99 C 744 65 705 38 659 17 C 613 -3 560 -14 500 -14 C 427 -14 361 0 303 26 C 245 52 195 89 154 136 C 113 182 82 237 60 299 C 38 361 27 428 27 500 C 27 564 38 627 62 687 C 85 747 118 800 160 846 C 202 892 253 928 313 956 C 373 983 439 997 512 997 C 561 997 608 991 654 981 C 700 970 740 954 775 933 C 810 911 838 885 859 853 C 880 821 891 783 891 741 C 891 721 887 702 880 684 C 873 666 863 651 851 638 C 839 624 824 614 808 606 C 792 598 774 594 756 594 C 734 594 715 596 698 602 C 681 608 666 615 653 625 C 640 634 630 645 622 657 C 614 669 610 681 608 694 C 612 703 617 716 623 732 C 629 748 633 767 633 791 C 633 846 622 889 601 919 C 580 949 547 965 502 965 C 469 965 439 954 413 932 C 387 910 364 880 346 843 C 328 805 314 762 304 714 C 294 665 289 614 289 561 C 289 504 296 452 311 405 C 326 357 347 316 374 282 C 401 248 433 221 471 202 C 508 183 549 174 594 174 C 664 174 724 188 772 218 C 820 247 861 288 895 342 L 911 334 Z" unicode="c" />
<glyph horiz-adv-x="1143" d="M 754 -14 L 741 -14 L 741 195 L 739 199 C 702 131 658 79 606 43 C 554 7 489 -10 412 -10 C 363 -10 316 1 270 23 C 224 45 183 77 147 119 C 111 161 83 212 61 274 C 39 335 29 405 29 485 C 29 556 41 623 65 685 C 89 747 122 802 166 848 C 210 894 262 930 324 957 C 386 983 454 997 530 997 C 571 997 609 993 644 987 C 678 980 711 972 741 963 L 737 1272 L 569 1339 L 569 1352 L 977 1487 L 993 1487 L 993 190 C 998 186 1006 182 1017 177 C 1028 171 1040 165 1054 159 C 1068 153 1082 146 1097 140 C 1111 133 1125 127 1139 123 L 1139 109 L 754 -14 Z M 739 731 C 727 759 714 786 698 814 C 682 842 665 866 647 888 C 629 910 610 927 592 941 C 573 954 555 961 539 961 C 495 961 459 948 429 923 C 399 898 375 865 356 824 C 337 783 323 736 315 684 C 307 631 303 577 303 522 C 303 470 308 419 319 371 C 329 322 345 279 367 241 C 388 203 415 172 447 149 C 479 126 516 115 559 115 C 579 115 600 118 620 124 C 640 130 658 140 674 153 C 690 165 704 181 716 201 C 727 221 735 244 739 272 L 739 731 Z" unicode="d" />
<glyph horiz-adv-x="913" d="M 928 340 C 923 318 916 295 906 270 C 896 244 884 219 868 193 C 852 167 834 141 812 117 C 790 93 765 71 736 52 C 707 33 674 18 638 7 C 602 -4 562 -10 518 -10 C 441 -10 372 3 312 31 C 251 59 200 96 158 144 C 116 192 84 248 62 312 C 40 376 29 444 29 516 C 29 574 39 631 60 689 C 81 746 111 797 151 843 C 190 889 238 926 295 954 C 352 982 417 997 489 997 C 545 997 598 990 647 976 C 696 962 739 942 776 914 C 813 886 843 850 866 807 C 888 764 901 713 905 655 L 283 655 C 281 643 281 633 281 623 C 281 613 281 603 281 594 C 281 534 288 479 304 428 C 320 377 342 333 372 296 C 401 258 437 229 479 208 C 521 186 568 176 621 176 C 651 176 682 180 712 188 C 742 196 771 207 797 222 C 823 236 845 254 865 275 C 885 295 899 318 907 344 L 928 340 Z M 618 780 C 618 802 614 823 608 845 C 602 867 592 886 580 904 C 568 922 553 936 535 947 C 517 957 496 963 473 963 C 453 963 434 957 418 947 C 401 937 386 923 372 907 C 358 891 346 872 336 852 C 325 831 316 810 309 790 C 301 769 296 749 292 731 C 288 712 285 696 285 684 C 309 684 330 684 348 684 C 366 684 384 685 402 686 C 419 687 437 688 457 689 C 476 689 498 690 524 692 C 532 692 543 693 556 695 C 569 697 581 701 592 707 C 601 716 608 726 612 737 C 616 748 618 762 618 780 Z" unicode="e" />
<glyph horiz-adv-x="590" d="M 838 1360 C 838 1344 835 1329 830 1315 C 824 1301 817 1288 808 1277 C 799 1265 788 1256 776 1249 C 764 1242 751 1239 737 1239 C 715 1239 697 1243 681 1251 C 665 1259 651 1269 639 1281 C 627 1293 616 1307 607 1323 C 597 1338 589 1353 581 1367 C 573 1381 565 1395 557 1407 C 549 1419 541 1429 532 1436 C 523 1436 512 1433 500 1428 C 488 1423 476 1413 464 1399 C 452 1385 441 1365 432 1339 C 422 1313 416 1279 414 1237 C 412 1209 411 1184 410 1163 C 409 1141 408 1121 408 1102 C 407 1082 406 1063 406 1043 C 406 1023 406 1001 406 977 L 647 977 L 610 868 L 403 868 L 403 98 C 403 87 408 77 418 69 C 428 60 442 52 458 46 C 474 39 493 33 514 29 C 534 25 555 22 575 20 L 575 0 L -14 0 L -14 20 C 2 22 19 25 38 30 C 57 34 75 40 92 48 C 109 56 123 64 135 74 C 146 83 152 93 152 104 L 152 868 L 4 868 L 37 977 L 154 977 C 154 1003 154 1029 155 1057 C 155 1084 157 1110 160 1136 C 162 1161 166 1185 172 1207 C 177 1229 184 1248 193 1264 C 211 1298 236 1328 267 1356 C 297 1384 332 1408 371 1428 C 410 1448 453 1463 499 1474 C 545 1485 593 1491 643 1491 C 669 1491 693 1488 717 1483 C 741 1478 762 1470 780 1460 C 798 1449 812 1435 822 1419 C 832 1402 838 1382 838 1360 Z" unicode="f" />
<glyph horiz-adv-x="1075" d="M 1126 881 C 1126 867 1124 853 1120 840 C 1116 827 1110 816 1103 806 C 1095 796 1086 789 1076 783 C 1065 777 1053 774 1040 774 C 1026 774 1011 778 996 787 C 980 796 964 807 948 821 C 931 834 914 848 896 864 C 878 880 859 895 840 909 L 834 899 C 854 865 871 832 886 800 C 901 768 909 733 909 696 C 909 640 898 592 878 552 C 858 512 829 478 791 452 C 753 426 708 406 654 394 C 600 381 539 375 473 375 C 457 375 444 375 432 376 C 420 377 409 378 399 379 C 388 380 377 381 366 383 C 354 384 342 385 328 387 C 294 385 271 375 259 358 C 246 340 240 319 240 295 C 240 276 244 261 253 250 C 262 238 274 230 290 224 C 306 218 324 214 346 212 C 368 210 392 209 418 209 L 727 209 C 779 209 826 200 868 182 C 909 164 944 141 972 112 C 1000 82 1022 49 1037 11 C 1051 -27 1059 -66 1059 -106 C 1059 -162 1046 -214 1020 -264 C 994 -314 956 -357 908 -395 C 860 -432 801 -461 732 -483 C 663 -505 586 -516 500 -516 C 334 -516 210 -495 127 -453 C 43 -411 2 -348 2 -264 C 2 -233 9 -206 24 -183 C 39 -160 59 -140 83 -123 C 107 -106 134 -91 164 -79 C 194 -66 224 -55 254 -45 L 254 -41 C 222 -35 192 -26 166 -13 C 140 0 117 15 98 33 C 79 51 64 72 54 96 C 44 119 39 144 39 170 C 39 195 44 220 56 246 C 67 271 83 294 104 315 C 125 336 150 354 180 369 C 210 383 243 393 279 397 L 279 403 C 218 427 170 462 136 510 C 101 557 84 615 84 684 C 84 728 94 770 115 808 C 135 846 164 880 202 908 C 240 936 285 957 337 973 C 389 989 446 997 510 997 C 540 997 568 995 593 993 C 618 991 642 987 665 983 C 687 978 709 972 730 964 C 751 956 773 948 797 938 C 812 931 830 928 852 928 C 869 928 885 930 901 935 C 917 940 932 945 947 951 C 962 957 977 962 992 967 C 1007 972 1023 975 1040 975 C 1065 975 1086 966 1102 948 C 1118 930 1126 907 1126 881 Z M 836 -221 C 836 -181 828 -150 814 -126 C 800 -102 782 -85 762 -74 C 749 -66 735 -60 721 -54 C 707 -48 690 -44 672 -40 C 653 -36 631 -34 606 -32 C 581 -30 552 -29 518 -29 C 504 -29 486 -29 463 -31 C 439 -32 415 -33 391 -35 C 367 -37 344 -39 323 -41 C 302 -43 287 -44 279 -45 C 273 -56 269 -67 265 -78 C 261 -88 257 -100 254 -113 C 251 -125 249 -140 248 -156 C 246 -172 246 -190 246 -211 C 246 -250 253 -286 267 -318 C 281 -350 301 -378 327 -402 C 352 -426 382 -444 417 -457 C 452 -470 490 -477 532 -477 C 568 -477 598 -474 622 -469 C 646 -464 668 -458 690 -451 C 733 -429 768 -399 795 -359 C 822 -319 836 -273 836 -221 Z M 659 700 C 659 734 656 768 650 800 C 644 832 634 860 621 885 C 608 909 591 929 570 943 C 549 957 524 965 494 965 C 466 965 441 957 421 941 C 401 925 384 903 371 877 C 358 850 349 820 343 786 C 337 752 334 718 334 682 C 334 641 337 604 345 570 C 352 536 362 507 376 483 C 390 459 406 440 426 426 C 446 412 468 406 492 406 C 521 406 546 414 567 430 C 588 446 605 468 619 496 C 633 523 643 554 649 590 C 655 625 659 662 659 700 Z" unicode="g" />
<glyph horiz-adv-x="1110" d="M 606 0 L 606 23 C 643 25 674 32 699 44 C 724 56 737 72 737 94 L 737 578 C 737 614 734 647 728 678 C 722 709 713 736 701 759 C 688 782 671 800 650 814 C 629 827 603 834 573 834 C 529 834 495 827 470 813 C 444 799 426 782 414 764 C 410 760 408 752 406 742 C 404 731 403 720 403 709 L 403 94 C 403 81 406 70 413 62 C 420 53 429 46 441 41 C 452 35 464 31 478 28 C 492 24 506 22 520 20 L 520 0 L 27 0 L 27 20 C 43 22 58 25 73 29 C 88 33 101 38 113 44 C 125 50 134 58 141 68 C 148 78 152 89 152 102 L 152 1212 C 152 1222 150 1230 148 1236 C 146 1241 140 1247 131 1255 C 119 1264 104 1273 84 1283 C 64 1292 46 1302 29 1313 L 29 1325 L 389 1487 L 406 1487 L 399 778 L 403 776 C 412 792 426 813 446 839 C 465 864 489 888 519 912 C 548 935 582 955 622 972 C 661 988 705 997 754 997 C 798 997 836 989 866 973 C 896 957 921 936 940 908 C 958 880 971 846 979 808 C 987 770 991 728 991 684 L 991 88 C 991 78 995 69 1003 61 C 1011 53 1022 46 1035 40 C 1047 34 1061 30 1075 26 C 1089 22 1102 20 1114 18 L 1114 0 L 606 0 Z" unicode="h" />
<glyph horiz-adv-x="557" d="M 14 0 L 14 20 C 30 22 46 25 63 29 C 79 33 94 38 108 44 C 121 50 132 58 141 68 C 149 78 154 89 154 102 L 154 756 C 154 766 152 775 150 784 C 148 793 142 801 133 807 C 121 815 105 823 87 832 C 69 840 50 848 31 854 L 31 866 L 393 999 L 406 999 L 406 96 C 406 83 410 72 419 63 C 427 54 438 47 452 41 C 465 35 479 30 494 27 C 509 23 523 21 537 20 L 537 0 L 14 0 Z M 418 1276 C 418 1256 414 1237 406 1219 C 398 1201 387 1185 374 1172 C 360 1158 345 1148 327 1140 C 309 1132 290 1128 270 1128 C 250 1128 232 1132 214 1140 C 196 1148 181 1158 167 1172 C 153 1186 143 1202 135 1220 C 127 1238 123 1256 123 1276 C 123 1296 126 1316 134 1334 C 142 1352 152 1367 166 1380 C 179 1392 194 1402 212 1410 C 230 1417 249 1421 270 1421 C 290 1421 310 1417 328 1410 C 346 1402 361 1392 375 1380 C 388 1367 398 1352 406 1334 C 414 1316 418 1296 418 1276 Z" unicode="i" />
<glyph horiz-adv-x="532" d="M 403 -109 C 403 -135 397 -164 385 -194 C 373 -224 357 -253 337 -283 C 316 -312 292 -340 264 -367 C 236 -393 205 -417 172 -437 C 138 -457 103 -474 67 -486 C 30 -498 -7 -504 -45 -504 C -74 -504 -102 -500 -128 -494 C -154 -488 -178 -478 -198 -466 C -218 -454 -234 -438 -246 -419 C -258 -400 -264 -378 -264 -352 C -264 -334 -261 -317 -255 -302 C -249 -287 -241 -274 -231 -263 C -221 -251 -208 -242 -194 -236 C -179 -230 -163 -227 -145 -227 C -123 -227 -104 -232 -89 -243 C -74 -254 -61 -268 -51 -284 C -41 -300 -32 -318 -25 -338 C -17 -357 -10 -375 -3 -392 C 4 -408 12 -423 20 -435 C 28 -447 38 -453 51 -455 C 71 -451 88 -440 100 -422 C 112 -404 121 -382 127 -356 C 133 -330 136 -301 138 -271 C 140 -241 141 -212 143 -184 C 143 -157 144 -130 145 -103 C 146 -76 147 -50 148 -26 C 148 -2 149 20 149 40 C 149 60 150 77 150 90 L 150 723 C 150 731 148 738 146 744 C 144 750 138 758 129 766 C 123 770 115 775 106 781 C 96 787 86 792 76 798 C 65 804 54 809 44 815 C 33 821 24 826 16 831 L 16 846 L 389 999 L 401 999 C 401 985 401 960 401 926 C 401 891 401 849 401 801 C 401 753 401 700 401 642 C 401 584 402 524 402 464 C 402 403 402 343 402 283 C 402 223 403 168 403 117 C 403 65 403 20 403 -19 C 403 -59 403 -89 403 -109 Z M 414 1276 C 414 1256 410 1237 402 1219 C 394 1201 383 1185 370 1172 C 356 1158 341 1148 323 1140 C 305 1132 286 1128 266 1128 C 246 1128 228 1132 210 1140 C 192 1148 176 1158 163 1172 C 149 1186 139 1202 131 1220 C 123 1238 119 1256 119 1276 C 119 1296 122 1316 130 1334 C 138 1352 148 1367 162 1380 C 175 1392 190 1402 208 1410 C 226 1417 245 1421 266 1421 C 286 1421 306 1417 324 1410 C 342 1402 357 1392 371 1380 C 384 1367 394 1352 402 1334 C 410 1316 414 1296 414 1276 Z" unicode="j" />
<glyph horiz-adv-x="1036" d="M 565 0 L 565 20 C 591 21 614 26 632 36 C 650 46 659 57 659 70 C 659 75 653 88 643 110 C 632 132 617 159 599 193 C 580 226 558 264 533 308 C 508 352 481 399 453 449 C 442 466 433 477 427 481 C 421 485 415 487 410 487 L 403 487 L 403 94 C 403 81 406 70 412 62 C 418 53 427 46 438 41 C 448 35 460 31 473 28 C 486 24 500 22 514 20 L 514 0 L 29 0 L 29 20 C 45 22 60 25 75 29 C 89 33 102 38 114 44 C 125 50 134 58 141 68 C 148 78 152 89 152 102 L 152 1202 C 152 1211 151 1219 149 1226 C 147 1232 142 1239 133 1247 C 128 1251 122 1255 114 1259 C 106 1263 97 1268 87 1273 C 77 1278 67 1283 57 1288 C 47 1293 37 1298 29 1303 L 29 1315 L 387 1481 L 403 1481 L 403 512 L 430 516 C 472 550 514 586 556 625 C 597 664 634 701 666 736 C 698 771 724 802 744 829 C 764 856 774 875 774 885 C 774 891 769 897 759 905 C 749 913 736 920 720 928 C 704 935 687 941 669 946 C 650 951 632 954 616 956 L 616 977 L 1118 977 L 1118 956 C 1113 955 1099 952 1075 948 C 1051 943 1024 936 993 926 C 962 916 930 903 898 888 C 865 872 837 854 815 834 C 796 816 779 800 763 785 C 747 769 732 754 717 740 C 702 725 687 710 673 696 C 658 681 643 665 627 649 C 680 555 730 467 777 385 C 823 303 865 232 901 174 C 921 141 940 115 958 97 C 976 79 993 64 1010 53 C 1015 50 1023 47 1033 44 C 1043 40 1054 37 1066 34 C 1078 30 1090 27 1102 25 C 1114 22 1124 20 1133 20 L 1133 0 L 565 0 Z" unicode="k" />
<glyph horiz-adv-x="541" d="M -8 0 L -8 23 C 23 25 49 28 69 33 C 89 38 104 44 116 51 C 128 58 136 66 140 76 C 144 85 147 95 147 106 L 147 1225 C 147 1235 146 1243 144 1249 C 142 1255 136 1261 127 1268 C 121 1271 112 1275 102 1281 C 92 1287 81 1293 69 1299 C 57 1305 46 1311 35 1317 C 23 1323 14 1327 6 1331 L 6 1343 L 385 1481 L 399 1481 L 399 96 C 399 82 402 70 408 62 C 414 54 423 47 435 42 C 447 37 463 33 483 31 C 502 28 525 25 551 23 L 551 0 L -8 0 Z" unicode="l" />
<glyph horiz-adv-x="1663" d="M 1171 0 L 1171 23 C 1208 25 1236 32 1256 44 C 1276 56 1286 72 1286 94 L 1286 588 C 1286 624 1283 656 1277 686 C 1271 715 1262 740 1250 761 C 1238 782 1222 798 1202 810 C 1182 821 1158 827 1130 827 C 1095 827 1064 818 1037 802 C 1010 785 988 766 971 745 L 971 88 C 971 78 974 69 982 61 C 989 53 998 46 1009 40 C 1020 34 1032 30 1045 26 C 1058 22 1071 20 1083 18 L 1083 0 L 594 0 L 594 23 C 631 25 661 32 683 44 C 705 56 717 72 717 94 L 717 590 C 717 626 714 658 709 687 C 703 716 695 741 683 762 C 671 782 655 798 635 810 C 615 821 590 827 561 827 C 527 827 497 821 471 810 C 445 798 422 780 401 756 L 401 90 C 403 76 408 66 416 58 C 423 50 432 43 442 38 C 452 33 463 29 476 27 C 488 24 502 22 516 20 L 516 0 L 33 0 L 33 20 C 49 22 64 25 78 30 C 92 34 104 40 115 47 C 125 54 134 62 140 72 C 146 81 150 91 150 102 L 150 758 C 150 768 148 776 146 782 C 144 788 138 794 129 801 C 116 808 101 816 84 824 C 66 832 49 840 33 848 L 33 860 L 387 999 L 399 999 L 399 778 L 403 776 C 417 800 434 826 455 852 C 476 878 500 901 528 923 C 556 944 587 962 621 976 C 655 990 691 997 731 997 C 763 997 792 991 819 980 C 845 969 869 954 889 934 C 909 914 925 889 938 861 C 951 832 960 800 965 764 L 971 764 C 983 788 999 814 1020 842 C 1041 870 1066 895 1094 918 C 1122 940 1154 959 1189 974 C 1223 989 1260 997 1300 997 C 1339 997 1374 989 1404 974 C 1434 958 1459 937 1479 910 C 1499 882 1514 850 1524 813 C 1534 775 1540 734 1540 690 L 1540 88 C 1540 78 1544 69 1552 61 C 1560 53 1571 46 1583 40 C 1595 34 1608 30 1622 26 C 1636 22 1649 20 1661 18 L 1661 0 L 1171 0 Z" unicode="m" />
<glyph horiz-adv-x="1104" d="M 606 0 L 606 23 C 643 25 673 32 695 44 C 717 56 729 72 729 94 L 729 578 C 729 611 726 643 720 673 C 714 703 705 729 692 751 C 679 773 662 791 641 805 C 619 818 593 825 563 825 C 498 825 444 801 401 754 L 401 90 C 403 76 408 66 415 58 C 422 50 431 43 441 38 C 451 33 462 29 474 27 C 486 24 500 22 514 20 L 514 0 L 33 0 L 33 20 C 49 22 64 25 78 30 C 92 34 104 40 115 47 C 125 54 134 62 140 72 C 146 81 150 91 150 102 L 150 758 C 150 768 148 776 146 782 C 144 788 138 794 129 801 C 116 808 101 816 84 824 C 66 832 49 840 33 848 L 33 860 L 387 999 L 399 999 L 399 776 L 403 772 C 419 796 439 821 461 847 C 483 873 509 898 537 920 C 565 942 595 961 629 975 C 662 989 698 997 737 997 C 777 997 813 989 844 973 C 874 957 900 936 921 908 C 941 880 957 847 967 809 C 977 770 983 728 983 682 L 983 88 C 983 78 987 69 996 61 C 1004 53 1015 46 1028 40 C 1041 34 1055 30 1070 26 C 1084 22 1098 20 1110 18 L 1110 0 L 606 0 Z" unicode="n" />
<glyph horiz-adv-x="1063" d="M 1034 494 C 1034 422 1021 356 995 294 C 969 232 934 179 889 133 C 844 87 791 51 730 25 C 669 0 603 -14 532 -14 C 495 -14 457 -9 418 0 C 378 8 340 22 303 40 C 265 58 230 82 197 110 C 164 138 135 170 110 208 C 85 246 65 288 51 336 C 36 383 29 436 29 494 C 29 560 41 623 65 684 C 89 744 123 798 167 844 C 211 890 264 927 327 955 C 389 983 459 997 537 997 C 575 997 614 992 654 983 C 694 974 732 960 769 942 C 806 924 841 901 873 873 C 905 845 933 812 957 775 C 981 738 999 696 1013 649 C 1027 602 1034 550 1034 494 Z M 758 496 C 758 528 756 563 753 599 C 749 635 744 670 737 705 C 729 739 720 772 708 804 C 696 835 681 863 664 887 C 647 911 627 930 604 944 C 581 958 555 965 526 965 C 490 965 458 951 431 924 C 403 897 380 862 362 818 C 343 774 329 723 319 667 C 309 610 305 552 305 492 C 305 432 309 374 317 318 C 325 261 339 210 357 166 C 375 122 399 86 429 59 C 459 31 495 18 539 18 C 566 18 590 25 612 40 C 633 54 652 74 668 99 C 684 124 698 153 710 185 C 721 217 730 251 737 287 C 744 322 749 358 753 394 C 756 430 758 464 758 496 Z" unicode="o" />
<glyph horiz-adv-x="1118" d="M 1090 553 C 1090 472 1077 398 1052 331 C 1026 263 990 205 942 157 C 894 108 836 70 767 43 C 698 15 620 2 532 2 C 508 2 485 3 463 6 C 440 8 416 12 391 18 C 391 -3 392 -31 392 -67 C 392 -102 393 -139 393 -177 C 393 -215 394 -253 394 -290 C 394 -327 395 -358 395 -383 C 397 -395 405 -405 418 -413 C 430 -421 445 -427 462 -433 C 479 -438 497 -442 515 -445 C 533 -448 549 -451 563 -453 L 563 -475 L -27 -475 L -27 -453 C -11 -451 6 -447 26 -443 C 45 -438 63 -432 80 -424 C 97 -416 111 -408 123 -398 C 135 -388 141 -378 141 -367 L 141 723 C 141 733 140 741 138 747 C 136 753 130 760 121 766 C 115 769 106 773 95 779 C 83 784 71 789 59 795 C 47 801 34 806 22 812 C 10 817 0 821 -8 825 L -8 838 L 379 999 L 391 999 L 391 768 L 393 764 C 411 789 432 815 454 843 C 476 871 501 896 528 919 C 555 941 585 960 617 975 C 649 989 683 997 721 997 C 783 997 838 983 884 957 C 930 930 968 895 999 853 C 1029 811 1052 763 1067 710 C 1082 657 1090 605 1090 553 Z M 821 473 C 821 521 816 566 806 608 C 796 650 781 686 761 718 C 741 750 715 775 684 793 C 653 811 617 821 575 821 C 548 821 523 816 501 808 C 479 800 460 790 444 779 C 428 767 415 756 406 745 C 397 733 393 725 393 719 C 393 711 392 699 392 683 C 392 667 391 650 391 632 C 390 614 389 597 389 580 C 389 562 389 548 389 537 C 389 503 389 467 390 429 C 391 391 393 356 395 324 C 397 292 403 259 413 226 C 422 192 435 162 451 135 C 467 107 486 85 508 67 C 530 49 556 41 584 41 C 616 41 646 52 675 74 C 704 96 729 126 751 165 C 772 204 789 250 802 302 C 814 354 821 411 821 473 Z" unicode="p" />
<glyph horiz-adv-x="1137" d="M 578 -475 L 578 -453 C 592 -451 608 -448 626 -444 C 644 -440 662 -436 680 -430 C 698 -424 713 -418 726 -410 C 739 -402 747 -392 750 -381 C 750 -364 750 -339 750 -307 C 750 -274 751 -238 751 -198 C 751 -158 752 -116 752 -72 C 752 -28 753 13 753 53 C 753 93 754 128 754 159 C 754 189 755 212 756 227 L 752 229 C 740 201 724 174 704 146 C 684 118 660 93 632 71 C 604 48 573 29 538 15 C 503 1 465 -6 424 -6 C 362 -6 306 7 257 34 C 208 61 167 97 133 143 C 99 188 74 241 56 301 C 38 361 29 423 29 489 C 29 556 41 620 65 682 C 89 743 122 797 166 844 C 210 890 262 927 322 955 C 382 983 449 997 522 997 C 568 997 609 993 645 985 C 681 977 713 967 742 955 C 770 943 795 930 817 916 C 839 902 858 889 874 877 L 881 877 L 989 1006 L 1004 1006 L 1004 -367 C 1004 -378 1008 -388 1018 -398 C 1027 -408 1039 -416 1053 -424 C 1067 -432 1083 -438 1101 -443 C 1118 -447 1135 -451 1151 -453 L 1151 -475 L 578 -475 Z M 752 276 C 752 286 753 298 753 312 C 753 326 754 340 754 355 C 754 369 755 383 755 396 C 755 409 756 420 756 428 C 756 446 756 467 756 489 C 756 511 755 532 754 551 C 752 596 747 643 739 692 C 731 741 718 786 700 826 C 682 866 660 900 632 926 C 604 952 570 965 530 965 C 494 965 461 953 433 931 C 405 909 381 878 361 839 C 341 800 325 754 315 701 C 304 647 299 590 299 528 C 299 479 304 432 316 388 C 327 344 344 305 366 271 C 388 237 415 210 447 190 C 479 170 515 160 557 160 C 590 160 619 164 643 173 C 667 182 688 193 704 206 C 720 218 731 231 739 244 C 747 257 751 268 752 276 Z" unicode="q" />
<glyph horiz-adv-x="772" d="M 811 858 C 811 837 807 818 801 802 C 795 786 787 772 777 760 C 767 748 755 740 743 734 C 731 728 719 725 707 725 C 677 725 653 729 637 737 C 621 745 608 755 599 765 C 590 775 583 784 577 792 C 571 800 564 805 555 805 C 525 805 495 792 467 768 C 439 743 417 711 403 672 L 403 90 C 407 77 416 67 430 59 C 444 51 459 44 476 39 C 493 34 511 30 529 27 C 547 24 564 22 578 20 L 578 0 L 35 0 L 35 20 C 51 22 66 25 80 30 C 94 34 106 40 117 47 C 127 54 136 62 142 72 C 148 81 152 91 152 102 L 152 745 C 152 755 150 764 148 770 C 146 776 140 782 131 788 C 118 795 103 804 86 814 C 68 824 51 832 35 840 L 35 852 L 389 999 L 401 999 L 397 713 L 401 713 C 405 723 411 738 419 756 C 427 774 436 794 448 815 C 459 836 472 857 487 879 C 502 901 519 920 539 938 C 558 955 580 969 604 980 C 628 991 654 997 684 997 C 702 997 718 993 734 986 C 749 979 762 969 774 957 C 786 945 795 930 801 913 C 807 896 811 878 811 858 Z" unicode="r" />
<glyph horiz-adv-x="819" d="M 811 309 C 811 253 799 204 775 164 C 751 124 719 91 680 65 C 640 39 595 19 545 7 C 495 -5 443 -12 391 -12 C 319 -12 252 -5 192 9 C 131 23 78 40 33 61 L 33 373 L 49 373 C 57 352 68 329 81 303 C 93 277 108 251 124 225 C 140 198 157 172 176 147 C 194 122 214 100 235 81 C 256 61 278 46 301 34 C 323 22 347 16 371 16 C 395 16 420 19 444 27 C 468 35 489 47 507 64 C 525 80 540 102 552 128 C 563 154 569 185 569 221 C 569 241 565 259 558 275 C 550 291 540 304 527 316 C 514 327 498 337 480 345 C 462 353 442 361 420 367 C 405 371 389 375 371 380 C 353 385 335 390 317 396 C 299 401 281 406 264 411 C 247 416 232 421 219 426 C 193 436 169 449 147 466 C 125 483 107 503 92 527 C 76 551 64 577 56 606 C 47 634 43 665 43 698 C 43 744 53 785 75 822 C 96 859 124 891 159 917 C 194 943 234 962 278 976 C 322 990 368 997 414 997 C 478 997 537 991 591 979 C 645 967 691 953 731 938 L 756 643 L 739 639 C 721 675 701 713 677 752 C 653 791 627 827 599 859 C 571 891 541 917 510 938 C 479 958 448 969 418 969 C 394 969 373 965 353 957 C 333 949 315 937 300 923 C 285 908 273 891 265 871 C 256 851 252 829 252 805 C 252 780 255 759 263 742 C 270 725 280 711 293 699 C 306 687 322 676 340 668 C 358 660 377 653 399 647 C 413 643 429 638 447 634 C 465 629 482 624 500 620 C 518 615 534 610 550 606 C 565 602 578 598 588 596 C 621 586 651 572 679 554 C 706 536 729 515 749 491 C 769 467 784 439 795 409 C 805 378 811 345 811 309 Z" unicode="s" />
<glyph horiz-adv-x="694" d="M 696 852 L 401 852 L 401 340 C 401 270 413 219 439 188 C 464 156 501 141 549 141 C 569 141 588 143 606 148 C 624 152 640 158 655 166 C 670 174 683 183 695 193 C 706 203 715 213 723 223 L 735 217 C 727 195 715 171 698 145 C 681 118 659 93 633 70 C 606 46 574 26 537 10 C 500 -5 458 -14 410 -14 C 377 -14 345 -8 313 1 C 281 11 253 25 229 42 C 204 58 184 77 169 99 C 154 120 147 142 147 164 C 147 228 147 291 148 354 C 149 417 150 478 151 537 C 152 596 153 652 154 705 C 155 758 156 807 156 852 L 2 852 L 2 874 L 381 1196 L 397 1196 L 397 977 L 760 977 L 696 852 Z" unicode="t" />
<glyph horiz-adv-x="1108" d="M 723 -10 L 709 -10 L 709 201 L 707 205 C 691 181 673 157 651 131 C 629 105 605 81 577 60 C 549 38 518 21 485 7 C 452 -7 417 -14 379 -14 C 291 -14 227 12 185 65 C 143 118 123 195 123 295 L 123 791 C 123 796 122 803 122 813 C 122 823 121 833 121 843 C 120 853 119 862 118 871 C 116 880 115 887 113 891 C 107 903 100 912 90 920 C 80 928 68 934 56 939 C 43 943 30 947 16 949 C 2 951 -10 952 -23 954 L -23 977 L 377 977 L 377 410 C 377 365 379 326 383 293 C 387 259 395 232 407 210 C 419 188 434 171 454 161 C 474 150 499 145 530 145 C 555 145 577 147 595 152 C 613 156 630 163 644 171 C 658 179 670 188 680 198 C 690 208 700 219 709 231 L 709 811 C 709 817 708 824 708 833 C 707 842 706 851 705 861 C 703 871 701 880 698 889 C 695 898 692 905 688 911 C 671 919 649 928 621 936 C 593 944 565 950 535 954 L 535 977 L 961 977 L 961 188 C 961 178 962 170 964 164 C 966 158 971 151 981 145 C 987 141 994 137 1004 132 C 1014 127 1024 122 1035 116 C 1046 110 1057 105 1068 100 C 1078 95 1088 91 1096 88 L 1096 76 L 723 -10 Z" unicode="u" />
<glyph horiz-adv-x="879" d="M 1012 954 C 998 954 981 951 962 946 C 942 941 923 933 903 923 C 883 912 865 899 848 883 C 830 867 817 847 807 825 C 790 787 771 742 751 691 C 730 640 708 587 686 531 C 663 475 640 419 616 363 C 592 307 569 255 547 207 C 535 183 526 162 519 145 C 511 128 504 112 498 98 C 492 84 485 69 479 55 C 473 40 465 23 457 4 C 453 -6 446 -12 436 -12 C 430 -12 427 -10 425 -7 C 423 -3 422 0 420 6 C 397 62 375 115 354 166 C 332 216 310 268 288 322 C 265 376 241 433 215 494 C 189 554 161 622 131 698 C 126 709 120 723 113 740 C 106 757 99 775 91 793 C 83 811 75 828 67 846 C 59 864 51 879 45 891 C 40 895 35 900 29 907 C 23 913 14 920 4 927 C -5 933 -18 939 -34 944 C -50 949 -70 952 -94 954 L -94 977 L 483 977 L 483 954 C 470 952 455 950 437 947 C 419 943 403 938 387 932 C 371 926 357 918 346 908 C 335 898 330 886 330 872 C 330 867 333 855 340 836 C 347 817 357 793 369 764 C 381 735 394 702 410 665 C 426 628 442 590 459 550 C 476 510 493 471 511 431 C 528 391 545 353 561 317 C 575 352 589 389 605 428 C 621 466 636 505 651 544 C 666 582 680 619 694 655 C 707 691 719 723 729 752 C 739 781 747 806 753 826 C 759 846 762 859 762 866 C 762 884 756 898 746 910 C 735 921 722 930 707 936 C 691 942 675 947 658 950 C 641 952 626 954 614 956 L 614 977 L 1012 977 L 1012 954 Z" unicode="v" />
<glyph horiz-adv-x="1475" d="M 1577 954 C 1560 952 1543 950 1526 947 C 1508 943 1491 937 1474 928 C 1456 918 1440 905 1424 888 C 1408 870 1393 847 1380 819 C 1362 781 1342 736 1319 686 C 1296 636 1272 583 1248 529 C 1223 474 1198 419 1174 364 C 1149 308 1126 257 1106 211 C 1093 185 1082 164 1074 146 C 1065 128 1057 112 1050 97 C 1043 82 1036 68 1030 54 C 1024 40 1017 24 1010 8 C 1008 4 1005 0 1003 -3 C 1000 -6 996 -8 991 -8 C 987 -8 983 -6 981 -3 C 979 0 977 4 975 10 C 957 60 939 107 923 153 C 906 199 888 246 870 295 C 852 344 832 397 811 453 C 790 509 767 572 741 643 L 555 186 C 541 152 528 122 515 96 C 501 70 488 40 475 8 C 473 4 470 0 467 -3 C 464 -6 460 -8 455 -8 C 450 -8 446 -6 443 -3 C 440 0 438 4 436 10 C 408 74 381 137 355 199 C 329 261 302 323 276 385 C 250 447 223 509 195 573 C 167 636 137 702 106 772 C 96 794 85 817 73 839 C 61 861 52 879 45 893 C 41 897 35 903 29 909 C 22 915 13 922 3 928 C -6 934 -19 940 -35 945 C -51 949 -70 952 -92 954 L -92 977 L 455 977 L 455 954 C 445 952 434 950 422 947 C 410 944 397 940 385 935 C 372 930 360 924 350 918 C 339 912 331 905 326 899 C 327 893 331 880 339 861 C 347 841 357 817 369 788 C 381 758 395 725 411 688 C 427 651 444 612 462 572 C 480 531 498 489 517 447 C 535 404 554 362 573 322 C 595 373 620 430 646 494 C 672 558 698 623 723 690 C 717 707 710 725 702 745 C 694 765 687 784 679 802 C 671 820 664 837 657 853 C 649 868 643 881 639 891 C 635 895 630 900 626 907 C 621 913 614 920 606 927 C 598 933 586 939 572 944 C 557 949 538 952 514 954 L 514 977 L 1063 977 L 1063 954 C 1052 952 1038 949 1022 946 C 1006 942 990 938 975 932 C 960 926 947 918 936 908 C 925 898 920 886 920 872 C 920 866 923 854 929 835 C 935 816 943 792 953 764 C 963 736 974 704 988 668 C 1002 632 1016 595 1031 557 C 1045 519 1060 480 1076 442 C 1091 403 1106 366 1120 332 C 1132 360 1146 392 1162 426 C 1177 460 1192 495 1208 531 C 1223 567 1238 602 1252 637 C 1266 671 1278 703 1289 733 C 1299 762 1308 788 1315 810 C 1321 832 1325 848 1325 858 C 1325 877 1321 893 1313 905 C 1305 917 1294 926 1282 933 C 1270 940 1256 945 1242 948 C 1228 950 1214 952 1202 954 L 1202 977 L 1577 977 L 1577 954 Z" unicode="w" />
<glyph horiz-adv-x="979" d="M 1034 954 C 1012 952 993 949 977 946 C 960 942 942 935 923 924 C 904 912 883 895 859 872 C 835 848 805 816 770 774 C 749 750 732 729 718 712 C 704 694 692 678 680 663 C 668 648 657 633 646 618 C 634 603 621 586 606 567 C 640 501 674 438 709 378 C 743 318 779 258 817 197 C 839 157 859 125 877 103 C 895 80 912 63 929 51 C 945 39 962 32 979 29 C 996 25 1016 23 1038 23 L 1038 0 L 475 0 L 475 23 C 481 23 489 24 499 24 C 509 24 518 26 528 30 C 538 34 546 40 554 49 C 562 57 567 70 571 88 C 569 104 563 125 554 149 C 544 173 533 199 519 227 C 505 255 491 283 475 311 C 459 339 444 366 430 391 C 410 365 390 338 368 308 C 346 278 325 249 306 221 C 287 193 271 167 259 145 C 246 122 240 105 240 94 C 248 48 288 25 360 23 L 360 0 L -39 0 L -39 23 C -21 23 -4 25 14 28 C 32 31 51 38 72 49 C 93 60 116 76 141 98 C 166 119 195 148 227 184 C 265 227 300 269 332 311 C 364 352 390 388 412 420 C 372 488 334 555 298 619 C 262 683 224 749 184 817 C 172 836 162 852 154 864 C 145 876 136 887 127 899 C 101 918 75 931 47 938 C 19 944 -8 950 -35 954 L -35 977 L 545 977 L 545 954 C 539 953 531 952 522 951 C 512 949 502 947 492 943 C 482 939 472 934 463 927 C 453 920 446 911 440 899 C 440 891 445 877 454 857 C 463 837 475 813 489 785 C 503 757 518 726 536 693 C 553 659 571 626 590 594 C 610 622 631 650 652 679 C 673 708 692 736 709 762 C 726 788 740 811 751 832 C 762 852 768 868 770 879 C 768 902 757 920 736 932 C 714 944 685 952 647 954 L 647 977 L 1034 977 L 1034 954 Z" unicode="x" />
<glyph horiz-adv-x="821" d="M 928 954 C 911 952 894 950 878 946 C 862 942 846 936 832 928 C 817 920 804 909 792 896 C 780 882 771 866 764 846 C 756 824 745 791 729 745 C 713 699 695 646 674 584 C 653 522 630 453 605 378 C 579 302 553 224 526 144 C 498 64 470 -17 442 -99 C 414 -181 386 -260 360 -336 C 350 -366 338 -391 325 -412 C 311 -432 297 -449 281 -461 C 265 -473 249 -482 231 -488 C 213 -493 194 -496 176 -496 C 160 -496 143 -493 126 -487 C 108 -481 93 -472 79 -462 C 65 -451 53 -438 44 -423 C 35 -407 31 -391 31 -373 C 31 -354 34 -337 41 -321 C 47 -305 56 -291 68 -280 C 79 -268 92 -259 107 -253 C 122 -247 138 -244 156 -244 C 172 -244 186 -246 200 -252 C 214 -258 227 -265 240 -275 C 252 -285 264 -296 276 -308 C 288 -320 299 -332 311 -344 L 317 -344 C 335 -296 350 -254 363 -220 C 376 -186 387 -157 396 -133 C 404 -109 411 -91 415 -77 C 419 -63 422 -53 424 -47 C 421 -41 413 -21 400 12 C 386 45 370 87 350 138 C 330 188 307 245 282 309 C 256 373 230 438 204 506 C 177 573 151 640 125 706 C 99 772 75 833 53 889 C 46 895 39 902 32 909 C 24 916 15 923 4 929 C -6 935 -20 941 -36 945 C -52 949 -72 952 -96 954 L -96 977 L 440 977 L 440 954 C 426 952 412 949 399 945 C 386 941 375 935 365 929 C 355 923 348 915 342 905 C 336 895 334 884 334 872 C 334 866 337 854 344 835 C 350 815 359 791 370 762 C 381 732 394 699 408 663 C 422 626 438 588 454 548 C 470 508 486 469 502 429 C 518 389 534 351 549 315 C 559 346 570 381 583 419 C 595 457 608 495 621 535 C 633 575 646 614 658 652 C 670 690 680 725 690 756 C 699 787 706 813 712 835 C 718 857 721 871 721 877 C 721 889 717 900 709 910 C 701 919 692 927 680 933 C 668 939 656 943 642 947 C 628 950 614 952 602 954 L 602 977 L 928 977 L 928 954 Z" unicode="y" />
<glyph horiz-adv-x="885" d="M 879 -8 L 860 -8 C 856 -4 849 -2 839 0 C 829 2 816 3 802 4 C 788 5 772 6 756 6 C 739 6 723 6 707 6 C 639 6 577 5 521 5 C 465 5 411 5 359 5 C 307 5 254 4 200 4 C 146 4 87 4 23 4 L 16 18 L 559 934 L 365 934 C 317 934 275 926 240 912 C 205 898 175 878 150 853 C 125 828 104 799 87 765 C 69 731 54 695 41 657 L 20 662 L 57 1006 L 76 1008 C 78 1004 81 999 85 995 C 89 990 95 986 103 983 C 111 979 123 976 138 974 C 152 972 172 971 197 971 C 262 971 323 971 379 971 C 435 971 489 971 541 971 C 593 971 645 971 697 971 C 749 971 804 972 862 973 L 864 954 L 315 41 L 530 41 C 584 41 630 51 670 72 C 709 92 743 119 771 151 C 799 183 822 218 840 257 C 858 296 873 334 885 371 L 905 369 L 879 -8 Z" unicode="z" />
<glyph horiz-adv-x="606" d="M 440 367 C 440 331 434 299 423 272 C 412 244 398 220 382 198 C 365 176 347 156 328 138 C 309 119 291 100 275 81 C 258 61 244 41 233 19 C 222 -2 217 -27 217 -55 C 217 -87 223 -112 237 -128 C 250 -144 267 -156 287 -162 C 307 -168 330 -172 354 -172 C 378 -172 400 -172 422 -172 C 428 -185 432 -199 432 -213 C 432 -224 428 -233 420 -240 C 412 -246 401 -250 389 -250 C 371 -250 347 -243 319 -231 C 291 -218 263 -201 237 -180 C 210 -159 187 -135 168 -107 C 148 -79 139 -50 139 -20 C 139 10 144 37 154 60 C 164 83 176 104 191 123 C 205 142 221 160 239 177 C 257 193 273 211 288 230 C 302 248 315 269 325 291 C 335 313 340 339 340 369 C 340 406 331 439 314 468 C 297 497 276 522 250 542 C 224 562 196 577 166 588 C 135 598 106 604 80 604 L 80 629 C 106 629 135 634 166 644 C 196 654 224 668 250 688 C 276 708 297 732 314 762 C 331 791 340 825 340 864 C 340 894 335 920 325 942 C 315 964 302 985 287 1003 C 271 1021 255 1039 237 1056 C 219 1072 203 1090 188 1109 C 172 1128 160 1149 150 1172 C 140 1194 135 1221 135 1253 C 135 1283 144 1312 164 1340 C 184 1368 207 1392 235 1413 C 262 1434 290 1451 319 1464 C 347 1476 371 1483 389 1483 C 401 1483 412 1479 420 1473 C 428 1466 432 1457 432 1446 C 432 1432 428 1418 422 1405 C 402 1405 381 1405 357 1405 C 333 1405 310 1403 290 1397 C 269 1391 252 1379 238 1363 C 224 1347 217 1322 217 1288 C 217 1260 222 1235 233 1213 C 244 1191 258 1171 275 1152 C 291 1132 309 1113 328 1095 C 347 1076 365 1056 382 1034 C 398 1012 412 988 423 961 C 434 933 440 902 440 866 C 440 834 432 804 418 778 C 403 752 383 728 359 707 C 335 686 307 668 276 653 C 244 638 212 626 178 618 L 178 614 C 210 606 242 595 274 580 C 305 565 333 547 358 526 C 382 505 402 481 417 455 C 432 428 440 399 440 367 Z" unicode="{" />
<glyph horiz-adv-x="539" d="M 207 -279 L 207 1606 L 332 1606 L 332 -279 L 207 -279 Z" unicode="|" />
<glyph horiz-adv-x="606" d="M 526 604 C 498 604 469 599 439 589 C 409 579 381 564 355 544 C 329 524 308 500 291 471 C 274 441 266 407 266 369 C 266 339 271 312 281 290 C 291 268 303 247 319 229 C 334 210 350 192 368 176 C 386 159 402 141 418 123 C 433 104 446 83 456 60 C 466 37 471 10 471 -20 C 471 -50 461 -79 441 -107 C 421 -135 398 -159 371 -180 C 343 -201 315 -218 287 -231 C 258 -243 235 -250 217 -250 C 205 -250 194 -246 186 -240 C 178 -233 174 -224 174 -213 C 174 -199 177 -185 184 -172 C 203 -172 225 -172 249 -172 C 273 -172 295 -170 316 -164 C 336 -158 354 -146 368 -130 C 382 -114 389 -89 389 -55 C 389 -27 383 -2 372 19 C 361 41 347 61 331 81 C 314 100 296 119 277 138 C 258 156 240 176 224 198 C 207 220 193 244 182 272 C 171 299 166 331 166 367 C 166 399 173 428 188 454 C 202 480 222 504 246 525 C 270 546 298 564 330 579 C 361 593 394 605 428 614 L 428 618 C 395 626 363 637 332 652 C 300 666 272 684 248 706 C 223 727 203 751 188 778 C 173 804 166 834 166 866 C 166 902 171 933 182 961 C 193 988 207 1012 224 1034 C 240 1056 258 1076 277 1095 C 296 1113 314 1132 331 1152 C 347 1171 361 1191 372 1213 C 383 1235 389 1260 389 1288 C 389 1320 382 1345 369 1361 C 355 1377 338 1389 318 1395 C 298 1401 276 1405 252 1405 C 228 1405 205 1405 184 1405 C 177 1418 174 1432 174 1446 C 174 1457 178 1466 186 1473 C 194 1479 205 1483 217 1483 C 235 1483 258 1476 286 1464 C 314 1451 342 1434 369 1413 C 395 1392 418 1368 438 1340 C 457 1312 467 1283 467 1253 C 467 1222 462 1195 452 1172 C 442 1148 429 1127 415 1109 C 400 1090 384 1072 366 1055 C 348 1038 332 1020 318 1002 C 303 984 291 963 281 941 C 271 919 266 893 266 864 C 266 826 274 793 291 764 C 308 735 329 711 355 691 C 381 671 409 655 439 645 C 469 634 498 629 526 629 L 526 604 Z" unicode="}" />
<glyph horiz-adv-x="1024" d="M 893 913 C 881 869 868 831 852 797 C 836 763 816 735 794 713 C 771 690 744 673 714 663 C 684 653 648 649 608 653 C 588 654 567 659 543 668 C 519 676 494 685 469 695 C 444 705 420 713 396 721 C 372 729 350 733 332 733 C 312 733 294 731 278 728 C 261 724 245 719 231 711 C 217 703 203 692 191 678 C 178 664 166 647 154 627 L 133 629 C 156 717 190 783 235 825 C 280 867 338 885 410 879 C 434 877 457 871 481 863 C 504 854 527 845 550 836 C 573 827 596 819 620 812 C 643 804 666 801 690 801 C 710 801 729 802 746 806 C 763 809 779 815 794 824 C 808 832 822 844 834 859 C 846 874 858 894 870 918 L 893 913 Z" unicode="~" />
<glyph horiz-adv-x="618" d="M 461 1341 C 461 1318 456 1297 448 1279 C 440 1261 429 1245 415 1232 C 401 1219 384 1209 366 1202 C 347 1195 327 1192 307 1192 C 286 1192 266 1196 248 1204 C 230 1212 214 1222 200 1236 C 186 1249 176 1265 168 1283 C 160 1301 156 1321 156 1341 C 156 1362 160 1382 168 1400 C 176 1418 186 1434 200 1448 C 214 1461 230 1471 248 1479 C 266 1487 286 1491 307 1491 C 327 1491 347 1487 366 1480 C 384 1473 401 1463 415 1450 C 429 1437 440 1421 448 1403 C 456 1385 461 1364 461 1341 Z M 485 313 C 485 281 480 247 470 211 C 460 175 447 141 431 110 C 415 78 396 52 374 31 C 352 10 330 0 307 0 C 285 0 263 10 242 31 C 221 52 203 78 187 110 C 171 141 158 175 148 211 C 138 247 133 281 133 313 C 137 321 146 342 161 376 C 175 409 191 456 209 518 C 226 579 243 655 259 746 C 275 836 286 943 293 1067 L 317 1067 C 325 943 337 836 354 746 C 370 656 388 580 406 519 C 424 458 440 411 455 378 C 470 344 480 323 485 313 Z" unicode="¡" />
<glyph horiz-adv-x="1077" d="M 999 340 C 987 301 969 262 946 222 C 923 182 894 146 860 114 C 826 82 785 55 738 35 C 691 14 638 4 578 4 C 558 4 539 4 520 6 C 500 8 483 10 469 14 L 399 -262 L 360 -254 L 434 25 C 382 41 336 64 296 94 C 255 124 220 160 192 202 C 163 244 141 290 126 341 C 111 391 104 445 104 502 C 104 564 115 623 139 680 C 162 737 195 787 238 831 C 280 875 331 910 391 936 C 451 962 517 975 590 975 C 603 975 616 974 630 974 C 644 973 657 972 670 971 L 725 1206 L 766 1196 L 705 963 C 741 956 776 946 808 933 C 840 919 868 903 892 884 C 916 864 934 841 948 815 C 962 789 969 759 969 727 C 969 707 965 689 958 672 C 951 654 941 639 929 627 C 917 614 902 604 886 597 C 870 589 852 586 834 586 C 812 586 794 588 778 593 C 762 598 749 605 738 614 C 727 622 718 632 712 643 C 706 653 702 664 700 676 C 704 684 711 695 719 711 C 727 726 731 745 731 768 C 731 796 727 822 719 844 C 711 866 701 884 688 899 L 518 217 C 540 205 565 195 591 188 C 617 181 644 178 672 178 C 712 178 748 182 779 190 C 810 198 838 210 862 225 C 886 240 908 258 928 279 C 947 299 965 322 983 348 L 999 340 Z M 655 926 C 631 936 606 942 580 942 C 547 942 517 932 489 912 C 461 892 438 865 418 831 C 398 796 382 755 371 709 C 359 663 354 613 354 559 C 354 487 366 424 390 370 C 414 316 446 272 485 240 L 655 926 Z" unicode="¢" />
<glyph horiz-adv-x="1430" d="M 1499 1315 C 1499 1298 1495 1283 1489 1269 C 1482 1255 1473 1242 1463 1232 C 1452 1222 1439 1214 1425 1208 C 1411 1202 1396 1200 1382 1200 C 1308 1200 1268 1244 1262 1333 C 1260 1347 1260 1362 1260 1377 C 1260 1392 1259 1406 1257 1418 C 1255 1430 1250 1440 1243 1448 C 1236 1456 1224 1460 1208 1460 C 1186 1460 1166 1454 1147 1444 C 1128 1433 1110 1419 1093 1402 C 1076 1385 1060 1366 1046 1344 C 1031 1322 1018 1299 1006 1277 C 994 1254 983 1232 974 1210 C 964 1188 956 1169 950 1153 C 916 1066 884 980 852 896 C 820 812 790 733 762 659 C 734 585 709 518 687 459 C 665 400 647 353 633 317 L 907 317 L 885 248 L 606 248 C 586 206 563 167 537 133 C 510 99 481 67 451 39 C 420 10 388 -15 355 -39 C 322 -63 290 -85 258 -106 L 262 -115 C 284 -105 306 -96 328 -86 C 350 -76 372 -67 394 -59 C 416 -51 437 -44 459 -39 C 481 -33 502 -31 524 -31 C 569 -31 610 -37 647 -49 C 684 -61 718 -76 749 -94 C 779 -112 807 -131 833 -152 C 858 -173 881 -193 903 -211 C 925 -229 945 -244 964 -256 C 982 -268 1000 -274 1018 -274 C 1034 -274 1051 -271 1067 -267 C 1083 -263 1098 -256 1111 -248 C 1124 -240 1135 -229 1143 -217 C 1151 -204 1155 -189 1155 -172 C 1155 -159 1150 -150 1141 -144 C 1132 -138 1121 -133 1108 -129 C 1094 -125 1080 -121 1065 -117 C 1049 -113 1035 -107 1022 -99 C 1008 -91 997 -79 988 -65 C 979 -51 975 -31 975 -6 C 975 10 978 26 986 42 C 993 57 1003 70 1015 82 C 1027 94 1042 103 1058 110 C 1074 117 1092 121 1110 121 C 1132 121 1151 117 1168 109 C 1184 101 1198 91 1210 78 C 1222 65 1230 50 1236 34 C 1242 17 1245 0 1245 -18 C 1245 -72 1235 -122 1216 -168 C 1196 -213 1170 -252 1136 -284 C 1102 -316 1063 -342 1017 -360 C 971 -378 921 -387 868 -387 C 825 -387 785 -381 748 -370 C 710 -358 676 -344 644 -328 C 612 -311 582 -293 554 -273 C 526 -253 499 -235 475 -219 C 450 -202 426 -188 404 -177 C 382 -165 360 -160 340 -160 L 215 -160 C 203 -179 188 -200 170 -223 C 152 -246 131 -267 109 -287 C 87 -307 62 -323 36 -336 C 9 -349 -18 -356 -47 -356 C -57 -356 -67 -354 -79 -351 C -90 -347 -100 -342 -110 -336 C -120 -329 -128 -321 -134 -311 C -140 -301 -143 -289 -143 -276 C -143 -252 -137 -233 -125 -219 C -113 -205 -98 -193 -80 -184 C -62 -175 -41 -168 -18 -164 C 5 -160 29 -156 53 -153 C 77 -150 99 -147 121 -144 C 143 -141 162 -137 178 -131 C 189 -110 201 -85 215 -56 C 229 -26 243 4 257 38 C 271 72 285 107 299 144 C 313 181 325 218 336 254 L 147 254 L 166 317 L 356 317 C 364 341 375 372 388 409 C 401 445 415 484 431 526 C 446 568 462 611 479 656 C 495 700 512 743 528 784 C 544 825 558 863 572 898 C 586 933 598 962 608 985 C 642 1063 681 1133 725 1196 C 769 1258 817 1312 870 1356 C 922 1400 978 1433 1038 1457 C 1097 1481 1159 1493 1223 1493 C 1253 1493 1284 1490 1317 1484 C 1349 1478 1379 1469 1406 1455 C 1433 1441 1455 1423 1473 1400 C 1491 1377 1499 1349 1499 1315 Z" unicode="£" />
<glyph horiz-adv-x="1139" d="M 870 537 C 870 577 862 616 846 652 C 830 688 809 720 782 747 C 755 774 723 796 687 812 C 650 828 611 836 569 836 C 528 836 489 828 453 812 C 417 796 385 774 358 747 C 331 720 310 688 294 652 C 278 616 270 577 270 537 C 270 495 278 457 294 421 C 310 385 331 353 358 326 C 385 298 417 277 453 261 C 489 245 528 237 569 237 C 609 237 648 245 685 261 C 721 277 753 298 781 326 C 808 353 830 385 846 421 C 862 457 870 495 870 537 Z M 817 231 C 783 204 745 183 703 168 C 661 152 617 145 569 145 C 521 145 477 152 435 168 C 393 183 356 204 324 231 L 250 158 L 193 215 L 266 289 C 238 323 216 360 201 402 C 185 444 178 489 178 537 C 178 584 185 629 201 671 C 216 713 238 751 266 784 L 193 858 L 250 915 L 324 842 C 358 868 395 889 436 905 C 477 920 521 928 569 928 C 617 928 661 920 703 905 C 745 889 783 868 817 842 L 891 915 L 948 858 L 874 784 C 902 750 923 711 939 669 C 955 627 963 582 963 535 C 963 487 955 442 939 400 C 923 358 902 321 874 289 L 948 215 L 891 158 L 817 231 Z" unicode="¤" />
<glyph horiz-adv-x="1255" d="M 793 297 C 793 277 793 256 793 234 C 793 212 794 191 796 171 C 798 151 800 133 803 117 C 805 101 809 89 815 82 C 823 70 833 60 847 54 C 861 47 876 41 892 37 C 908 33 924 29 941 27 C 958 25 974 22 989 20 L 989 0 L 334 0 L 334 20 C 352 22 369 24 386 26 C 402 28 418 32 433 37 C 448 41 462 47 476 55 C 489 62 501 72 512 84 C 518 91 523 104 527 122 C 531 140 534 160 536 184 C 538 207 539 231 539 257 C 539 282 540 306 541 328 L 541 350 L 223 348 L 223 389 L 543 387 C 543 406 543 427 543 449 C 543 471 543 494 545 520 L 223 518 L 223 559 L 545 557 L 545 655 C 542 659 534 672 521 694 C 507 716 491 743 471 775 C 451 807 429 843 405 882 C 381 921 357 960 333 998 C 309 1036 287 1071 267 1104 C 246 1137 229 1164 217 1184 C 191 1224 168 1260 146 1292 C 124 1324 103 1352 82 1376 C 60 1399 38 1417 16 1431 C -6 1444 -31 1452 -59 1454 L -59 1475 L 590 1475 L 590 1454 C 570 1452 549 1449 528 1447 C 507 1444 488 1440 471 1434 C 453 1428 439 1419 428 1409 C 417 1399 412 1385 412 1368 C 412 1359 414 1348 420 1334 C 426 1320 433 1304 442 1287 C 450 1270 460 1252 471 1233 C 482 1214 493 1196 504 1178 C 518 1153 535 1123 557 1089 C 578 1054 601 1017 625 978 C 649 938 673 898 698 857 C 723 816 747 777 770 741 C 787 767 809 800 835 840 C 861 880 887 921 914 963 C 940 1005 965 1046 989 1084 C 1013 1122 1031 1152 1044 1174 C 1050 1184 1057 1196 1066 1210 C 1074 1224 1082 1240 1090 1256 C 1098 1272 1104 1288 1110 1304 C 1115 1320 1118 1336 1118 1350 C 1118 1371 1112 1388 1101 1400 C 1090 1412 1076 1422 1059 1429 C 1042 1436 1023 1441 1003 1444 C 982 1447 962 1450 944 1454 L 944 1475 L 1417 1475 L 1417 1454 C 1379 1448 1346 1439 1319 1425 C 1291 1411 1266 1393 1243 1371 C 1220 1349 1198 1323 1177 1293 C 1155 1263 1132 1230 1108 1192 C 1096 1175 1082 1154 1065 1128 C 1048 1102 1030 1073 1010 1043 C 990 1013 970 981 949 949 C 928 916 908 885 888 855 C 868 825 850 797 834 771 C 817 745 803 725 793 709 L 793 557 L 1112 559 L 1112 518 L 793 520 L 793 387 L 1112 389 L 1112 348 L 793 350 L 793 297 Z" unicode="¥" />
<glyph horiz-adv-x="539" d="M 207 797 L 207 1606 L 332 1606 L 332 797 L 207 797 Z M 207 -279 L 207 530 L 332 530 L 332 -279 L 207 -279 Z" unicode="¦" />
<glyph horiz-adv-x="958" d="M 854 260 C 850 189 838 124 819 64 C 799 4 775 -50 746 -99 C 717 -147 684 -190 647 -227 C 610 -264 572 -295 533 -321 C 493 -346 454 -365 414 -378 C 374 -390 337 -397 303 -397 C 267 -397 235 -392 208 -383 C 181 -373 159 -361 142 -345 C 124 -329 111 -310 103 -290 C 94 -269 90 -247 90 -225 C 90 -205 93 -188 101 -174 C 108 -160 117 -148 129 -139 C 140 -129 153 -122 168 -118 C 182 -113 197 -111 211 -111 C 232 -111 250 -115 266 -123 C 281 -131 295 -141 307 -153 C 319 -165 329 -179 338 -195 C 347 -211 356 -226 366 -242 C 375 -258 385 -272 395 -286 C 405 -299 418 -310 432 -319 C 446 -317 463 -312 483 -305 C 503 -298 523 -289 542 -277 C 560 -265 576 -250 590 -234 C 603 -218 610 -199 610 -178 C 610 -157 605 -137 595 -119 C 585 -101 572 -83 557 -66 C 542 -48 526 -31 508 -13 C 490 5 473 24 457 45 C 431 75 407 103 385 128 C 363 152 341 177 321 202 C 301 226 281 252 262 280 C 242 307 223 339 205 375 C 175 429 154 481 141 533 C 128 584 123 636 125 690 C 127 754 136 819 154 884 C 171 948 194 1010 222 1070 C 250 1129 282 1184 319 1236 C 355 1287 394 1331 436 1369 C 477 1407 520 1436 564 1458 C 608 1480 651 1491 694 1491 C 718 1491 739 1486 759 1478 C 778 1470 794 1459 808 1446 C 822 1433 832 1418 840 1402 C 847 1385 851 1368 852 1352 C 852 1326 849 1303 843 1285 C 836 1266 827 1251 815 1239 C 803 1227 789 1218 773 1212 C 757 1206 739 1204 721 1204 C 700 1204 682 1208 666 1217 C 650 1226 637 1238 625 1252 C 613 1266 602 1281 593 1297 C 584 1313 576 1329 569 1343 C 559 1344 551 1345 544 1346 C 537 1347 529 1348 520 1348 C 500 1348 481 1344 462 1336 C 443 1328 426 1317 411 1304 C 396 1290 384 1275 374 1258 C 364 1240 360 1222 360 1204 C 360 1177 365 1153 375 1132 C 385 1111 398 1091 414 1072 C 430 1053 447 1034 467 1014 C 487 994 506 973 526 950 C 548 923 568 899 587 877 C 605 855 623 834 641 813 C 659 791 676 769 693 747 C 710 724 728 698 748 670 C 788 607 817 540 834 469 C 851 397 858 328 854 260 Z M 774 111 C 772 143 767 171 760 196 C 753 221 744 245 732 268 C 720 291 707 314 692 337 C 677 360 661 386 643 414 C 612 462 575 514 532 570 C 489 626 443 686 395 750 C 359 796 329 840 307 884 C 284 927 267 974 256 1026 L 240 1026 C 228 996 220 968 215 942 C 210 916 209 886 213 854 C 216 816 228 773 248 725 C 268 677 294 630 326 582 C 348 549 369 519 390 493 C 410 466 431 440 453 414 C 474 388 496 362 519 335 C 541 308 566 278 592 244 C 610 218 627 194 642 172 C 657 149 670 126 681 104 C 692 82 701 59 708 36 C 714 12 719 -12 723 -39 L 739 -39 C 743 -33 747 -24 752 -14 C 756 -3 760 8 764 22 C 768 35 770 49 772 65 C 774 80 774 95 774 111 Z" unicode="§" />
<glyph horiz-adv-x="1024" d="M 819 1206 C 819 1190 815 1174 809 1160 C 803 1145 794 1132 783 1121 C 772 1110 759 1101 745 1095 C 731 1088 716 1085 700 1085 C 684 1085 669 1088 655 1095 C 641 1101 628 1110 617 1122 C 606 1133 597 1146 591 1160 C 585 1174 582 1190 582 1206 C 582 1222 585 1238 591 1252 C 597 1266 606 1279 617 1290 C 627 1300 640 1308 654 1314 C 668 1320 684 1323 700 1323 C 716 1323 732 1320 746 1314 C 760 1308 773 1300 784 1290 C 794 1279 803 1266 809 1252 C 815 1238 819 1222 819 1206 Z M 444 1206 C 444 1190 440 1174 434 1160 C 428 1145 419 1132 408 1121 C 397 1110 385 1101 371 1095 C 357 1088 342 1085 326 1085 C 310 1085 294 1088 280 1095 C 266 1101 253 1110 242 1122 C 231 1133 222 1146 216 1160 C 210 1174 207 1190 207 1206 C 207 1222 210 1238 216 1252 C 222 1266 231 1279 242 1290 C 252 1300 265 1308 279 1314 C 293 1320 309 1323 326 1323 C 342 1323 357 1320 371 1314 C 385 1308 398 1300 409 1290 C 419 1279 428 1266 434 1252 C 440 1238 444 1222 444 1206 Z" unicode="¨" />
<glyph horiz-adv-x="1968" d="M 1767 733 C 1767 661 1757 591 1739 525 C 1720 458 1694 396 1660 338 C 1626 280 1585 227 1538 179 C 1490 131 1438 90 1380 56 C 1322 22 1259 -4 1193 -23 C 1126 -41 1057 -51 985 -51 C 913 -51 843 -41 777 -23 C 710 -4 648 22 590 56 C 532 90 479 131 431 179 C 383 227 342 280 308 338 C 274 396 247 458 229 525 C 210 591 201 661 201 733 C 201 805 210 874 229 941 C 247 1007 274 1070 308 1128 C 342 1186 383 1239 431 1287 C 479 1335 532 1376 590 1410 C 648 1444 710 1471 777 1490 C 843 1508 913 1518 985 1518 C 1057 1518 1126 1508 1193 1490 C 1259 1471 1322 1444 1380 1410 C 1438 1376 1490 1335 1538 1287 C 1585 1239 1626 1186 1660 1128 C 1694 1070 1720 1007 1739 941 C 1757 874 1767 805 1767 733 Z M 1704 733 C 1704 799 1695 863 1678 925 C 1661 987 1637 1044 1606 1098 C 1575 1151 1538 1199 1494 1243 C 1450 1287 1402 1324 1349 1356 C 1295 1387 1238 1411 1177 1428 C 1115 1445 1051 1454 985 1454 C 918 1454 854 1445 792 1428 C 730 1411 673 1387 620 1356 C 566 1324 518 1287 474 1243 C 430 1199 393 1151 362 1098 C 330 1044 306 987 289 925 C 272 863 264 799 264 733 C 264 666 272 602 289 540 C 306 478 330 421 362 367 C 393 313 430 265 474 221 C 518 177 566 139 620 108 C 673 76 730 52 792 35 C 854 18 918 10 985 10 C 1051 10 1115 18 1177 35 C 1238 52 1295 76 1349 108 C 1402 139 1450 177 1494 221 C 1538 265 1575 313 1606 367 C 1637 421 1661 478 1678 540 C 1695 602 1704 666 1704 733 Z M 1374 272 L 1356 272 C 1350 279 1344 287 1338 295 C 1332 303 1327 310 1322 317 C 1316 323 1311 329 1307 333 C 1303 337 1300 340 1298 340 C 1296 340 1289 335 1277 327 C 1264 318 1246 309 1222 299 C 1198 289 1168 279 1134 271 C 1100 262 1061 258 1018 258 C 934 258 859 270 795 294 C 730 318 676 351 632 394 C 588 436 554 487 532 545 C 509 603 498 667 498 737 C 498 751 498 768 500 788 C 502 807 505 828 511 850 C 516 872 524 895 534 920 C 544 944 557 969 573 995 C 592 1025 615 1053 642 1081 C 669 1108 701 1132 737 1153 C 773 1173 815 1190 861 1202 C 907 1214 958 1221 1016 1221 C 1060 1221 1100 1216 1134 1208 C 1168 1199 1198 1190 1222 1180 C 1246 1170 1264 1160 1278 1152 C 1291 1143 1298 1139 1300 1139 C 1302 1139 1305 1141 1310 1145 C 1315 1149 1320 1154 1326 1160 C 1332 1166 1338 1172 1344 1179 C 1350 1186 1356 1193 1362 1200 L 1380 1200 L 1380 877 L 1358 877 C 1352 900 1343 925 1333 951 C 1323 977 1313 998 1303 1016 C 1287 1039 1270 1061 1251 1082 C 1232 1103 1211 1122 1188 1138 C 1164 1154 1139 1166 1111 1176 C 1083 1185 1052 1190 1020 1190 C 962 1190 913 1176 871 1150 C 829 1123 794 1088 766 1045 C 738 1001 718 952 704 897 C 690 842 684 787 684 731 C 684 671 691 615 706 562 C 720 508 742 462 771 422 C 799 382 835 350 877 326 C 919 302 967 291 1022 291 C 1069 291 1112 300 1150 318 C 1188 336 1221 360 1249 390 C 1277 420 1300 453 1318 490 C 1336 527 1350 564 1358 602 L 1380 602 L 1374 272 Z" unicode="©" />
<glyph horiz-adv-x="578" d="M 588 1106 C 587 1092 583 1078 577 1064 C 571 1049 562 1035 551 1023 C 539 1011 525 1001 509 993 C 492 985 473 981 453 981 C 419 981 393 989 373 1007 C 353 1024 342 1049 340 1081 L 336 1081 C 330 1068 321 1056 311 1044 C 301 1032 289 1021 275 1012 C 261 1002 245 995 228 989 C 210 983 192 981 174 981 C 162 981 149 983 137 987 C 125 991 114 998 104 1006 C 94 1014 87 1025 81 1038 C 75 1051 72 1067 72 1085 C 72 1104 79 1124 95 1144 C 110 1164 130 1180 154 1194 C 200 1219 238 1238 268 1251 C 298 1263 321 1274 336 1282 L 336 1360 C 332 1380 323 1398 309 1414 C 294 1429 277 1438 258 1442 C 237 1438 224 1431 219 1421 C 213 1410 211 1401 211 1393 L 211 1313 C 211 1303 203 1294 187 1285 C 171 1276 152 1272 129 1272 C 111 1272 96 1276 84 1286 C 72 1296 66 1307 66 1321 C 66 1341 71 1357 83 1369 C 94 1381 108 1392 125 1403 C 141 1413 160 1423 182 1433 C 204 1443 225 1453 247 1461 C 269 1469 289 1475 307 1480 C 325 1485 340 1488 350 1489 C 362 1487 374 1485 386 1483 C 398 1481 409 1477 421 1472 C 432 1466 442 1459 452 1451 C 461 1443 469 1433 475 1421 C 478 1415 480 1406 480 1394 C 480 1382 481 1370 481 1358 C 481 1334 480 1313 480 1297 C 480 1280 480 1264 480 1249 C 480 1234 479 1218 479 1202 C 479 1186 479 1166 479 1143 C 479 1113 483 1093 492 1083 C 501 1073 512 1069 526 1069 C 537 1069 547 1072 555 1080 C 563 1088 569 1096 573 1106 L 588 1106 Z M 336 1253 C 322 1245 308 1237 294 1229 C 280 1221 267 1212 255 1202 C 243 1192 234 1182 226 1170 C 218 1158 215 1144 215 1130 C 215 1112 220 1100 232 1092 C 243 1084 256 1081 272 1081 C 276 1081 282 1081 288 1083 C 294 1084 299 1086 305 1088 C 311 1090 316 1092 321 1094 C 325 1096 328 1099 330 1102 C 334 1108 336 1116 336 1128 L 336 1253 Z" unicode="ª" />
<glyph horiz-adv-x="866" d="M 778 172 L 375 518 L 375 528 L 778 874 L 791 864 L 635 524 L 793 182 L 778 172 Z M 451 186 L 47 518 L 47 528 L 451 860 L 463 850 L 307 524 L 465 197 L 451 186 Z" unicode="«" />
<glyph horiz-adv-x="1434" d="M 1079 317 L 1079 739 L 252 739 L 252 819 L 1167 819 L 1167 317 L 1079 317 Z" unicode="¬" />
<glyph horiz-adv-x="553" d="M 39 424 L 39 641 L 512 641 L 512 424 L 39 424 Z" unicode="­" />
<glyph horiz-adv-x="1053" d="M 963 1217 C 963 1157 951 1100 928 1048 C 905 995 874 949 835 909 C 795 869 749 838 696 816 C 643 793 586 782 526 782 C 466 782 409 793 357 816 C 304 838 258 869 218 909 C 178 949 147 995 124 1048 C 101 1100 90 1157 90 1217 C 90 1277 101 1333 124 1386 C 147 1439 178 1485 218 1524 C 258 1563 304 1594 357 1617 C 409 1639 466 1651 526 1651 C 586 1651 643 1639 696 1617 C 749 1594 795 1563 835 1524 C 874 1485 905 1439 928 1386 C 951 1333 963 1277 963 1217 Z M 924 1217 C 924 1271 913 1322 892 1370 C 871 1418 842 1461 806 1497 C 770 1533 727 1561 679 1582 C 631 1603 580 1614 526 1614 C 472 1614 421 1603 373 1582 C 325 1561 283 1533 247 1497 C 211 1461 182 1418 162 1370 C 141 1322 131 1271 131 1217 C 131 1161 141 1109 162 1061 C 182 1013 211 971 247 935 C 283 899 325 870 373 850 C 421 829 472 819 526 819 C 590 819 650 833 706 861 C 762 889 808 927 846 975 L 696 975 C 692 979 690 983 688 986 C 686 988 684 991 682 995 C 680 998 677 1002 673 1008 C 669 1014 664 1022 657 1034 C 649 1046 641 1057 635 1067 C 628 1077 621 1087 615 1097 C 608 1107 601 1117 593 1127 C 585 1137 575 1149 565 1161 C 557 1170 547 1179 536 1188 C 525 1196 515 1202 506 1204 C 497 1206 490 1206 486 1206 C 482 1206 477 1206 471 1206 L 471 1087 C 471 1073 471 1060 472 1048 C 472 1036 475 1027 479 1020 C 483 1014 490 1008 502 1003 C 513 997 528 995 547 995 L 547 975 L 307 975 L 307 995 C 317 995 329 997 342 1001 C 354 1005 364 1010 371 1016 C 376 1022 380 1033 382 1049 C 384 1065 385 1081 385 1096 L 385 1354 C 385 1369 384 1385 382 1401 C 380 1417 377 1429 371 1436 C 363 1442 355 1446 345 1450 C 335 1453 323 1456 311 1458 L 311 1475 C 317 1475 328 1475 345 1475 C 361 1475 380 1476 401 1477 C 421 1477 442 1478 462 1478 C 482 1478 499 1479 512 1479 C 545 1479 574 1477 598 1474 C 622 1471 645 1465 666 1456 C 688 1446 706 1430 718 1410 C 730 1390 737 1366 737 1339 C 737 1323 733 1308 727 1294 C 721 1280 712 1268 701 1258 C 690 1248 677 1239 663 1232 C 649 1225 634 1220 618 1217 L 618 1214 C 625 1208 632 1201 640 1194 C 647 1186 655 1177 664 1167 C 677 1151 691 1133 705 1113 C 719 1093 731 1075 743 1059 C 761 1037 780 1021 798 1011 C 816 1001 836 995 858 993 C 879 1025 895 1060 907 1098 C 918 1136 924 1175 924 1217 Z M 643 1343 C 643 1364 637 1383 627 1401 C 617 1419 601 1433 580 1444 C 569 1449 558 1452 547 1453 C 535 1453 523 1454 510 1454 C 500 1454 493 1454 488 1454 C 483 1454 479 1453 475 1452 C 473 1448 472 1442 472 1435 C 471 1427 471 1416 471 1401 L 471 1229 C 489 1229 506 1229 521 1230 C 536 1230 551 1233 565 1237 C 595 1247 615 1261 626 1280 C 637 1298 643 1319 643 1343 Z" unicode="®" />
<glyph horiz-adv-x="1024" d="M 225 1118 L 225 1292 L 801 1292 L 801 1118 L 225 1118 Z" unicode="¯" />
<glyph horiz-adv-x="836" d="M 707 1196 C 707 1156 699 1119 684 1084 C 669 1049 649 1018 623 992 C 597 966 566 945 530 930 C 494 914 456 907 416 907 C 375 907 337 914 302 929 C 267 944 237 965 211 991 C 185 1017 165 1047 151 1082 C 136 1117 129 1155 129 1196 C 129 1236 136 1274 151 1310 C 166 1345 187 1376 213 1402 C 239 1428 270 1448 305 1463 C 340 1477 378 1485 418 1485 C 458 1485 495 1477 530 1462 C 565 1447 596 1426 622 1400 C 648 1374 669 1343 684 1308 C 699 1273 707 1236 707 1196 Z M 623 1196 C 623 1224 617 1250 607 1276 C 596 1301 581 1323 563 1342 C 544 1360 522 1375 498 1386 C 473 1397 446 1403 418 1403 C 390 1403 363 1397 338 1387 C 312 1376 290 1361 272 1343 C 253 1324 238 1302 227 1277 C 216 1251 211 1224 211 1196 C 211 1166 216 1139 227 1114 C 238 1088 253 1066 272 1047 C 290 1028 312 1013 338 1003 C 363 992 390 987 418 987 C 447 987 474 992 499 1004 C 524 1015 546 1030 564 1049 C 582 1068 597 1090 607 1116 C 617 1141 623 1168 623 1196 Z" unicode="°" />
<glyph horiz-adv-x="1434" d="M 758 698 L 758 276 L 676 276 L 676 698 L 256 698 L 256 778 L 676 778 L 676 1198 L 758 1198 L 758 778 L 1178 778 L 1178 698 L 758 698 Z M 256 0 L 256 80 L 1178 80 L 1178 0 L 256 0 Z" unicode="±" />
<glyph horiz-adv-x="629" d="M 528 807 L 35 807 L 31 821 C 67 844 104 868 142 892 C 179 916 213 941 243 967 C 273 993 298 1019 317 1046 C 336 1072 346 1100 346 1128 C 346 1158 337 1183 319 1205 C 301 1226 273 1237 233 1237 C 211 1237 193 1234 179 1228 C 164 1222 152 1214 142 1205 C 132 1195 125 1185 119 1175 C 113 1164 109 1154 106 1145 L 86 1145 C 84 1163 87 1183 94 1207 C 100 1231 113 1253 131 1274 C 149 1295 173 1313 204 1328 C 234 1342 273 1350 319 1350 C 345 1350 371 1346 395 1340 C 419 1334 441 1325 459 1313 C 477 1301 492 1286 503 1270 C 514 1253 520 1234 520 1214 C 520 1198 518 1181 516 1165 C 513 1148 507 1133 498 1120 C 484 1100 468 1083 448 1067 C 428 1051 407 1035 384 1021 C 361 1007 337 993 313 979 C 288 965 264 950 242 936 L 469 936 C 490 936 508 937 523 941 C 537 945 549 949 559 955 C 568 961 576 967 582 975 C 588 983 593 991 598 999 L 618 993 L 528 807 Z" unicode="²" />
<glyph horiz-adv-x="649" d="M 604 838 C 604 799 593 765 573 735 C 553 705 526 681 493 661 C 460 641 423 625 382 615 C 340 605 298 600 256 600 C 220 600 187 602 159 608 C 130 614 106 621 86 631 C 66 641 50 652 39 666 C 28 680 23 695 23 711 C 23 721 25 731 31 742 C 37 753 45 763 56 771 C 66 779 80 786 96 791 C 112 795 130 797 152 795 C 156 781 160 764 165 745 C 170 726 177 708 187 691 C 197 674 210 660 227 648 C 243 636 265 631 293 631 C 297 631 305 633 319 637 C 332 641 346 649 360 661 C 374 672 387 687 399 706 C 410 724 416 748 416 778 C 416 800 411 821 401 841 C 391 860 378 877 362 892 C 346 906 327 918 305 928 C 283 938 261 944 238 948 L 236 961 C 261 977 282 991 299 1005 C 316 1018 330 1031 340 1045 C 350 1058 358 1072 362 1087 C 366 1102 369 1119 369 1139 C 369 1151 366 1163 360 1175 C 354 1186 347 1196 337 1205 C 327 1213 316 1220 302 1225 C 288 1230 274 1233 258 1233 C 240 1233 223 1231 206 1228 C 189 1225 173 1220 159 1213 C 144 1206 131 1197 119 1186 C 107 1174 98 1160 92 1143 L 74 1143 C 75 1177 83 1206 97 1232 C 111 1258 129 1279 152 1297 C 174 1314 200 1327 229 1336 C 257 1345 287 1350 319 1350 C 354 1350 386 1346 416 1339 C 445 1331 470 1321 491 1307 C 512 1293 528 1277 540 1258 C 551 1239 557 1218 557 1196 C 557 1188 556 1178 555 1168 C 553 1158 550 1148 545 1139 C 530 1118 508 1100 479 1084 C 450 1068 416 1053 377 1040 C 447 1026 502 1001 543 965 C 583 929 604 887 604 838 Z" unicode="³" />
<glyph horiz-adv-x="1024" d="M 463 1073 L 442 1085 L 655 1446 C 695 1440 730 1424 760 1396 C 790 1368 813 1333 829 1290 L 829 1280 L 463 1073 Z" unicode="´" />
<glyph horiz-adv-x="1290" d="M 1266 377 C 1266 303 1259 241 1246 193 C 1232 145 1213 104 1188 72 C 1163 40 1137 18 1110 7 C 1082 -4 1054 -10 1026 -10 C 996 -10 971 -4 952 6 C 933 17 918 32 907 52 C 895 71 887 93 883 119 C 879 145 877 173 877 203 C 877 209 877 216 878 224 C 878 232 879 240 880 249 C 881 257 882 265 883 273 C 884 281 885 287 887 293 L 881 293 C 861 245 838 202 810 164 C 782 126 752 94 718 68 C 684 42 647 22 608 8 C 569 -5 529 -12 487 -12 C 449 -12 415 -5 387 8 C 358 21 334 40 315 64 C 296 88 282 117 272 151 C 262 185 258 222 258 264 C 258 276 258 289 260 302 C 262 315 264 329 266 344 L 248 344 C 232 305 219 265 208 225 C 196 185 186 145 178 106 C 170 66 163 28 157 -8 C 151 -45 147 -79 143 -110 C 139 -141 137 -168 135 -192 C 133 -216 131 -234 131 -248 C 132 -260 135 -273 140 -288 C 145 -302 150 -317 156 -331 C 161 -345 166 -359 170 -371 C 174 -383 176 -393 176 -401 C 176 -418 173 -433 167 -447 C 161 -460 153 -471 144 -480 C 134 -489 124 -496 112 -501 C 100 -505 89 -508 78 -508 C 67 -508 56 -506 45 -502 C 33 -498 23 -492 14 -484 C 4 -475 -3 -463 -9 -449 C -15 -434 -18 -416 -18 -395 C -18 -374 -16 -353 -14 -333 C -11 -313 -7 -290 -1 -265 C 5 -239 12 -210 22 -177 C 31 -143 43 -103 57 -55 C 71 -8 87 39 105 89 C 123 139 140 186 157 230 C 174 274 189 313 201 347 C 213 381 221 406 225 422 C 227 430 228 447 230 472 C 231 497 232 526 234 560 C 236 593 238 628 241 665 C 244 702 248 737 254 770 C 258 797 263 824 270 850 C 277 876 287 900 300 920 C 312 940 329 957 349 970 C 369 982 394 989 424 989 C 450 989 471 982 487 970 C 502 958 512 941 517 921 C 522 900 522 876 518 849 C 514 822 506 794 494 764 C 482 734 468 706 454 680 C 440 654 426 630 412 606 C 398 582 384 559 372 535 C 359 511 348 485 340 459 C 336 450 333 440 330 430 C 326 420 323 409 321 399 C 318 389 316 379 314 370 C 312 360 311 352 311 346 C 311 322 314 301 322 283 C 330 264 341 248 357 236 C 372 223 391 214 415 208 C 438 202 466 200 498 203 C 532 205 564 216 596 236 C 627 256 656 282 683 314 C 710 346 734 382 755 423 C 776 463 793 506 807 551 C 808 555 810 567 813 587 C 816 607 819 630 823 656 C 826 682 830 708 834 735 C 838 761 842 784 846 803 C 849 821 853 841 859 863 C 865 885 873 905 884 923 C 894 941 908 957 925 969 C 942 981 964 987 991 987 C 1023 987 1046 978 1061 962 C 1075 946 1085 926 1089 902 C 1093 878 1094 854 1091 829 C 1087 803 1083 782 1079 764 C 1063 704 1045 649 1027 599 C 1008 548 991 503 975 464 C 959 425 945 393 934 368 C 923 343 918 327 918 319 C 918 293 921 272 928 254 C 934 236 943 222 955 212 C 966 201 979 193 994 189 C 1008 184 1024 182 1040 182 C 1094 182 1138 199 1174 233 C 1209 267 1233 315 1245 377 L 1266 377 Z" unicode="µ" />
<glyph horiz-adv-x="1085" d="M 1016 1452 C 1012 1452 1001 1450 983 1448 C 965 1446 945 1441 925 1433 C 905 1425 886 1413 870 1397 C 854 1381 846 1360 846 1333 L 846 135 C 846 88 841 42 831 -3 C 821 -48 806 -91 786 -131 C 766 -171 741 -209 712 -243 C 682 -277 648 -306 609 -331 C 569 -355 525 -375 477 -389 C 429 -403 376 -410 319 -410 C 289 -410 262 -406 236 -399 C 210 -392 187 -382 168 -368 C 148 -354 133 -336 121 -316 C 109 -295 104 -271 104 -244 C 104 -228 107 -212 114 -197 C 120 -181 130 -168 142 -156 C 154 -144 168 -135 184 -128 C 200 -120 217 -117 236 -117 C 254 -117 270 -119 286 -125 C 301 -130 314 -137 326 -147 C 337 -156 346 -167 352 -180 C 358 -192 362 -206 362 -221 C 362 -246 357 -265 349 -279 C 341 -293 333 -303 326 -309 C 336 -326 351 -338 371 -344 C 391 -350 412 -354 436 -354 C 488 -354 533 -340 572 -314 C 611 -287 644 -250 670 -204 C 696 -158 716 -104 730 -42 C 743 20 750 86 750 156 L 750 477 L 674 477 C 599 477 528 487 461 508 C 394 528 335 559 285 601 C 235 643 195 695 165 758 C 135 821 121 895 121 981 C 121 1057 135 1125 163 1187 C 191 1248 232 1300 286 1343 C 340 1386 406 1419 485 1442 C 564 1465 655 1477 758 1477 C 776 1477 796 1476 820 1476 C 843 1476 867 1476 891 1476 C 915 1476 938 1475 960 1475 C 982 1475 1000 1475 1016 1475 L 1016 1452 Z" unicode="¶" />
<glyph horiz-adv-x="524" d="M 422 555 C 422 533 417 512 409 493 C 401 473 389 456 375 442 C 360 427 343 415 324 407 C 304 399 284 395 262 395 C 240 395 219 399 200 407 C 180 415 163 427 149 442 C 134 456 122 473 114 493 C 106 512 102 533 102 555 C 102 577 106 597 114 617 C 122 636 134 653 149 668 C 163 682 180 694 200 702 C 219 710 240 715 262 715 C 284 715 304 710 324 702 C 343 694 360 682 375 668 C 389 653 401 636 409 617 C 417 597 422 577 422 555 Z" unicode="·" />
<glyph horiz-adv-x="1024" d="M 711 -283 C 711 -317 702 -346 686 -371 C 669 -396 648 -417 624 -433 C 599 -449 573 -461 545 -469 C 517 -477 491 -481 469 -481 C 417 -481 374 -471 342 -452 C 309 -433 293 -407 293 -373 C 293 -366 294 -358 298 -350 C 302 -341 307 -333 314 -326 C 320 -318 329 -312 339 -307 C 349 -301 360 -299 373 -299 C 390 -299 405 -302 418 -309 C 430 -315 440 -322 446 -330 C 444 -339 443 -348 442 -356 C 440 -364 440 -371 440 -377 C 440 -399 443 -418 449 -433 C 455 -447 467 -455 485 -455 C 511 -455 530 -444 544 -423 C 558 -401 565 -371 565 -332 C 565 -294 550 -262 520 -234 C 490 -206 447 -185 391 -172 L 565 12 L 600 12 L 516 -80 C 562 -88 599 -101 625 -120 C 651 -139 670 -159 683 -180 C 695 -201 703 -221 706 -240 C 709 -259 711 -273 711 -283 Z" unicode="¸" />
<glyph horiz-adv-x="451" d="M 12 807 L 12 829 C 26 829 40 831 55 834 C 69 837 82 842 94 848 C 106 854 115 861 123 869 C 131 877 135 887 135 899 L 135 1247 C 135 1259 130 1269 122 1277 C 114 1285 103 1292 91 1298 C 78 1303 64 1307 49 1310 C 34 1312 20 1314 6 1315 L 6 1337 L 444 1337 L 444 1315 C 430 1314 416 1312 401 1309 C 386 1306 372 1302 359 1296 C 346 1290 335 1283 327 1275 C 319 1267 315 1257 315 1245 L 315 897 C 315 884 319 873 328 865 C 336 856 347 849 360 844 C 373 839 387 835 402 833 C 417 831 431 829 444 829 L 444 807 L 12 807 Z" unicode="¹" />
<glyph horiz-adv-x="614" d="M 575 1237 C 575 1201 567 1167 553 1137 C 539 1106 519 1079 495 1056 C 470 1033 441 1015 409 1002 C 377 989 343 983 307 983 C 279 983 250 988 219 998 C 187 1008 158 1023 132 1044 C 105 1065 83 1092 65 1124 C 47 1156 39 1193 39 1237 C 39 1269 45 1301 59 1331 C 73 1361 92 1388 116 1412 C 140 1435 169 1454 202 1468 C 235 1482 271 1489 309 1489 C 338 1489 368 1483 400 1473 C 431 1463 460 1447 486 1426 C 512 1405 533 1379 550 1348 C 566 1316 575 1279 575 1237 Z M 420 1237 C 420 1267 418 1296 414 1324 C 410 1351 404 1375 395 1395 C 386 1415 374 1432 360 1444 C 345 1456 327 1462 305 1462 C 287 1462 271 1456 257 1444 C 243 1432 232 1416 223 1396 C 213 1376 206 1352 202 1324 C 197 1296 195 1267 195 1235 C 195 1203 197 1173 201 1145 C 205 1117 211 1094 220 1074 C 229 1054 241 1038 256 1027 C 271 1015 289 1010 311 1010 C 331 1010 348 1016 362 1030 C 376 1043 387 1060 396 1082 C 404 1103 410 1127 414 1154 C 418 1181 420 1209 420 1237 Z" unicode="º" />
<glyph horiz-adv-x="866" d="M 416 184 L 403 195 L 559 520 L 401 848 L 416 858 L 819 526 L 819 516 L 416 184 Z M 88 170 L 76 180 L 231 520 L 74 862 L 88 872 L 492 526 L 492 516 L 88 170 Z" unicode="»" />
<glyph horiz-adv-x="1024" d="M 303 680 L 303 702 C 317 702 331 704 345 708 C 359 711 373 715 385 721 C 397 727 406 734 414 742 C 422 750 426 760 426 772 L 426 1321 C 426 1333 421 1343 413 1351 C 405 1359 394 1365 382 1371 C 369 1377 355 1381 340 1384 C 325 1386 311 1388 297 1389 L 297 1411 L 756 1411 L 756 1389 C 742 1388 728 1386 713 1383 C 697 1380 683 1376 671 1370 C 658 1364 647 1357 639 1349 C 631 1341 627 1331 627 1319 L 627 770 C 627 757 631 746 640 738 C 648 730 659 723 672 718 C 685 712 699 708 714 706 C 729 704 743 702 756 702 L 756 680 L 303 680 Z M 958 578 L 958 489 L 74 489 L 74 578 L 958 578 Z M 709 -180 L 709 -397 L 518 -397 L 518 -180 L 129 -180 L 121 -156 L 193 -59 L 637 424 L 709 424 L 709 -63 L 860 -63 L 860 -180 L 709 -180 Z M 518 250 L 229 -63 L 518 -63 L 518 250 Z" unicode="¼" />
<glyph horiz-adv-x="1024" d="M 813 -358 L 252 -358 L 248 -338 C 288 -306 329 -272 371 -238 C 413 -203 450 -167 483 -131 C 516 -95 543 -58 564 -20 C 585 17 596 55 596 94 C 596 115 593 135 587 154 C 581 172 572 189 560 203 C 548 217 533 228 515 236 C 497 244 475 248 451 248 C 426 248 403 244 382 236 C 360 228 341 218 323 206 C 305 194 289 180 275 165 C 261 150 250 135 240 121 L 217 135 C 229 162 245 191 264 222 C 283 253 306 282 334 309 C 361 335 394 357 432 375 C 470 392 514 401 565 401 C 595 401 623 396 650 387 C 676 378 700 365 720 349 C 740 333 756 313 768 291 C 780 268 786 243 786 215 C 786 173 776 133 756 97 C 736 60 711 25 681 -7 C 651 -40 617 -71 580 -101 C 543 -131 507 -160 473 -188 L 733 -188 C 756 -188 776 -185 792 -181 C 808 -176 821 -170 832 -162 C 842 -154 851 -144 858 -134 C 864 -124 871 -113 877 -102 L 899 -111 L 813 -358 Z M 303 680 L 303 702 C 317 702 331 704 345 708 C 359 711 373 715 385 721 C 397 727 406 734 414 742 C 422 750 426 760 426 772 L 426 1321 C 426 1333 421 1343 413 1351 C 405 1359 394 1365 382 1371 C 369 1377 355 1381 340 1384 C 325 1386 311 1388 297 1389 L 297 1411 L 756 1411 L 756 1389 C 742 1388 728 1386 713 1383 C 697 1380 683 1376 671 1370 C 658 1364 647 1357 639 1349 C 631 1341 627 1331 627 1319 L 627 770 C 627 757 631 746 640 738 C 648 730 659 723 672 718 C 685 712 699 708 714 706 C 729 704 743 702 756 702 L 756 680 L 303 680 Z M 958 578 L 958 489 L 74 489 L 74 578 L 958 578 Z" unicode="½" />
<glyph horiz-adv-x="1024" d="M 858 907 C 858 865 847 829 825 798 C 803 767 775 741 741 720 C 706 699 667 683 624 673 C 580 662 537 657 494 657 C 418 657 359 668 316 690 C 273 712 252 740 252 774 C 252 784 254 795 260 807 C 266 819 274 829 286 838 C 297 847 311 854 328 859 C 344 864 363 866 385 864 C 389 849 393 832 398 812 C 403 792 411 773 421 755 C 431 737 445 721 462 709 C 479 696 502 690 530 690 C 534 690 543 692 557 697 C 571 701 586 709 602 721 C 618 732 632 748 644 768 C 656 788 662 813 662 844 C 662 868 656 891 646 911 C 635 931 621 949 604 965 C 586 981 566 994 544 1004 C 521 1014 497 1020 473 1024 L 471 1038 C 497 1054 519 1070 537 1084 C 555 1098 569 1113 579 1128 C 589 1142 597 1157 601 1173 C 605 1189 608 1207 608 1227 C 608 1241 605 1254 599 1266 C 593 1278 586 1288 576 1297 C 566 1306 554 1313 540 1319 C 526 1324 512 1327 496 1327 C 478 1327 460 1325 442 1322 C 424 1319 408 1314 393 1307 C 378 1300 364 1290 352 1278 C 340 1265 330 1249 324 1231 L 305 1233 C 306 1269 314 1300 329 1327 C 343 1354 362 1377 386 1396 C 409 1414 436 1428 466 1438 C 496 1447 527 1452 559 1452 C 595 1452 629 1448 659 1440 C 689 1432 714 1420 736 1406 C 757 1392 773 1375 785 1355 C 797 1335 803 1312 803 1288 C 803 1267 798 1249 789 1233 C 780 1217 767 1202 751 1189 C 735 1175 715 1163 692 1153 C 669 1142 644 1132 616 1122 C 652 1114 684 1104 714 1090 C 744 1076 769 1060 791 1042 C 812 1024 828 1003 840 980 C 852 957 858 933 858 907 Z M 74 489 L 74 578 L 958 578 L 958 489 L 74 489 Z M 709 -180 L 709 -397 L 518 -397 L 518 -180 L 129 -180 L 121 -156 L 193 -59 L 637 424 L 709 424 L 709 -63 L 860 -63 L 860 -180 L 709 -180 Z M 518 250 L 229 -63 L 518 -63 L 518 250 Z" unicode="¾" />
<glyph horiz-adv-x="743" d="M 698 1339 C 698 1316 693 1295 685 1277 C 677 1259 666 1243 652 1230 C 638 1217 621 1207 603 1200 C 585 1193 565 1190 545 1190 C 524 1190 504 1193 486 1201 C 468 1209 452 1219 438 1233 C 424 1247 413 1263 405 1281 C 397 1299 393 1318 393 1339 C 393 1360 397 1380 405 1398 C 413 1416 424 1432 438 1446 C 452 1459 468 1469 486 1477 C 504 1485 524 1489 545 1489 C 565 1489 585 1485 603 1478 C 621 1471 638 1461 652 1448 C 666 1435 677 1419 685 1401 C 693 1383 698 1362 698 1339 Z M 547 -8 L 547 63 C 516 63 487 64 459 66 C 431 68 404 73 378 79 C 352 85 328 95 304 107 C 280 119 258 136 236 156 C 208 180 185 209 168 243 C 151 277 138 312 130 349 C 121 386 115 423 113 461 C 110 499 109 534 109 567 C 109 593 110 621 113 653 C 116 684 121 715 127 745 C 133 775 142 802 152 828 C 162 854 174 874 188 889 C 213 913 238 932 263 946 C 287 960 313 971 341 979 C 369 987 399 993 432 998 C 464 1003 501 1009 543 1016 L 543 1137 L 580 1137 L 580 723 C 540 717 499 711 458 705 C 417 699 378 692 340 684 C 308 676 280 668 256 659 C 232 650 213 639 197 626 C 181 613 170 598 162 580 C 154 562 150 542 150 518 C 150 484 158 457 175 437 C 191 417 213 401 240 391 C 266 380 296 373 330 370 C 363 366 396 365 430 365 C 456 365 483 367 510 371 C 536 375 560 379 582 381 L 582 -8 L 547 -8 Z" unicode="¿" />
<glyph horiz-adv-x="1430" d="M 821 0 L 821 20 C 835 22 852 24 871 27 C 889 29 907 34 924 41 C 941 47 955 56 967 68 C 979 80 985 95 985 115 C 985 127 981 146 974 173 C 966 200 956 233 944 272 C 931 310 916 354 899 402 C 881 450 862 501 842 555 L 330 555 C 320 529 310 505 300 482 C 290 458 281 435 272 413 C 262 390 253 367 244 344 C 235 321 226 298 217 274 C 202 237 191 205 184 179 C 177 152 174 132 174 119 C 174 101 179 86 190 74 C 201 62 215 53 232 46 C 248 38 267 33 287 29 C 307 25 326 22 344 20 L 344 0 L -96 0 L -96 23 C -78 25 -61 28 -45 34 C -29 39 -15 45 -3 51 C 9 57 20 63 28 69 C 36 75 41 79 43 82 C 52 91 67 113 89 149 C 111 184 138 237 170 307 C 199 371 230 442 264 518 C 297 594 331 673 366 755 C 400 837 435 919 470 1002 C 505 1084 539 1164 571 1241 L 539 1315 C 563 1323 588 1335 613 1350 C 638 1364 662 1380 684 1398 C 706 1416 727 1434 746 1452 C 764 1470 780 1487 793 1503 L 809 1503 L 1239 352 C 1247 330 1254 311 1261 295 C 1267 278 1274 262 1281 246 C 1287 230 1294 215 1302 200 C 1309 185 1317 169 1325 152 C 1327 146 1333 136 1343 122 C 1352 108 1365 95 1381 81 C 1397 67 1416 54 1440 43 C 1463 31 1490 25 1522 25 L 1522 0 L 821 0 Z M 825 598 C 804 651 783 705 762 761 C 740 817 719 871 699 923 C 679 975 660 1025 642 1071 C 624 1117 608 1158 594 1192 C 582 1166 568 1133 552 1093 C 535 1053 516 1007 495 956 C 473 905 450 849 426 789 C 401 728 375 664 348 598 L 825 598 Z M 864 1559 L 436 1745 L 436 1755 C 451 1798 474 1833 504 1861 C 534 1889 570 1905 610 1911 L 884 1571 L 864 1559 Z" unicode="À" />
<glyph horiz-adv-x="1430" d="M 821 0 L 821 20 C 835 22 852 24 871 27 C 889 29 907 34 924 41 C 941 47 955 56 967 68 C 979 80 985 95 985 115 C 985 127 981 146 974 173 C 966 200 956 233 944 272 C 931 310 916 354 899 402 C 881 450 862 501 842 555 L 330 555 C 320 529 310 505 300 482 C 290 458 281 435 272 413 C 262 390 253 367 244 344 C 235 321 226 298 217 274 C 202 237 191 205 184 179 C 177 152 174 132 174 119 C 174 101 179 86 190 74 C 201 62 215 53 232 46 C 248 38 267 33 287 29 C 307 25 326 22 344 20 L 344 0 L -96 0 L -96 23 C -78 25 -61 28 -45 34 C -29 39 -15 45 -3 51 C 9 57 20 63 28 69 C 36 75 41 79 43 82 C 52 91 67 113 89 149 C 111 184 138 237 170 307 C 199 371 230 442 264 518 C 297 594 331 673 366 755 C 400 837 435 919 470 1002 C 505 1084 539 1164 571 1241 L 539 1315 C 563 1323 588 1335 613 1350 C 638 1364 662 1380 684 1398 C 706 1416 727 1434 746 1452 C 764 1470 780 1487 793 1503 L 809 1503 L 1239 352 C 1247 330 1254 311 1261 295 C 1267 278 1274 262 1281 246 C 1287 230 1294 215 1302 200 C 1309 185 1317 169 1325 152 C 1327 146 1333 136 1343 122 C 1352 108 1365 95 1381 81 C 1397 67 1416 54 1440 43 C 1463 31 1490 25 1522 25 L 1522 0 L 821 0 Z M 825 598 C 804 651 783 705 762 761 C 740 817 719 871 699 923 C 679 975 660 1025 642 1071 C 624 1117 608 1158 594 1192 C 582 1166 568 1133 552 1093 C 535 1053 516 1007 495 956 C 473 905 450 849 426 789 C 401 728 375 664 348 598 L 825 598 Z M 607 1559 L 587 1571 L 861 1911 C 901 1905 936 1889 966 1861 C 996 1833 1019 1798 1035 1755 L 1035 1745 L 607 1559 Z" unicode="Á" />
<glyph horiz-adv-x="1430" d="M 821 0 L 821 20 C 835 22 852 24 871 27 C 889 29 907 34 924 41 C 941 47 955 56 967 68 C 979 80 985 95 985 115 C 985 127 981 146 974 173 C 966 200 956 233 944 272 C 931 310 916 354 899 402 C 881 450 862 501 842 555 L 330 555 C 320 529 310 505 300 482 C 290 458 281 435 272 413 C 262 390 253 367 244 344 C 235 321 226 298 217 274 C 202 237 191 205 184 179 C 177 152 174 132 174 119 C 174 101 179 86 190 74 C 201 62 215 53 232 46 C 248 38 267 33 287 29 C 307 25 326 22 344 20 L 344 0 L -96 0 L -96 23 C -78 25 -61 28 -45 34 C -29 39 -15 45 -3 51 C 9 57 20 63 28 69 C 36 75 41 79 43 82 C 52 91 67 113 89 149 C 111 184 138 237 170 307 C 199 371 230 442 264 518 C 297 594 331 673 366 755 C 400 837 435 919 470 1002 C 505 1084 539 1164 571 1241 L 539 1315 C 563 1323 588 1335 613 1350 C 638 1364 662 1380 684 1398 C 706 1416 727 1434 746 1452 C 764 1470 780 1487 793 1503 L 809 1503 L 1239 352 C 1247 330 1254 311 1261 295 C 1267 278 1274 262 1281 246 C 1287 230 1294 215 1302 200 C 1309 185 1317 169 1325 152 C 1327 146 1333 136 1343 122 C 1352 108 1365 95 1381 81 C 1397 67 1416 54 1440 43 C 1463 31 1490 25 1522 25 L 1522 0 L 821 0 Z M 825 598 C 804 651 783 705 762 761 C 740 817 719 871 699 923 C 679 975 660 1025 642 1071 C 624 1117 608 1158 594 1192 C 582 1166 568 1133 552 1093 C 535 1053 516 1007 495 956 C 473 905 450 849 426 789 C 401 728 375 664 348 598 L 825 598 Z M 977 1544 L 729 1690 L 483 1544 L 465 1561 L 674 1886 L 786 1886 L 995 1561 L 977 1544 Z" unicode="Â" />
<glyph horiz-adv-x="1430" d="M 821 0 L 821 20 C 835 22 852 24 871 27 C 889 29 907 34 924 41 C 941 47 955 56 967 68 C 979 80 985 95 985 115 C 985 127 981 146 974 173 C 966 200 956 233 944 272 C 931 310 916 354 899 402 C 881 450 862 501 842 555 L 330 555 C 320 529 310 505 300 482 C 290 458 281 435 272 413 C 262 390 253 367 244 344 C 235 321 226 298 217 274 C 202 237 191 205 184 179 C 177 152 174 132 174 119 C 174 101 179 86 190 74 C 201 62 215 53 232 46 C 248 38 267 33 287 29 C 307 25 326 22 344 20 L 344 0 L -96 0 L -96 23 C -78 25 -61 28 -45 34 C -29 39 -15 45 -3 51 C 9 57 20 63 28 69 C 36 75 41 79 43 82 C 52 91 67 113 89 149 C 111 184 138 237 170 307 C 199 371 230 442 264 518 C 297 594 331 673 366 755 C 400 837 435 919 470 1002 C 505 1084 539 1164 571 1241 L 539 1315 C 563 1323 588 1335 613 1350 C 638 1364 662 1380 684 1398 C 706 1416 727 1434 746 1452 C 764 1470 780 1487 793 1503 L 809 1503 L 1239 352 C 1247 330 1254 311 1261 295 C 1267 278 1274 262 1281 246 C 1287 230 1294 215 1302 200 C 1309 185 1317 169 1325 152 C 1327 146 1333 136 1343 122 C 1352 108 1365 95 1381 81 C 1397 67 1416 54 1440 43 C 1463 31 1490 25 1522 25 L 1522 0 L 821 0 Z M 825 598 C 804 651 783 705 762 761 C 740 817 719 871 699 923 C 679 975 660 1025 642 1071 C 624 1117 608 1158 594 1192 C 582 1166 568 1133 552 1093 C 535 1053 516 1007 495 956 C 473 905 450 849 426 789 C 401 728 375 664 348 598 L 825 598 Z M 1044 1845 C 1038 1803 1030 1766 1019 1734 C 1008 1702 993 1674 974 1651 C 955 1628 931 1611 902 1599 C 873 1587 838 1581 798 1581 L 575 1628 C 545 1628 521 1627 501 1627 C 481 1626 464 1623 450 1619 C 436 1615 425 1607 416 1597 C 407 1587 399 1572 393 1554 L 366 1554 C 374 1591 385 1625 399 1657 C 412 1688 428 1715 448 1737 C 468 1759 490 1777 516 1789 C 542 1801 572 1808 606 1808 L 825 1761 C 851 1761 875 1761 897 1761 C 918 1761 936 1763 952 1768 C 968 1773 981 1781 991 1793 C 1001 1804 1009 1821 1015 1845 L 1044 1845 Z" unicode="Ã" />
<glyph horiz-adv-x="1430" d="M 821 0 L 821 20 C 835 22 852 24 871 27 C 889 29 907 34 924 41 C 941 47 955 56 967 68 C 979 80 985 95 985 115 C 985 127 981 146 974 173 C 966 200 956 233 944 272 C 931 310 916 354 899 402 C 881 450 862 501 842 555 L 330 555 C 320 529 310 505 300 482 C 290 458 281 435 272 413 C 262 390 253 367 244 344 C 235 321 226 298 217 274 C 202 237 191 205 184 179 C 177 152 174 132 174 119 C 174 101 179 86 190 74 C 201 62 215 53 232 46 C 248 38 267 33 287 29 C 307 25 326 22 344 20 L 344 0 L -96 0 L -96 23 C -78 25 -61 28 -45 34 C -29 39 -15 45 -3 51 C 9 57 20 63 28 69 C 36 75 41 79 43 82 C 52 91 67 113 89 149 C 111 184 138 237 170 307 C 199 371 230 442 264 518 C 297 594 331 673 366 755 C 400 837 435 919 470 1002 C 505 1084 539 1164 571 1241 L 539 1315 C 563 1323 588 1335 613 1350 C 638 1364 662 1380 684 1398 C 706 1416 727 1434 746 1452 C 764 1470 780 1487 793 1503 L 809 1503 L 1239 352 C 1247 330 1254 311 1261 295 C 1267 278 1274 262 1281 246 C 1287 230 1294 215 1302 200 C 1309 185 1317 169 1325 152 C 1327 146 1333 136 1343 122 C 1352 108 1365 95 1381 81 C 1397 67 1416 54 1440 43 C 1463 31 1490 25 1522 25 L 1522 0 L 821 0 Z M 825 598 C 804 651 783 705 762 761 C 740 817 719 871 699 923 C 679 975 660 1025 642 1071 C 624 1117 608 1158 594 1192 C 582 1166 568 1133 552 1093 C 535 1053 516 1007 495 956 C 473 905 450 849 426 789 C 401 728 375 664 348 598 L 825 598 Z M 1054 1696 C 1054 1679 1050 1663 1044 1649 C 1038 1634 1029 1621 1018 1610 C 1007 1599 995 1590 981 1584 C 967 1578 952 1575 936 1575 C 920 1575 904 1578 890 1585 C 876 1591 863 1600 852 1611 C 841 1622 832 1635 826 1650 C 820 1664 817 1680 817 1696 C 817 1712 820 1728 826 1742 C 832 1756 841 1769 852 1779 C 862 1789 875 1797 889 1803 C 903 1809 919 1812 936 1812 C 952 1812 967 1809 981 1803 C 995 1797 1008 1789 1019 1779 C 1029 1769 1038 1756 1044 1742 C 1050 1728 1054 1712 1054 1696 Z M 659 1696 C 659 1679 655 1663 649 1649 C 643 1634 634 1621 623 1610 C 612 1599 599 1590 585 1584 C 571 1578 556 1575 540 1575 C 524 1575 509 1578 495 1585 C 481 1591 468 1600 457 1611 C 446 1622 437 1635 431 1650 C 425 1664 422 1680 422 1696 C 422 1712 425 1728 431 1742 C 437 1756 446 1769 457 1779 C 467 1789 480 1797 494 1803 C 508 1809 524 1812 540 1812 C 556 1812 572 1809 586 1803 C 600 1797 613 1789 624 1779 C 634 1769 643 1756 649 1742 C 655 1728 659 1712 659 1696 Z" unicode="Ä" />
<glyph horiz-adv-x="1430" d="M 821 0 L 821 20 C 835 22 852 24 871 27 C 889 29 907 34 924 41 C 941 47 955 56 967 68 C 979 80 985 95 985 115 C 985 127 981 146 974 173 C 966 200 956 233 944 272 C 931 310 916 354 899 402 C 881 450 862 501 842 555 L 330 555 C 320 529 310 505 300 482 C 290 458 281 435 272 413 C 262 390 253 367 244 344 C 235 321 226 298 217 274 C 202 237 191 205 184 179 C 177 152 174 132 174 119 C 174 101 179 86 190 74 C 201 62 215 53 232 46 C 248 38 267 33 287 29 C 307 25 326 22 344 20 L 344 0 L -96 0 L -96 23 C -78 25 -61 28 -45 34 C -29 39 -15 45 -3 51 C 9 57 20 63 28 69 C 36 75 41 79 43 82 C 52 91 67 113 89 149 C 111 184 138 237 170 307 C 199 371 230 442 264 518 C 297 594 331 673 366 755 C 400 837 435 919 470 1002 C 505 1084 539 1164 571 1241 L 539 1315 C 563 1323 588 1335 613 1350 C 638 1364 662 1380 684 1398 C 706 1416 727 1434 746 1452 C 764 1470 780 1487 793 1503 L 809 1503 L 1239 352 C 1247 330 1254 311 1261 295 C 1267 278 1274 262 1281 246 C 1287 230 1294 215 1302 200 C 1309 185 1317 169 1325 152 C 1327 146 1333 136 1343 122 C 1352 108 1365 95 1381 81 C 1397 67 1416 54 1440 43 C 1463 31 1490 25 1522 25 L 1522 0 L 821 0 Z M 825 598 C 804 651 783 705 762 761 C 740 817 719 871 699 923 C 679 975 660 1025 642 1071 C 624 1117 608 1158 594 1192 C 582 1166 568 1133 552 1093 C 535 1053 516 1007 495 956 C 473 905 450 849 426 789 C 401 728 375 664 348 598 L 825 598 Z M 907 1702 C 907 1676 902 1653 892 1631 C 882 1609 868 1591 850 1575 C 832 1559 812 1546 788 1537 C 764 1528 738 1524 710 1524 C 681 1524 655 1528 631 1537 C 607 1546 586 1558 568 1574 C 550 1590 537 1608 527 1630 C 517 1652 513 1676 513 1702 C 513 1726 518 1749 529 1771 C 539 1793 554 1812 572 1828 C 590 1844 611 1856 635 1866 C 659 1875 684 1880 710 1880 C 737 1880 763 1875 787 1866 C 811 1857 831 1845 849 1829 C 867 1813 881 1794 891 1772 C 901 1750 907 1727 907 1702 Z M 806 1702 C 806 1734 797 1760 779 1781 C 761 1801 738 1812 710 1812 C 696 1812 684 1809 672 1803 C 660 1797 650 1790 642 1780 C 633 1770 626 1758 621 1745 C 616 1731 614 1717 614 1702 C 614 1668 623 1641 641 1621 C 659 1601 682 1591 710 1591 C 738 1591 761 1601 779 1621 C 797 1641 806 1668 806 1702 Z" unicode="Å" />
<glyph horiz-adv-x="2165" d="M 2073 0 L 774 0 L 774 20 C 790 22 807 25 823 28 C 839 31 855 35 870 41 C 884 47 898 54 912 63 C 925 72 938 84 950 98 C 956 106 962 117 966 133 C 970 148 973 166 975 186 C 977 206 979 227 980 250 C 981 272 982 295 983 317 C 983 335 984 353 985 370 C 985 386 986 404 987 424 C 987 444 988 467 988 493 C 988 519 989 550 989 588 L 440 588 C 426 568 413 547 399 525 C 385 503 371 481 357 459 C 343 437 330 415 318 394 C 305 373 293 354 283 336 C 263 304 247 277 234 254 C 221 230 211 210 204 193 C 196 175 191 161 188 149 C 185 137 184 127 184 119 C 184 101 188 87 198 75 C 207 63 219 54 234 46 C 248 38 265 33 283 29 C 301 25 318 22 336 20 L 336 0 L -119 0 L -119 23 C -100 25 -83 28 -68 34 C -53 39 -40 45 -29 51 C -17 57 -8 63 -1 69 C 5 75 10 79 14 82 C 25 91 46 113 78 149 C 110 184 151 237 201 307 C 229 348 263 397 301 453 C 339 509 380 570 424 634 C 468 698 513 765 560 834 C 606 903 652 972 698 1040 C 744 1108 788 1173 831 1237 C 873 1300 912 1358 948 1411 C 924 1423 898 1433 869 1439 C 839 1445 808 1450 774 1454 L 774 1475 L 1968 1475 L 2107 1116 L 2087 1106 C 2059 1140 2030 1172 2001 1203 C 1972 1234 1943 1263 1915 1289 C 1886 1315 1858 1337 1831 1357 C 1803 1377 1778 1393 1755 1405 C 1737 1414 1702 1423 1650 1432 C 1598 1441 1527 1446 1438 1446 C 1408 1446 1382 1445 1358 1443 C 1334 1441 1313 1439 1296 1436 C 1296 1430 1295 1415 1295 1393 C 1295 1371 1294 1343 1294 1311 C 1294 1278 1293 1242 1293 1203 C 1293 1163 1293 1123 1293 1083 C 1292 987 1292 882 1292 766 C 1298 766 1308 766 1324 766 C 1340 766 1357 766 1377 767 C 1396 768 1416 770 1438 772 C 1459 774 1479 778 1497 782 C 1538 792 1573 806 1602 825 C 1631 843 1656 866 1676 893 C 1696 919 1712 949 1724 982 C 1736 1015 1747 1051 1755 1090 L 1780 1090 L 1780 395 L 1755 395 C 1749 416 1741 440 1730 466 C 1719 492 1707 517 1694 541 C 1681 565 1667 588 1653 609 C 1639 629 1626 645 1614 657 C 1592 676 1566 692 1535 705 C 1504 717 1468 725 1427 727 C 1407 727 1392 728 1384 729 C 1375 729 1367 730 1361 730 C 1355 730 1347 731 1338 731 C 1328 731 1313 731 1292 731 L 1292 537 C 1292 511 1292 486 1292 461 C 1292 435 1292 412 1292 390 C 1292 368 1293 348 1293 332 C 1293 315 1294 303 1294 295 C 1294 273 1295 251 1296 230 C 1296 208 1297 188 1299 170 C 1301 151 1303 134 1307 119 C 1310 104 1315 92 1321 84 C 1326 75 1336 67 1351 61 C 1365 54 1383 48 1403 44 C 1423 40 1446 36 1470 34 C 1494 32 1518 31 1544 31 C 1566 31 1592 32 1622 34 C 1652 36 1681 39 1710 43 C 1790 54 1867 90 1941 151 C 2014 211 2084 300 2152 418 L 2175 412 L 2073 0 Z M 989 1386 L 979 1386 C 969 1372 953 1350 933 1321 C 913 1291 889 1256 862 1216 C 834 1176 804 1131 772 1083 C 739 1035 705 985 671 934 C 637 883 602 832 568 780 C 534 728 501 678 471 631 L 989 631 L 989 1386 Z" unicode="Æ" />
<glyph horiz-adv-x="1561" d="M 1462 971 C 1442 1035 1413 1097 1377 1157 C 1341 1217 1298 1270 1250 1316 C 1202 1362 1149 1400 1091 1428 C 1033 1456 973 1470 911 1470 C 851 1470 797 1460 747 1441 C 697 1421 652 1394 612 1360 C 572 1326 537 1285 507 1239 C 477 1192 451 1141 431 1086 C 411 1031 396 973 386 913 C 376 853 371 792 371 731 C 371 632 383 540 408 454 C 433 368 469 293 516 230 C 563 166 621 116 689 80 C 757 43 834 25 920 25 C 962 25 1004 31 1045 45 C 1086 58 1125 76 1162 100 C 1199 123 1234 150 1266 182 C 1298 214 1326 248 1352 284 C 1378 320 1400 357 1418 396 C 1436 435 1450 474 1460 512 L 1485 512 L 1479 33 L 1454 33 C 1445 45 1436 56 1427 68 C 1417 80 1408 90 1400 100 C 1392 110 1384 118 1378 124 C 1371 130 1366 133 1364 133 C 1362 133 1356 129 1347 122 C 1337 115 1324 106 1306 96 C 1288 86 1266 74 1240 62 C 1214 49 1183 37 1148 27 C 1113 16 1073 7 1029 0 C 985 -7 936 -11 883 -12 L 823 -80 C 869 -88 906 -101 934 -120 C 961 -139 982 -159 996 -180 C 1010 -201 1018 -221 1022 -240 C 1026 -259 1028 -273 1028 -283 C 1028 -317 1019 -346 1003 -371 C 986 -396 965 -417 941 -433 C 916 -449 890 -461 862 -469 C 834 -477 808 -481 786 -481 C 734 -481 691 -471 659 -452 C 626 -433 610 -407 610 -373 C 610 -366 611 -358 615 -350 C 619 -341 624 -333 631 -326 C 637 -318 646 -312 656 -307 C 666 -301 677 -299 690 -299 C 707 -299 722 -302 735 -309 C 748 -315 758 -322 764 -330 C 762 -339 761 -348 760 -356 C 758 -364 758 -371 758 -377 C 758 -399 761 -418 767 -433 C 773 -447 785 -455 803 -455 C 828 -455 848 -444 862 -423 C 876 -401 883 -371 883 -332 C 883 -294 867 -262 837 -234 C 807 -206 764 -185 709 -172 L 850 -12 C 722 -9 607 11 506 49 C 405 87 319 139 249 205 C 179 271 125 350 88 441 C 51 532 33 632 33 741 C 33 765 34 792 37 824 C 40 855 46 889 55 925 C 64 961 77 998 93 1037 C 109 1076 130 1115 156 1155 C 185 1201 221 1246 264 1288 C 307 1330 358 1368 416 1400 C 474 1432 540 1457 614 1476 C 688 1495 772 1505 864 1505 C 946 1505 1017 1497 1079 1481 C 1141 1465 1192 1448 1234 1429 C 1276 1410 1308 1393 1330 1377 C 1352 1361 1364 1354 1368 1354 C 1370 1354 1375 1357 1383 1364 C 1390 1370 1398 1379 1408 1389 C 1417 1399 1427 1411 1437 1423 C 1447 1435 1456 1448 1464 1460 L 1487 1460 L 1487 971 L 1462 971 Z" unicode="Ç" />
<glyph horiz-adv-x="1464" d="M 1372 0 L 49 0 L 49 20 C 83 25 116 34 148 47 C 180 59 206 76 225 98 C 231 106 237 118 242 134 C 246 150 250 168 253 188 C 255 208 257 229 259 252 C 260 274 261 297 262 319 C 262 337 263 362 263 394 C 263 425 264 460 264 498 C 264 536 265 576 265 618 C 265 660 266 701 266 743 L 266 1143 C 266 1167 265 1193 265 1219 C 264 1245 262 1269 260 1292 C 258 1315 254 1336 250 1354 C 245 1372 239 1386 231 1395 C 221 1405 210 1414 198 1421 C 186 1427 174 1433 161 1437 C 148 1441 134 1444 118 1446 C 102 1448 86 1451 68 1454 L 68 1475 L 1268 1475 L 1407 1116 L 1386 1106 C 1358 1140 1330 1172 1301 1203 C 1271 1234 1242 1263 1214 1289 C 1186 1315 1158 1337 1131 1357 C 1103 1377 1078 1393 1055 1405 C 1037 1414 1001 1423 945 1432 C 889 1441 816 1446 727 1446 C 698 1446 670 1445 643 1443 C 615 1441 595 1439 582 1436 C 580 1425 579 1408 578 1385 C 577 1361 576 1333 575 1301 C 573 1268 572 1231 572 1191 C 571 1150 571 1107 571 1063 C 571 1011 571 967 571 931 C 571 895 572 866 572 844 C 572 821 572 804 572 792 C 572 780 573 773 573 770 C 579 770 590 770 607 770 C 624 770 643 770 664 771 C 685 772 707 774 730 776 C 752 778 773 782 791 786 C 832 796 867 810 896 829 C 925 848 949 871 969 898 C 989 925 1005 955 1018 989 C 1030 1023 1041 1059 1049 1098 L 1073 1098 L 1073 395 L 1049 395 C 1043 416 1034 440 1024 466 C 1013 492 1001 518 988 544 C 974 570 960 593 946 615 C 932 636 919 652 907 664 C 885 683 859 699 829 711 C 798 723 762 731 721 733 C 700 733 685 734 675 735 C 665 735 657 736 649 736 C 641 736 633 737 623 737 C 613 737 597 737 575 737 C 573 727 572 715 572 701 C 572 687 571 671 571 653 C 571 635 571 617 571 598 C 571 578 571 559 571 539 C 571 520 571 499 571 477 C 571 454 571 431 571 409 C 571 386 571 365 571 345 C 571 325 572 308 573 295 C 573 273 574 251 575 230 C 576 208 578 188 580 170 C 582 152 585 135 589 120 C 593 105 598 93 604 84 C 610 74 620 66 636 60 C 651 53 669 47 690 43 C 711 39 734 36 759 34 C 783 32 808 31 834 31 C 856 31 883 32 915 34 C 946 36 976 39 1006 43 C 1090 54 1169 90 1242 151 C 1314 211 1384 300 1452 418 L 1475 412 L 1372 0 Z M 938 1559 L 510 1745 L 510 1755 C 525 1798 548 1833 578 1861 C 608 1889 644 1905 684 1911 L 958 1571 L 938 1559 Z" unicode="È" />
<glyph horiz-adv-x="1464" d="M 1372 0 L 49 0 L 49 20 C 83 25 116 34 148 47 C 180 59 206 76 225 98 C 231 106 237 118 242 134 C 246 150 250 168 253 188 C 255 208 257 229 259 252 C 260 274 261 297 262 319 C 262 337 263 362 263 394 C 263 425 264 460 264 498 C 264 536 265 576 265 618 C 265 660 266 701 266 743 L 266 1143 C 266 1167 265 1193 265 1219 C 264 1245 262 1269 260 1292 C 258 1315 254 1336 250 1354 C 245 1372 239 1386 231 1395 C 221 1405 210 1414 198 1421 C 186 1427 174 1433 161 1437 C 148 1441 134 1444 118 1446 C 102 1448 86 1451 68 1454 L 68 1475 L 1268 1475 L 1407 1116 L 1386 1106 C 1358 1140 1330 1172 1301 1203 C 1271 1234 1242 1263 1214 1289 C 1186 1315 1158 1337 1131 1357 C 1103 1377 1078 1393 1055 1405 C 1037 1414 1001 1423 945 1432 C 889 1441 816 1446 727 1446 C 698 1446 670 1445 643 1443 C 615 1441 595 1439 582 1436 C 580 1425 579 1408 578 1385 C 577 1361 576 1333 575 1301 C 573 1268 572 1231 572 1191 C 571 1150 571 1107 571 1063 C 571 1011 571 967 571 931 C 571 895 572 866 572 844 C 572 821 572 804 572 792 C 572 780 573 773 573 770 C 579 770 590 770 607 770 C 624 770 643 770 664 771 C 685 772 707 774 730 776 C 752 778 773 782 791 786 C 832 796 867 810 896 829 C 925 848 949 871 969 898 C 989 925 1005 955 1018 989 C 1030 1023 1041 1059 1049 1098 L 1073 1098 L 1073 395 L 1049 395 C 1043 416 1034 440 1024 466 C 1013 492 1001 518 988 544 C 974 570 960 593 946 615 C 932 636 919 652 907 664 C 885 683 859 699 829 711 C 798 723 762 731 721 733 C 700 733 685 734 675 735 C 665 735 657 736 649 736 C 641 736 633 737 623 737 C 613 737 597 737 575 737 C 573 727 572 715 572 701 C 572 687 571 671 571 653 C 571 635 571 617 571 598 C 571 578 571 559 571 539 C 571 520 571 499 571 477 C 571 454 571 431 571 409 C 571 386 571 365 571 345 C 571 325 572 308 573 295 C 573 273 574 251 575 230 C 576 208 578 188 580 170 C 582 152 585 135 589 120 C 593 105 598 93 604 84 C 610 74 620 66 636 60 C 651 53 669 47 690 43 C 711 39 734 36 759 34 C 783 32 808 31 834 31 C 856 31 883 32 915 34 C 946 36 976 39 1006 43 C 1090 54 1169 90 1242 151 C 1314 211 1384 300 1452 418 L 1475 412 L 1372 0 Z M 687 1559 L 667 1571 L 941 1911 C 981 1905 1016 1889 1046 1861 C 1076 1833 1099 1798 1115 1755 L 1115 1745 L 687 1559 Z" unicode="É" />
<glyph horiz-adv-x="1464" d="M 1372 0 L 49 0 L 49 20 C 83 25 116 34 148 47 C 180 59 206 76 225 98 C 231 106 237 118 242 134 C 246 150 250 168 253 188 C 255 208 257 229 259 252 C 260 274 261 297 262 319 C 262 337 263 362 263 394 C 263 425 264 460 264 498 C 264 536 265 576 265 618 C 265 660 266 701 266 743 L 266 1143 C 266 1167 265 1193 265 1219 C 264 1245 262 1269 260 1292 C 258 1315 254 1336 250 1354 C 245 1372 239 1386 231 1395 C 221 1405 210 1414 198 1421 C 186 1427 174 1433 161 1437 C 148 1441 134 1444 118 1446 C 102 1448 86 1451 68 1454 L 68 1475 L 1268 1475 L 1407 1116 L 1386 1106 C 1358 1140 1330 1172 1301 1203 C 1271 1234 1242 1263 1214 1289 C 1186 1315 1158 1337 1131 1357 C 1103 1377 1078 1393 1055 1405 C 1037 1414 1001 1423 945 1432 C 889 1441 816 1446 727 1446 C 698 1446 670 1445 643 1443 C 615 1441 595 1439 582 1436 C 580 1425 579 1408 578 1385 C 577 1361 576 1333 575 1301 C 573 1268 572 1231 572 1191 C 571 1150 571 1107 571 1063 C 571 1011 571 967 571 931 C 571 895 572 866 572 844 C 572 821 572 804 572 792 C 572 780 573 773 573 770 C 579 770 590 770 607 770 C 624 770 643 770 664 771 C 685 772 707 774 730 776 C 752 778 773 782 791 786 C 832 796 867 810 896 829 C 925 848 949 871 969 898 C 989 925 1005 955 1018 989 C 1030 1023 1041 1059 1049 1098 L 1073 1098 L 1073 395 L 1049 395 C 1043 416 1034 440 1024 466 C 1013 492 1001 518 988 544 C 974 570 960 593 946 615 C 932 636 919 652 907 664 C 885 683 859 699 829 711 C 798 723 762 731 721 733 C 700 733 685 734 675 735 C 665 735 657 736 649 736 C 641 736 633 737 623 737 C 613 737 597 737 575 737 C 573 727 572 715 572 701 C 572 687 571 671 571 653 C 571 635 571 617 571 598 C 571 578 571 559 571 539 C 571 520 571 499 571 477 C 571 454 571 431 571 409 C 571 386 571 365 571 345 C 571 325 572 308 573 295 C 573 273 574 251 575 230 C 576 208 578 188 580 170 C 582 152 585 135 589 120 C 593 105 598 93 604 84 C 610 74 620 66 636 60 C 651 53 669 47 690 43 C 711 39 734 36 759 34 C 783 32 808 31 834 31 C 856 31 883 32 915 34 C 946 36 976 39 1006 43 C 1090 54 1169 90 1242 151 C 1314 211 1384 300 1452 418 L 1475 412 L 1372 0 Z M 1038 1544 L 790 1690 L 544 1544 L 526 1561 L 735 1886 L 847 1886 L 1056 1561 L 1038 1544 Z" unicode="Ê" />
<glyph horiz-adv-x="1464" d="M 1372 0 L 49 0 L 49 20 C 83 25 116 34 148 47 C 180 59 206 76 225 98 C 231 106 237 118 242 134 C 246 150 250 168 253 188 C 255 208 257 229 259 252 C 260 274 261 297 262 319 C 262 337 263 362 263 394 C 263 425 264 460 264 498 C 264 536 265 576 265 618 C 265 660 266 701 266 743 L 266 1143 C 266 1167 265 1193 265 1219 C 264 1245 262 1269 260 1292 C 258 1315 254 1336 250 1354 C 245 1372 239 1386 231 1395 C 221 1405 210 1414 198 1421 C 186 1427 174 1433 161 1437 C 148 1441 134 1444 118 1446 C 102 1448 86 1451 68 1454 L 68 1475 L 1268 1475 L 1407 1116 L 1386 1106 C 1358 1140 1330 1172 1301 1203 C 1271 1234 1242 1263 1214 1289 C 1186 1315 1158 1337 1131 1357 C 1103 1377 1078 1393 1055 1405 C 1037 1414 1001 1423 945 1432 C 889 1441 816 1446 727 1446 C 698 1446 670 1445 643 1443 C 615 1441 595 1439 582 1436 C 580 1425 579 1408 578 1385 C 577 1361 576 1333 575 1301 C 573 1268 572 1231 572 1191 C 571 1150 571 1107 571 1063 C 571 1011 571 967 571 931 C 571 895 572 866 572 844 C 572 821 572 804 572 792 C 572 780 573 773 573 770 C 579 770 590 770 607 770 C 624 770 643 770 664 771 C 685 772 707 774 730 776 C 752 778 773 782 791 786 C 832 796 867 810 896 829 C 925 848 949 871 969 898 C 989 925 1005 955 1018 989 C 1030 1023 1041 1059 1049 1098 L 1073 1098 L 1073 395 L 1049 395 C 1043 416 1034 440 1024 466 C 1013 492 1001 518 988 544 C 974 570 960 593 946 615 C 932 636 919 652 907 664 C 885 683 859 699 829 711 C 798 723 762 731 721 733 C 700 733 685 734 675 735 C 665 735 657 736 649 736 C 641 736 633 737 623 737 C 613 737 597 737 575 737 C 573 727 572 715 572 701 C 572 687 571 671 571 653 C 571 635 571 617 571 598 C 571 578 571 559 571 539 C 571 520 571 499 571 477 C 571 454 571 431 571 409 C 571 386 571 365 571 345 C 571 325 572 308 573 295 C 573 273 574 251 575 230 C 576 208 578 188 580 170 C 582 152 585 135 589 120 C 593 105 598 93 604 84 C 610 74 620 66 636 60 C 651 53 669 47 690 43 C 711 39 734 36 759 34 C 783 32 808 31 834 31 C 856 31 883 32 915 34 C 946 36 976 39 1006 43 C 1090 54 1169 90 1242 151 C 1314 211 1384 300 1452 418 L 1475 412 L 1372 0 Z M 1085 1696 C 1085 1679 1081 1663 1075 1649 C 1069 1634 1060 1621 1049 1610 C 1038 1599 1026 1590 1012 1584 C 998 1578 983 1575 967 1575 C 951 1575 935 1578 921 1585 C 907 1591 894 1600 883 1611 C 872 1622 863 1635 857 1650 C 851 1664 848 1680 848 1696 C 848 1712 851 1728 857 1742 C 863 1756 872 1769 883 1779 C 893 1789 906 1797 920 1803 C 934 1809 950 1812 967 1812 C 983 1812 998 1809 1012 1803 C 1026 1797 1039 1789 1050 1779 C 1060 1769 1069 1756 1075 1742 C 1081 1728 1085 1712 1085 1696 Z M 690 1696 C 690 1679 686 1663 680 1649 C 674 1634 665 1621 654 1610 C 643 1599 630 1590 616 1584 C 602 1578 587 1575 571 1575 C 555 1575 540 1578 526 1585 C 512 1591 499 1600 488 1611 C 477 1622 468 1635 462 1650 C 456 1664 453 1680 453 1696 C 453 1712 456 1728 462 1742 C 468 1756 477 1769 488 1779 C 498 1789 511 1797 525 1803 C 539 1809 555 1812 571 1812 C 587 1812 603 1809 617 1803 C 631 1797 644 1789 655 1779 C 665 1769 674 1756 680 1742 C 686 1728 690 1712 690 1696 Z" unicode="Ë" />
<glyph horiz-adv-x="846" d="M 59 0 L 59 20 C 93 25 126 34 158 46 C 190 58 217 76 238 100 C 244 108 249 119 253 135 C 256 150 259 168 261 188 C 263 208 264 229 264 252 C 264 274 265 297 266 319 C 266 337 267 363 267 396 C 267 428 268 464 268 503 C 268 541 269 581 269 623 C 269 665 270 705 270 743 L 270 1143 C 270 1166 269 1190 269 1215 C 269 1239 268 1262 266 1284 C 264 1306 261 1325 257 1342 C 253 1359 247 1372 240 1382 C 220 1404 195 1421 165 1432 C 135 1442 102 1450 66 1454 L 66 1475 L 776 1475 L 776 1454 C 762 1452 746 1449 729 1446 C 712 1442 695 1437 679 1431 C 663 1425 648 1416 634 1406 C 620 1396 608 1382 600 1366 C 594 1354 589 1340 586 1325 C 583 1309 581 1293 580 1277 C 579 1260 579 1243 579 1226 C 579 1209 578 1193 578 1178 C 577 1142 576 1108 576 1075 C 576 1042 575 1009 575 975 C 575 941 575 905 575 869 C 575 832 575 793 575 752 L 575 289 C 575 269 575 250 575 230 C 575 210 576 192 578 175 C 579 157 581 142 584 128 C 586 114 590 103 596 96 C 604 84 615 74 630 66 C 644 57 660 49 678 43 C 695 36 712 31 730 27 C 748 23 764 21 778 20 L 778 0 L 59 0 Z M 558 1559 L 130 1745 L 130 1755 C 145 1798 168 1833 198 1861 C 228 1889 264 1905 304 1911 L 578 1571 L 558 1559 Z" unicode="Ì" />
<glyph horiz-adv-x="846" d="M 59 0 L 59 20 C 93 25 126 34 158 46 C 190 58 217 76 238 100 C 244 108 249 119 253 135 C 256 150 259 168 261 188 C 263 208 264 229 264 252 C 264 274 265 297 266 319 C 266 337 267 363 267 396 C 267 428 268 464 268 503 C 268 541 269 581 269 623 C 269 665 270 705 270 743 L 270 1143 C 270 1166 269 1190 269 1215 C 269 1239 268 1262 266 1284 C 264 1306 261 1325 257 1342 C 253 1359 247 1372 240 1382 C 220 1404 195 1421 165 1432 C 135 1442 102 1450 66 1454 L 66 1475 L 776 1475 L 776 1454 C 762 1452 746 1449 729 1446 C 712 1442 695 1437 679 1431 C 663 1425 648 1416 634 1406 C 620 1396 608 1382 600 1366 C 594 1354 589 1340 586 1325 C 583 1309 581 1293 580 1277 C 579 1260 579 1243 579 1226 C 579 1209 578 1193 578 1178 C 577 1142 576 1108 576 1075 C 576 1042 575 1009 575 975 C 575 941 575 905 575 869 C 575 832 575 793 575 752 L 575 289 C 575 269 575 250 575 230 C 575 210 576 192 578 175 C 579 157 581 142 584 128 C 586 114 590 103 596 96 C 604 84 615 74 630 66 C 644 57 660 49 678 43 C 695 36 712 31 730 27 C 748 23 764 21 778 20 L 778 0 L 59 0 Z M 330 1559 L 310 1571 L 584 1911 C 624 1905 659 1889 689 1861 C 719 1833 742 1798 758 1755 L 758 1745 L 330 1559 Z" unicode="Í" />
<glyph horiz-adv-x="846" d="M 59 0 L 59 20 C 93 25 126 34 158 46 C 190 58 217 76 238 100 C 244 108 249 119 253 135 C 256 150 259 168 261 188 C 263 208 264 229 264 252 C 264 274 265 297 266 319 C 266 337 267 363 267 396 C 267 428 268 464 268 503 C 268 541 269 581 269 623 C 269 665 270 705 270 743 L 270 1143 C 270 1166 269 1190 269 1215 C 269 1239 268 1262 266 1284 C 264 1306 261 1325 257 1342 C 253 1359 247 1372 240 1382 C 220 1404 195 1421 165 1432 C 135 1442 102 1450 66 1454 L 66 1475 L 776 1475 L 776 1454 C 762 1452 746 1449 729 1446 C 712 1442 695 1437 679 1431 C 663 1425 648 1416 634 1406 C 620 1396 608 1382 600 1366 C 594 1354 589 1340 586 1325 C 583 1309 581 1293 580 1277 C 579 1260 579 1243 579 1226 C 579 1209 578 1193 578 1178 C 577 1142 576 1108 576 1075 C 576 1042 575 1009 575 975 C 575 941 575 905 575 869 C 575 832 575 793 575 752 L 575 289 C 575 269 575 250 575 230 C 575 210 576 192 578 175 C 579 157 581 142 584 128 C 586 114 590 103 596 96 C 604 84 615 74 630 66 C 644 57 660 49 678 43 C 695 36 712 31 730 27 C 748 23 764 21 778 20 L 778 0 L 59 0 Z M 670 1544 L 422 1690 L 176 1544 L 158 1561 L 367 1886 L 479 1886 L 688 1561 L 670 1544 Z" unicode="Î" />
<glyph horiz-adv-x="846" d="M 59 0 L 59 20 C 93 25 126 34 158 46 C 190 58 217 76 238 100 C 244 108 249 119 253 135 C 256 150 259 168 261 188 C 263 208 264 229 264 252 C 264 274 265 297 266 319 C 266 337 267 363 267 396 C 267 428 268 464 268 503 C 268 541 269 581 269 623 C 269 665 270 705 270 743 L 270 1143 C 270 1166 269 1190 269 1215 C 269 1239 268 1262 266 1284 C 264 1306 261 1325 257 1342 C 253 1359 247 1372 240 1382 C 220 1404 195 1421 165 1432 C 135 1442 102 1450 66 1454 L 66 1475 L 776 1475 L 776 1454 C 762 1452 746 1449 729 1446 C 712 1442 695 1437 679 1431 C 663 1425 648 1416 634 1406 C 620 1396 608 1382 600 1366 C 594 1354 589 1340 586 1325 C 583 1309 581 1293 580 1277 C 579 1260 579 1243 579 1226 C 579 1209 578 1193 578 1178 C 577 1142 576 1108 576 1075 C 576 1042 575 1009 575 975 C 575 941 575 905 575 869 C 575 832 575 793 575 752 L 575 289 C 575 269 575 250 575 230 C 575 210 576 192 578 175 C 579 157 581 142 584 128 C 586 114 590 103 596 96 C 604 84 615 74 630 66 C 644 57 660 49 678 43 C 695 36 712 31 730 27 C 748 23 764 21 778 20 L 778 0 L 59 0 Z M 739 1696 C 739 1679 735 1663 729 1649 C 723 1634 714 1621 703 1610 C 692 1599 680 1590 666 1584 C 652 1578 637 1575 621 1575 C 605 1575 589 1578 575 1585 C 561 1591 548 1600 537 1611 C 526 1622 517 1635 511 1650 C 505 1664 502 1680 502 1696 C 502 1712 505 1728 511 1742 C 517 1756 526 1769 537 1779 C 547 1789 560 1797 574 1803 C 588 1809 604 1812 621 1812 C 637 1812 652 1809 666 1803 C 680 1797 693 1789 704 1779 C 714 1769 723 1756 729 1742 C 735 1728 739 1712 739 1696 Z M 344 1696 C 344 1679 340 1663 334 1649 C 328 1634 319 1621 308 1610 C 297 1599 284 1590 270 1584 C 256 1578 241 1575 225 1575 C 209 1575 194 1578 180 1585 C 166 1591 153 1600 142 1611 C 131 1622 122 1635 116 1650 C 110 1664 107 1680 107 1696 C 107 1712 110 1728 116 1742 C 122 1756 131 1769 142 1779 C 152 1789 165 1797 179 1803 C 193 1809 209 1812 225 1812 C 241 1812 257 1809 271 1803 C 285 1797 298 1789 309 1779 C 319 1769 328 1756 334 1742 C 340 1728 344 1712 344 1696 Z" unicode="Ï" />
<glyph horiz-adv-x="1729" d="M 1696 758 C 1696 654 1683 564 1659 487 C 1634 409 1601 342 1559 286 C 1517 230 1468 183 1412 147 C 1356 110 1296 81 1233 59 C 1170 37 1105 21 1039 13 C 973 4 908 0 846 0 L 49 0 L 49 20 C 65 22 83 25 101 30 C 119 34 136 40 152 46 C 168 52 183 60 197 68 C 210 76 221 86 229 96 C 235 103 240 115 244 131 C 248 147 251 165 254 185 C 256 205 258 227 259 251 C 260 274 261 297 262 319 C 262 337 263 361 263 391 C 263 420 264 453 264 489 C 264 525 265 563 265 603 C 265 643 266 683 266 723 L 59 723 L 59 778 L 266 778 L 266 1143 C 266 1166 265 1190 265 1215 C 265 1239 264 1262 262 1284 C 260 1306 257 1325 253 1342 C 249 1359 243 1372 236 1382 C 215 1407 189 1424 158 1434 C 126 1443 93 1450 57 1454 L 57 1475 C 85 1475 122 1475 169 1475 C 215 1475 269 1476 329 1476 C 389 1476 454 1476 525 1476 C 596 1476 670 1477 748 1477 C 790 1477 833 1476 877 1476 C 921 1476 966 1474 1011 1470 C 1056 1466 1101 1459 1147 1449 C 1192 1439 1236 1425 1280 1407 C 1336 1381 1389 1350 1439 1312 C 1489 1274 1534 1229 1572 1177 C 1610 1124 1640 1063 1662 994 C 1684 924 1696 846 1696 758 Z M 1358 754 C 1358 806 1353 858 1343 909 C 1333 960 1320 1009 1302 1056 C 1284 1103 1262 1147 1236 1188 C 1210 1229 1182 1266 1151 1298 C 1119 1330 1085 1357 1048 1379 C 1011 1401 972 1416 932 1425 C 909 1430 884 1434 858 1438 C 831 1442 797 1444 756 1444 C 740 1444 724 1443 707 1442 C 690 1441 674 1440 658 1439 C 642 1437 628 1435 615 1433 C 602 1431 592 1429 584 1427 C 577 1363 573 1276 572 1167 C 571 1058 571 928 571 778 L 903 778 L 903 723 L 571 723 L 571 317 C 571 297 572 276 574 254 C 575 232 577 210 580 189 C 583 168 587 149 592 132 C 596 115 602 102 610 94 C 622 80 637 69 653 61 C 669 53 685 46 702 42 C 718 37 735 34 753 33 C 770 31 787 31 803 31 C 831 31 861 32 893 36 C 924 39 954 45 983 55 C 1045 75 1100 107 1147 149 C 1194 191 1233 242 1265 302 C 1296 362 1319 430 1335 506 C 1350 582 1358 664 1358 754 Z" unicode="Ð" />
<glyph horiz-adv-x="1733" d="M 1710 1454 C 1660 1446 1618 1433 1584 1414 C 1550 1395 1525 1366 1509 1327 C 1504 1317 1500 1302 1498 1282 C 1495 1262 1493 1239 1491 1213 C 1489 1187 1487 1158 1486 1128 C 1484 1098 1483 1067 1483 1036 C 1481 977 1478 908 1476 828 C 1474 748 1473 663 1473 571 C 1473 532 1473 489 1473 443 C 1473 397 1474 349 1474 301 C 1474 253 1474 205 1474 159 C 1474 112 1475 69 1475 29 C 1475 16 1472 5 1466 -3 C 1460 -11 1450 -16 1436 -16 C 1424 -16 1415 -13 1407 -8 C 1399 -3 1392 2 1386 10 C 1310 99 1239 182 1173 260 C 1107 337 1044 410 984 480 C 924 550 866 617 811 681 C 755 745 700 809 646 873 C 591 937 536 1001 480 1066 C 424 1131 367 1199 307 1270 L 307 438 C 307 404 307 371 308 339 C 308 307 310 278 312 251 C 314 223 318 199 322 177 C 326 155 331 138 338 125 C 353 93 378 70 413 54 C 447 38 493 27 549 20 L 549 0 L 29 0 L 29 20 C 45 22 62 25 80 29 C 98 33 115 39 131 46 C 147 53 163 62 177 72 C 191 82 203 95 213 111 C 231 139 244 181 250 237 C 256 293 260 360 262 438 C 264 496 265 566 267 646 C 269 726 270 811 270 903 C 270 941 270 974 270 1001 C 270 1027 270 1053 270 1077 C 270 1101 269 1127 269 1154 C 269 1180 268 1213 268 1253 C 262 1292 251 1324 235 1349 C 218 1373 199 1393 177 1408 C 155 1422 133 1433 109 1439 C 85 1445 63 1450 43 1454 L 43 1475 L 526 1475 L 1438 416 L 1438 1036 C 1438 1062 1437 1089 1437 1116 C 1437 1142 1436 1168 1435 1192 C 1433 1216 1431 1238 1429 1258 C 1426 1278 1422 1296 1417 1311 C 1403 1349 1378 1380 1341 1404 C 1303 1428 1252 1444 1186 1454 L 1186 1475 L 1710 1475 L 1710 1454 Z M 1263 1845 C 1257 1803 1249 1766 1238 1734 C 1227 1702 1212 1674 1193 1651 C 1174 1628 1150 1611 1121 1599 C 1092 1587 1057 1581 1017 1581 L 794 1628 C 764 1628 740 1627 720 1627 C 700 1626 683 1623 669 1619 C 655 1615 644 1607 635 1597 C 626 1587 618 1572 612 1554 L 585 1554 C 593 1591 604 1625 618 1657 C 631 1688 647 1715 667 1737 C 687 1759 709 1777 735 1789 C 761 1801 791 1808 825 1808 L 1044 1761 C 1070 1761 1094 1761 1116 1761 C 1137 1761 1155 1763 1171 1768 C 1187 1773 1200 1781 1210 1793 C 1220 1804 1228 1821 1234 1845 L 1263 1845 Z" unicode="Ñ" />
<glyph horiz-adv-x="1642" d="M 1610 748 C 1610 675 1600 606 1581 540 C 1561 474 1534 412 1500 356 C 1465 300 1423 249 1375 203 C 1326 157 1272 118 1214 86 C 1155 54 1092 29 1025 12 C 957 -5 888 -14 817 -14 C 746 -14 677 -5 611 11 C 545 27 482 51 424 83 C 366 114 313 152 265 197 C 217 242 175 292 141 348 C 107 404 80 464 61 530 C 42 596 33 665 33 739 C 33 817 42 890 62 958 C 82 1026 110 1088 146 1144 C 182 1200 224 1249 274 1293 C 324 1337 379 1373 439 1403 C 499 1433 563 1455 631 1471 C 699 1487 770 1495 844 1495 C 924 1495 998 1485 1067 1467 C 1135 1448 1198 1422 1255 1388 C 1312 1354 1363 1314 1407 1268 C 1451 1222 1488 1171 1518 1116 C 1548 1060 1570 1001 1586 939 C 1602 877 1610 813 1610 748 Z M 1272 745 C 1272 800 1268 856 1260 913 C 1252 969 1239 1024 1223 1077 C 1206 1130 1185 1180 1160 1227 C 1135 1273 1106 1314 1073 1348 C 1039 1382 1001 1410 959 1430 C 917 1450 870 1460 819 1460 C 766 1460 718 1450 676 1430 C 634 1410 596 1383 563 1349 C 529 1315 501 1274 477 1228 C 453 1182 433 1132 417 1078 C 401 1024 390 967 382 909 C 374 850 371 791 371 733 C 371 671 375 610 383 551 C 391 491 404 435 420 383 C 436 330 457 281 482 237 C 507 193 536 154 570 122 C 604 90 642 65 684 47 C 726 29 773 20 825 20 C 875 20 920 30 962 50 C 1004 70 1041 97 1074 132 C 1107 166 1136 207 1161 254 C 1185 300 1206 351 1223 405 C 1239 459 1252 514 1260 572 C 1268 630 1272 687 1272 745 Z M 983 1579 L 555 1765 L 555 1775 C 570 1818 593 1853 623 1881 C 653 1909 689 1925 729 1931 L 1003 1591 L 983 1579 Z" unicode="Ò" />
<glyph horiz-adv-x="1642" d="M 1610 748 C 1610 675 1600 606 1581 540 C 1561 474 1534 412 1500 356 C 1465 300 1423 249 1375 203 C 1326 157 1272 118 1214 86 C 1155 54 1092 29 1025 12 C 957 -5 888 -14 817 -14 C 746 -14 677 -5 611 11 C 545 27 482 51 424 83 C 366 114 313 152 265 197 C 217 242 175 292 141 348 C 107 404 80 464 61 530 C 42 596 33 665 33 739 C 33 817 42 890 62 958 C 82 1026 110 1088 146 1144 C 182 1200 224 1249 274 1293 C 324 1337 379 1373 439 1403 C 499 1433 563 1455 631 1471 C 699 1487 770 1495 844 1495 C 924 1495 998 1485 1067 1467 C 1135 1448 1198 1422 1255 1388 C 1312 1354 1363 1314 1407 1268 C 1451 1222 1488 1171 1518 1116 C 1548 1060 1570 1001 1586 939 C 1602 877 1610 813 1610 748 Z M 1272 745 C 1272 800 1268 856 1260 913 C 1252 969 1239 1024 1223 1077 C 1206 1130 1185 1180 1160 1227 C 1135 1273 1106 1314 1073 1348 C 1039 1382 1001 1410 959 1430 C 917 1450 870 1460 819 1460 C 766 1460 718 1450 676 1430 C 634 1410 596 1383 563 1349 C 529 1315 501 1274 477 1228 C 453 1182 433 1132 417 1078 C 401 1024 390 967 382 909 C 374 850 371 791 371 733 C 371 671 375 610 383 551 C 391 491 404 435 420 383 C 436 330 457 281 482 237 C 507 193 536 154 570 122 C 604 90 642 65 684 47 C 726 29 773 20 825 20 C 875 20 920 30 962 50 C 1004 70 1041 97 1074 132 C 1107 166 1136 207 1161 254 C 1185 300 1206 351 1223 405 C 1239 459 1252 514 1260 572 C 1268 630 1272 687 1272 745 Z M 728 1579 L 708 1591 L 982 1931 C 1022 1925 1057 1909 1087 1881 C 1117 1853 1140 1818 1156 1775 L 1156 1765 L 728 1579 Z" unicode="Ó" />
<glyph horiz-adv-x="1642" d="M 1610 748 C 1610 675 1600 606 1581 540 C 1561 474 1534 412 1500 356 C 1465 300 1423 249 1375 203 C 1326 157 1272 118 1214 86 C 1155 54 1092 29 1025 12 C 957 -5 888 -14 817 -14 C 746 -14 677 -5 611 11 C 545 27 482 51 424 83 C 366 114 313 152 265 197 C 217 242 175 292 141 348 C 107 404 80 464 61 530 C 42 596 33 665 33 739 C 33 817 42 890 62 958 C 82 1026 110 1088 146 1144 C 182 1200 224 1249 274 1293 C 324 1337 379 1373 439 1403 C 499 1433 563 1455 631 1471 C 699 1487 770 1495 844 1495 C 924 1495 998 1485 1067 1467 C 1135 1448 1198 1422 1255 1388 C 1312 1354 1363 1314 1407 1268 C 1451 1222 1488 1171 1518 1116 C 1548 1060 1570 1001 1586 939 C 1602 877 1610 813 1610 748 Z M 1272 745 C 1272 800 1268 856 1260 913 C 1252 969 1239 1024 1223 1077 C 1206 1130 1185 1180 1160 1227 C 1135 1273 1106 1314 1073 1348 C 1039 1382 1001 1410 959 1430 C 917 1450 870 1460 819 1460 C 766 1460 718 1450 676 1430 C 634 1410 596 1383 563 1349 C 529 1315 501 1274 477 1228 C 453 1182 433 1132 417 1078 C 401 1024 390 967 382 909 C 374 850 371 791 371 733 C 371 671 375 610 383 551 C 391 491 404 435 420 383 C 436 330 457 281 482 237 C 507 193 536 154 570 122 C 604 90 642 65 684 47 C 726 29 773 20 825 20 C 875 20 920 30 962 50 C 1004 70 1041 97 1074 132 C 1107 166 1136 207 1161 254 C 1185 300 1206 351 1223 405 C 1239 459 1252 514 1260 572 C 1268 630 1272 687 1272 745 Z M 1067 1564 L 819 1710 L 573 1564 L 555 1581 L 764 1906 L 876 1906 L 1085 1581 L 1067 1564 Z" unicode="Ô" />
<glyph horiz-adv-x="1642" d="M 1610 748 C 1610 675 1600 606 1581 540 C 1561 474 1534 412 1500 356 C 1465 300 1423 249 1375 203 C 1326 157 1272 118 1214 86 C 1155 54 1092 29 1025 12 C 957 -5 888 -14 817 -14 C 746 -14 677 -5 611 11 C 545 27 482 51 424 83 C 366 114 313 152 265 197 C 217 242 175 292 141 348 C 107 404 80 464 61 530 C 42 596 33 665 33 739 C 33 817 42 890 62 958 C 82 1026 110 1088 146 1144 C 182 1200 224 1249 274 1293 C 324 1337 379 1373 439 1403 C 499 1433 563 1455 631 1471 C 699 1487 770 1495 844 1495 C 924 1495 998 1485 1067 1467 C 1135 1448 1198 1422 1255 1388 C 1312 1354 1363 1314 1407 1268 C 1451 1222 1488 1171 1518 1116 C 1548 1060 1570 1001 1586 939 C 1602 877 1610 813 1610 748 Z M 1272 745 C 1272 800 1268 856 1260 913 C 1252 969 1239 1024 1223 1077 C 1206 1130 1185 1180 1160 1227 C 1135 1273 1106 1314 1073 1348 C 1039 1382 1001 1410 959 1430 C 917 1450 870 1460 819 1460 C 766 1460 718 1450 676 1430 C 634 1410 596 1383 563 1349 C 529 1315 501 1274 477 1228 C 453 1182 433 1132 417 1078 C 401 1024 390 967 382 909 C 374 850 371 791 371 733 C 371 671 375 610 383 551 C 391 491 404 435 420 383 C 436 330 457 281 482 237 C 507 193 536 154 570 122 C 604 90 642 65 684 47 C 726 29 773 20 825 20 C 875 20 920 30 962 50 C 1004 70 1041 97 1074 132 C 1107 166 1136 207 1161 254 C 1185 300 1206 351 1223 405 C 1239 459 1252 514 1260 572 C 1268 630 1272 687 1272 745 Z M 1161 1865 C 1155 1823 1147 1786 1136 1754 C 1125 1722 1110 1694 1091 1671 C 1072 1648 1048 1631 1019 1619 C 990 1607 955 1601 915 1601 L 692 1648 C 662 1648 638 1647 618 1647 C 598 1646 581 1643 567 1639 C 553 1635 542 1627 533 1617 C 524 1607 516 1592 510 1574 L 483 1574 C 491 1611 502 1645 516 1677 C 529 1708 545 1735 565 1757 C 585 1779 607 1797 633 1809 C 659 1821 689 1828 723 1828 L 942 1781 C 968 1781 992 1781 1014 1781 C 1035 1781 1053 1783 1069 1788 C 1085 1793 1098 1801 1108 1813 C 1118 1824 1126 1841 1132 1865 L 1161 1865 Z" unicode="Õ" />
</font>
</defs>
</svg>
