<?xml version="1.0" encoding="utf-8" ?><svg version="1.1" xmlns = 'http://www.w3.org/2000/svg'><defs><font id='web' horiz-adv-x="1000">
<font-face font-family="web" descent="-410" cap-height="1434" units-per-em="2048" bbox="-383,-416,2789,1989" x-height="1024" ascent="1638" />
<missing-glyph horiz-adv-x="1024" d="" /><glyph horiz-adv-x="512" d="" unicode=" " />
<glyph horiz-adv-x="524" d="M 397 1040 L 354 455 L 188 455 L 135 1040 L 135 1573 L 397 1573 L 397 1040 Z M 403 0 L 129 0 L 129 299 L 403 299 L 403 0 Z" unicode="!" />
<glyph horiz-adv-x="909" d="M 379 1573 L 315 920 L 150 920 L 88 1573 L 379 1573 Z M 819 1573 L 756 920 L 588 920 L 526 1573 L 819 1573 Z" unicode="&#x22;" />
<glyph horiz-adv-x="1401" d="M 1288 1223 L 1255 956 L 1032 956 L 979 618 L 1200 618 L 1163 352 L 942 352 L 893 0 L 719 0 L 768 352 L 504 352 L 455 0 L 281 0 L 332 352 L 113 352 L 150 618 L 371 618 L 420 956 L 203 956 L 240 1223 L 459 1223 L 506 1573 L 682 1573 L 631 1223 L 895 1223 L 946 1573 L 1118 1573 L 1069 1223 L 1288 1223 Z M 856 956 L 594 956 L 545 618 L 809 618 L 856 956 Z" unicode="#" />
<glyph horiz-adv-x="1255" d="M 1141 473 C 1141 325 1103 211 1028 132 C 952 53 836 10 680 4 L 680 -184 L 547 -184 L 547 4 C 423 10 320 38 238 89 C 156 139 115 223 115 340 C 115 368 117 404 123 446 C 129 488 136 521 145 547 L 383 565 C 378 544 374 519 372 489 C 370 459 369 433 369 412 C 369 348 381 298 407 262 C 432 226 479 205 547 201 L 547 713 L 389 774 C 298 810 228 855 178 910 C 128 964 104 1049 104 1163 C 104 1262 143 1355 221 1442 C 299 1529 408 1573 547 1573 L 547 1657 L 680 1657 L 680 1573 C 808 1573 907 1537 975 1465 C 1043 1393 1077 1306 1077 1202 C 1077 1183 1075 1163 1072 1143 C 1069 1123 1065 1104 1059 1087 L 821 1087 C 827 1101 832 1119 835 1139 C 838 1159 840 1180 840 1204 C 840 1261 826 1305 800 1335 C 774 1365 734 1384 680 1393 L 680 952 L 842 887 C 925 853 996 807 1054 751 C 1112 695 1141 602 1141 473 Z M 547 993 L 547 1393 C 483 1381 435 1360 403 1329 C 371 1298 356 1259 356 1212 C 356 1155 368 1110 393 1077 C 418 1044 469 1016 547 993 Z M 887 434 C 887 478 871 521 841 563 C 811 605 757 640 680 666 L 680 199 C 741 209 791 229 829 258 C 867 286 887 345 887 434 Z" unicode="$" />
<glyph horiz-adv-x="1997" d="M 885 1053 C 885 899 852 784 786 707 C 720 630 622 592 494 592 C 365 592 267 628 200 701 C 133 773 100 889 100 1049 C 100 1237 127 1375 182 1464 C 236 1552 340 1597 494 1597 C 636 1597 736 1553 796 1467 C 855 1380 885 1242 885 1053 Z M 651 1083 C 651 1217 638 1306 614 1348 C 589 1390 550 1411 498 1411 C 438 1411 397 1389 373 1346 C 349 1302 338 1215 338 1083 C 338 966 350 887 374 846 C 398 804 438 784 494 784 C 548 784 588 804 613 846 C 638 887 651 966 651 1083 Z M 1901 436 C 1901 283 1867 168 1801 91 C 1735 13 1637 -25 1509 -25 C 1380 -25 1282 11 1216 84 C 1149 157 1116 273 1116 432 C 1116 609 1147 745 1210 839 C 1273 933 1373 981 1509 981 C 1659 981 1762 937 1818 850 C 1873 763 1901 625 1901 436 Z M 1667 467 C 1667 601 1654 689 1630 731 C 1605 773 1566 795 1513 795 C 1454 795 1413 773 1389 729 C 1365 685 1354 598 1354 467 C 1354 349 1366 270 1390 229 C 1414 188 1454 168 1509 168 C 1564 168 1604 188 1629 229 C 1654 270 1667 349 1667 467 Z M 1430 1597 L 702 -33 L 575 -33 L 1303 1597 L 1430 1597 Z" unicode="%" />
<glyph horiz-adv-x="1536" d="M 1468 293 C 1468 207 1445 133 1401 70 C 1356 6 1282 -25 1180 -25 C 1104 -25 1047 -9 1007 22 C 967 54 929 96 891 150 C 833 86 763 41 683 15 C 603 -11 533 -25 473 -25 C 340 -25 239 20 171 110 C 102 200 68 305 68 424 C 68 554 99 661 163 745 C 226 829 312 899 420 956 C 393 1003 371 1056 354 1114 C 336 1172 328 1221 328 1262 C 328 1359 358 1439 418 1502 C 478 1565 574 1597 705 1597 C 813 1597 898 1569 960 1513 C 1022 1457 1053 1384 1053 1294 C 1053 1191 1021 1114 958 1062 C 895 1010 822 961 739 915 C 748 898 762 871 781 835 C 800 799 825 753 856 698 C 873 667 891 634 911 598 C 931 562 948 533 963 510 C 999 569 1037 646 1078 742 C 1118 837 1151 931 1176 1024 L 1350 1024 C 1310 885 1262 753 1206 627 C 1150 501 1099 406 1053 340 C 1078 295 1103 258 1129 230 C 1154 202 1178 188 1202 188 C 1244 188 1268 205 1275 241 C 1282 277 1286 310 1286 342 C 1286 371 1284 398 1282 422 C 1280 446 1276 472 1270 500 L 1444 500 C 1444 500 1448 475 1456 425 C 1464 375 1468 331 1468 293 Z M 801 297 C 783 326 762 362 736 404 C 710 446 686 486 664 524 C 640 564 614 606 588 650 C 562 694 537 736 514 776 C 454 731 407 682 374 629 C 340 576 324 518 324 455 C 324 361 347 291 393 246 C 439 200 503 178 584 178 C 616 178 653 188 694 209 C 734 229 770 259 801 297 Z M 848 1313 C 848 1353 834 1383 807 1405 C 779 1427 746 1438 707 1438 C 661 1438 625 1426 601 1404 C 577 1382 565 1349 565 1305 C 565 1276 577 1236 601 1185 C 625 1134 643 1098 655 1077 C 734 1131 786 1173 811 1203 C 835 1233 848 1270 848 1313 Z" unicode="&#x26;" />
<glyph horiz-adv-x="467" d="M 379 1573 L 315 920 L 150 920 L 88 1573 L 379 1573 Z" unicode="'" />
<glyph horiz-adv-x="778" d="M 756 -233 L 580 -233 C 426 -130 310 -3 232 148 C 154 299 115 477 115 682 C 115 886 153 1063 230 1212 C 307 1360 424 1489 580 1597 L 756 1597 C 632 1486 534 1354 460 1200 C 386 1046 350 873 350 682 C 350 497 384 328 452 176 C 520 23 621 -113 756 -233 Z" unicode="(" />
<glyph horiz-adv-x="778" d="M 664 682 C 664 477 624 299 546 148 C 467 -3 351 -130 199 -233 L 23 -233 C 157 -113 258 23 326 176 C 394 328 428 497 428 682 C 428 873 391 1046 317 1200 C 243 1354 145 1486 23 1597 L 199 1597 C 355 1489 471 1360 548 1212 C 625 1063 664 886 664 682 Z" unicode=")" />
<glyph horiz-adv-x="770" d="M 705 1194 L 627 1063 L 459 1155 L 459 971 L 309 971 L 309 1155 L 139 1061 L 61 1192 L 229 1284 L 61 1376 L 139 1507 L 309 1413 L 309 1597 L 459 1597 L 459 1411 L 627 1505 L 705 1374 L 543 1284 L 705 1194 Z" unicode="*" />
<glyph horiz-adv-x="1040" d="M 938 582 L 625 582 L 625 281 L 418 281 L 418 582 L 104 582 L 104 791 L 418 791 L 418 1092 L 625 1092 L 625 791 L 938 791 L 938 582 Z" unicode="+" />
<glyph horiz-adv-x="537" d="M 422 0 C 422 -70 411 -127 390 -171 C 368 -215 335 -252 291 -283 C 265 -301 239 -314 213 -322 C 187 -330 164 -336 145 -340 L 121 -236 C 171 -221 207 -199 227 -171 C 247 -143 260 -108 264 -66 C 264 -54 265 -43 265 -33 C 265 -22 266 -11 266 0 L 113 0 L 113 317 L 422 317 L 422 0 Z" unicode="," />
<glyph horiz-adv-x="1038" d="M 936 582 L 102 582 L 102 791 L 936 791 L 936 582 Z" unicode="-" />
<glyph horiz-adv-x="537" d="M 418 0 L 113 0 L 113 317 L 418 317 L 418 0 Z" unicode="." />
<glyph horiz-adv-x="975" d="M 967 1573 L 190 0 L 8 0 L 793 1573 L 967 1573 Z" unicode="/" />
<glyph horiz-adv-x="1135" d="M 1049 715 C 1049 418 1007 220 924 122 C 840 24 721 -25 565 -25 C 404 -25 284 23 205 120 C 125 216 86 413 86 711 C 86 1054 121 1287 191 1411 C 261 1535 385 1597 565 1597 C 734 1597 857 1535 934 1413 C 1010 1291 1049 1058 1049 715 Z M 786 770 C 786 1041 767 1215 731 1292 C 695 1368 640 1407 567 1407 C 489 1407 433 1368 399 1290 C 365 1212 348 1039 348 770 C 348 536 363 378 393 295 C 423 211 480 170 565 170 C 643 170 700 211 734 295 C 768 378 786 536 786 770 Z" unicode="0" />
<glyph horiz-adv-x="821" d="M 641 0 L 389 0 L 389 1157 C 370 1152 341 1147 302 1143 C 262 1139 231 1137 209 1137 C 181 1137 151 1137 118 1139 C 85 1140 57 1142 35 1145 L 35 1290 C 101 1292 158 1301 206 1315 C 254 1329 298 1351 338 1380 C 378 1406 409 1434 433 1464 C 457 1494 477 1530 494 1573 L 641 1573 L 641 0 Z" unicode="1" />
<glyph horiz-adv-x="1090" d="M 1028 0 L 90 0 L 90 272 C 251 390 402 525 543 675 C 683 825 754 969 754 1106 C 754 1200 735 1271 697 1318 C 659 1365 608 1389 543 1389 C 477 1389 427 1363 395 1312 C 362 1260 346 1192 346 1108 C 346 1073 348 1031 353 982 C 357 932 362 894 367 868 L 123 868 C 116 912 110 961 105 1016 C 100 1071 98 1118 98 1157 C 98 1281 136 1386 213 1470 C 289 1554 399 1597 541 1597 C 701 1597 821 1557 902 1477 C 983 1397 1024 1272 1024 1100 C 1024 934 951 778 805 634 C 659 489 500 354 328 229 L 1028 229 L 1028 0 Z" unicode="2" />
<glyph horiz-adv-x="1075" d="M 995 518 C 995 312 948 170 854 92 C 760 14 639 -25 492 -25 C 352 -25 244 8 168 76 C 92 143 55 230 55 336 C 55 374 57 414 63 456 C 68 497 76 533 86 565 L 332 580 C 329 559 325 538 321 516 C 317 494 315 468 315 436 C 315 354 329 291 357 247 C 385 202 434 180 502 180 C 572 180 628 204 670 253 C 712 302 733 391 733 520 C 733 624 711 698 668 742 C 625 785 568 807 496 807 C 476 807 454 802 428 794 C 402 785 379 774 358 760 L 240 883 L 657 1352 L 94 1352 L 94 1573 L 924 1573 L 924 1343 L 532 913 C 551 932 578 944 612 950 C 646 955 673 958 692 958 C 760 958 827 923 894 854 C 961 784 995 672 995 518 Z" unicode="3" />
<glyph horiz-adv-x="1124" d="M 1065 307 L 872 307 L 872 0 L 618 0 L 618 307 L 49 307 L 49 571 L 559 1573 L 872 1573 L 872 512 L 1065 512 L 1065 307 Z M 618 512 L 618 1249 L 256 512 L 618 512 Z" unicode="4" />
<glyph horiz-adv-x="1085" d="M 1001 518 C 1001 316 960 175 879 95 C 797 15 687 -25 547 -25 C 402 -25 290 5 212 67 C 133 128 94 219 94 340 C 94 374 95 407 97 439 C 99 470 103 496 109 518 L 365 516 C 361 496 358 477 356 457 C 353 437 352 412 352 381 C 352 309 366 256 396 222 C 425 187 467 170 522 170 C 588 170 640 198 678 254 C 716 310 735 398 735 520 C 735 647 718 735 684 783 C 650 831 600 856 535 856 C 481 856 444 839 422 805 C 400 771 385 736 377 702 L 123 719 L 164 1573 L 903 1573 L 897 1339 L 381 1339 L 352 895 C 380 949 420 989 471 1017 C 521 1045 581 1059 649 1059 C 770 1059 859 1011 916 915 C 972 819 1001 687 1001 518 Z" unicode="5" />
<glyph horiz-adv-x="1124" d="M 1051 504 C 1051 312 1006 176 918 96 C 830 15 715 -25 573 -25 C 431 -25 315 32 225 147 C 135 261 90 475 90 788 C 90 1094 130 1305 211 1422 C 291 1538 414 1597 580 1597 C 706 1597 809 1564 888 1500 C 966 1435 1006 1351 1006 1247 C 1006 1223 1004 1201 1001 1180 C 998 1158 995 1140 991 1126 L 748 1116 C 750 1129 753 1144 755 1160 C 757 1176 758 1192 758 1206 C 758 1276 742 1328 710 1361 C 678 1394 633 1411 573 1411 C 499 1411 441 1384 399 1330 C 357 1276 336 1182 336 1049 C 336 1024 336 989 336 945 C 336 900 338 869 340 852 C 378 921 423 969 474 995 C 524 1021 581 1034 645 1034 C 753 1034 847 997 929 925 C 1010 853 1051 712 1051 504 Z M 788 508 C 788 612 771 690 738 743 C 705 796 650 823 573 823 C 495 823 439 796 405 744 C 371 691 354 612 354 508 C 354 394 372 308 408 251 C 444 194 499 166 573 166 C 646 166 700 194 735 250 C 770 306 788 392 788 508 Z" unicode="6" />
<glyph horiz-adv-x="944" d="M 922 1573 L 911 1315 C 782 1175 688 1013 628 829 C 568 645 539 480 539 336 C 539 270 540 205 544 139 C 547 73 550 27 553 0 L 246 0 C 245 29 244 55 242 79 C 240 102 240 129 240 160 C 240 401 289 621 387 819 C 485 1017 598 1187 727 1329 L 31 1329 L 49 1573 L 922 1573 Z" unicode="7" />
<glyph horiz-adv-x="1030" d="M 969 416 C 969 256 932 143 858 76 C 784 8 668 -25 510 -25 C 367 -25 255 7 173 71 C 91 135 51 250 51 416 C 51 534 72 625 115 691 C 158 757 208 796 264 809 C 210 819 166 854 133 912 C 100 970 84 1042 84 1130 C 84 1281 118 1397 188 1477 C 258 1557 365 1597 510 1597 C 658 1597 768 1555 839 1473 C 910 1391 946 1276 946 1130 C 946 1050 928 979 893 919 C 858 858 812 821 754 809 C 812 800 862 761 905 692 C 947 622 969 530 969 416 Z M 709 444 C 709 550 690 623 654 665 C 618 706 570 727 510 727 C 442 727 393 705 362 662 C 330 619 315 546 315 444 C 315 339 331 266 364 224 C 397 182 446 162 510 162 C 576 162 625 182 659 223 C 692 264 709 338 709 444 Z M 690 1159 C 690 1257 673 1324 640 1361 C 607 1398 564 1417 510 1417 C 452 1417 410 1397 382 1358 C 354 1318 340 1252 340 1159 C 340 1050 353 978 380 943 C 407 908 450 891 510 891 C 571 891 616 908 646 942 C 675 976 690 1049 690 1159 Z" unicode="8" />
<glyph horiz-adv-x="1124" d="M 1034 784 C 1034 464 994 249 914 139 C 834 29 711 -25 545 -25 C 406 -25 301 7 231 72 C 160 137 125 222 125 326 C 125 349 125 371 126 393 C 126 414 129 432 133 446 L 371 457 C 370 443 369 428 368 412 C 367 396 367 381 367 367 C 367 296 382 245 414 213 C 445 181 491 166 551 166 C 625 166 683 192 726 244 C 769 296 791 388 791 522 C 791 546 790 580 788 624 C 786 667 784 697 782 715 C 751 653 708 610 652 585 C 596 559 539 547 479 547 C 371 547 276 582 195 653 C 114 724 74 863 74 1069 C 74 1252 115 1386 199 1470 C 283 1554 397 1597 541 1597 C 705 1597 829 1536 911 1415 C 993 1293 1034 1083 1034 784 Z M 770 1065 C 770 1181 752 1267 716 1323 C 680 1379 625 1407 551 1407 C 477 1407 423 1378 388 1322 C 353 1265 336 1179 336 1065 C 336 961 352 883 384 833 C 416 783 472 758 551 758 C 630 758 686 783 720 833 C 753 883 770 960 770 1065 Z" unicode="9" />
<glyph horiz-adv-x="537" d="M 414 0 L 121 0 L 121 317 L 414 317 L 414 0 Z M 414 776 L 121 776 L 121 1094 L 414 1094 L 414 776 Z" unicode=":" />
<glyph horiz-adv-x="537" d="M 430 0 C 430 -70 419 -127 398 -171 C 376 -215 343 -252 299 -283 C 277 -297 253 -309 225 -319 C 197 -329 173 -336 154 -340 L 129 -236 C 179 -221 215 -199 235 -171 C 255 -143 268 -108 272 -66 C 272 -54 273 -43 273 -33 C 273 -22 274 -11 274 0 L 121 0 L 121 317 L 430 317 L 430 0 Z M 414 768 L 121 768 L 121 1085 L 414 1085 L 414 768 Z" unicode=";" />
<glyph horiz-adv-x="895" d="M 754 254 L 127 561 L 127 758 L 754 1065 L 754 879 L 309 659 L 754 440 L 754 254 Z" unicode="&#x3C;" />
<glyph horiz-adv-x="1040" d="M 928 360 L 113 360 L 113 532 L 928 532 L 928 360 Z M 928 758 L 113 758 L 113 930 L 928 930 L 928 758 Z" unicode="=" />
<glyph horiz-adv-x="895" d="M 766 561 L 139 254 L 139 440 L 584 659 L 139 879 L 139 1065 L 766 758 L 766 561 Z" unicode="&#x3E;" />
<glyph horiz-adv-x="979" d="M 930 1122 C 930 917 902 774 847 694 C 791 613 714 573 614 573 C 553 573 505 583 469 605 C 433 627 405 651 385 678 L 385 440 L 197 440 L 197 932 L 354 932 C 369 885 388 850 411 827 C 434 804 467 793 510 793 C 576 793 618 816 638 863 C 658 910 668 993 668 1112 C 668 1211 653 1284 623 1330 C 593 1376 547 1399 485 1399 C 434 1399 396 1385 370 1358 C 344 1330 332 1291 332 1241 C 332 1222 333 1206 335 1192 C 337 1178 340 1166 344 1157 L 127 1157 C 121 1174 116 1191 114 1208 C 112 1225 111 1248 111 1278 C 111 1364 141 1439 202 1502 C 263 1565 368 1597 516 1597 C 660 1597 765 1555 831 1472 C 897 1388 930 1272 930 1122 Z M 459 0 L 166 0 L 166 317 L 459 317 L 459 0 Z" unicode="?" />
<glyph horiz-adv-x="1790" d="M 1669 797 C 1669 595 1633 436 1563 320 C 1492 204 1385 147 1243 147 C 1175 147 1123 165 1086 201 C 1049 237 1031 275 1032 315 C 1002 273 966 234 922 199 C 878 164 810 147 717 147 C 649 147 592 166 545 204 C 498 242 475 301 475 381 C 475 529 523 638 621 708 C 719 778 856 811 1032 809 L 1040 879 C 1047 939 1039 983 1016 1011 C 992 1039 962 1053 924 1053 C 872 1053 837 1037 820 1005 C 803 973 795 937 795 899 C 795 893 795 886 796 878 C 796 870 797 866 797 866 L 578 844 C 576 846 575 849 573 855 C 571 860 571 866 571 872 C 571 966 600 1044 658 1108 C 716 1172 819 1204 967 1204 C 1099 1204 1188 1167 1233 1094 C 1277 1020 1294 948 1284 877 L 1210 383 C 1205 350 1207 321 1217 297 C 1226 272 1252 260 1294 260 C 1363 260 1420 305 1464 396 C 1508 487 1530 620 1530 795 C 1530 1013 1470 1184 1350 1310 C 1230 1436 1082 1499 905 1499 C 719 1499 568 1417 450 1253 C 332 1089 274 883 274 635 C 274 363 335 160 457 24 C 579 -112 737 -180 932 -180 C 1009 -180 1082 -161 1151 -125 C 1220 -88 1278 -46 1325 2 L 1407 -88 C 1322 -155 1245 -206 1175 -241 C 1105 -275 1020 -293 922 -293 C 674 -293 479 -212 339 -51 C 199 110 129 339 129 637 C 129 917 197 1147 335 1327 C 472 1507 668 1597 922 1597 C 1146 1597 1326 1528 1463 1392 C 1600 1256 1669 1057 1669 797 Z M 1014 680 C 948 686 879 674 807 644 C 734 614 698 546 698 438 C 698 392 706 359 722 340 C 738 320 764 311 799 311 C 870 311 918 332 942 374 C 966 416 981 458 987 498 L 1014 680 Z" unicode="@" />
<glyph horiz-adv-x="1286" d="M 1225 0 L 963 0 L 879 344 L 395 344 L 313 0 L 61 0 L 467 1573 L 809 1573 L 1225 0 Z M 819 559 L 629 1325 L 451 559 L 819 559 Z" unicode="A" />
<glyph horiz-adv-x="1307" d="M 1194 444 C 1194 270 1149 152 1061 91 C 972 30 870 0 754 0 L 184 0 L 184 1573 L 688 1573 C 836 1573 949 1535 1028 1460 C 1107 1384 1147 1278 1147 1141 C 1147 1041 1128 966 1090 917 C 1052 868 1001 837 936 825 C 1004 815 1064 777 1116 712 C 1168 646 1194 557 1194 444 Z M 932 471 C 932 542 911 602 869 652 C 827 702 774 727 709 727 L 434 727 L 434 205 L 713 205 C 781 205 834 228 873 276 C 912 323 932 388 932 471 Z M 883 1143 C 883 1218 864 1275 828 1313 C 792 1351 743 1370 682 1370 L 434 1370 L 434 924 L 686 924 C 745 924 793 942 829 980 C 865 1017 883 1071 883 1143 Z" unicode="B" />
<glyph horiz-adv-x="1321" d="M 1208 635 C 1224 424 1193 261 1114 147 C 1034 32 894 -25 694 -25 C 491 -25 340 32 241 148 C 141 263 92 466 92 758 C 92 1061 141 1277 240 1405 C 339 1533 484 1597 676 1597 C 898 1597 1043 1538 1111 1422 C 1178 1305 1207 1162 1198 993 L 934 975 C 944 1133 927 1243 881 1305 C 835 1366 769 1397 684 1397 C 572 1397 491 1352 442 1264 C 393 1175 369 1012 369 774 C 369 536 397 377 453 298 C 509 219 590 180 696 180 C 834 180 912 232 930 336 C 948 440 954 548 948 659 L 1208 635 Z" unicode="C" />
<glyph horiz-adv-x="1364" d="M 1272 741 C 1272 508 1219 326 1113 196 C 1007 65 857 0 662 0 L 184 0 L 184 1573 L 678 1573 C 855 1573 998 1506 1108 1372 C 1217 1238 1272 1027 1272 741 Z M 1004 778 C 1004 1002 969 1156 901 1239 C 833 1322 747 1364 645 1364 L 440 1364 L 440 209 L 670 209 C 784 209 868 251 922 337 C 976 423 1004 570 1004 778 Z" unicode="D" />
<glyph horiz-adv-x="1184" d="M 1096 0 L 184 0 L 184 1573 L 1049 1573 L 1049 1364 L 442 1364 L 442 913 L 993 913 L 993 705 L 442 705 L 442 209 L 1096 209 L 1096 0 Z" unicode="E" />
<glyph horiz-adv-x="1120" d="M 1026 1364 L 440 1364 L 440 883 L 981 883 L 981 674 L 440 674 L 440 0 L 184 0 L 184 1573 L 1026 1573 L 1026 1364 Z" unicode="F" />
<glyph horiz-adv-x="1358" d="M 1208 0 L 1100 0 L 1018 137 C 978 92 930 54 875 22 C 819 -9 751 -25 670 -25 C 508 -25 371 27 259 133 C 147 239 92 441 92 741 C 92 1051 142 1272 243 1402 C 343 1532 487 1597 674 1597 C 867 1597 1004 1548 1084 1450 C 1164 1352 1202 1216 1198 1044 L 946 1016 C 948 1162 928 1262 884 1316 C 840 1370 773 1397 682 1397 C 568 1397 487 1349 440 1255 C 392 1160 369 989 369 743 C 369 516 400 365 463 289 C 526 213 607 176 707 176 C 800 176 868 203 910 257 C 952 311 971 390 967 492 L 961 602 L 768 602 L 768 813 L 1208 813 L 1208 0 Z" unicode="G" />
<glyph horiz-adv-x="1421" d="M 1237 0 L 981 0 L 981 719 L 440 719 L 440 0 L 184 0 L 184 1573 L 440 1573 L 440 930 L 981 930 L 981 1573 L 1237 1573 L 1237 0 Z" unicode="H" />
<glyph horiz-adv-x="627" d="M 442 0 L 184 0 L 184 1573 L 442 1573 L 442 0 Z" unicode="I" />
<glyph horiz-adv-x="1098" d="M 926 449 C 926 299 892 182 826 99 C 760 16 641 -25 469 -25 C 340 -25 242 14 174 92 C 106 170 72 267 72 383 C 72 407 73 432 76 458 C 79 484 84 510 90 537 L 330 545 C 323 514 318 487 315 463 C 312 439 311 415 311 393 C 311 323 325 272 353 240 C 381 208 426 193 487 193 C 551 193 597 212 626 251 C 655 290 670 371 670 494 L 670 1573 L 926 1573 L 926 449 Z" unicode="J" />
<glyph horiz-adv-x="1272" d="M 1231 0 L 938 0 L 442 696 L 442 0 L 184 0 L 184 1573 L 442 1573 L 442 958 L 889 1573 L 1153 1573 L 612 854 L 1231 0 Z" unicode="K" />
<glyph horiz-adv-x="1081" d="M 1020 0 L 184 0 L 184 1573 L 442 1573 L 442 209 L 1020 209 L 1020 0 Z" unicode="L" />
<glyph horiz-adv-x="1755" d="M 1571 0 L 1323 0 L 1323 1266 L 969 0 L 735 0 L 422 1266 L 422 0 L 184 0 L 184 1573 L 573 1573 L 874 399 L 1200 1573 L 1571 1573 L 1571 0 Z" unicode="M" />
<glyph horiz-adv-x="1370" d="M 1186 0 L 946 0 L 418 1020 L 418 0 L 184 0 L 184 1573 L 424 1573 L 952 508 L 952 1573 L 1186 1573 L 1186 0 Z" unicode="N" />
<glyph horiz-adv-x="1403" d="M 1311 788 C 1311 474 1256 260 1147 146 C 1037 32 888 -25 700 -25 C 507 -25 357 33 251 149 C 145 265 92 478 92 788 C 92 1083 148 1292 261 1414 C 373 1536 520 1597 700 1597 C 876 1597 1022 1536 1138 1415 C 1253 1293 1311 1084 1311 788 Z M 1036 784 C 1036 1032 1003 1197 938 1278 C 872 1358 793 1399 700 1399 C 598 1399 517 1358 457 1276 C 397 1194 367 1030 367 784 C 367 531 396 367 454 291 C 512 215 594 178 700 178 C 795 178 875 216 939 292 C 1003 368 1036 532 1036 784 Z" unicode="O" />
<glyph horiz-adv-x="1249" d="M 1176 1085 C 1176 907 1129 782 1037 710 C 945 638 822 602 668 602 L 442 602 L 442 0 L 184 0 L 184 1573 L 633 1573 C 801 1573 933 1537 1030 1465 C 1127 1393 1176 1266 1176 1085 Z M 901 1085 C 901 1178 879 1249 836 1297 C 792 1345 740 1370 678 1370 L 442 1370 L 442 805 L 684 805 C 740 805 790 828 834 875 C 878 921 901 991 901 1085 Z" unicode="P" />
<glyph horiz-adv-x="1403" d="M 1311 788 C 1311 484 1262 277 1165 165 C 1068 53 938 -7 774 -18 C 774 -18 772 -29 769 -51 C 765 -73 764 -88 764 -96 C 764 -134 772 -163 790 -183 C 807 -203 834 -213 872 -213 C 910 -213 937 -197 951 -167 C 965 -136 971 -99 971 -57 L 1147 -78 L 1147 -115 C 1147 -200 1123 -263 1077 -304 C 1031 -344 961 -365 868 -365 C 761 -365 682 -343 631 -301 C 580 -259 555 -195 555 -111 C 555 -96 556 -78 558 -57 C 560 -36 563 -20 565 -10 C 414 10 297 79 215 196 C 133 312 92 510 92 788 C 92 1092 148 1302 261 1420 C 373 1538 520 1597 700 1597 C 876 1597 1022 1538 1138 1421 C 1253 1303 1311 1092 1311 788 Z M 1036 784 C 1036 1032 1003 1197 938 1278 C 872 1358 793 1399 700 1399 C 598 1399 517 1358 457 1276 C 397 1194 367 1030 367 784 C 367 531 396 367 454 291 C 512 215 594 178 700 178 C 795 178 875 216 939 292 C 1003 368 1036 532 1036 784 Z" unicode="Q" />
<glyph horiz-adv-x="1307" d="M 1184 0 L 915 0 C 901 19 891 45 885 78 C 879 110 877 144 877 180 C 877 203 877 244 877 302 C 877 360 877 408 877 446 C 874 495 857 539 827 579 C 797 619 745 639 672 639 L 442 639 L 442 0 L 184 0 L 184 1573 L 684 1573 C 846 1573 969 1532 1053 1452 C 1137 1372 1180 1256 1180 1104 C 1180 983 1153 897 1099 847 C 1045 797 984 760 915 737 C 993 730 1051 693 1089 626 C 1126 558 1145 463 1145 340 C 1145 309 1145 279 1147 249 C 1149 219 1150 195 1151 176 C 1153 143 1156 109 1162 74 C 1167 39 1174 14 1184 0 Z M 913 1102 C 913 1187 888 1252 840 1297 C 791 1341 725 1364 643 1364 L 442 1364 L 442 848 L 668 848 C 742 848 801 869 846 911 C 890 953 913 1016 913 1102 Z" unicode="R" />
<glyph horiz-adv-x="1180" d="M 1106 465 C 1106 303 1062 180 976 98 C 889 16 758 -25 582 -25 C 420 -25 296 9 211 79 C 126 149 84 244 84 365 C 84 396 86 425 90 451 C 94 477 101 502 111 528 L 360 539 C 354 520 349 500 346 480 C 343 459 342 436 342 412 C 342 322 364 259 408 225 C 452 191 510 174 584 174 C 670 174 735 194 778 235 C 820 275 842 337 842 420 C 842 474 824 523 790 568 C 755 613 681 659 569 705 L 358 793 C 286 823 225 869 176 931 C 126 993 102 1067 102 1155 C 102 1282 141 1387 220 1471 C 299 1555 420 1597 582 1597 C 714 1597 822 1562 904 1492 C 986 1422 1028 1331 1028 1219 C 1028 1191 1025 1165 1019 1141 C 1013 1117 1008 1096 1004 1079 L 764 1071 C 768 1084 771 1099 775 1116 C 778 1133 780 1154 780 1178 C 780 1251 762 1307 727 1346 C 691 1385 635 1405 559 1405 C 489 1405 437 1386 403 1350 C 369 1313 352 1267 352 1212 C 352 1159 364 1117 390 1086 C 415 1054 476 1017 573 975 L 809 870 C 909 825 984 769 1033 703 C 1081 637 1106 557 1106 465 Z" unicode="S" />
<glyph horiz-adv-x="1112" d="M 1067 1364 L 688 1364 L 688 0 L 430 0 L 430 1364 L 45 1364 L 45 1573 L 1067 1573 L 1067 1364 Z" unicode="T" />
<glyph horiz-adv-x="1374" d="M 1202 467 C 1202 322 1169 204 1105 112 C 1041 20 902 -25 690 -25 C 491 -25 355 17 282 103 C 208 189 172 310 172 467 L 172 1573 L 426 1573 L 426 440 C 426 366 445 305 484 256 C 522 206 591 182 690 182 C 802 182 874 208 906 260 C 938 312 954 372 954 440 L 954 1573 L 1202 1573 L 1202 467 Z" unicode="U" />
<glyph horiz-adv-x="1262" d="M 1190 1573 L 788 0 L 473 0 L 72 1573 L 336 1573 L 641 322 L 651 322 L 950 1573 L 1190 1573 Z" unicode="V" />
<glyph horiz-adv-x="1718" d="M 1647 1573 L 1325 0 L 1085 0 L 866 1024 L 633 0 L 395 0 L 72 1573 L 332 1573 L 530 512 L 741 1573 L 993 1573 L 1200 512 L 1403 1573 L 1647 1573 Z" unicode="W" />
<glyph horiz-adv-x="1266" d="M 1214 0 L 930 0 L 637 573 L 319 0 L 51 0 L 510 825 L 123 1573 L 410 1573 L 664 1075 L 936 1573 L 1206 1573 L 793 821 L 1214 0 Z" unicode="X" />
<glyph horiz-adv-x="1233" d="M 1182 1573 L 745 614 L 745 0 L 487 0 L 487 614 L 51 1573 L 326 1573 L 629 862 L 940 1573 L 1182 1573 Z" unicode="Y" />
<glyph horiz-adv-x="1212" d="M 1083 0 L 106 0 L 106 268 L 811 1360 L 154 1360 L 154 1573 L 1083 1573 L 1083 1317 L 365 213 L 1083 213 L 1083 0 Z" unicode="Z" />
<glyph horiz-adv-x="797" d="M 707 -233 L 139 -233 L 139 1573 L 707 1573 L 707 1393 L 375 1393 L 375 -53 L 707 -53 L 707 -233 Z" unicode="[" />
<glyph horiz-adv-x="975" d="M 967 0 L 784 0 L 8 1573 L 182 1573 L 967 0 Z" unicode="\" />
<glyph horiz-adv-x="797" d="M 623 -233 L 55 -233 L 55 -53 L 387 -53 L 387 1393 L 55 1393 L 55 1573 L 623 1573 L 623 -233 Z" unicode="]" />
<glyph horiz-adv-x="1075" d="M 872 1176 L 682 1176 L 532 1389 L 385 1176 L 195 1176 L 428 1573 L 637 1573 L 872 1176 Z" unicode="^" />
<glyph horiz-adv-x="1196" d="M 1196 -410 L 0 -410 L 0 -211 L 1196 -211 L 1196 -410 Z" unicode="_" />
<glyph horiz-adv-x="737" d="M 610 1282 L 455 1282 L 88 1516 L 88 1538 L 449 1538 L 610 1282 Z" unicode="`" />
<glyph horiz-adv-x="1206" d="M 1167 37 C 1140 23 1110 11 1076 1 C 1042 -8 1002 -14 956 -14 C 907 -14 869 0 841 29 C 813 58 795 102 786 160 C 750 94 699 46 634 18 C 568 -10 499 -25 426 -25 C 303 -25 214 8 158 74 C 102 140 74 225 74 330 C 74 423 106 496 170 549 C 234 602 309 640 397 662 C 505 688 594 714 664 738 C 734 762 773 789 782 819 C 782 892 764 948 728 986 C 692 1024 635 1044 557 1044 C 469 1044 413 1028 387 997 C 361 966 348 933 348 897 C 348 876 349 859 353 846 C 357 833 361 818 367 801 L 135 786 C 129 810 124 830 121 848 C 118 866 117 889 117 918 C 117 1006 155 1077 233 1131 C 311 1185 423 1212 569 1212 C 709 1212 819 1183 898 1126 C 976 1068 1016 979 1016 858 L 1016 252 C 1016 220 1022 195 1036 179 C 1050 162 1083 154 1135 154 L 1167 154 L 1167 37 Z M 782 633 C 770 613 744 595 706 579 C 667 563 630 551 594 543 C 498 521 429 493 387 458 C 345 423 324 377 324 319 C 324 268 341 226 377 192 C 413 158 469 144 547 152 C 605 156 655 180 699 224 C 743 267 767 329 772 410 C 772 428 774 469 777 535 C 780 600 782 633 782 633 Z" unicode="a" />
<glyph horiz-adv-x="1227" d="M 1137 592 C 1137 359 1094 200 1009 114 C 923 28 816 -14 688 -14 C 581 -14 499 7 443 51 C 386 94 347 132 326 164 L 221 0 L 135 0 L 135 1573 L 377 1573 L 377 969 C 393 1017 428 1068 482 1121 C 536 1173 611 1200 707 1200 C 813 1200 912 1159 1002 1077 C 1092 995 1137 834 1137 592 Z M 885 588 C 885 764 863 878 820 930 C 777 982 713 1008 629 1008 C 555 1008 495 971 449 897 C 402 823 379 721 379 590 C 379 440 399 332 441 267 C 482 202 545 170 631 170 C 708 170 770 194 816 244 C 862 294 885 408 885 588 Z" unicode="b" />
<glyph horiz-adv-x="1124" d="M 1024 332 C 1024 244 987 163 915 88 C 843 12 730 -25 578 -25 C 408 -25 285 18 207 104 C 129 190 90 337 90 545 C 90 792 135 965 227 1064 C 318 1162 441 1212 596 1212 C 742 1212 846 1176 909 1104 C 972 1032 1004 944 1004 840 C 1004 820 1003 802 1003 786 C 1002 769 1000 754 997 741 L 766 733 C 768 743 769 754 770 764 C 771 774 772 787 772 803 C 772 880 753 936 717 971 C 681 1006 636 1024 582 1024 C 497 1024 436 993 398 931 C 360 869 342 764 342 616 C 342 438 359 320 393 262 C 427 203 490 174 580 174 C 653 174 707 192 742 228 C 777 264 795 327 795 418 C 795 430 794 444 792 459 C 790 474 789 486 788 496 L 1008 483 C 1012 463 1016 441 1019 416 C 1022 391 1024 363 1024 332 Z" unicode="c" />
<glyph horiz-adv-x="1227" d="M 1092 0 L 852 0 L 852 162 C 822 104 778 60 719 30 C 659 0 596 -16 530 -16 C 386 -16 277 30 202 123 C 127 215 90 368 90 580 C 90 779 131 930 213 1034 C 295 1138 403 1190 535 1190 C 616 1190 682 1172 733 1136 C 784 1100 823 1052 850 993 L 850 1573 L 1092 1573 L 1092 0 Z M 842 586 C 842 658 835 720 822 772 C 809 824 795 866 780 897 C 768 922 746 948 714 975 C 682 1002 640 1016 586 1016 C 501 1016 439 980 400 908 C 361 836 342 730 342 588 C 342 430 360 319 398 255 C 435 191 499 160 590 160 C 676 160 740 194 781 263 C 821 331 842 439 842 586 Z" unicode="d" />
<glyph horiz-adv-x="1120" d="M 1036 309 C 1028 211 987 131 915 69 C 843 6 732 -25 584 -25 C 418 -25 294 16 212 98 C 130 180 90 338 90 571 C 90 796 134 959 224 1060 C 313 1161 432 1212 580 1212 C 708 1212 811 1173 889 1096 C 966 1018 1010 902 1022 748 C 1022 731 1023 715 1023 699 C 1023 683 1024 667 1024 653 C 1024 631 1023 611 1022 591 C 1021 571 1020 553 1020 537 L 336 537 C 335 412 355 319 397 257 C 439 195 501 164 584 164 C 668 164 726 182 756 220 C 786 258 802 304 805 358 C 805 367 806 377 806 389 C 806 400 807 406 807 406 L 1034 385 C 1036 373 1037 362 1037 351 C 1037 340 1036 326 1036 309 Z M 793 692 C 793 705 793 722 793 744 C 793 766 791 786 788 805 C 778 875 754 928 717 964 C 680 1000 633 1018 575 1018 C 501 1018 443 992 403 941 C 362 890 340 807 336 692 L 793 692 Z" unicode="e" />
<glyph horiz-adv-x="752" d="M 801 1417 C 801 1393 799 1372 797 1352 C 794 1332 790 1313 786 1296 L 604 1305 C 606 1313 607 1324 609 1338 C 611 1351 612 1365 612 1380 C 612 1403 605 1421 591 1435 C 577 1449 556 1456 528 1456 C 503 1456 483 1448 467 1434 C 451 1420 440 1400 436 1376 C 432 1343 430 1308 431 1270 C 431 1232 433 1200 436 1176 L 696 1176 L 696 1014 L 455 1014 L 455 0 L 213 0 L 213 1014 L 25 1014 L 25 1176 L 213 1176 C 212 1200 211 1224 210 1246 C 209 1268 209 1291 209 1315 C 209 1404 232 1477 279 1533 C 325 1589 398 1618 498 1618 C 595 1618 670 1600 722 1565 C 774 1529 801 1480 801 1417 Z" unicode="f" />
<glyph horiz-adv-x="1126" d="M 1102 -20 C 1102 -133 1058 -222 972 -287 C 886 -352 742 -385 541 -385 C 366 -385 240 -363 163 -319 C 85 -275 47 -216 47 -141 C 47 -89 66 -45 105 -10 C 144 24 211 49 307 63 C 210 65 145 88 111 131 C 77 174 61 217 61 260 C 61 313 79 361 116 404 C 153 447 213 476 297 492 C 233 519 186 563 154 625 C 122 687 106 751 106 817 C 106 931 145 1023 225 1092 C 304 1161 417 1196 563 1196 C 607 1196 642 1193 667 1188 C 692 1183 714 1177 733 1171 L 776 1399 L 1014 1399 L 872 1110 C 912 1086 947 1051 977 1003 C 1007 955 1022 893 1022 817 C 1022 708 985 618 911 546 C 837 474 737 438 610 438 C 564 438 525 439 495 443 C 465 447 438 452 416 459 C 376 455 343 445 317 430 C 291 414 279 394 279 369 C 279 341 291 322 315 312 C 339 302 400 299 496 303 L 692 315 C 826 323 928 300 998 244 C 1067 188 1102 100 1102 -20 Z M 905 -63 C 905 -8 884 28 844 46 C 803 64 738 74 649 74 C 606 74 564 72 524 69 C 483 65 447 61 416 57 C 375 42 338 21 304 -6 C 270 -33 254 -63 254 -96 C 254 -146 275 -181 317 -203 C 359 -225 436 -236 547 -236 C 679 -236 772 -219 825 -185 C 878 -151 905 -110 905 -63 Z M 772 817 C 772 893 754 952 718 992 C 682 1032 631 1053 563 1053 C 491 1053 439 1032 406 992 C 372 952 356 893 356 817 C 356 732 375 672 413 638 C 451 603 501 586 563 586 C 632 586 684 603 719 638 C 754 672 772 732 772 817 Z" unicode="g" />
<glyph horiz-adv-x="1214" d="M 1081 0 L 836 0 L 836 758 C 836 846 820 908 789 944 C 757 979 706 997 635 997 C 579 997 523 967 466 907 C 409 847 381 761 381 651 L 381 0 L 135 0 L 135 1573 L 379 1573 L 379 913 C 404 1001 449 1070 514 1121 C 579 1172 662 1198 762 1198 C 864 1198 943 1173 998 1125 C 1053 1077 1081 1003 1081 903 L 1081 0 Z" unicode="h" />
<glyph horiz-adv-x="520" d="M 385 0 L 135 0 L 135 1176 L 385 1176 L 385 0 Z M 389 1288 L 131 1288 L 131 1573 L 389 1573 L 389 1288 Z" unicode="i" />
<glyph horiz-adv-x="549" d="M 408 -55 C 408 -165 385 -244 341 -294 C 297 -344 221 -369 113 -369 C 13 -369 -61 -351 -111 -316 C -161 -280 -186 -222 -186 -141 C -186 -126 -183 -108 -178 -87 C -173 -65 -168 -49 -162 -37 L 16 -41 C 14 -51 12 -62 11 -75 C 10 -87 10 -99 10 -111 C 10 -142 17 -166 32 -182 C 47 -198 67 -207 92 -207 C 118 -207 139 -199 154 -183 C 168 -167 176 -147 176 -123 C 176 -105 173 -86 169 -66 C 164 -46 162 -20 162 10 L 162 1176 L 408 1176 L 408 -55 Z M 414 1288 L 158 1288 L 158 1573 L 414 1573 L 414 1288 Z" unicode="j" />
<glyph horiz-adv-x="1110" d="M 1073 0 L 797 0 L 520 526 L 379 344 L 379 0 L 135 0 L 135 1573 L 379 1573 L 379 662 L 752 1176 L 1020 1176 L 680 735 L 1073 0 Z" unicode="k" />
<glyph horiz-adv-x="520" d="M 385 0 L 135 0 L 135 1573 L 385 1573 L 385 0 Z" unicode="l" />
<glyph horiz-adv-x="1815" d="M 1679 0 L 1434 0 L 1434 758 C 1434 850 1421 913 1397 947 C 1372 980 1328 997 1264 997 C 1214 997 1163 964 1110 899 C 1056 834 1030 751 1030 651 L 1030 0 L 784 0 L 784 758 C 784 850 770 913 742 947 C 714 980 672 997 616 997 C 566 997 514 967 461 907 C 407 847 381 761 381 651 L 381 0 L 135 0 L 135 1176 L 379 1176 L 379 913 C 404 1001 447 1070 509 1121 C 571 1172 647 1198 739 1198 C 831 1198 901 1175 949 1130 C 997 1084 1023 1012 1026 913 C 1048 1001 1094 1070 1162 1121 C 1230 1172 1309 1198 1399 1198 C 1492 1198 1562 1170 1609 1115 C 1655 1059 1679 982 1679 883 L 1679 0 Z" unicode="m" />
<glyph horiz-adv-x="1214" d="M 1081 0 L 836 0 L 836 758 C 836 850 819 913 786 947 C 752 980 702 997 635 997 C 579 997 523 967 466 907 C 409 847 381 761 381 651 L 381 0 L 135 0 L 135 1176 L 379 1176 L 379 913 C 404 1001 449 1070 514 1121 C 579 1172 662 1198 762 1198 C 864 1198 943 1173 998 1125 C 1053 1077 1081 1003 1081 903 L 1081 0 Z" unicode="n" />
<glyph horiz-adv-x="1176" d="M 1085 569 C 1085 355 1040 202 952 111 C 864 20 742 -25 588 -25 C 424 -25 300 21 216 113 C 132 205 90 357 90 569 C 90 787 132 949 217 1054 C 302 1159 426 1212 588 1212 C 753 1212 877 1156 960 1045 C 1043 934 1085 775 1085 569 Z M 834 578 C 834 740 813 854 773 922 C 732 990 670 1024 588 1024 C 503 1024 441 990 401 922 C 361 854 342 740 342 578 C 342 430 361 325 400 265 C 438 204 501 174 588 174 C 674 174 737 205 776 267 C 814 329 834 433 834 578 Z" unicode="o" />
<glyph horiz-adv-x="1227" d="M 1137 592 C 1137 367 1094 210 1009 120 C 923 30 816 -14 688 -14 C 606 -14 541 5 491 43 C 441 81 403 122 379 166 L 379 -336 L 135 -336 L 135 1176 L 377 1176 L 377 952 C 402 1030 444 1091 504 1135 C 564 1178 631 1200 707 1200 C 813 1200 912 1159 1002 1077 C 1092 995 1137 834 1137 592 Z M 885 588 C 885 742 860 850 811 910 C 761 970 701 1001 629 1001 C 565 1001 508 967 456 900 C 404 833 379 730 379 590 C 379 424 403 314 451 258 C 499 202 559 174 631 174 C 692 174 750 198 804 247 C 858 295 885 409 885 588 Z" unicode="p" />
<glyph horiz-adv-x="1227" d="M 1092 -336 L 848 -336 L 848 172 C 823 124 782 80 724 41 C 666 1 601 -18 528 -18 C 398 -18 293 29 212 123 C 130 217 90 364 90 565 C 90 777 131 935 215 1037 C 298 1139 409 1190 547 1190 C 644 1190 719 1166 772 1118 C 824 1070 860 1023 879 979 L 975 1176 L 1092 1176 L 1092 -336 Z M 846 592 C 846 757 816 868 757 925 C 697 981 638 1010 578 1010 C 514 1010 459 978 412 915 C 365 852 342 740 342 578 C 342 430 359 322 394 254 C 429 186 494 152 590 152 C 666 152 727 186 775 256 C 822 326 846 438 846 592 Z" unicode="q" />
<glyph horiz-adv-x="1049" d="M 1016 936 C 1016 903 1011 865 1002 823 C 992 781 981 743 967 711 L 748 670 C 754 692 759 719 765 749 C 771 779 774 809 774 840 C 774 886 761 923 735 951 C 709 979 671 993 621 993 C 548 993 490 959 447 891 C 404 823 383 739 383 637 L 383 0 L 135 0 L 135 1176 L 377 1176 L 377 907 C 399 992 439 1062 496 1118 C 553 1174 620 1202 698 1202 C 796 1202 873 1177 930 1129 C 987 1081 1016 1016 1016 936 Z" unicode="r" />
<glyph horiz-adv-x="1077" d="M 1008 348 C 1008 238 968 148 890 79 C 811 9 691 -25 530 -25 C 382 -25 269 4 191 63 C 113 121 74 192 74 276 C 74 302 77 327 83 353 C 89 378 95 401 102 422 L 324 408 C 320 394 317 381 315 368 C 312 354 311 342 311 330 C 311 282 328 241 362 207 C 396 173 452 156 530 156 C 603 156 658 169 696 197 C 733 225 752 265 752 317 C 752 347 739 378 714 410 C 688 442 624 474 522 506 L 358 557 C 274 583 208 619 160 663 C 112 707 88 774 88 866 C 88 970 127 1054 206 1117 C 285 1180 387 1212 512 1212 C 656 1212 766 1183 843 1126 C 919 1069 958 1001 958 922 C 958 903 956 887 953 874 C 949 860 946 848 942 838 L 705 821 C 707 831 710 843 714 857 C 717 870 719 884 719 899 C 719 935 702 966 669 992 C 635 1018 585 1032 518 1032 C 452 1032 405 1016 375 984 C 345 952 330 921 330 891 C 330 857 343 829 369 809 C 395 789 444 767 516 745 L 690 692 C 792 660 870 616 925 560 C 980 503 1008 432 1008 348 Z" unicode="s" />
<glyph horiz-adv-x="903" d="M 850 57 C 826 45 785 30 726 12 C 667 -5 601 -14 528 -14 C 434 -14 361 9 309 56 C 257 103 231 186 231 305 L 231 1014 L 12 1014 L 12 1176 L 231 1176 L 231 1499 L 479 1499 L 479 1176 L 772 1176 L 772 1014 L 479 1014 L 479 303 C 479 255 492 221 518 202 C 544 183 585 174 641 174 C 681 174 718 179 753 191 C 788 203 820 215 850 227 L 850 57 Z" unicode="t" />
<glyph horiz-adv-x="1214" d="M 1079 0 L 836 0 L 836 238 C 800 160 753 97 697 48 C 641 0 563 -25 463 -25 C 360 -25 279 4 221 62 C 162 120 133 199 133 299 L 133 1176 L 379 1176 L 379 418 C 379 339 392 279 420 239 C 447 198 500 178 580 178 C 650 178 709 212 759 281 C 809 350 834 431 834 524 L 834 1176 L 1079 1176 L 1079 0 Z" unicode="u" />
<glyph horiz-adv-x="1163" d="M 1112 1176 L 731 0 L 440 0 L 51 1176 L 305 1176 L 590 246 L 879 1176 L 1112 1176 Z" unicode="v" />
<glyph horiz-adv-x="1642" d="M 1591 1176 L 1257 0 L 1028 0 L 823 801 L 629 0 L 389 0 L 51 1176 L 297 1176 L 522 360 L 705 1176 L 946 1176 L 1157 360 L 1360 1176 L 1591 1176 Z" unicode="w" />
<glyph horiz-adv-x="1171" d="M 1130 0 L 850 0 L 571 436 L 283 0 L 41 0 L 457 608 L 80 1176 L 358 1176 L 600 799 L 856 1176 L 1094 1176 L 717 621 L 1130 0 Z" unicode="x" />
<glyph horiz-adv-x="1163" d="M 1112 1176 L 725 -10 C 683 -137 624 -229 549 -285 C 473 -341 388 -369 293 -369 C 183 -369 103 -346 55 -300 C 6 -254 -18 -195 -18 -121 C -18 -106 -16 -92 -14 -80 C -11 -68 -8 -54 -6 -39 L 209 -39 C 206 -49 204 -62 202 -77 C 200 -91 199 -105 199 -119 C 199 -144 208 -163 228 -177 C 247 -190 271 -197 301 -197 C 337 -197 367 -182 391 -153 C 415 -123 434 -81 449 -27 L 51 1176 L 313 1176 L 592 254 L 879 1176 L 1112 1176 Z" unicode="y" />
<glyph horiz-adv-x="1067" d="M 967 0 L 88 0 L 88 229 L 705 975 L 117 975 L 117 1176 L 967 1176 L 967 932 L 350 201 L 967 201 L 967 0 Z" unicode="z" />
<glyph horiz-adv-x="782" d="M 696 -233 L 481 -233 C 394 -233 332 -213 294 -175 C 256 -137 238 -65 238 39 L 238 535 C 238 575 231 602 217 618 C 203 633 177 641 139 641 L 78 641 L 78 805 L 139 805 C 183 805 211 812 222 828 C 232 844 238 876 238 926 L 238 1294 C 238 1378 254 1446 287 1497 C 319 1547 384 1573 481 1573 L 696 1573 L 696 1393 L 553 1393 C 523 1393 503 1380 491 1356 C 479 1331 473 1306 473 1282 L 473 893 C 473 837 464 794 448 766 C 431 737 397 723 346 723 C 388 723 420 706 441 674 C 462 641 473 597 473 541 L 473 57 C 473 27 478 2 489 -20 C 499 -42 521 -53 553 -53 L 696 -53 L 696 -233 Z" unicode="{" />
<glyph horiz-adv-x="498" d="M 340 -410 L 158 -410 L 158 1638 L 340 1638 L 340 -410 Z" unicode="|" />
<glyph horiz-adv-x="782" d="M 727 641 L 666 641 C 628 641 602 633 588 618 C 574 602 567 575 567 535 L 567 39 C 567 -65 548 -137 510 -175 C 472 -213 410 -233 324 -233 L 109 -233 L 109 -53 L 252 -53 C 283 -53 304 -42 315 -20 C 326 2 332 27 332 57 L 332 541 C 332 597 342 641 363 674 C 384 706 416 723 459 723 C 407 723 373 737 357 766 C 340 794 332 837 332 893 L 332 1282 C 332 1306 326 1331 314 1356 C 302 1380 281 1393 252 1393 L 109 1393 L 109 1573 L 324 1573 C 420 1573 485 1547 518 1497 C 550 1446 567 1378 567 1294 L 567 926 C 567 876 572 844 582 828 C 592 812 620 805 666 805 L 727 805 L 727 641 Z" unicode="}" />
<glyph horiz-adv-x="1075" d="M 938 1432 C 938 1368 919 1319 882 1283 C 844 1247 789 1229 715 1229 C 673 1229 635 1237 603 1253 C 570 1269 544 1283 526 1296 L 471 1341 C 453 1354 436 1365 418 1375 C 400 1384 380 1389 360 1389 C 316 1389 289 1375 280 1347 C 271 1319 271 1289 281 1255 L 176 1255 C 168 1269 162 1287 158 1307 C 154 1327 152 1351 152 1380 C 152 1441 167 1490 197 1527 C 227 1564 280 1583 354 1583 C 404 1583 445 1574 478 1557 C 511 1540 542 1522 571 1503 L 631 1460 C 649 1449 665 1440 677 1432 C 689 1424 705 1421 725 1421 C 767 1421 794 1436 806 1466 C 818 1496 819 1529 809 1565 L 911 1565 C 918 1550 924 1533 930 1514 C 935 1494 938 1467 938 1432 Z" unicode="~" />
<glyph horiz-adv-x="256" d="" unicode=" " />
<glyph horiz-adv-x="524" d="M 136 533 L 179 1118 L 345 1118 L 398 533 L 398 0 L 136 0 L 136 533 Z M 130 1573 L 404 1573 L 404 1274 L 130 1274 L 130 1573 Z" unicode="¡" />
<glyph horiz-adv-x="1124" d="M 1024 598 C 1024 516 994 438 936 362 C 878 286 779 242 641 231 L 641 86 L 518 86 L 518 231 C 370 239 261 287 193 375 C 124 462 90 603 90 799 C 90 1025 128 1188 205 1290 C 282 1392 386 1449 518 1462 L 518 1573 L 641 1573 L 641 1464 C 774 1457 868 1418 922 1348 C 976 1277 1004 1192 1004 1094 C 1004 1074 1003 1056 1002 1040 C 1000 1023 999 1008 997 995 L 766 987 C 768 999 769 1010 770 1020 C 771 1029 772 1041 772 1057 C 772 1119 759 1166 735 1200 C 711 1233 679 1254 641 1264 L 641 432 C 693 442 731 468 757 508 C 782 548 795 606 795 684 C 795 697 794 712 792 729 C 790 746 787 759 784 768 L 1008 756 C 1012 736 1016 713 1019 686 C 1022 659 1024 630 1024 598 Z M 518 432 L 518 1266 C 456 1252 412 1215 386 1154 C 359 1093 346 998 346 870 C 346 715 358 606 383 543 C 407 479 452 442 518 432 Z" unicode="¢" />
<glyph horiz-adv-x="1272" d="M 1235 383 C 1235 235 1203 130 1139 68 C 1075 6 991 -25 887 -25 C 801 -25 724 -11 654 15 C 584 42 531 65 496 84 C 456 48 414 21 371 3 C 328 -14 281 -23 229 -23 C 169 -23 120 -6 83 28 C 45 62 27 106 27 160 C 27 218 43 267 76 307 C 109 347 169 367 256 367 C 290 367 323 363 356 356 C 388 348 418 338 446 326 C 454 346 462 369 468 393 C 474 417 478 446 479 479 C 479 513 478 544 476 570 C 474 596 469 626 461 659 L 219 659 L 219 862 L 393 862 C 374 894 357 935 342 983 C 326 1031 319 1085 319 1145 C 319 1289 354 1400 426 1479 C 498 1557 606 1597 750 1597 C 872 1597 971 1565 1045 1502 C 1119 1439 1157 1332 1157 1182 C 1157 1162 1155 1142 1153 1121 C 1150 1099 1147 1081 1143 1067 L 893 1040 C 897 1062 900 1088 903 1116 C 905 1144 907 1169 907 1192 C 907 1266 892 1318 863 1349 C 833 1379 794 1395 745 1395 C 707 1395 671 1379 639 1348 C 606 1316 590 1268 590 1202 C 590 1147 599 1087 619 1021 C 638 955 656 902 674 862 L 940 862 L 940 659 L 707 659 C 709 648 710 630 712 604 C 714 578 715 559 715 545 C 715 483 707 428 691 380 C 675 331 653 292 625 264 C 650 253 680 240 714 224 C 748 208 786 201 829 201 C 898 201 943 221 964 263 C 984 305 995 364 995 442 C 995 455 994 467 993 477 C 992 487 991 499 991 512 L 1219 481 C 1223 466 1226 450 1230 432 C 1233 414 1235 398 1235 383 Z M 344 154 C 327 160 308 166 288 172 C 267 177 247 180 229 180 C 211 180 198 176 190 170 C 182 163 178 153 178 141 C 178 130 183 121 193 115 C 203 109 214 106 227 106 C 244 106 263 109 285 117 C 307 124 326 136 344 154 Z" unicode="£" />
<glyph horiz-adv-x="1133" d="M 1130 1573 L 911 1094 L 1100 1094 L 1100 944 L 844 944 L 748 732 L 1100 732 L 1100 582 L 694 582 L 694 0 L 436 0 L 436 582 L 27 582 L 27 732 L 383 732 L 287 944 L 27 944 L 27 1094 L 219 1094 L 0 1573 L 260 1573 L 578 838 L 899 1573 L 1130 1573 Z" unicode="¥" />
<glyph horiz-adv-x="498" d="M 158 -410 L 158 547 L 340 547 L 340 -410 L 158 -410 Z M 158 682 L 158 1638 L 340 1638 L 340 682 L 158 682 Z" unicode="¦" />
<glyph horiz-adv-x="1065" d="M 965 211 C 965 87 929 -6 859 -71 C 788 -135 671 -168 508 -168 C 356 -168 245 -141 175 -89 C 105 -36 70 37 70 133 C 70 158 72 183 78 209 C 84 235 91 258 100 279 L 309 264 C 306 250 303 236 301 224 C 298 211 297 198 297 186 C 297 138 310 95 336 58 C 362 20 417 2 500 2 C 570 2 623 17 659 49 C 695 80 713 122 713 174 C 713 204 701 235 679 265 C 657 295 596 326 498 358 L 340 410 C 259 436 196 472 150 518 C 104 563 82 631 82 723 C 82 775 93 826 117 876 C 141 926 178 964 229 991 C 199 1007 167 1032 133 1065 C 99 1097 82 1159 82 1251 C 82 1367 120 1454 197 1511 C 274 1568 372 1597 492 1597 C 636 1597 743 1571 813 1519 C 883 1467 918 1396 918 1307 C 918 1288 916 1272 912 1259 C 908 1245 905 1233 903 1223 L 674 1206 C 678 1217 681 1229 684 1242 C 686 1255 688 1269 688 1284 C 688 1324 672 1358 642 1387 C 612 1415 563 1430 496 1430 C 425 1430 377 1413 352 1379 C 327 1345 315 1312 315 1282 C 315 1248 325 1221 345 1202 C 365 1183 415 1161 494 1137 L 662 1083 C 758 1052 833 1011 886 959 C 938 907 965 834 965 739 C 965 661 951 601 925 559 C 899 517 871 487 842 471 C 880 440 910 406 932 370 C 954 333 965 280 965 211 Z M 713 694 C 713 736 704 767 687 789 C 670 810 644 828 608 844 C 590 850 569 859 543 869 C 517 879 495 886 479 891 C 424 887 383 873 356 849 C 328 825 315 792 315 750 C 315 716 325 690 345 673 C 365 655 394 641 430 629 C 464 617 500 605 539 593 C 578 581 608 571 629 565 C 654 580 674 597 690 617 C 705 637 713 662 713 694 Z" unicode="§" />
<glyph horiz-adv-x="737" d="M 227 1282 L -29 1282 L -29 1528 L 227 1528 L 227 1282 Z M 760 1282 L 502 1282 L 502 1528 L 760 1528 L 760 1282 Z" unicode="¨" />
<glyph horiz-adv-x="1630" d="M 1108 715 C 1116 599 1099 510 1056 447 C 1012 383 935 352 825 352 C 714 352 631 383 576 447 C 521 510 494 622 494 782 C 494 949 521 1068 576 1139 C 630 1209 710 1245 815 1245 C 937 1245 1017 1213 1054 1149 C 1090 1085 1106 1006 1102 913 L 952 891 C 957 970 947 1025 923 1056 C 899 1086 865 1102 821 1102 C 766 1102 727 1080 705 1036 C 683 992 672 911 672 795 C 672 676 685 597 711 559 C 737 521 777 502 829 502 C 903 502 944 527 952 578 C 960 629 963 682 961 737 L 1108 715 Z M 1538 809 C 1538 610 1466 440 1324 298 C 1181 156 1012 86 817 86 C 618 86 447 156 305 298 C 163 440 92 610 92 809 C 92 1009 163 1181 305 1325 C 447 1468 617 1540 817 1540 C 1013 1540 1183 1468 1325 1325 C 1467 1181 1538 1009 1538 809 Z M 1409 809 C 1409 975 1350 1118 1234 1240 C 1118 1362 979 1422 817 1422 C 653 1422 512 1362 395 1240 C 277 1118 219 975 219 809 C 219 643 277 500 394 382 C 510 263 651 204 817 204 C 980 204 1119 263 1235 382 C 1351 500 1409 643 1409 809 Z" unicode="©" />
<glyph horiz-adv-x="956" d="M 842 891 C 825 884 806 877 786 870 C 766 863 742 860 715 860 C 685 860 656 866 630 880 C 603 894 588 920 584 958 C 559 925 531 899 500 881 C 468 863 431 854 387 854 C 313 854 260 873 226 913 C 192 953 176 1005 176 1069 C 176 1125 195 1168 234 1199 C 272 1230 317 1253 369 1268 C 425 1284 470 1299 504 1313 C 538 1327 562 1339 578 1350 C 578 1390 569 1424 553 1452 C 537 1480 509 1495 469 1495 C 426 1495 398 1486 385 1468 C 371 1450 365 1429 365 1407 C 365 1394 366 1384 368 1376 C 370 1368 372 1360 375 1352 L 213 1341 C 209 1355 206 1368 204 1378 C 202 1388 201 1401 201 1419 C 201 1473 224 1516 271 1548 C 318 1580 385 1597 473 1597 C 563 1597 632 1578 679 1541 C 726 1503 750 1435 750 1335 L 750 1040 C 750 1020 754 1006 762 996 C 770 986 790 981 821 981 L 842 981 L 842 891 Z M 578 1063 L 578 1235 C 567 1228 555 1221 542 1214 C 529 1207 511 1200 487 1194 C 443 1180 409 1165 387 1147 C 365 1129 354 1103 354 1069 C 354 1038 363 1015 382 1000 C 400 984 426 977 459 977 C 486 977 509 985 527 1002 C 545 1019 562 1039 578 1063 Z M 823 684 L 180 684 L 180 788 L 823 788 L 823 684 Z" unicode="ª" />
<glyph horiz-adv-x="1292" d="M 649 74 L 113 428 L 113 705 L 649 1055 L 649 809 L 283 565 L 649 319 L 649 74 Z M 1198 74 L 657 428 L 657 705 L 1198 1055 L 1198 809 L 825 565 L 1198 319 L 1198 74 Z" unicode="«" />
<glyph horiz-adv-x="1038" d="M 936 582 L 102 582 L 102 791 L 936 791 L 936 582 Z" unicode="­" />
<glyph horiz-adv-x="1630" d="M 1102 958 C 1102 908 1087 865 1058 830 C 1029 794 986 774 928 768 C 1003 759 1047 730 1059 681 C 1071 632 1079 564 1081 477 C 1081 460 1082 443 1085 426 C 1087 409 1090 395 1094 385 L 936 385 C 933 396 930 409 927 424 C 923 439 922 459 922 485 L 922 627 C 922 655 913 676 897 690 C 880 704 860 711 838 711 L 715 711 L 715 385 L 553 385 L 553 1219 L 848 1219 C 917 1219 977 1201 1027 1165 C 1077 1129 1102 1060 1102 958 Z M 1538 813 C 1538 615 1467 445 1325 301 C 1183 157 1013 86 817 86 C 618 86 447 157 305 301 C 163 445 92 615 92 813 C 92 1011 163 1182 305 1325 C 447 1468 617 1540 817 1540 C 1014 1540 1183 1468 1325 1325 C 1467 1182 1538 1011 1538 813 Z M 1409 813 C 1409 977 1351 1119 1235 1241 C 1119 1362 980 1423 817 1423 C 653 1423 512 1362 395 1241 C 277 1119 219 977 219 813 C 219 645 277 502 394 383 C 510 264 651 205 817 205 C 980 205 1119 264 1235 383 C 1351 502 1409 645 1409 813 Z M 920 956 C 920 1011 911 1049 895 1071 C 879 1093 859 1104 836 1104 L 715 1104 L 715 823 L 838 823 C 868 823 890 834 902 857 C 914 880 920 913 920 956 Z" unicode="®" />
<glyph horiz-adv-x="737" d="M 637 1317 L 100 1317 L 100 1493 L 637 1493 L 637 1317 Z" unicode="¯" />
<glyph horiz-adv-x="881" d="M 717 1321 C 717 1244 690 1179 636 1125 C 582 1071 516 1044 440 1044 C 364 1044 299 1071 245 1125 C 191 1179 164 1244 164 1321 C 164 1397 191 1462 245 1516 C 299 1570 364 1597 440 1597 C 516 1597 582 1570 636 1516 C 690 1462 717 1397 717 1321 Z M 578 1321 C 578 1359 565 1391 539 1419 C 513 1447 480 1461 440 1461 C 398 1461 364 1447 340 1419 C 315 1391 303 1359 303 1321 C 303 1283 315 1250 341 1222 C 366 1194 399 1180 440 1180 C 480 1180 513 1194 539 1222 C 565 1250 578 1283 578 1321 Z" unicode="°" />
<glyph horiz-adv-x="735" d="M 59 573 L 57 725 C 103 761 153 801 209 847 C 264 892 311 936 350 979 C 386 1021 418 1068 445 1122 C 471 1176 485 1229 485 1282 C 485 1337 474 1376 454 1400 C 433 1424 402 1436 362 1436 C 322 1436 292 1423 273 1399 C 253 1374 244 1336 244 1284 C 244 1264 246 1239 250 1208 C 254 1177 259 1153 264 1135 L 82 1128 C 77 1142 72 1169 66 1207 C 60 1245 57 1279 57 1307 C 57 1387 83 1453 135 1506 C 187 1558 264 1585 367 1585 C 473 1585 552 1560 605 1510 C 657 1460 684 1386 684 1286 C 684 1216 665 1149 628 1085 C 590 1020 544 959 489 901 C 460 871 429 843 397 815 C 364 787 331 762 299 739 L 371 739 C 425 739 490 739 565 740 C 640 740 678 741 678 741 L 678 573 L 59 573 Z" unicode="²" />
<glyph horiz-adv-x="739" d="M 360 565 C 254 565 177 590 130 642 C 82 694 59 755 59 825 C 59 849 60 871 63 890 C 66 908 70 925 74 940 L 260 950 C 257 940 254 925 251 907 C 247 889 246 871 246 854 C 246 808 255 774 275 752 C 294 730 325 719 367 719 C 411 719 443 733 465 762 C 487 790 498 837 498 901 C 498 961 487 1004 467 1030 C 447 1056 421 1069 391 1069 C 373 1069 356 1066 340 1061 C 323 1056 311 1049 303 1040 L 213 1149 L 446 1403 L 84 1403 L 84 1573 L 653 1573 L 653 1407 L 434 1176 C 440 1178 447 1180 455 1182 C 463 1183 472 1184 481 1184 C 540 1184 590 1161 632 1115 C 673 1069 694 995 694 895 C 694 785 665 702 607 647 C 549 592 466 565 360 565 Z" unicode="³" />
<glyph horiz-adv-x="737" d="M 674 1516 L 307 1282 L 152 1282 L 313 1538 L 674 1538 L 674 1516 Z" unicode="´" />
<glyph horiz-adv-x="1202" d="M 1018 -96 L 852 -96 L 852 1438 L 760 1438 L 760 -96 L 594 -96 L 594 561 L 444 561 C 362 561 280 594 198 660 C 115 726 74 856 74 1049 C 74 1251 116 1389 200 1463 C 284 1536 371 1573 461 1573 L 1018 1573 L 1018 -96 Z M 594 702 L 594 1438 L 571 1438 C 529 1438 497 1414 477 1368 C 456 1322 446 1215 446 1049 C 446 912 455 820 474 773 C 493 725 524 702 567 702 L 594 702 Z" unicode="¶" />
<glyph horiz-adv-x="614" d="M 496 791 C 496 739 477 695 440 658 C 402 620 358 602 307 602 C 256 602 212 620 175 658 C 137 695 119 739 119 791 C 119 841 137 885 175 923 C 212 960 256 979 307 979 C 358 979 402 960 440 923 C 477 885 496 841 496 791 Z" unicode="·" />
<glyph horiz-adv-x="737" d="M 623 -221 C 623 -278 599 -324 551 -358 C 503 -392 437 -410 352 -410 C 284 -410 224 -402 170 -387 C 116 -372 76 -355 51 -336 L 127 -225 C 151 -242 179 -257 210 -271 C 241 -284 286 -291 344 -291 C 380 -291 402 -283 410 -269 C 418 -254 422 -240 422 -227 C 422 -193 404 -173 369 -165 C 333 -157 294 -162 250 -180 L 293 -41 L 381 -41 C 456 -41 515 -58 558 -92 C 601 -126 623 -169 623 -221 Z" unicode="¸" />
<glyph horiz-adv-x="549" d="M 231 586 L 231 1339 C 218 1330 197 1323 169 1318 C 141 1312 113 1309 86 1309 C 74 1309 61 1309 47 1310 C 32 1311 20 1312 12 1313 L 12 1436 C 44 1438 74 1442 104 1449 C 133 1455 160 1465 186 1479 C 209 1491 229 1507 247 1525 C 265 1543 279 1563 291 1587 L 424 1587 L 424 586 L 231 586 Z" unicode="¹" />
<glyph horiz-adv-x="956" d="M 774 1212 C 774 1083 747 991 695 937 C 642 883 571 856 481 856 C 388 856 316 883 265 938 C 213 993 188 1084 188 1212 C 188 1342 213 1439 263 1502 C 313 1565 386 1597 481 1597 C 583 1597 657 1563 704 1497 C 750 1430 774 1335 774 1212 Z M 592 1217 C 592 1309 584 1376 568 1418 C 552 1460 523 1481 481 1481 C 435 1481 405 1459 391 1417 C 377 1375 371 1308 371 1217 C 371 1127 380 1064 398 1028 C 416 992 443 975 481 975 C 519 975 547 992 565 1027 C 583 1061 592 1125 592 1217 Z M 774 684 L 188 684 L 188 788 L 774 788 L 774 684 Z" unicode="º" />
<glyph horiz-adv-x="1292" d="M 637 430 L 96 76 L 96 322 L 469 567 L 96 811 L 96 1057 L 637 707 L 637 430 Z M 1182 430 L 645 76 L 645 322 L 1012 567 L 645 811 L 645 1057 L 1182 707 L 1182 430 Z" unicode="»" />
<glyph horiz-adv-x="1696" d="M 231 586 L 231 1339 C 218 1330 197 1323 169 1318 C 141 1312 113 1309 86 1309 C 74 1309 61 1309 47 1310 C 32 1311 20 1312 12 1313 L 12 1436 C 44 1438 74 1442 104 1450 C 134 1457 161 1467 186 1481 C 209 1493 230 1507 248 1525 C 266 1543 280 1563 291 1587 L 424 1587 L 424 586 L 231 586 Z M 1329 0 L 1329 215 L 928 215 L 928 399 L 1282 1006 L 1518 1006 L 1518 375 L 1636 375 L 1636 215 L 1518 215 L 1518 0 L 1329 0 Z M 113 -20 L 1315 1593 L 1475 1593 L 272 -20 L 113 -20 Z M 1094 375 L 1329 375 L 1329 803 L 1264 678 L 1094 375 Z" unicode="¼" />
<glyph horiz-adv-x="1790" d="M 1065 0 L 1065 150 C 1109 185 1159 225 1214 270 C 1268 314 1315 359 1354 403 C 1394 450 1427 499 1453 551 C 1478 603 1491 655 1491 707 C 1491 761 1480 801 1460 825 C 1439 849 1408 862 1366 862 C 1326 862 1296 849 1276 824 C 1256 799 1247 761 1247 709 C 1247 688 1249 662 1255 632 C 1260 601 1265 577 1270 561 L 1087 553 C 1083 567 1078 593 1073 631 C 1067 669 1065 701 1065 729 C 1065 811 1090 879 1141 931 C 1192 983 1269 1010 1372 1010 C 1478 1010 1557 985 1610 935 C 1663 885 1690 810 1690 711 C 1690 643 1672 578 1636 516 C 1600 453 1556 393 1503 336 C 1473 304 1441 273 1407 245 C 1373 216 1338 189 1303 164 C 1307 164 1315 165 1329 165 C 1342 165 1355 166 1368 166 L 1683 166 L 1683 0 L 1065 0 Z M 231 586 L 231 1339 C 218 1330 197 1323 169 1318 C 141 1312 113 1309 86 1309 C 74 1309 61 1309 47 1310 C 32 1311 20 1312 12 1313 L 12 1436 C 44 1438 74 1442 104 1449 C 133 1455 160 1465 186 1479 C 209 1491 229 1507 247 1525 C 265 1543 279 1563 291 1587 L 424 1587 L 424 586 L 231 586 Z M 104 -20 L 1309 1593 L 1468 1593 L 266 -20 L 104 -20 Z" unicode="½" />
<glyph horiz-adv-x="1864" d="M 360 565 C 255 565 179 590 131 642 C 83 694 59 755 59 825 C 59 849 60 871 64 890 C 67 908 71 925 76 940 L 262 950 C 258 940 254 925 252 907 C 249 889 248 871 248 854 C 248 808 257 774 276 752 C 295 730 326 719 369 719 C 413 719 445 733 467 762 C 489 790 500 837 500 901 C 500 961 489 1004 468 1030 C 447 1056 421 1069 391 1069 C 374 1069 357 1066 341 1061 C 325 1056 312 1049 303 1040 L 213 1149 L 446 1403 L 86 1403 L 86 1573 L 655 1573 L 655 1407 L 434 1176 C 441 1178 448 1180 456 1182 C 464 1183 472 1184 481 1184 C 541 1184 591 1161 633 1115 C 675 1069 696 995 696 895 C 696 785 666 702 608 647 C 549 592 466 565 360 565 Z M 1495 0 L 1495 215 L 1096 215 L 1096 399 L 1450 1006 L 1686 1006 L 1686 375 L 1804 375 L 1804 215 L 1686 215 L 1686 0 L 1495 0 Z M 1262 375 L 1495 375 L 1495 688 C 1495 690 1495 709 1495 743 C 1495 777 1496 797 1497 803 L 1442 694 L 1262 375 Z M 276 -20 L 1481 1593 L 1642 1593 L 440 -20 L 276 -20 Z" unicode="¾" />
<glyph horiz-adv-x="979" d="M 98 449 C 98 653 125 796 181 877 C 236 957 314 998 414 998 C 474 998 522 987 558 965 C 594 943 622 919 643 893 L 643 1131 L 831 1131 L 831 639 L 674 639 C 658 685 639 720 616 743 C 593 766 560 778 518 778 C 452 778 409 754 389 707 C 369 660 360 577 360 459 C 360 359 375 287 405 241 C 435 195 481 172 543 172 C 593 172 631 185 657 213 C 683 240 696 279 696 330 C 696 348 695 365 693 379 C 691 393 688 404 684 414 L 901 414 C 907 396 911 379 913 362 C 915 345 917 322 917 293 C 917 206 886 131 825 68 C 764 5 660 -25 512 -25 C 368 -25 263 15 197 99 C 131 182 98 299 98 449 Z M 569 1571 L 862 1571 L 862 1254 L 569 1254 L 569 1571 Z" unicode="¿" />
<glyph horiz-adv-x="1286" d="M 1225 0 L 963 0 L 879 344 L 395 344 L 313 0 L 61 0 L 467 1573 L 809 1573 L 1225 0 Z M 762 1638 L 606 1638 L 240 1849 L 240 1868 L 600 1868 L 762 1638 Z M 819 559 L 629 1325 L 451 559 L 819 559 Z" unicode="À" />
<glyph horiz-adv-x="1286" d="M 1225 0 L 963 0 L 879 344 L 395 344 L 313 0 L 61 0 L 467 1573 L 809 1573 L 1225 0 Z M 1051 1849 L 684 1638 L 528 1638 L 690 1868 L 1051 1868 L 1051 1849 Z M 819 559 L 629 1325 L 451 559 L 819 559 Z" unicode="Á" />
<glyph horiz-adv-x="1286" d="M 1225 0 L 963 0 L 879 344 L 395 344 L 313 0 L 61 0 L 467 1573 L 809 1573 L 1225 0 Z M 924 1638 L 803 1638 L 631 1735 L 459 1638 L 338 1638 L 496 1868 L 766 1868 L 924 1638 Z M 819 559 L 629 1325 L 451 559 L 819 559 Z" unicode="Â" />
<glyph horiz-adv-x="1286" d="M 1225 0 L 963 0 L 879 344 L 395 344 L 313 0 L 61 0 L 467 1573 L 809 1573 L 1225 0 Z M 819 559 L 629 1325 L 451 559 L 819 559 Z M 962 1802 C 962 1759 949 1721 924 1688 C 899 1654 851 1638 780 1638 C 733 1638 695 1643 665 1655 C 635 1667 607 1681 581 1697 C 566 1707 551 1716 537 1724 C 523 1732 508 1736 493 1736 C 465 1736 447 1730 437 1718 C 427 1706 422 1692 422 1677 C 422 1673 422 1668 423 1663 C 424 1658 425 1654 426 1650 L 321 1650 C 315 1661 309 1674 305 1689 C 301 1704 299 1722 299 1744 C 299 1786 310 1824 333 1858 C 356 1891 403 1908 475 1908 C 517 1908 551 1902 577 1892 C 603 1881 633 1864 668 1841 C 682 1830 697 1821 713 1814 C 729 1807 747 1804 766 1804 C 790 1804 808 1810 820 1822 C 831 1834 837 1848 837 1865 C 837 1869 836 1874 835 1880 C 834 1886 833 1892 831 1896 L 936 1896 C 942 1884 948 1870 954 1853 C 959 1836 962 1819 962 1802 Z" unicode="Ã" />
<glyph horiz-adv-x="1286" d="M 1225 0 L 963 0 L 879 344 L 395 344 L 313 0 L 61 0 L 467 1573 L 809 1573 L 1225 0 Z M 494 1638 L 238 1638 L 238 1860 L 494 1860 L 494 1638 Z M 1026 1638 L 768 1638 L 768 1860 L 1026 1860 L 1026 1638 Z M 819 559 L 629 1325 L 451 559 L 819 559 Z" unicode="Ä" />
<glyph horiz-adv-x="1286" d="M 1225 0 L 963 0 L 879 344 L 395 344 L 313 0 L 61 0 L 449 1499 C 419 1524 395 1555 377 1592 C 359 1628 350 1668 350 1710 C 350 1786 377 1852 432 1907 C 486 1961 552 1989 629 1989 C 705 1989 770 1961 825 1907 C 879 1852 907 1786 907 1710 C 907 1671 899 1635 885 1601 C 871 1567 851 1537 825 1511 L 1225 0 Z M 768 1710 C 768 1748 754 1780 728 1807 C 701 1833 669 1847 631 1847 C 593 1847 560 1833 534 1807 C 507 1780 494 1748 494 1710 C 494 1672 507 1639 534 1613 C 560 1586 593 1573 631 1573 C 669 1573 701 1586 728 1613 C 754 1639 768 1672 768 1710 Z M 819 559 L 629 1325 L 451 559 L 819 559 Z" unicode="Å" />
<glyph horiz-adv-x="1780" d="M 1690 0 L 795 0 L 795 344 L 385 344 L 252 0 L 0 0 L 637 1573 L 1642 1573 L 1642 1364 L 1047 1364 L 1047 913 L 1587 913 L 1587 705 L 1047 705 L 1047 209 L 1690 209 L 1690 0 Z M 795 559 L 795 1368 L 471 559 L 795 559 Z" unicode="Æ" />
<glyph horiz-adv-x="1321" d="M 1208 635 C 1224 424 1193 261 1114 147 C 1034 32 894 -25 694 -25 C 491 -25 340 32 241 148 C 141 263 92 466 92 758 C 92 1061 141 1277 240 1405 C 339 1533 484 1597 676 1597 C 898 1597 1043 1538 1111 1422 C 1178 1305 1207 1162 1198 993 L 934 975 C 944 1133 927 1243 881 1305 C 835 1366 769 1397 684 1397 C 572 1397 491 1352 442 1264 C 393 1175 369 1012 369 774 C 369 536 397 377 453 298 C 509 219 590 180 696 180 C 834 180 912 232 930 336 C 948 440 954 548 948 659 L 1208 635 Z M 913 -221 C 913 -278 889 -324 842 -358 C 794 -392 727 -410 641 -410 C 573 -410 514 -401 464 -383 C 413 -365 376 -346 354 -326 L 416 -225 C 437 -244 464 -261 497 -277 C 530 -293 575 -301 633 -301 C 669 -301 692 -292 702 -274 C 712 -256 717 -240 717 -227 C 717 -193 698 -173 662 -165 C 625 -157 585 -162 541 -180 L 578 -61 C 578 -61 589 -59 612 -56 C 635 -52 655 -51 672 -51 C 746 -51 804 -66 848 -97 C 891 -127 913 -169 913 -221 Z" unicode="Ç" />
<glyph horiz-adv-x="1184" d="M 1096 0 L 184 0 L 184 1573 L 1049 1573 L 1049 1364 L 442 1364 L 442 913 L 993 913 L 993 705 L 442 705 L 442 209 L 1096 209 L 1096 0 Z M 778 1638 L 623 1638 L 256 1849 L 256 1868 L 616 1868 L 778 1638 Z" unicode="È" />
<glyph horiz-adv-x="1184" d="M 1096 0 L 184 0 L 184 1573 L 1049 1573 L 1049 1364 L 442 1364 L 442 913 L 993 913 L 993 705 L 442 705 L 442 209 L 1096 209 L 1096 0 Z M 1022 1849 L 655 1638 L 500 1638 L 662 1868 L 1022 1868 L 1022 1849 Z" unicode="É" />
<glyph horiz-adv-x="1184" d="M 1096 0 L 184 0 L 184 1573 L 1049 1573 L 1049 1364 L 442 1364 L 442 913 L 993 913 L 993 705 L 442 705 L 442 209 L 1096 209 L 1096 0 Z M 926 1638 L 805 1638 L 633 1735 L 461 1638 L 340 1638 L 498 1868 L 768 1868 L 926 1638 Z" unicode="Ê" />
<glyph horiz-adv-x="1184" d="M 1096 0 L 184 0 L 184 1573 L 1049 1573 L 1049 1364 L 442 1364 L 442 913 L 993 913 L 993 705 L 442 705 L 442 209 L 1096 209 L 1096 0 Z M 498 1638 L 242 1638 L 242 1860 L 498 1860 L 498 1638 Z M 1030 1638 L 772 1638 L 772 1860 L 1030 1860 L 1030 1638 Z" unicode="Ë" />
<glyph horiz-adv-x="627" d="M 442 1638 L 287 1638 L -80 1849 L -80 1868 L 281 1868 L 442 1638 Z M 442 0 L 184 0 L 184 1573 L 442 1573 L 442 0 Z" unicode="Ì" />
<glyph horiz-adv-x="627" d="M 713 1849 L 346 1638 L 190 1638 L 352 1868 L 713 1868 L 713 1849 Z M 442 0 L 184 0 L 184 1573 L 442 1573 L 442 0 Z" unicode="Í" />
<glyph horiz-adv-x="627" d="M 606 1638 L 485 1638 L 313 1735 L 141 1638 L 20 1638 L 178 1868 L 449 1868 L 606 1638 Z M 442 0 L 184 0 L 184 1573 L 442 1573 L 442 0 Z" unicode="Î" />
<glyph horiz-adv-x="627" d="M 205 1638 L -37 1638 L -37 1860 L 205 1860 L 205 1638 Z M 442 0 L 184 0 L 184 1573 L 442 1573 L 442 0 Z M 662 1638 L 418 1638 L 418 1860 L 662 1860 L 662 1638 Z" unicode="Ï" />
<glyph horiz-adv-x="1364" d="M 1272 741 C 1272 508 1219 326 1113 196 C 1007 65 857 0 662 0 L 184 0 L 184 651 L 68 651 L 68 860 L 184 860 L 184 1573 L 678 1573 C 855 1573 998 1506 1108 1372 C 1217 1238 1272 1027 1272 741 Z M 1004 778 C 1004 1002 969 1156 901 1239 C 833 1322 747 1364 645 1364 L 440 1364 L 440 860 L 764 860 L 764 651 L 440 651 L 440 209 L 670 209 C 784 209 868 251 922 337 C 976 423 1004 570 1004 778 Z" unicode="Ð" />
<glyph horiz-adv-x="1370" d="M 1186 0 L 946 0 L 418 1020 L 418 0 L 184 0 L 184 1573 L 424 1573 L 952 508 L 952 1573 L 1186 1573 L 1186 0 Z M 1019 1802 C 1019 1759 1006 1721 981 1688 C 956 1654 908 1638 837 1638 C 790 1638 752 1643 722 1655 C 692 1667 664 1681 638 1697 C 623 1707 608 1716 594 1724 C 580 1732 565 1736 550 1736 C 522 1736 504 1730 494 1718 C 484 1706 479 1692 479 1677 C 479 1673 479 1668 480 1663 C 481 1658 482 1654 483 1650 L 378 1650 C 372 1661 366 1674 362 1689 C 358 1704 356 1722 356 1744 C 356 1786 367 1824 390 1858 C 413 1891 460 1908 532 1908 C 574 1908 608 1902 634 1892 C 660 1881 690 1864 725 1841 C 739 1830 754 1821 770 1814 C 786 1807 804 1804 823 1804 C 847 1804 865 1810 877 1822 C 888 1834 894 1848 894 1865 C 894 1869 893 1874 892 1880 C 891 1886 890 1892 888 1896 L 993 1896 C 999 1884 1005 1870 1011 1853 C 1016 1836 1019 1819 1019 1802 Z" unicode="Ñ" />
<glyph horiz-adv-x="1403" d="M 1311 788 C 1311 474 1256 260 1147 146 C 1037 32 888 -25 700 -25 C 507 -25 357 33 251 149 C 145 265 92 478 92 788 C 92 1083 148 1292 261 1414 C 373 1536 520 1597 700 1597 C 876 1597 1022 1536 1138 1415 C 1253 1293 1311 1084 1311 788 Z M 1036 784 C 1036 1032 1003 1197 938 1278 C 872 1358 793 1399 700 1399 C 598 1399 517 1358 457 1276 C 397 1194 367 1030 367 784 C 367 531 396 367 454 291 C 512 215 594 178 700 178 C 795 178 875 216 939 292 C 1003 368 1036 532 1036 784 Z M 821 1638 L 666 1638 L 299 1849 L 299 1868 L 659 1868 L 821 1638 Z" unicode="Ò" />
<glyph horiz-adv-x="1403" d="M 1311 788 C 1311 474 1256 260 1147 146 C 1037 32 888 -25 700 -25 C 507 -25 357 33 251 149 C 145 265 92 478 92 788 C 92 1083 148 1292 261 1414 C 373 1536 520 1597 700 1597 C 876 1597 1022 1536 1138 1415 C 1253 1293 1311 1084 1311 788 Z M 1036 784 C 1036 1032 1003 1197 938 1278 C 872 1358 793 1399 700 1399 C 598 1399 517 1358 457 1276 C 397 1194 367 1030 367 784 C 367 531 396 367 454 291 C 512 215 594 178 700 178 C 795 178 875 216 939 292 C 1003 368 1036 532 1036 784 Z M 1094 1849 L 727 1638 L 571 1638 L 733 1868 L 1094 1868 L 1094 1849 Z" unicode="Ó" />
<glyph horiz-adv-x="1403" d="M 1311 788 C 1311 474 1256 260 1147 146 C 1037 32 888 -25 700 -25 C 507 -25 357 33 251 149 C 145 265 92 478 92 788 C 92 1083 148 1292 261 1414 C 373 1536 520 1597 700 1597 C 876 1597 1022 1536 1138 1415 C 1253 1293 1311 1084 1311 788 Z M 1036 784 C 1036 1032 1003 1197 938 1278 C 872 1358 793 1399 700 1399 C 598 1399 517 1358 457 1276 C 397 1194 367 1030 367 784 C 367 531 396 367 454 291 C 512 215 594 178 700 178 C 795 178 875 216 939 292 C 1003 368 1036 532 1036 784 Z M 993 1638 L 872 1638 L 700 1735 L 528 1638 L 408 1638 L 565 1868 L 836 1868 L 993 1638 Z" unicode="Ô" />
<glyph horiz-adv-x="1403" d="M 1311 788 C 1311 474 1256 260 1147 146 C 1037 32 888 -25 700 -25 C 507 -25 357 33 251 149 C 145 265 92 478 92 788 C 92 1083 148 1292 261 1414 C 373 1536 520 1597 700 1597 C 876 1597 1022 1536 1138 1415 C 1253 1293 1311 1084 1311 788 Z M 1036 784 C 1036 1032 1003 1197 938 1278 C 872 1358 793 1399 700 1399 C 598 1399 517 1358 457 1276 C 397 1194 367 1030 367 784 C 367 531 396 367 454 291 C 512 215 594 178 700 178 C 795 178 875 216 939 292 C 1003 368 1036 532 1036 784 Z M 1025 1804 C 1025 1761 1012 1723 987 1690 C 962 1656 914 1640 843 1640 C 796 1640 758 1645 728 1657 C 698 1669 670 1683 644 1699 C 629 1709 614 1718 600 1726 C 586 1734 571 1738 556 1738 C 528 1738 510 1732 500 1720 C 490 1708 485 1694 485 1679 C 485 1675 485 1670 486 1665 C 487 1660 488 1656 489 1652 L 384 1652 C 378 1663 372 1676 368 1691 C 364 1706 362 1724 362 1746 C 362 1788 373 1826 396 1860 C 419 1893 466 1910 538 1910 C 580 1910 614 1904 640 1894 C 666 1883 696 1866 731 1843 C 745 1832 760 1823 776 1816 C 792 1809 810 1806 829 1806 C 853 1806 871 1812 883 1824 C 894 1836 900 1850 900 1867 C 900 1871 899 1876 898 1882 C 897 1888 896 1894 894 1898 L 999 1898 C 1005 1886 1011 1872 1017 1855 C 1022 1838 1025 1821 1025 1804 Z" unicode="Õ" />
<glyph horiz-adv-x="1403" d="M 1311 788 C 1311 474 1256 260 1147 146 C 1037 32 888 -25 700 -25 C 507 -25 357 33 251 149 C 145 265 92 478 92 788 C 92 1083 148 1292 261 1414 C 373 1536 520 1597 700 1597 C 876 1597 1022 1536 1138 1415 C 1253 1293 1311 1084 1311 788 Z M 1036 784 C 1036 1032 1003 1197 938 1278 C 872 1358 793 1399 700 1399 C 598 1399 517 1358 457 1276 C 397 1194 367 1030 367 784 C 367 531 396 367 454 291 C 512 215 594 178 700 178 C 795 178 875 216 939 292 C 1003 368 1036 532 1036 784 Z M 561 1638 L 305 1638 L 305 1860 L 561 1860 L 561 1638 Z M 1094 1638 L 836 1638 L 836 1860 L 1094 1860 L 1094 1638 Z" unicode="Ö" />
<glyph horiz-adv-x="903" d="M 453 539 L 238 326 L 92 471 L 305 684 L 92 899 L 238 1044 L 451 829 L 666 1044 L 811 899 L 596 686 L 811 471 L 666 326 L 453 539 Z" unicode="×" />
<glyph horiz-adv-x="1403" d="M 1311 788 C 1311 466 1256 250 1147 140 C 1037 30 888 -25 700 -25 C 620 -25 547 -15 481 4 C 415 23 358 51 311 88 L 238 -25 L 102 -25 L 231 174 C 186 236 152 317 128 417 C 104 517 92 640 92 788 C 92 1092 148 1302 261 1420 C 373 1538 520 1597 700 1597 C 774 1597 844 1587 908 1568 C 972 1548 1030 1517 1081 1475 L 1163 1597 L 1290 1597 L 1155 1395 C 1203 1331 1241 1250 1269 1150 C 1297 1050 1311 930 1311 788 Z M 1036 784 C 1036 860 1032 928 1026 988 C 1019 1048 1009 1100 997 1145 L 449 299 C 477 252 513 220 555 203 C 597 186 645 178 700 178 C 795 178 875 216 939 292 C 1003 368 1036 532 1036 784 Z M 946 1266 C 915 1316 879 1351 837 1370 C 795 1389 749 1399 700 1399 C 598 1399 517 1358 457 1276 C 397 1194 367 1030 367 784 C 367 708 369 640 375 582 C 380 523 388 472 399 428 L 946 1266 Z" unicode="Ø" />
<glyph horiz-adv-x="1374" d="M 1202 467 C 1202 322 1169 204 1105 112 C 1041 20 902 -25 690 -25 C 491 -25 355 17 282 103 C 208 189 172 310 172 467 L 172 1573 L 426 1573 L 426 440 C 426 366 445 305 484 256 C 522 206 591 182 690 182 C 802 182 874 208 906 260 C 938 312 954 372 954 440 L 954 1573 L 1202 1573 L 1202 467 Z M 885 1638 L 729 1638 L 362 1849 L 362 1868 L 723 1868 L 885 1638 Z" unicode="Ù" />
<glyph horiz-adv-x="1374" d="M 1202 467 C 1202 322 1169 204 1105 112 C 1041 20 902 -25 690 -25 C 491 -25 355 17 282 103 C 208 189 172 310 172 467 L 172 1573 L 426 1573 L 426 440 C 426 366 445 305 484 256 C 522 206 591 182 690 182 C 802 182 874 208 906 260 C 938 312 954 372 954 440 L 954 1573 L 1202 1573 L 1202 467 Z M 1069 1849 L 702 1638 L 547 1638 L 709 1868 L 1069 1868 L 1069 1849 Z" unicode="Ú" />
<glyph horiz-adv-x="1374" d="M 1202 467 C 1202 322 1169 204 1105 112 C 1041 20 902 -25 690 -25 C 491 -25 355 17 282 103 C 208 189 172 310 172 467 L 172 1573 L 426 1573 L 426 440 C 426 366 445 305 484 256 C 522 206 591 182 690 182 C 802 182 874 208 906 260 C 938 312 954 372 954 440 L 954 1573 L 1202 1573 L 1202 467 Z M 989 1638 L 868 1638 L 696 1735 L 524 1638 L 403 1638 L 561 1868 L 831 1868 L 989 1638 Z" unicode="Û" />
<glyph horiz-adv-x="1374" d="M 1202 467 C 1202 322 1169 204 1105 112 C 1041 20 902 -25 690 -25 C 491 -25 355 17 282 103 C 208 189 172 310 172 467 L 172 1573 L 426 1573 L 426 440 C 426 366 445 305 484 256 C 522 206 591 182 690 182 C 802 182 874 208 906 260 C 938 312 954 372 954 440 L 954 1573 L 1202 1573 L 1202 467 Z M 557 1638 L 301 1638 L 301 1860 L 557 1860 L 557 1638 Z M 1090 1638 L 831 1638 L 831 1860 L 1090 1860 L 1090 1638 Z" unicode="Ü" />
<glyph horiz-adv-x="1233" d="M 1182 1573 L 745 614 L 745 0 L 487 0 L 487 614 L 51 1573 L 326 1573 L 629 862 L 940 1573 L 1182 1573 Z M 991 1874 L 624 1640 L 469 1640 L 630 1896 L 991 1896 L 991 1874 Z" unicode="Ý" />
<glyph horiz-adv-x="1249" d="M 1176 776 C 1176 598 1129 473 1037 401 C 945 329 822 293 668 293 L 442 293 L 442 0 L 184 0 L 184 1573 L 442 1573 L 442 1264 L 633 1264 C 801 1264 933 1228 1030 1156 C 1127 1084 1176 957 1176 776 Z M 901 776 C 901 869 879 940 836 988 C 792 1036 740 1061 678 1061 L 442 1061 L 442 496 L 684 496 C 740 496 790 519 834 566 C 878 612 901 682 901 776 Z" unicode="Þ" />
<glyph horiz-adv-x="1073" d="M 1006 444 C 1006 291 970 179 899 107 C 827 35 713 0 555 0 L 506 0 L 506 184 C 578 184 637 200 683 233 C 729 266 752 339 752 453 C 752 528 731 589 689 636 C 647 683 586 707 506 707 L 506 950 C 584 956 632 986 650 1038 C 667 1090 676 1132 676 1163 C 676 1249 663 1313 639 1354 C 615 1394 579 1415 532 1415 C 477 1415 438 1398 415 1364 C 392 1330 381 1285 381 1229 L 381 0 L 135 0 L 135 1176 C 135 1318 165 1423 225 1493 C 285 1562 395 1597 553 1597 C 711 1597 817 1550 871 1457 C 925 1364 952 1274 952 1188 C 952 1112 933 1038 896 965 C 859 891 792 854 694 852 L 694 842 C 793 836 870 800 924 734 C 978 667 1006 570 1006 444 Z" unicode="ß" />
<glyph horiz-adv-x="1206" d="M 1167 37 C 1140 23 1110 11 1076 1 C 1042 -8 1002 -14 956 -14 C 907 -14 869 0 841 29 C 813 58 795 102 786 160 C 750 94 699 46 634 18 C 568 -10 499 -25 426 -25 C 303 -25 214 8 158 74 C 102 140 74 225 74 330 C 74 423 106 496 170 549 C 234 602 309 640 397 662 C 505 688 594 714 664 738 C 734 762 773 789 782 819 C 782 892 764 948 728 986 C 692 1024 635 1044 557 1044 C 469 1044 413 1028 387 997 C 361 966 348 933 348 897 C 348 876 349 859 353 846 C 357 833 361 818 367 801 L 135 786 C 129 810 124 830 121 848 C 118 866 117 889 117 918 C 117 1006 155 1077 233 1131 C 311 1185 423 1212 569 1212 C 709 1212 819 1183 898 1126 C 976 1068 1016 979 1016 858 L 1016 252 C 1016 220 1022 195 1036 179 C 1050 162 1083 154 1135 154 L 1167 154 L 1167 37 Z M 782 633 C 770 613 744 595 706 579 C 667 563 630 551 594 543 C 498 521 429 493 387 458 C 345 423 324 377 324 319 C 324 268 341 226 377 192 C 413 158 469 144 547 152 C 605 156 655 180 699 224 C 743 267 767 329 772 410 C 772 428 774 469 777 535 C 780 600 782 633 782 633 Z M 749 1282 L 594 1282 L 227 1516 L 227 1538 L 588 1538 L 749 1282 Z" unicode="à" />
<glyph horiz-adv-x="1206" d="M 1167 37 C 1140 23 1110 11 1076 1 C 1042 -8 1002 -14 956 -14 C 907 -14 869 0 841 29 C 813 58 795 102 786 160 C 750 94 699 46 634 18 C 568 -10 499 -25 426 -25 C 303 -25 214 8 158 74 C 102 140 74 225 74 330 C 74 423 106 496 170 549 C 234 602 309 640 397 662 C 505 688 594 714 664 738 C 734 762 773 789 782 819 C 782 892 764 948 728 986 C 692 1024 635 1044 557 1044 C 469 1044 413 1028 387 997 C 361 966 348 933 348 897 C 348 876 349 859 353 846 C 357 833 361 818 367 801 L 135 786 C 129 810 124 830 121 848 C 118 866 117 889 117 918 C 117 1006 155 1077 233 1131 C 311 1185 423 1212 569 1212 C 709 1212 819 1183 898 1126 C 976 1068 1016 979 1016 858 L 1016 252 C 1016 220 1022 195 1036 179 C 1050 162 1083 154 1135 154 L 1167 154 L 1167 37 Z M 782 633 C 770 613 744 595 706 579 C 667 563 630 551 594 543 C 498 521 429 493 387 458 C 345 423 324 377 324 319 C 324 268 341 226 377 192 C 413 158 469 144 547 152 C 605 156 655 180 699 224 C 743 267 767 329 772 410 C 772 428 774 469 777 535 C 780 600 782 633 782 633 Z M 938 1516 L 571 1282 L 416 1282 L 577 1538 L 938 1538 L 938 1516 Z" unicode="á" />
<glyph horiz-adv-x="1206" d="M 1167 37 C 1140 23 1110 11 1076 1 C 1042 -8 1002 -14 956 -14 C 907 -14 869 0 841 29 C 813 58 795 102 786 160 C 750 94 699 46 634 18 C 568 -10 499 -25 426 -25 C 303 -25 214 8 158 74 C 102 140 74 225 74 330 C 74 423 106 496 170 549 C 234 602 309 640 397 662 C 505 688 594 714 664 738 C 734 762 773 789 782 819 C 782 892 764 948 728 986 C 692 1024 635 1044 557 1044 C 469 1044 413 1028 387 997 C 361 966 348 933 348 897 C 348 876 349 859 353 846 C 357 833 361 818 367 801 L 135 786 C 129 810 124 830 121 848 C 118 866 117 889 117 918 C 117 1006 155 1077 233 1131 C 311 1185 423 1212 569 1212 C 709 1212 819 1183 898 1126 C 976 1068 1016 979 1016 858 L 1016 252 C 1016 220 1022 195 1036 179 C 1050 162 1083 154 1135 154 L 1167 154 L 1167 37 Z M 782 633 C 770 613 744 595 706 579 C 667 563 630 551 594 543 C 498 521 429 493 387 458 C 345 423 324 377 324 319 C 324 268 341 226 377 192 C 413 158 469 144 547 152 C 605 156 655 180 699 224 C 743 267 767 329 772 410 C 772 428 774 469 777 535 C 780 600 782 633 782 633 Z M 866 1282 L 745 1282 L 573 1389 L 401 1282 L 280 1282 L 437 1538 L 708 1538 L 866 1282 Z" unicode="â" />
<glyph horiz-adv-x="1206" d="M 1167 37 C 1140 23 1110 11 1076 1 C 1042 -8 1002 -14 956 -14 C 907 -14 869 0 841 29 C 813 58 795 102 786 160 C 750 94 699 46 634 18 C 568 -10 499 -25 426 -25 C 303 -25 214 8 158 74 C 102 140 74 225 74 330 C 74 423 106 496 170 549 C 234 602 309 640 397 662 C 505 688 594 714 664 738 C 734 762 773 789 782 819 C 782 892 764 948 728 986 C 692 1024 635 1044 557 1044 C 469 1044 413 1028 387 997 C 361 966 348 933 348 897 C 348 876 349 859 353 846 C 357 833 361 818 367 801 L 135 786 C 129 810 124 830 121 848 C 118 866 117 889 117 918 C 117 1006 155 1077 233 1131 C 311 1185 423 1212 569 1212 C 709 1212 819 1183 898 1126 C 976 1068 1016 979 1016 858 L 1016 252 C 1016 220 1022 195 1036 179 C 1050 162 1083 154 1135 154 L 1167 154 L 1167 37 Z M 782 633 C 770 613 744 595 706 579 C 667 563 630 551 594 543 C 498 521 429 493 387 458 C 345 423 324 377 324 319 C 324 268 341 226 377 192 C 413 158 469 144 547 152 C 605 156 655 180 699 224 C 743 267 767 329 772 410 C 772 428 774 469 777 535 C 780 600 782 633 782 633 Z M 908 1444 C 908 1401 895 1363 870 1330 C 845 1296 797 1280 726 1280 C 679 1280 641 1285 611 1297 C 581 1309 553 1323 527 1339 C 512 1349 497 1358 483 1366 C 469 1374 454 1378 439 1378 C 411 1378 393 1372 383 1360 C 373 1348 368 1334 368 1319 C 368 1315 368 1310 369 1305 C 370 1300 371 1296 372 1292 L 267 1292 C 261 1303 255 1316 251 1331 C 247 1346 245 1364 245 1386 C 245 1428 256 1466 279 1500 C 302 1533 349 1550 421 1550 C 463 1550 497 1544 523 1534 C 549 1523 579 1506 614 1483 C 628 1472 643 1463 659 1456 C 675 1449 693 1446 712 1446 C 736 1446 754 1452 766 1464 C 777 1476 783 1490 783 1507 C 783 1511 782 1516 781 1522 C 780 1528 779 1534 777 1538 L 882 1538 C 888 1526 894 1512 900 1495 C 905 1478 908 1461 908 1444 Z" unicode="ã" />
<glyph horiz-adv-x="1206" d="M 1167 37 C 1140 23 1110 11 1076 1 C 1042 -8 1002 -14 956 -14 C 907 -14 869 0 841 29 C 813 58 795 102 786 160 C 750 94 699 46 634 18 C 568 -10 499 -25 426 -25 C 303 -25 214 8 158 74 C 102 140 74 225 74 330 C 74 423 106 496 170 549 C 234 602 309 640 397 662 C 505 688 594 714 664 738 C 734 762 773 789 782 819 C 782 892 764 948 728 986 C 692 1024 635 1044 557 1044 C 469 1044 413 1028 387 997 C 361 966 348 933 348 897 C 348 876 349 859 353 846 C 357 833 361 818 367 801 L 135 786 C 129 810 124 830 121 848 C 118 866 117 889 117 918 C 117 1006 155 1077 233 1131 C 311 1185 423 1212 569 1212 C 709 1212 819 1183 898 1126 C 976 1068 1016 979 1016 858 L 1016 252 C 1016 220 1022 195 1036 179 C 1050 162 1083 154 1135 154 L 1167 154 L 1167 37 Z M 782 633 C 770 613 744 595 706 579 C 667 563 630 551 594 543 C 498 521 429 493 387 458 C 345 423 324 377 324 319 C 324 268 341 226 377 192 C 413 158 469 144 547 152 C 605 156 655 180 699 224 C 743 267 767 329 772 410 C 772 428 774 469 777 535 C 780 600 782 633 782 633 Z M 429 1282 L 173 1282 L 173 1528 L 429 1528 L 429 1282 Z M 962 1282 L 704 1282 L 704 1528 L 962 1528 L 962 1282 Z" unicode="ä" />
<glyph horiz-adv-x="1206" d="M 1167 37 C 1140 23 1110 11 1076 1 C 1042 -8 1002 -14 956 -14 C 907 -14 869 0 841 29 C 813 58 795 102 786 160 C 750 94 699 46 634 18 C 568 -10 499 -25 426 -25 C 303 -25 214 8 158 74 C 102 140 74 225 74 330 C 74 423 106 496 170 549 C 234 602 309 640 397 662 C 505 688 594 714 664 738 C 734 762 773 789 782 819 C 782 892 764 948 728 986 C 692 1024 635 1044 557 1044 C 469 1044 413 1028 387 997 C 361 966 348 933 348 897 C 348 876 349 859 353 846 C 357 833 361 818 367 801 L 135 786 C 129 810 124 830 121 848 C 118 866 117 889 117 918 C 117 1006 155 1077 233 1131 C 311 1185 423 1212 569 1212 C 709 1212 819 1183 898 1126 C 976 1068 1016 979 1016 858 L 1016 252 C 1016 220 1022 195 1036 179 C 1050 162 1083 154 1135 154 L 1167 154 L 1167 37 Z M 782 633 C 770 613 744 595 706 579 C 667 563 630 551 594 543 C 498 521 429 493 387 458 C 345 423 324 377 324 319 C 324 268 341 226 377 192 C 413 158 469 144 547 152 C 605 156 655 180 699 224 C 743 267 767 329 772 410 C 772 428 774 469 777 535 C 780 600 782 633 782 633 Z M 815 1532 C 815 1464 790 1405 741 1356 C 691 1306 633 1282 565 1282 C 497 1282 438 1306 389 1356 C 339 1405 315 1464 315 1532 C 315 1600 339 1658 389 1708 C 438 1757 497 1782 565 1782 C 633 1782 691 1757 741 1708 C 790 1658 815 1600 815 1532 Z M 690 1532 C 690 1565 678 1594 654 1618 C 630 1642 601 1655 567 1655 C 533 1655 504 1642 480 1618 C 456 1594 444 1565 444 1532 C 444 1498 456 1469 480 1445 C 504 1421 533 1409 567 1409 C 601 1409 630 1421 654 1445 C 678 1469 690 1498 690 1532 Z" unicode="å" />
<glyph horiz-adv-x="1806" d="M 1720 309 C 1712 211 1671 131 1599 69 C 1527 6 1416 -25 1268 -25 C 1167 -25 1084 -6 1018 30 C 952 67 902 112 866 164 C 832 104 774 57 692 24 C 610 -8 521 -25 426 -25 C 303 -25 214 8 158 74 C 102 140 74 225 74 330 C 74 423 106 496 170 549 C 234 602 309 640 397 662 C 505 688 595 714 668 738 C 740 762 781 789 791 819 C 791 893 776 949 747 987 C 717 1025 656 1044 563 1044 C 475 1044 418 1028 390 997 C 362 966 348 933 348 897 C 348 876 350 859 354 846 C 358 833 362 818 367 801 L 135 786 C 129 810 124 830 121 848 C 118 866 117 889 117 918 C 117 1006 155 1077 233 1131 C 311 1184 423 1211 569 1212 C 694 1212 780 1201 828 1177 C 876 1153 914 1129 944 1104 C 978 1133 1020 1158 1069 1180 C 1117 1201 1182 1212 1264 1212 C 1391 1212 1494 1173 1572 1096 C 1650 1018 1694 902 1706 748 C 1706 729 1707 711 1708 694 C 1709 676 1710 659 1710 643 C 1710 622 1709 603 1709 585 C 1709 567 1708 551 1708 537 L 1022 537 C 1021 407 1040 313 1079 255 C 1118 197 1181 168 1268 168 C 1352 168 1409 185 1439 220 C 1469 255 1485 301 1487 358 C 1487 367 1486 377 1486 389 C 1485 400 1485 406 1485 406 L 1718 385 C 1720 373 1721 362 1721 351 C 1721 340 1720 326 1720 309 Z M 797 410 L 791 645 C 778 625 751 605 710 585 C 668 565 630 551 594 543 C 498 521 430 493 390 458 C 350 423 330 377 330 319 C 330 268 346 226 380 192 C 414 158 469 144 547 152 C 605 156 661 181 716 227 C 770 272 797 333 797 410 Z M 1479 692 C 1479 705 1478 722 1477 744 C 1475 766 1473 786 1470 805 C 1460 875 1437 928 1401 964 C 1365 1000 1318 1018 1260 1018 C 1185 1018 1128 992 1088 941 C 1048 890 1026 807 1022 692 L 1479 692 Z" unicode="æ" />
<glyph horiz-adv-x="1124" d="M 1024 332 C 1024 244 987 163 915 88 C 843 12 730 -25 578 -25 C 408 -25 285 18 207 104 C 129 190 90 337 90 545 C 90 792 135 965 227 1064 C 318 1162 441 1212 596 1212 C 742 1212 846 1176 909 1104 C 972 1032 1004 944 1004 840 C 1004 820 1003 802 1003 786 C 1002 769 1000 754 997 741 L 766 733 C 768 743 769 754 770 764 C 771 774 772 787 772 803 C 772 880 753 936 717 971 C 681 1006 636 1024 582 1024 C 497 1024 436 993 398 931 C 360 869 342 764 342 616 C 342 438 359 320 393 262 C 427 203 490 174 580 174 C 653 174 707 192 742 228 C 777 264 795 327 795 418 C 795 430 794 444 792 459 C 790 474 789 486 788 496 L 1008 483 C 1012 463 1016 441 1019 416 C 1022 391 1024 363 1024 332 Z M 836 -221 C 836 -278 812 -324 764 -358 C 716 -392 650 -410 565 -410 C 497 -410 437 -402 383 -387 C 329 -372 289 -355 264 -336 L 340 -225 C 364 -242 392 -257 423 -271 C 454 -284 499 -291 557 -291 C 593 -291 615 -283 623 -269 C 631 -254 635 -240 635 -227 C 635 -193 617 -173 582 -165 C 546 -157 507 -162 463 -180 L 506 -41 L 594 -41 C 669 -41 728 -58 771 -92 C 814 -126 836 -169 836 -221 Z" unicode="ç" />
<glyph horiz-adv-x="1120" d="M 1036 309 C 1028 211 987 131 915 69 C 843 6 732 -25 584 -25 C 418 -25 294 16 212 98 C 130 180 90 338 90 571 C 90 796 134 959 224 1060 C 313 1161 432 1212 580 1212 C 708 1212 811 1173 889 1096 C 966 1018 1010 902 1022 748 C 1022 731 1023 715 1023 699 C 1023 683 1024 667 1024 653 C 1024 631 1023 611 1022 591 C 1021 571 1020 553 1020 537 L 336 537 C 335 412 355 319 397 257 C 439 195 501 164 584 164 C 668 164 726 182 756 220 C 786 258 802 304 805 358 C 805 367 806 377 806 389 C 806 400 807 406 807 406 L 1034 385 C 1036 373 1037 362 1037 351 C 1037 340 1036 326 1036 309 Z M 793 692 C 793 705 793 722 793 744 C 793 766 791 786 788 805 C 778 875 754 928 717 964 C 680 1000 633 1018 575 1018 C 501 1018 443 992 403 941 C 362 890 340 807 336 692 L 793 692 Z M 753 1282 L 598 1282 L 231 1516 L 231 1538 L 592 1538 L 753 1282 Z" unicode="è" />
<glyph horiz-adv-x="1120" d="M 1036 309 C 1028 211 987 131 915 69 C 843 6 732 -25 584 -25 C 418 -25 294 16 212 98 C 130 180 90 338 90 571 C 90 796 134 959 224 1060 C 313 1161 432 1212 580 1212 C 708 1212 811 1173 889 1096 C 966 1018 1010 902 1022 748 C 1022 731 1023 715 1023 699 C 1023 683 1024 667 1024 653 C 1024 631 1023 611 1022 591 C 1021 571 1020 553 1020 537 L 336 537 C 335 412 355 319 397 257 C 439 195 501 164 584 164 C 668 164 726 182 756 220 C 786 258 802 304 805 358 C 805 367 806 377 806 389 C 806 400 807 406 807 406 L 1034 385 C 1036 373 1037 362 1037 351 C 1037 340 1036 326 1036 309 Z M 793 692 C 793 705 793 722 793 744 C 793 766 791 786 788 805 C 778 875 754 928 717 964 C 680 1000 633 1018 575 1018 C 501 1018 443 992 403 941 C 362 890 340 807 336 692 L 793 692 Z M 952 1516 L 585 1282 L 430 1282 L 591 1538 L 952 1538 L 952 1516 Z" unicode="é" />
<glyph horiz-adv-x="1120" d="M 1036 309 C 1028 211 987 131 915 69 C 843 6 732 -25 584 -25 C 418 -25 294 16 212 98 C 130 180 90 338 90 571 C 90 796 134 959 224 1060 C 313 1161 432 1212 580 1212 C 708 1212 811 1173 889 1096 C 966 1018 1010 902 1022 748 C 1022 731 1023 715 1023 699 C 1023 683 1024 667 1024 653 C 1024 631 1023 611 1022 591 C 1021 571 1020 553 1020 537 L 336 537 C 335 412 355 319 397 257 C 439 195 501 164 584 164 C 668 164 726 182 756 220 C 786 258 802 304 805 358 C 805 367 806 377 806 389 C 806 400 807 406 807 406 L 1034 385 C 1036 373 1037 362 1037 351 C 1037 340 1036 326 1036 309 Z M 793 692 C 793 705 793 722 793 744 C 793 766 791 786 788 805 C 778 875 754 928 717 964 C 680 1000 633 1018 575 1018 C 501 1018 443 992 403 941 C 362 890 340 807 336 692 L 793 692 Z M 866 1282 L 745 1282 L 573 1389 L 401 1282 L 280 1282 L 437 1538 L 708 1538 L 866 1282 Z" unicode="ê" />
<glyph horiz-adv-x="1120" d="M 1036 309 C 1028 211 987 131 915 69 C 843 6 732 -25 584 -25 C 418 -25 294 16 212 98 C 130 180 90 338 90 571 C 90 796 134 959 224 1060 C 313 1161 432 1212 580 1212 C 708 1212 811 1173 889 1096 C 966 1018 1010 902 1022 748 C 1022 731 1023 715 1023 699 C 1023 683 1024 667 1024 653 C 1024 631 1023 611 1022 591 C 1021 571 1020 553 1020 537 L 336 537 C 335 412 355 319 397 257 C 439 195 501 164 584 164 C 668 164 726 182 756 220 C 786 258 802 304 805 358 C 805 367 806 377 806 389 C 806 400 807 406 807 406 L 1034 385 C 1036 373 1037 362 1037 351 C 1037 340 1036 326 1036 309 Z M 793 692 C 793 705 793 722 793 744 C 793 766 791 786 788 805 C 778 875 754 928 717 964 C 680 1000 633 1018 575 1018 C 501 1018 443 992 403 941 C 362 890 340 807 336 692 L 793 692 Z M 435 1282 L 179 1282 L 179 1528 L 435 1528 L 435 1282 Z M 968 1282 L 710 1282 L 710 1528 L 968 1528 L 968 1282 Z" unicode="ë" />
<glyph horiz-adv-x="520" d="M 385 0 L 135 0 L 135 1176 L 385 1176 L 385 0 Z M 402 1282 L 247 1282 L -120 1516 L -120 1538 L 241 1538 L 402 1282 Z" unicode="ì" />
<glyph horiz-adv-x="520" d="M 385 0 L 135 0 L 135 1176 L 385 1176 L 385 0 Z M 650 1516 L 283 1282 L 128 1282 L 289 1538 L 650 1538 L 650 1516 Z" unicode="í" />
<glyph horiz-adv-x="520" d="M 385 0 L 135 0 L 135 1176 L 385 1176 L 385 0 Z M 556 1282 L 435 1282 L 263 1389 L 91 1282 L -30 1282 L 127 1538 L 398 1538 L 556 1282 Z" unicode="î" />
<glyph horiz-adv-x="520" d="M 174 1282 L -53 1282 L -53 1528 L 174 1528 L 174 1282 Z M 385 0 L 135 0 L 135 1176 L 385 1176 L 385 0 Z M 575 1282 L 342 1282 L 342 1528 L 575 1528 L 575 1282 Z" unicode="ï" />
<glyph horiz-adv-x="1176" d="M 1085 553 C 1085 351 1040 204 952 112 C 864 20 742 -25 588 -25 C 424 -25 300 22 216 116 C 132 210 90 355 90 553 C 90 746 132 892 217 991 C 302 1089 426 1139 588 1139 C 617 1139 649 1134 683 1124 C 717 1114 746 1104 772 1094 C 768 1132 758 1173 744 1219 C 730 1264 710 1305 686 1343 C 659 1338 641 1329 631 1316 C 621 1303 616 1290 616 1278 C 616 1269 619 1258 626 1245 C 633 1232 641 1223 649 1219 L 559 1167 C 534 1175 513 1193 496 1219 C 479 1245 471 1271 471 1296 C 471 1322 479 1348 497 1374 C 514 1399 542 1422 580 1444 C 569 1448 558 1452 546 1455 C 534 1458 521 1460 508 1460 C 457 1460 417 1454 388 1443 C 358 1432 328 1412 297 1382 L 180 1540 C 210 1565 254 1588 310 1610 C 366 1631 439 1642 528 1642 C 594 1642 656 1628 712 1602 C 768 1575 818 1535 862 1483 C 882 1489 896 1498 904 1509 C 911 1520 915 1531 915 1542 C 915 1552 911 1564 905 1577 C 899 1589 891 1598 883 1604 L 973 1655 C 998 1644 1019 1626 1036 1601 C 1052 1575 1061 1550 1061 1526 C 1061 1495 1049 1466 1027 1439 C 1004 1412 974 1388 938 1368 C 986 1277 1022 1163 1047 1027 C 1072 891 1085 733 1085 553 Z M 834 553 C 834 699 813 801 773 857 C 732 913 670 942 588 942 C 503 942 441 914 401 858 C 361 802 342 701 342 553 C 342 420 361 324 400 264 C 438 204 501 174 588 174 C 674 174 737 203 776 263 C 814 323 834 419 834 553 Z" unicode="ð" />
<glyph horiz-adv-x="1214" d="M 1081 0 L 836 0 L 836 758 C 836 850 819 913 786 947 C 752 980 702 997 635 997 C 579 997 523 967 466 907 C 409 847 381 761 381 651 L 381 0 L 135 0 L 135 1176 L 379 1176 L 379 913 C 404 1001 449 1070 514 1121 C 579 1172 662 1198 762 1198 C 864 1198 943 1173 998 1125 C 1053 1077 1081 1003 1081 903 L 1081 0 Z M 945 1444 C 945 1401 932 1363 907 1330 C 882 1296 834 1280 763 1280 C 716 1280 678 1285 648 1297 C 618 1309 590 1323 564 1339 C 549 1349 534 1358 520 1366 C 506 1374 491 1378 476 1378 C 448 1378 430 1372 420 1360 C 410 1348 405 1334 405 1319 C 405 1315 405 1310 406 1305 C 407 1300 408 1296 409 1292 L 304 1292 C 298 1303 292 1316 288 1331 C 284 1346 282 1364 282 1386 C 282 1428 293 1466 316 1500 C 339 1533 386 1550 458 1550 C 500 1550 534 1544 560 1534 C 586 1523 616 1506 651 1483 C 665 1472 680 1463 696 1456 C 712 1449 730 1446 749 1446 C 773 1446 791 1452 803 1464 C 814 1476 820 1490 820 1507 C 820 1511 819 1516 818 1522 C 817 1528 816 1534 814 1538 L 919 1538 C 925 1526 931 1512 937 1495 C 942 1478 945 1461 945 1444 Z" unicode="ñ" />
<glyph horiz-adv-x="1176" d="M 1085 569 C 1085 355 1040 202 952 111 C 864 20 742 -25 588 -25 C 424 -25 300 21 216 113 C 132 205 90 357 90 569 C 90 787 132 949 217 1054 C 302 1159 426 1212 588 1212 C 753 1212 877 1156 960 1045 C 1043 934 1085 775 1085 569 Z M 834 578 C 834 740 813 854 773 922 C 732 990 670 1024 588 1024 C 503 1024 441 990 401 922 C 361 854 342 740 342 578 C 342 430 361 325 400 265 C 438 204 501 174 588 174 C 674 174 737 205 776 267 C 814 329 834 433 834 578 Z M 761 1282 L 606 1282 L 239 1516 L 239 1538 L 600 1538 L 761 1282 Z" unicode="ò" />
<glyph horiz-adv-x="1176" d="M 1085 569 C 1085 355 1040 202 952 111 C 864 20 742 -25 588 -25 C 424 -25 300 21 216 113 C 132 205 90 357 90 569 C 90 787 132 949 217 1054 C 302 1159 426 1212 588 1212 C 753 1212 877 1156 960 1045 C 1043 934 1085 775 1085 569 Z M 834 578 C 834 740 813 854 773 922 C 732 990 670 1024 588 1024 C 503 1024 441 990 401 922 C 361 854 342 740 342 578 C 342 430 361 325 400 265 C 438 204 501 174 588 174 C 674 174 737 205 776 267 C 814 329 834 433 834 578 Z M 944 1516 L 577 1282 L 422 1282 L 583 1538 L 944 1538 L 944 1516 Z" unicode="ó" />
<glyph horiz-adv-x="1176" d="M 1085 569 C 1085 355 1040 202 952 111 C 864 20 742 -25 588 -25 C 424 -25 300 21 216 113 C 132 205 90 357 90 569 C 90 787 132 949 217 1054 C 302 1159 426 1212 588 1212 C 753 1212 877 1156 960 1045 C 1043 934 1085 775 1085 569 Z M 834 578 C 834 740 813 854 773 922 C 732 990 670 1024 588 1024 C 503 1024 441 990 401 922 C 361 854 342 740 342 578 C 342 430 361 325 400 265 C 438 204 501 174 588 174 C 674 174 737 205 776 267 C 814 329 834 433 834 578 Z M 872 1282 L 751 1282 L 579 1389 L 407 1282 L 286 1282 L 443 1538 L 714 1538 L 872 1282 Z" unicode="ô" />
<glyph horiz-adv-x="1176" d="M 1085 569 C 1085 355 1040 202 952 111 C 864 20 742 -25 588 -25 C 424 -25 300 21 216 113 C 132 205 90 357 90 569 C 90 787 132 949 217 1054 C 302 1159 426 1212 588 1212 C 753 1212 877 1156 960 1045 C 1043 934 1085 775 1085 569 Z M 834 578 C 834 740 813 854 773 922 C 732 990 670 1024 588 1024 C 503 1024 441 990 401 922 C 361 854 342 740 342 578 C 342 430 361 325 400 265 C 438 204 501 174 588 174 C 674 174 737 205 776 267 C 814 329 834 433 834 578 Z M 908 1444 C 908 1401 895 1363 870 1330 C 845 1296 797 1280 726 1280 C 679 1280 641 1285 611 1297 C 581 1309 553 1323 527 1339 C 512 1349 497 1358 483 1366 C 469 1374 454 1378 439 1378 C 411 1378 393 1372 383 1360 C 373 1348 368 1334 368 1319 C 368 1315 368 1310 369 1305 C 370 1300 371 1296 372 1292 L 267 1292 C 261 1303 255 1316 251 1331 C 247 1346 245 1364 245 1386 C 245 1428 256 1466 279 1500 C 302 1533 349 1550 421 1550 C 463 1550 497 1544 523 1534 C 549 1523 579 1506 614 1483 C 628 1472 643 1463 659 1456 C 675 1449 693 1446 712 1446 C 736 1446 754 1452 766 1464 C 777 1476 783 1490 783 1507 C 783 1511 782 1516 781 1522 C 780 1528 779 1534 777 1538 L 882 1538 C 888 1526 894 1512 900 1495 C 905 1478 908 1461 908 1444 Z" unicode="õ" />
<glyph horiz-adv-x="1176" d="M 1085 569 C 1085 355 1040 202 952 111 C 864 20 742 -25 588 -25 C 424 -25 300 21 216 113 C 132 205 90 357 90 569 C 90 787 132 949 217 1054 C 302 1159 426 1212 588 1212 C 753 1212 877 1156 960 1045 C 1043 934 1085 775 1085 569 Z M 834 578 C 834 740 813 854 773 922 C 732 990 670 1024 588 1024 C 503 1024 441 990 401 922 C 361 854 342 740 342 578 C 342 430 361 325 400 265 C 438 204 501 174 588 174 C 674 174 737 205 776 267 C 814 329 834 433 834 578 Z M 439 1282 L 183 1282 L 183 1528 L 439 1528 L 439 1282 Z M 972 1282 L 714 1282 L 714 1528 L 972 1528 L 972 1282 Z" unicode="ö" />
<glyph horiz-adv-x="1176" d="M 1085 569 C 1085 355 1040 202 952 111 C 864 20 742 -25 588 -25 C 522 -25 463 -18 411 -4 C 358 10 312 31 272 61 L 205 -39 L 82 -39 L 201 133 C 164 179 136 239 118 312 C 99 384 90 470 90 569 C 90 787 132 949 217 1054 C 302 1159 426 1212 588 1212 C 648 1212 703 1204 753 1189 C 803 1174 847 1152 885 1124 L 944 1210 L 1061 1210 L 954 1055 C 998 1001 1030 933 1052 851 C 1074 769 1085 675 1085 569 Z M 840 578 C 840 632 837 682 832 726 C 826 770 819 810 809 844 L 403 250 C 423 221 449 200 480 187 C 511 174 547 168 588 168 C 674 168 738 200 779 264 C 819 328 840 433 840 578 Z M 762 946 C 741 976 716 997 687 1010 C 657 1023 624 1030 588 1030 C 503 1030 440 995 398 925 C 356 855 336 740 336 578 C 336 534 337 493 341 457 C 344 421 349 388 356 360 L 762 946 Z" unicode="ø" />
<glyph horiz-adv-x="1214" d="M 1079 0 L 836 0 L 836 238 C 800 160 753 97 697 48 C 641 0 563 -25 463 -25 C 360 -25 279 4 221 62 C 162 120 133 199 133 299 L 133 1176 L 379 1176 L 379 418 C 379 339 392 279 420 239 C 447 198 500 178 580 178 C 650 178 709 212 759 281 C 809 350 834 431 834 524 L 834 1176 L 1079 1176 L 1079 0 Z M 782 1282 L 627 1282 L 260 1516 L 260 1538 L 621 1538 L 782 1282 Z" unicode="ù" />
<glyph horiz-adv-x="1214" d="M 1079 0 L 836 0 L 836 238 C 800 160 753 97 697 48 C 641 0 563 -25 463 -25 C 360 -25 279 4 221 62 C 162 120 133 199 133 299 L 133 1176 L 379 1176 L 379 418 C 379 339 392 279 420 239 C 447 198 500 178 580 178 C 650 178 709 212 759 281 C 809 350 834 431 834 524 L 834 1176 L 1079 1176 L 1079 0 Z M 989 1516 L 622 1282 L 467 1282 L 628 1538 L 989 1538 L 989 1516 Z" unicode="ú" />
<glyph horiz-adv-x="1214" d="M 1079 0 L 836 0 L 836 238 C 800 160 753 97 697 48 C 641 0 563 -25 463 -25 C 360 -25 279 4 221 62 C 162 120 133 199 133 299 L 133 1176 L 379 1176 L 379 418 C 379 339 392 279 420 239 C 447 198 500 178 580 178 C 650 178 709 212 759 281 C 809 350 834 431 834 524 L 834 1176 L 1079 1176 L 1079 0 Z M 891 1282 L 770 1282 L 598 1389 L 426 1282 L 305 1282 L 462 1538 L 733 1538 L 891 1282 Z" unicode="û" />
<glyph horiz-adv-x="1214" d="M 1079 0 L 836 0 L 836 238 C 800 160 753 97 697 48 C 641 0 563 -25 463 -25 C 360 -25 279 4 221 62 C 162 120 133 199 133 299 L 133 1176 L 379 1176 L 379 418 C 379 339 392 279 420 239 C 447 198 500 178 580 178 C 650 178 709 212 759 281 C 809 350 834 431 834 524 L 834 1176 L 1079 1176 L 1079 0 Z M 456 1282 L 200 1282 L 200 1528 L 456 1528 L 456 1282 Z M 989 1282 L 731 1282 L 731 1528 L 989 1528 L 989 1282 Z" unicode="ü" />
<glyph horiz-adv-x="1163" d="M 1112 1176 L 725 -10 C 683 -137 624 -229 549 -285 C 473 -341 388 -369 293 -369 C 183 -369 103 -346 55 -300 C 6 -254 -18 -195 -18 -121 C -18 -106 -16 -92 -14 -80 C -11 -68 -8 -54 -6 -39 L 209 -39 C 206 -49 204 -62 202 -77 C 200 -91 199 -105 199 -119 C 199 -144 208 -163 228 -177 C 247 -190 271 -197 301 -197 C 337 -197 367 -182 391 -153 C 415 -123 434 -81 449 -27 L 51 1176 L 313 1176 L 592 254 L 879 1176 L 1112 1176 Z M 948 1516 L 581 1282 L 426 1282 L 587 1538 L 948 1538 L 948 1516 Z" unicode="ý" />
<glyph horiz-adv-x="1227" d="M 1137 592 C 1137 367 1094 210 1009 120 C 923 30 816 -14 688 -14 C 606 -14 541 5 491 43 C 441 81 403 122 379 166 L 379 -336 L 135 -336 L 135 1573 L 377 1573 L 377 952 C 403 1032 446 1094 505 1136 C 564 1178 631 1200 707 1200 C 813 1200 912 1159 1002 1077 C 1092 995 1137 834 1137 592 Z M 885 588 C 885 742 860 850 811 910 C 761 970 701 1001 629 1001 C 565 1001 508 967 456 900 C 404 833 379 730 379 590 C 379 424 403 314 451 258 C 499 202 559 174 631 174 C 692 174 750 198 804 247 C 858 295 885 409 885 588 Z" unicode="þ" />
<glyph horiz-adv-x="1163" d="M 1112 1176 L 725 -10 C 683 -137 624 -229 549 -285 C 473 -341 388 -369 293 -369 C 183 -369 103 -346 55 -300 C 6 -254 -18 -195 -18 -121 C -18 -106 -16 -92 -14 -80 C -11 -68 -8 -54 -6 -39 L 209 -39 C 206 -49 204 -62 202 -77 C 200 -91 199 -105 199 -119 C 199 -144 208 -163 228 -177 C 247 -190 271 -197 301 -197 C 337 -197 367 -182 391 -153 C 415 -123 434 -81 449 -27 L 51 1176 L 313 1176 L 592 254 L 879 1176 L 1112 1176 Z M 437 1282 L 181 1282 L 181 1528 L 437 1528 L 437 1282 Z M 970 1282 L 712 1282 L 712 1528 L 970 1528 L 970 1282 Z" unicode="ÿ" />
<glyph horiz-adv-x="520" d="M 385 0 L 135 0 L 135 1176 L 385 1176 L 385 0 Z" unicode="ı" />
<glyph horiz-adv-x="1081" d="M 1020 0 L 184 0 L 184 367 L 104 297 L -16 440 L 184 614 L 184 1573 L 442 1573 L 442 838 L 727 1085 L 848 942 L 442 590 L 442 209 L 1020 209 L 1020 0 Z" unicode="Ł" />
<glyph horiz-adv-x="520" d="M 629 858 L 387 651 L 387 0 L 137 0 L 137 436 L 23 338 L -98 481 L 137 684 L 137 1573 L 387 1573 L 387 897 L 508 1001 L 629 858 Z" unicode="ł" />
<glyph horiz-adv-x="2038" d="M 1948 0 L 1047 0 L 1047 150 C 1017 98 970 58 907 28 C 844 -1 775 -16 700 -16 C 507 -16 357 43 251 163 C 145 282 92 490 92 788 C 92 1092 148 1301 261 1415 C 373 1529 520 1587 700 1587 C 790 1587 866 1567 928 1528 C 990 1489 1029 1453 1047 1421 L 1047 1573 L 1901 1573 L 1901 1364 L 1294 1364 L 1294 913 L 1845 913 L 1845 705 L 1294 705 L 1294 209 L 1948 209 L 1948 0 Z M 1040 377 L 1040 1200 C 1010 1259 965 1307 905 1344 C 844 1380 776 1399 702 1399 C 600 1399 519 1358 458 1276 C 397 1194 367 1030 367 784 C 367 544 398 383 461 301 C 524 219 609 178 715 178 C 785 178 848 195 905 229 C 962 263 1007 313 1040 377 Z" unicode="Œ" />
<glyph horiz-adv-x="1843" d="M 1759 309 C 1751 208 1709 127 1635 66 C 1560 5 1448 -25 1300 -25 C 1207 -25 1131 -13 1073 9 C 1014 31 962 67 918 117 C 879 72 832 37 778 12 C 724 -12 653 -25 567 -25 C 410 -25 291 21 211 113 C 130 205 90 357 90 569 C 90 787 132 949 216 1054 C 300 1159 422 1212 580 1212 C 675 1212 750 1198 805 1171 C 859 1144 904 1105 938 1055 C 974 1099 1022 1137 1082 1167 C 1142 1197 1213 1212 1296 1212 C 1432 1212 1538 1173 1614 1096 C 1690 1018 1733 902 1745 748 C 1745 733 1746 718 1746 703 C 1746 688 1747 674 1747 662 C 1747 637 1746 614 1745 593 C 1744 571 1743 553 1743 537 L 1059 537 C 1059 408 1081 314 1123 254 C 1165 194 1224 164 1300 164 C 1384 164 1442 180 1472 213 C 1502 246 1520 294 1528 358 C 1528 367 1529 377 1529 389 C 1529 400 1530 406 1530 406 L 1757 385 C 1759 373 1760 362 1760 351 C 1760 340 1759 326 1759 309 Z M 817 578 C 817 748 798 863 761 925 C 724 987 664 1018 582 1018 C 497 1018 436 987 398 925 C 360 863 342 748 342 578 C 342 429 361 324 400 264 C 438 204 499 174 582 174 C 668 174 729 203 764 261 C 799 319 817 424 817 578 Z M 1516 692 C 1516 705 1516 722 1516 744 C 1516 766 1514 786 1511 805 C 1501 876 1476 929 1437 965 C 1398 1000 1350 1018 1292 1018 C 1218 1018 1161 992 1123 941 C 1084 890 1063 807 1059 692 L 1516 692 Z" unicode="œ" />
<glyph horiz-adv-x="1180" d="M 1106 465 C 1106 303 1062 180 976 98 C 889 16 758 -25 582 -25 C 420 -25 296 9 211 79 C 126 149 84 244 84 365 C 84 396 86 425 90 451 C 94 477 101 502 111 528 L 360 539 C 354 520 349 500 346 480 C 343 459 342 436 342 412 C 342 322 364 259 408 225 C 452 191 510 174 584 174 C 670 174 735 194 778 235 C 820 275 842 337 842 420 C 842 474 824 523 790 568 C 755 613 681 659 569 705 L 358 793 C 286 823 225 869 176 931 C 126 993 102 1067 102 1155 C 102 1282 141 1387 220 1471 C 299 1555 420 1597 582 1597 C 714 1597 822 1562 904 1492 C 986 1422 1028 1331 1028 1219 C 1028 1191 1025 1165 1019 1141 C 1013 1117 1008 1096 1004 1079 L 764 1071 C 768 1084 771 1099 775 1116 C 778 1133 780 1154 780 1178 C 780 1251 762 1307 727 1346 C 691 1385 635 1405 559 1405 C 489 1405 437 1386 403 1350 C 369 1313 352 1267 352 1212 C 352 1159 364 1117 390 1086 C 415 1054 476 1017 573 975 L 809 870 C 909 825 984 769 1033 703 C 1081 637 1106 557 1106 465 Z M 874 1894 L 716 1638 L 446 1638 L 288 1894 L 409 1894 L 581 1788 L 753 1894 L 874 1894 Z" unicode="Š" />
<glyph horiz-adv-x="1077" d="M 1008 348 C 1008 238 968 148 890 79 C 811 9 691 -25 530 -25 C 382 -25 269 4 191 63 C 113 121 74 192 74 276 C 74 302 77 327 83 353 C 89 378 95 401 102 422 L 324 408 C 320 394 317 381 315 368 C 312 354 311 342 311 330 C 311 282 328 241 362 207 C 396 173 452 156 530 156 C 603 156 658 169 696 197 C 733 225 752 265 752 317 C 752 347 739 378 714 410 C 688 442 624 474 522 506 L 358 557 C 274 583 208 619 160 663 C 112 707 88 774 88 866 C 88 970 127 1054 206 1117 C 285 1180 387 1212 512 1212 C 656 1212 766 1183 843 1126 C 919 1069 958 1001 958 922 C 958 903 956 887 953 874 C 949 860 946 848 942 838 L 705 821 C 707 831 710 843 714 857 C 717 870 719 884 719 899 C 719 935 702 966 669 992 C 635 1018 585 1032 518 1032 C 452 1032 405 1016 375 984 C 345 952 330 921 330 891 C 330 857 343 829 369 809 C 395 789 444 767 516 745 L 690 692 C 792 660 870 616 925 560 C 980 503 1008 432 1008 348 Z M 801 1538 L 643 1282 L 373 1282 L 215 1538 L 336 1538 L 508 1432 L 680 1538 L 801 1538 Z" unicode="š" />
<glyph horiz-adv-x="1233" d="M 1182 1573 L 745 614 L 745 0 L 487 0 L 487 614 L 51 1573 L 326 1573 L 629 862 L 940 1573 L 1182 1573 Z M 487 1638 L 231 1638 L 231 1860 L 487 1860 L 487 1638 Z M 1020 1638 L 762 1638 L 762 1860 L 1020 1860 L 1020 1638 Z" unicode="Ÿ" />
<glyph horiz-adv-x="1212" d="M 1083 0 L 106 0 L 106 268 L 811 1360 L 154 1360 L 154 1573 L 1083 1573 L 1083 1317 L 365 213 L 1083 213 L 1083 0 Z M 936 1894 L 778 1638 L 508 1638 L 350 1894 L 471 1894 L 643 1788 L 815 1894 L 936 1894 Z" unicode="Ž" />
<glyph horiz-adv-x="1067" d="M 967 0 L 88 0 L 88 229 L 705 975 L 117 975 L 117 1176 L 967 1176 L 967 932 L 350 201 L 967 201 L 967 0 Z M 876 1538 L 718 1282 L 448 1282 L 290 1538 L 411 1538 L 583 1432 L 755 1538 L 876 1538 Z" unicode="ž" />
<glyph horiz-adv-x="788" d="M 801 1397 C 801 1373 799 1352 797 1332 C 794 1312 790 1293 786 1276 L 604 1284 C 606 1290 607 1299 609 1309 C 611 1319 612 1332 612 1348 C 612 1371 605 1389 591 1403 C 577 1416 556 1423 528 1423 C 503 1423 483 1415 467 1401 C 451 1387 440 1367 436 1343 C 435 1333 434 1320 434 1305 C 434 1290 434 1274 434 1257 C 434 1217 434 1174 436 1129 C 437 1084 438 1053 438 1036 L 696 1036 L 696 874 L 442 874 L 457 -33 C 459 -141 437 -221 393 -271 C 348 -321 272 -346 164 -346 C 64 -346 -10 -328 -60 -293 C -110 -258 -135 -200 -135 -119 C -135 -103 -132 -85 -127 -64 C -122 -43 -117 -26 -111 -14 L 68 -18 C 65 -28 63 -40 62 -53 C 61 -65 61 -77 61 -88 C 61 -120 67 -143 80 -157 C 93 -171 112 -178 137 -178 C 167 -178 188 -164 202 -138 C 216 -111 223 -53 223 35 C 223 162 221 291 218 421 C 214 551 213 702 213 874 L 25 874 L 25 1036 L 213 1036 C 213 1060 212 1104 211 1166 C 209 1228 209 1270 209 1294 C 209 1384 232 1457 279 1513 C 325 1569 398 1597 498 1597 C 599 1597 675 1579 725 1544 C 775 1509 801 1460 801 1397 Z" unicode="ƒ" />
<glyph horiz-adv-x="586" d="M 494 1507 C 469 1501 444 1493 418 1484 C 392 1474 371 1463 354 1450 C 331 1428 316 1403 309 1374 C 302 1344 302 1314 309 1284 L 444 1284 L 444 985 L 150 985 L 150 1284 C 150 1347 161 1398 183 1438 C 205 1477 236 1510 276 1538 C 298 1554 327 1567 362 1577 C 396 1587 433 1594 471 1599 L 494 1507 Z" unicode="ʻ" />
<glyph horiz-adv-x="737" d="M 662 1282 L 541 1282 L 369 1389 L 197 1282 L 76 1282 L 233 1538 L 504 1538 L 662 1282 Z" unicode="ˆ" />
<glyph horiz-adv-x="737" d="M 670 1536 L 512 1280 L 242 1280 L 84 1536 L 205 1536 L 377 1430 L 549 1536 L 670 1536 Z" unicode="ˇ" />
<glyph horiz-adv-x="737" d="M 637 1317 L 100 1317 L 100 1493 L 637 1493 L 637 1317 Z" unicode="ˉ" />
<glyph horiz-adv-x="737" d="M 692 1520 C 692 1435 670 1370 626 1324 C 582 1278 495 1255 365 1255 C 232 1255 143 1278 99 1324 C 55 1370 33 1435 33 1520 L 193 1520 C 191 1490 206 1462 236 1437 C 266 1411 309 1399 365 1399 C 419 1399 461 1411 493 1437 C 524 1462 539 1490 537 1520 L 692 1520 Z" unicode="˘" />
<glyph horiz-adv-x="737" d="M 516 1272 L 223 1272 L 223 1538 L 516 1538 L 516 1272 Z" unicode="˙" />
<glyph horiz-adv-x="737" d="M 643 1499 C 643 1423 615 1357 561 1303 C 506 1248 441 1221 365 1221 C 288 1221 222 1248 168 1303 C 113 1357 86 1423 86 1499 C 86 1575 113 1641 168 1696 C 222 1750 288 1778 365 1778 C 441 1778 506 1750 561 1696 C 615 1641 643 1575 643 1499 Z M 502 1499 C 502 1537 488 1570 461 1598 C 434 1626 402 1640 365 1640 C 327 1640 294 1626 267 1598 C 240 1570 227 1537 227 1499 C 227 1461 240 1428 267 1400 C 294 1372 327 1359 365 1359 C 402 1359 434 1372 461 1400 C 488 1428 502 1461 502 1499 Z" unicode="˚" />
<glyph horiz-adv-x="737" d="M 602 -274 C 602 -319 583 -354 546 -379 C 508 -403 445 -416 356 -416 C 273 -416 214 -401 180 -372 C 146 -343 129 -304 129 -256 C 129 -205 149 -158 189 -115 C 229 -72 292 -34 379 0 C 379 0 396 0 431 0 C 465 0 497 0 526 0 C 464 -27 412 -61 369 -102 C 326 -142 305 -188 305 -238 C 305 -268 311 -291 323 -307 C 335 -322 352 -330 373 -330 C 396 -330 413 -324 424 -312 C 434 -300 440 -284 440 -264 C 440 -251 438 -240 436 -230 C 433 -220 430 -211 426 -201 L 592 -201 C 594 -211 597 -222 599 -235 C 601 -248 602 -261 602 -274 Z" unicode="˛" />
<glyph horiz-adv-x="737" d="M 700 1440 C 700 1397 687 1359 662 1326 C 637 1292 589 1276 518 1276 C 471 1276 433 1281 403 1293 C 373 1305 345 1319 319 1335 C 304 1345 289 1354 275 1362 C 261 1370 246 1374 231 1374 C 203 1374 185 1368 175 1356 C 165 1344 160 1330 160 1315 C 160 1311 160 1306 161 1301 C 162 1296 163 1292 164 1288 L 59 1288 C 53 1299 47 1312 43 1327 C 39 1342 37 1360 37 1382 C 37 1424 48 1462 71 1496 C 94 1529 141 1546 213 1546 C 255 1546 289 1540 315 1530 C 341 1519 371 1502 406 1479 C 420 1468 435 1459 451 1452 C 467 1445 485 1442 504 1442 C 528 1442 546 1448 558 1460 C 569 1472 575 1486 575 1503 C 575 1507 574 1512 573 1518 C 572 1524 571 1530 569 1534 L 674 1534 C 680 1522 686 1508 692 1491 C 697 1474 700 1457 700 1440 Z" unicode="˜" />
<glyph horiz-adv-x="737" d="M 418 1516 L 127 1280 L 4 1280 L 150 1538 L 418 1538 L 418 1516 Z M 766 1516 L 475 1280 L 352 1280 L 498 1538 L 766 1538 L 766 1516 Z" unicode="˝" />
<glyph horiz-adv-x="1038" d="M 936 582 L 102 582 L 102 791 L 936 791 L 936 582 Z" unicode="‐" />
<glyph horiz-adv-x="1038" d="M 936 582 L 102 582 L 102 791 L 936 791 L 936 582 Z" unicode="‑" />
<glyph horiz-adv-x="1229" d="M 1126 588 L 102 588 L 102 786 L 1126 786 L 1126 588 Z" unicode="–" />
<glyph horiz-adv-x="2118" d="M 2015 588 L 102 588 L 102 786 L 2015 786 L 2015 588 Z" unicode="—" />
<glyph horiz-adv-x="586" d="M 494 1507 C 469 1501 444 1493 418 1484 C 392 1474 371 1463 354 1450 C 331 1428 316 1403 309 1374 C 302 1344 302 1314 309 1284 L 444 1284 L 444 985 L 150 985 L 150 1284 C 150 1347 161 1398 183 1438 C 205 1477 236 1510 276 1538 C 298 1554 327 1567 362 1577 C 396 1587 433 1594 471 1599 L 494 1507 Z" unicode="‘" />
<glyph horiz-adv-x="586" d="M 449 1274 C 449 1210 437 1159 415 1120 C 393 1080 362 1047 322 1020 C 299 1003 270 990 236 980 C 201 970 165 963 127 958 L 104 1051 C 128 1057 153 1064 179 1074 C 205 1083 226 1094 244 1108 C 266 1129 281 1154 288 1184 C 295 1213 295 1243 289 1274 L 154 1274 L 154 1573 L 449 1573 L 449 1274 Z" unicode="’" />
<glyph horiz-adv-x="586" d="M 449 0 C 449 -63 437 -114 415 -154 C 393 -193 362 -226 322 -254 C 299 -270 270 -283 236 -293 C 201 -303 165 -310 127 -315 L 104 -223 C 128 -217 153 -209 179 -200 C 205 -190 226 -179 244 -166 C 266 -144 281 -119 288 -90 C 295 -60 295 -30 289 0 L 154 0 L 154 299 L 449 299 L 449 0 Z" unicode="‚" />
<glyph horiz-adv-x="1028" d="M 494 1507 C 469 1501 444 1493 418 1484 C 392 1474 371 1463 354 1450 C 331 1428 316 1403 309 1374 C 302 1344 302 1314 309 1284 L 444 1284 L 444 985 L 150 985 L 150 1284 C 150 1347 161 1398 183 1438 C 205 1477 236 1510 276 1538 C 298 1554 327 1567 362 1577 C 396 1587 433 1594 471 1599 L 494 1507 Z M 940 1507 C 914 1501 889 1493 864 1484 C 838 1474 817 1463 801 1450 C 778 1428 763 1403 755 1374 C 747 1344 747 1314 756 1284 L 889 1284 L 889 985 L 594 985 L 594 1284 C 594 1347 605 1398 627 1438 C 649 1477 681 1510 721 1538 C 744 1554 773 1567 808 1577 C 843 1587 880 1594 918 1599 L 940 1507 Z" unicode="“" />
<glyph horiz-adv-x="1028" d="M 451 1274 C 451 1210 439 1159 417 1120 C 394 1080 363 1047 324 1020 C 300 1003 270 990 236 980 C 201 970 165 963 127 958 L 104 1051 C 130 1057 155 1064 181 1074 C 206 1083 227 1094 244 1108 C 266 1129 281 1154 289 1184 C 297 1213 297 1243 289 1274 L 156 1274 L 156 1573 L 451 1573 L 451 1274 Z M 895 1274 C 895 1210 884 1159 862 1120 C 840 1080 808 1047 768 1020 C 745 1003 716 990 682 980 C 647 970 611 963 573 958 L 551 1051 C 575 1057 600 1064 626 1074 C 651 1083 672 1094 690 1108 C 712 1129 727 1154 735 1184 C 742 1213 742 1243 735 1274 L 600 1274 L 600 1573 L 895 1573 L 895 1274 Z" unicode="”" />
<glyph horiz-adv-x="1028" d="M 446 0 C 446 -63 434 -114 412 -154 C 390 -193 359 -226 319 -254 C 295 -270 266 -283 232 -293 C 197 -303 161 -310 123 -315 L 100 -223 C 126 -217 151 -209 177 -200 C 202 -190 223 -179 240 -166 C 262 -144 277 -119 285 -90 C 293 -60 293 -30 285 0 L 152 0 L 152 299 L 446 299 L 446 0 Z M 891 0 C 891 -63 880 -114 858 -154 C 836 -193 804 -226 764 -254 C 741 -270 712 -283 678 -293 C 643 -303 607 -310 569 -315 L 547 -223 C 571 -217 596 -209 622 -200 C 647 -190 668 -179 686 -166 C 708 -144 723 -119 730 -90 C 737 -60 737 -30 731 0 L 596 0 L 596 299 L 891 299 L 891 0 Z" unicode="„" />
<glyph horiz-adv-x="1057" d="M 930 1055 L 647 1055 L 647 -180 L 410 -180 L 410 1055 L 127 1055 L 127 1251 L 410 1251 L 410 1573 L 647 1573 L 647 1251 L 930 1251 L 930 1055 Z" unicode="†" />
<glyph horiz-adv-x="1057" d="M 930 240 L 647 240 L 647 -180 L 410 -180 L 410 240 L 127 240 L 127 436 L 410 436 L 410 1055 L 127 1055 L 127 1251 L 410 1251 L 410 1573 L 647 1573 L 647 1251 L 930 1251 L 930 1055 L 647 1055 L 647 436 L 930 436 L 930 240 Z" unicode="‡" />
<glyph horiz-adv-x="1214" d="M 1135 684 C 1135 534 1083 405 979 298 C 875 190 750 137 606 137 C 461 137 336 190 231 298 C 126 405 74 534 74 684 C 74 834 126 962 231 1070 C 336 1177 461 1231 606 1231 C 750 1231 875 1177 979 1070 C 1083 962 1135 834 1135 684 Z" unicode="•" />
<glyph horiz-adv-x="1632" d="M 418 0 L 113 0 L 113 317 L 418 317 L 418 0 Z M 967 0 L 662 0 L 662 317 L 967 317 L 967 0 Z M 1518 0 L 1212 0 L 1212 317 L 1518 317 L 1518 0 Z" unicode="…" />
<glyph horiz-adv-x="2871" d="M 885 1053 C 885 899 852 784 786 707 C 720 630 622 592 494 592 C 365 592 267 628 200 701 C 133 773 100 889 100 1049 C 100 1237 127 1375 182 1464 C 236 1552 340 1597 494 1597 C 636 1597 736 1553 796 1467 C 855 1380 885 1242 885 1053 Z M 651 1083 C 651 1217 638 1306 614 1348 C 589 1390 550 1411 498 1411 C 438 1411 397 1389 373 1346 C 349 1302 338 1215 338 1083 C 338 966 350 887 374 846 C 398 804 438 784 494 784 C 548 784 588 804 613 846 C 638 887 651 966 651 1083 Z M 1901 436 C 1901 283 1867 168 1801 91 C 1735 13 1637 -25 1509 -25 C 1380 -25 1282 11 1216 84 C 1149 157 1116 273 1116 432 C 1116 609 1147 745 1210 839 C 1273 933 1373 981 1509 981 C 1659 981 1762 937 1818 850 C 1873 763 1901 625 1901 436 Z M 1667 467 C 1667 601 1654 689 1630 731 C 1605 773 1566 795 1513 795 C 1454 795 1413 773 1389 729 C 1365 685 1354 598 1354 467 C 1354 349 1366 270 1390 229 C 1414 188 1454 168 1509 168 C 1564 168 1604 188 1629 229 C 1654 270 1667 349 1667 467 Z M 2789 436 C 2789 283 2756 168 2690 91 C 2624 13 2526 -25 2398 -25 C 2269 -25 2171 11 2105 84 C 2038 157 2005 273 2005 432 C 2005 609 2036 745 2099 839 C 2162 933 2262 981 2398 981 C 2548 981 2651 937 2706 850 C 2761 763 2789 625 2789 436 Z M 2556 467 C 2556 601 2543 689 2519 731 C 2494 773 2455 795 2402 795 C 2343 795 2302 773 2278 729 C 2254 685 2243 598 2243 467 C 2243 349 2255 270 2279 229 C 2303 188 2343 168 2398 168 C 2453 168 2493 188 2518 229 C 2543 270 2556 349 2556 467 Z M 1430 1597 L 702 -33 L 575 -33 L 1303 1597 L 1430 1597 Z" unicode="‰" />
<glyph horiz-adv-x="750" d="M 649 74 L 113 428 L 113 705 L 649 1055 L 649 809 L 283 565 L 649 319 L 649 74 Z" unicode="‹" />
<glyph horiz-adv-x="750" d="M 637 430 L 96 76 L 96 322 L 469 567 L 96 811 L 96 1057 L 637 707 L 637 430 Z" unicode="›" />
<glyph horiz-adv-x="635" d="M 1075 1597 L -203 -29 L -383 -29 L 891 1597 L 1075 1597 Z" unicode="⁄" />
<glyph horiz-adv-x="1106" d="M 1073 322 C 1071 209 1031 123 954 64 C 876 4 774 -25 647 -25 C 502 -25 390 13 312 90 C 233 167 186 320 172 549 L 27 549 L 27 711 L 168 711 C 168 733 168 757 168 782 C 168 806 169 829 170 850 L 27 850 L 27 1012 L 178 1012 C 195 1232 243 1385 321 1470 C 399 1554 509 1597 653 1597 C 783 1597 885 1566 959 1505 C 1032 1444 1069 1356 1069 1241 C 1069 1223 1068 1206 1066 1188 C 1064 1170 1061 1151 1059 1133 L 805 1122 C 807 1140 810 1158 812 1174 C 814 1190 815 1206 815 1221 C 815 1285 800 1332 772 1362 C 743 1392 702 1407 649 1407 C 585 1407 535 1381 501 1331 C 467 1280 445 1174 436 1012 L 752 1012 L 752 850 L 430 850 L 430 711 L 752 711 L 752 549 L 434 549 C 442 406 463 307 495 252 C 527 197 577 170 647 170 C 705 170 745 186 769 220 C 793 254 805 298 805 352 C 805 365 804 379 803 394 C 802 408 801 423 799 438 L 1063 426 C 1065 407 1068 389 1070 372 C 1072 354 1073 338 1073 322 Z" unicode="€" />
<glyph horiz-adv-x="1630" d="M 1538 813 C 1538 615 1467 445 1325 301 C 1183 157 1013 86 817 86 C 618 86 447 157 305 301 C 163 445 92 615 92 813 C 92 1011 163 1182 305 1325 C 447 1468 617 1540 817 1540 C 1014 1540 1183 1468 1325 1325 C 1467 1182 1538 1011 1538 813 Z M 1409 813 C 1409 977 1351 1119 1235 1241 C 1119 1362 980 1423 817 1423 C 653 1423 512 1362 395 1241 C 277 1119 219 977 219 813 C 219 645 277 502 394 383 C 510 264 651 205 817 205 C 980 205 1119 264 1235 383 C 1351 502 1409 645 1409 813 Z M 1135 948 C 1135 872 1112 810 1067 762 C 1022 714 960 690 881 690 L 748 690 L 748 385 L 586 385 L 586 1219 L 881 1219 C 950 1219 1010 1199 1060 1160 C 1110 1121 1135 1050 1135 948 Z M 965 946 C 965 1001 954 1041 934 1066 C 913 1091 891 1104 868 1104 L 748 1104 L 748 803 L 870 803 C 900 803 924 816 940 842 C 956 868 965 903 965 946 Z" unicode="℗" />
<glyph horiz-adv-x="1212" d="M 1087 1100 L 973 1100 L 973 1470 L 874 1100 L 762 1100 L 657 1470 L 657 1100 L 557 1100 L 557 1573 L 725 1573 L 823 1210 L 920 1573 L 1087 1573 L 1087 1100 Z M 489 1479 L 356 1479 L 356 1100 L 229 1100 L 229 1479 L 100 1479 L 100 1573 L 489 1573 L 489 1479 Z" unicode="™" />
<glyph horiz-adv-x="1040" d="M 938 582 L 104 582 L 104 791 L 938 791 L 938 582 Z" unicode="−" />
<glyph horiz-adv-x="635" d="M 1075 1597 L -203 -29 L -383 -29 L 891 1597 L 1075 1597 Z" unicode="∕" />
<glyph horiz-adv-x="614" d="M 496 791 C 496 739 477 695 440 658 C 402 620 358 602 307 602 C 256 602 212 620 175 658 C 137 695 119 739 119 791 C 119 841 137 885 175 923 C 212 960 256 979 307 979 C 358 979 402 960 440 923 C 477 885 496 841 496 791 Z" unicode="∙" />
<glyph horiz-adv-x="1536" d="M 1536 1907 C 1448 1792 1355 1637 1257 1442 C 1159 1246 1080 1074 1020 926 C 935 712 863 512 805 326 C 747 140 701 -37 668 -209 L 475 -295 L 0 537 L 254 657 L 557 -53 C 595 130 642 310 697 487 C 752 664 808 823 864 963 C 921 1105 983 1243 1051 1379 C 1118 1515 1197 1653 1288 1794 L 1536 1907 Z" unicode="√" />
<glyph horiz-adv-x="1214" d="M 1135 684 C 1135 534 1083 405 979 298 C 875 190 750 137 606 137 C 461 137 336 190 231 298 C 126 405 74 534 74 684 C 74 834 126 962 231 1070 C 336 1177 461 1231 606 1231 C 750 1231 875 1177 979 1070 C 1083 962 1135 834 1135 684 Z M 1092 662 L 809 831 L 680 1106 L 588 872 L 248 983 L 463 801 L 190 522 L 578 489 L 676 262 L 778 504 L 1092 662 Z" unicode="" />
<glyph horiz-adv-x="1503" d="M 965 1176 C 964 1200 963 1224 962 1246 C 961 1268 961 1291 961 1315 C 961 1404 984 1477 1031 1533 C 1077 1589 1150 1618 1249 1618 C 1347 1618 1422 1600 1474 1565 C 1526 1529 1552 1480 1552 1417 C 1552 1393 1550 1372 1548 1352 C 1545 1332 1542 1313 1538 1296 L 1356 1305 C 1358 1315 1359 1326 1361 1339 C 1363 1351 1364 1365 1364 1380 C 1364 1403 1356 1421 1342 1435 C 1328 1449 1307 1456 1280 1456 C 1255 1456 1235 1448 1219 1434 C 1203 1420 1192 1400 1188 1376 C 1186 1361 1184 1345 1183 1327 C 1182 1309 1182 1291 1182 1274 C 1182 1255 1182 1237 1183 1220 C 1184 1202 1186 1188 1188 1176 L 1448 1176 L 1448 1014 L 1206 1014 L 1206 0 L 965 0 L 965 1014 L 455 1014 L 455 0 L 213 0 L 213 1014 L 25 1014 L 25 1176 L 213 1176 C 212 1200 211 1224 210 1246 C 209 1268 209 1291 209 1315 C 209 1404 232 1477 279 1533 C 325 1589 398 1618 498 1618 C 595 1618 670 1600 722 1565 C 774 1529 801 1480 801 1417 C 801 1393 799 1372 797 1352 C 794 1332 790 1313 786 1296 L 604 1305 C 606 1315 607 1326 609 1339 C 611 1351 612 1365 612 1380 C 612 1403 605 1421 591 1435 C 577 1449 556 1456 528 1456 C 503 1456 483 1448 467 1434 C 451 1420 440 1400 436 1376 C 434 1359 432 1342 431 1324 C 430 1306 430 1289 430 1272 C 430 1253 430 1235 431 1219 C 432 1202 434 1188 436 1176 L 965 1176 Z" unicode="ﬀ" />
<glyph horiz-adv-x="1272" d="M 887 1014 L 455 1014 L 455 0 L 213 0 L 213 1014 L 25 1014 L 25 1176 L 213 1176 C 212 1200 211 1224 210 1246 C 209 1268 209 1291 209 1315 C 209 1404 232 1477 279 1533 C 325 1589 398 1618 498 1618 C 595 1618 670 1600 722 1565 C 774 1529 801 1480 801 1417 C 801 1393 799 1372 797 1352 C 794 1332 790 1313 786 1296 L 604 1305 C 606 1313 607 1324 609 1338 C 611 1351 612 1365 612 1380 C 612 1403 605 1421 591 1435 C 577 1449 556 1456 528 1456 C 503 1456 483 1448 467 1434 C 451 1420 440 1400 436 1376 C 434 1361 432 1345 432 1328 C 432 1310 432 1293 432 1276 C 432 1256 432 1238 432 1221 C 432 1203 434 1188 436 1176 L 1137 1176 L 1137 0 L 887 0 L 887 1014 Z M 1141 1288 L 883 1288 L 883 1573 L 1141 1573 L 1141 1288 Z" unicode="ﬁ" />
<glyph horiz-adv-x="1272" d="M 801 1417 C 801 1393 799 1372 797 1352 C 794 1332 790 1313 786 1296 L 604 1305 C 606 1315 607 1326 609 1339 C 611 1351 612 1365 612 1380 C 612 1403 605 1421 591 1435 C 577 1449 556 1456 528 1456 C 503 1456 483 1448 467 1434 C 451 1420 440 1400 436 1376 C 434 1361 432 1345 432 1327 C 432 1309 432 1291 432 1274 C 432 1255 432 1237 432 1220 C 432 1202 434 1188 436 1176 L 696 1176 L 696 1014 L 455 1014 L 455 0 L 213 0 L 213 1014 L 25 1014 L 25 1176 L 213 1176 C 212 1200 211 1224 210 1246 C 209 1268 209 1291 209 1315 C 209 1404 232 1477 279 1533 C 325 1589 398 1618 498 1618 C 595 1618 670 1600 722 1565 C 774 1529 801 1480 801 1417 Z M 1137 0 L 887 0 L 887 1573 L 1137 1573 L 1137 0 Z" unicode="ﬂ" />
<glyph horiz-adv-x="2023" d="M 1888 1176 L 1888 0 L 1638 0 L 1638 1014 L 1206 1014 L 1206 0 L 965 0 L 965 1014 L 455 1014 L 455 0 L 213 0 L 213 1014 L 25 1014 L 25 1176 L 213 1176 C 212 1200 211 1224 210 1246 C 209 1268 209 1291 209 1315 C 209 1404 232 1477 279 1533 C 325 1589 398 1618 498 1618 C 595 1618 670 1600 722 1565 C 774 1529 801 1480 801 1417 C 801 1393 799 1372 797 1352 C 794 1332 790 1313 786 1296 L 604 1305 C 606 1313 607 1324 609 1338 C 611 1351 612 1365 612 1380 C 612 1403 605 1421 591 1435 C 577 1449 556 1456 528 1456 C 503 1456 483 1448 467 1434 C 451 1420 440 1400 436 1376 C 434 1361 432 1345 432 1328 C 432 1310 432 1293 432 1276 C 432 1256 432 1238 432 1221 C 432 1203 434 1188 436 1176 L 965 1176 C 964 1200 963 1224 962 1246 C 961 1268 961 1291 961 1315 C 961 1404 984 1477 1031 1533 C 1077 1589 1150 1618 1249 1618 C 1347 1618 1422 1600 1474 1565 C 1526 1529 1552 1480 1552 1417 C 1552 1393 1550 1372 1548 1352 C 1545 1332 1542 1313 1538 1296 L 1356 1305 C 1358 1315 1359 1326 1361 1339 C 1363 1351 1364 1365 1364 1380 C 1364 1403 1356 1421 1342 1435 C 1328 1449 1307 1456 1280 1456 C 1255 1456 1235 1448 1219 1434 C 1203 1420 1192 1400 1188 1376 C 1186 1361 1184 1345 1184 1328 C 1184 1310 1184 1293 1184 1276 C 1184 1256 1184 1238 1184 1221 C 1184 1203 1186 1188 1188 1176 L 1888 1176 Z M 1892 1288 L 1634 1288 L 1634 1573 L 1892 1573 L 1892 1288 Z" unicode="ﬃ" />
<glyph horiz-adv-x="2023" d="M 965 1176 C 964 1200 963 1224 962 1246 C 961 1268 961 1291 961 1315 C 961 1404 984 1477 1031 1533 C 1077 1589 1150 1618 1249 1618 C 1347 1618 1422 1600 1474 1565 C 1526 1529 1552 1480 1552 1417 C 1552 1393 1550 1372 1548 1352 C 1545 1332 1542 1313 1538 1296 L 1356 1305 C 1358 1315 1359 1326 1361 1339 C 1363 1351 1364 1365 1364 1380 C 1364 1403 1356 1421 1342 1435 C 1328 1449 1307 1456 1280 1456 C 1255 1456 1235 1448 1219 1434 C 1203 1420 1192 1400 1188 1376 C 1186 1361 1184 1345 1183 1327 C 1182 1309 1182 1291 1182 1274 C 1182 1255 1182 1237 1183 1220 C 1184 1202 1186 1188 1188 1176 L 1448 1176 L 1448 1014 L 1206 1014 L 1206 0 L 965 0 L 965 1014 L 455 1014 L 455 0 L 213 0 L 213 1014 L 25 1014 L 25 1176 L 213 1176 C 212 1200 211 1224 210 1246 C 209 1268 209 1291 209 1315 C 209 1404 232 1477 279 1533 C 325 1589 398 1618 498 1618 C 595 1618 670 1600 722 1565 C 774 1529 801 1480 801 1417 C 801 1393 799 1372 797 1352 C 794 1332 790 1313 786 1296 L 604 1305 C 606 1313 607 1324 609 1338 C 611 1351 612 1365 612 1380 C 612 1403 605 1421 591 1435 C 577 1449 556 1456 528 1456 C 503 1456 483 1448 467 1434 C 451 1420 440 1400 436 1376 C 434 1361 432 1345 432 1328 C 432 1310 432 1293 432 1276 C 432 1256 432 1238 432 1221 C 432 1203 434 1188 436 1176 L 965 1176 Z M 1888 0 L 1638 0 L 1638 1573 L 1888 1573 L 1888 0 Z" unicode="ﬄ" />
</font>
</defs>
</svg>
