<?xml version="1.0" encoding="utf-8" ?><svg version="1.1" xmlns = 'http://www.w3.org/2000/svg'><defs><font id='web' horiz-adv-x="1000">
<font-face font-family="web" descent="-410" cap-height="1434" units-per-em="2048" bbox="-356,-416,2576,1962" x-height="1024" ascent="1638" />
<missing-glyph horiz-adv-x="1024" d="" /><glyph horiz-adv-x="520" d="" unicode=" " />
<glyph horiz-adv-x="426" d="M 362 1040 L 301 508 L 135 508 L 63 1040 L 63 1573 L 362 1573 L 362 1040 Z M 362 0 L 63 0 L 63 344 L 362 344 L 362 0 Z" unicode="!" />
<glyph horiz-adv-x="920" d="M 408 1573 L 356 936 L 139 936 L 90 1573 L 408 1573 Z M 831 1573 L 780 936 L 563 936 L 514 1573 L 831 1573 Z" unicode="&#x22;" />
<glyph horiz-adv-x="1192" d="M 1118 1245 L 1081 930 L 897 930 L 860 643 L 1042 643 L 1004 328 L 821 328 L 780 0 L 596 0 L 637 328 L 440 328 L 397 0 L 215 0 L 254 328 L 74 328 L 111 643 L 295 643 L 332 930 L 150 930 L 188 1245 L 371 1245 L 412 1573 L 596 1573 L 555 1245 L 752 1245 L 795 1573 L 977 1573 L 938 1245 L 1118 1245 Z M 713 930 L 516 930 L 479 643 L 676 643 L 713 930 Z" unicode="#" />
<glyph horiz-adv-x="1096" d="M 705 422 C 705 472 692 514 666 547 C 640 579 607 605 565 625 C 550 631 515 647 459 673 C 403 699 365 717 344 727 C 261 767 193 820 141 886 C 89 952 63 1042 63 1157 C 63 1289 98 1394 168 1470 C 238 1546 336 1589 461 1597 L 461 1694 L 600 1694 L 600 1597 C 710 1589 795 1553 857 1490 C 919 1426 950 1334 950 1214 C 950 1195 948 1175 945 1155 C 942 1134 938 1114 934 1096 L 666 1096 C 670 1115 673 1134 675 1154 C 677 1173 678 1192 678 1210 C 678 1254 666 1293 642 1325 C 618 1357 579 1374 526 1374 C 477 1374 438 1358 410 1327 C 381 1295 367 1258 367 1214 C 367 1171 378 1136 400 1110 C 422 1084 456 1061 502 1042 C 529 1031 562 1017 601 999 C 639 981 670 966 694 956 C 791 914 868 858 924 788 C 980 718 1008 609 1008 463 C 1008 331 980 216 924 118 C 868 19 760 -31 600 -33 L 600 -227 L 461 -227 L 461 -33 C 349 -33 256 -2 184 57 C 112 117 76 207 76 326 C 76 355 78 391 84 435 C 89 478 97 513 109 539 L 383 563 C 376 541 370 514 366 482 C 362 449 360 421 360 399 C 360 344 373 299 401 265 C 428 230 471 213 530 213 C 593 213 638 230 665 265 C 691 299 705 352 705 422 Z" unicode="$" />
<glyph horiz-adv-x="1808" d="M 780 1053 C 780 899 752 784 697 707 C 641 630 545 592 408 592 C 273 592 178 630 122 707 C 66 783 39 897 39 1049 C 39 1236 64 1374 116 1463 C 168 1552 265 1597 408 1597 C 552 1597 650 1552 702 1464 C 754 1375 780 1238 780 1053 Z M 502 1098 C 502 1218 497 1301 489 1345 C 480 1389 454 1411 412 1411 C 368 1411 341 1389 331 1345 C 321 1301 317 1218 317 1098 C 317 983 321 907 331 869 C 340 831 366 813 408 813 C 452 813 479 831 488 869 C 497 907 502 983 502 1098 Z M 1765 428 C 1765 275 1737 160 1682 83 C 1626 5 1530 -33 1393 -33 C 1258 -33 1163 5 1107 82 C 1051 159 1024 273 1024 424 C 1024 611 1049 749 1101 839 C 1153 928 1250 973 1393 973 C 1537 973 1635 928 1687 839 C 1739 750 1765 613 1765 428 Z M 1487 473 C 1487 594 1482 676 1474 720 C 1465 764 1439 786 1397 786 C 1353 786 1326 764 1317 720 C 1307 676 1303 594 1303 473 C 1303 359 1307 283 1316 245 C 1325 207 1351 188 1393 188 C 1437 188 1464 207 1473 245 C 1482 283 1487 359 1487 473 Z M 1321 1597 L 662 -33 L 489 -33 L 1149 1597 L 1321 1597 Z" unicode="%" />
<glyph horiz-adv-x="1311" d="M 1278 289 C 1278 148 1248 59 1190 22 C 1131 -14 1061 -33 981 -33 C 909 -33 855 -23 818 -3 C 781 17 746 51 713 100 C 659 44 608 7 560 -8 C 512 -24 462 -33 410 -33 C 270 -33 172 13 117 105 C 62 197 35 303 35 422 C 35 540 60 642 112 729 C 163 816 240 896 342 969 L 377 993 C 363 1023 351 1059 341 1100 C 331 1140 326 1193 326 1257 C 326 1363 359 1446 426 1506 C 492 1566 572 1597 664 1597 C 754 1597 829 1567 889 1508 C 949 1449 979 1376 979 1290 C 979 1218 962 1156 928 1105 C 894 1053 825 1009 719 971 L 844 655 C 858 681 871 705 882 727 C 892 749 903 774 913 803 C 925 832 938 868 951 912 C 964 956 974 993 981 1024 L 1174 1024 C 1159 964 1142 901 1123 837 C 1104 773 1082 712 1057 655 C 1036 606 1017 565 999 531 C 981 497 959 456 934 408 L 956 344 C 964 319 976 295 992 271 C 1007 247 1025 236 1047 236 C 1069 236 1083 247 1089 270 C 1095 292 1098 312 1098 330 C 1098 352 1096 382 1094 418 C 1091 454 1087 481 1083 500 L 1257 500 C 1265 470 1271 435 1274 395 C 1276 355 1278 319 1278 289 Z M 764 1303 C 764 1334 757 1359 745 1377 C 732 1395 713 1405 688 1405 C 665 1405 647 1399 634 1387 C 620 1375 614 1351 614 1313 C 614 1287 619 1258 631 1224 C 642 1190 653 1163 664 1145 C 682 1153 703 1169 727 1195 C 751 1221 764 1257 764 1303 Z M 623 324 L 438 778 C 411 745 391 710 379 672 C 366 634 360 595 360 553 C 360 487 372 422 396 360 C 420 297 460 266 514 266 C 535 266 555 271 575 283 C 594 295 610 308 623 324 Z" unicode="&#x26;" />
<glyph horiz-adv-x="498" d="M 408 1573 L 356 936 L 139 936 L 90 1573 L 408 1573 Z" unicode="'" />
<glyph horiz-adv-x="674" d="M 639 1597 C 527 1457 447 1305 399 1140 C 351 975 328 826 328 692 C 328 512 340 358 366 228 C 391 98 464 -55 586 -233 L 465 -233 C 313 -108 206 26 144 170 C 82 314 51 489 51 694 C 51 893 94 1072 180 1231 C 266 1390 382 1512 526 1597 L 639 1597 Z" unicode="(" />
<glyph horiz-adv-x="674" d="M 623 694 C 622 489 588 315 520 171 C 452 27 348 -107 209 -233 L 88 -233 C 209 -55 282 98 308 228 C 333 358 346 512 346 692 C 346 826 322 975 274 1140 C 226 1305 147 1457 35 1597 L 147 1597 C 291 1512 407 1390 494 1231 C 580 1072 623 893 623 694 Z" unicode=")" />
<glyph horiz-adv-x="764" d="M 694 1176 L 612 1028 L 465 1112 L 465 946 L 299 946 L 299 1112 L 152 1028 L 70 1176 L 217 1260 L 70 1341 L 152 1489 L 299 1405 L 299 1571 L 465 1571 L 465 1405 L 612 1489 L 694 1341 L 547 1260 L 694 1176 Z" unicode="*" />
<glyph horiz-adv-x="877" d="M 803 565 L 559 565 L 559 322 L 317 322 L 317 565 L 74 565 L 74 807 L 317 807 L 317 1049 L 559 1049 L 559 807 L 803 807 L 803 565 Z" unicode="+" />
<glyph horiz-adv-x="463" d="M 389 0 C 389 -74 375 -139 347 -193 C 319 -247 271 -289 201 -319 C 181 -327 162 -334 143 -339 C 124 -343 103 -347 80 -350 L 55 -238 C 77 -230 98 -221 118 -211 C 137 -201 154 -189 170 -176 C 197 -152 213 -126 219 -96 C 224 -66 225 -34 223 0 L 74 0 L 74 344 L 389 344 L 389 0 Z" unicode="," />
<glyph horiz-adv-x="877" d="M 803 565 L 74 565 L 74 807 L 803 807 L 803 565 Z" unicode="-" />
<glyph horiz-adv-x="463" d="M 389 0 L 74 0 L 74 344 L 389 344 L 389 0 Z" unicode="." />
<glyph horiz-adv-x="954" d="M 952 1573 L 205 0 L 2 0 L 752 1573 L 952 1573 Z" unicode="/" />
<glyph horiz-adv-x="1024" d="M 969 715 C 969 424 934 228 866 127 C 797 25 678 -25 508 -25 C 338 -25 220 25 153 126 C 86 227 53 422 53 711 C 53 1051 84 1283 147 1409 C 210 1534 330 1597 508 1597 C 685 1597 806 1534 871 1409 C 936 1284 969 1053 969 715 Z M 621 770 C 621 1018 615 1185 605 1270 C 595 1354 564 1397 512 1397 C 460 1397 428 1354 416 1270 C 404 1185 399 1018 399 770 C 399 524 404 370 416 308 C 427 246 458 215 508 215 C 562 215 594 246 605 310 C 615 373 621 526 621 770 Z" unicode="0" />
<glyph horiz-adv-x="768" d="M 672 0 L 358 0 L 358 1120 C 337 1113 312 1108 282 1106 C 252 1103 212 1102 164 1102 C 140 1102 117 1102 94 1103 C 70 1104 52 1106 39 1108 L 39 1290 C 77 1294 127 1302 188 1316 C 248 1330 297 1351 334 1380 C 368 1406 395 1434 417 1464 C 438 1494 458 1530 477 1573 L 672 1573 L 672 0 Z" unicode="1" />
<glyph horiz-adv-x="973" d="M 913 1100 C 913 960 864 821 767 685 C 669 548 565 437 455 352 L 385 299 L 877 299 L 877 0 L 49 0 L 49 293 L 111 348 C 177 408 270 512 392 662 C 514 811 575 959 575 1106 C 575 1177 566 1231 550 1268 C 534 1304 503 1323 459 1323 C 420 1323 392 1303 375 1264 C 358 1225 350 1173 350 1108 C 350 1073 351 1035 355 995 C 359 954 363 916 369 881 L 373 852 L 86 852 L 76 918 C 71 956 67 995 64 1037 C 60 1078 59 1118 59 1157 C 59 1293 95 1401 169 1479 C 243 1557 343 1597 471 1597 C 615 1597 725 1561 800 1490 C 875 1419 913 1289 913 1100 Z" unicode="2" />
<glyph horiz-adv-x="961" d="M 915 457 C 915 273 871 147 785 78 C 699 9 586 -25 446 -25 C 312 -25 212 9 145 78 C 77 147 43 237 43 348 C 42 401 44 445 50 481 C 56 516 62 546 70 571 L 387 582 C 383 564 378 540 373 509 C 367 478 365 446 365 414 C 365 346 372 298 386 270 C 400 241 425 227 461 227 C 501 227 528 245 542 282 C 556 318 563 385 563 483 C 563 577 550 641 524 677 C 498 713 453 731 389 731 L 246 731 L 246 956 L 358 956 C 425 956 471 974 497 1010 C 522 1046 535 1102 535 1180 C 535 1246 529 1292 519 1318 C 509 1344 487 1358 455 1358 C 422 1358 399 1344 387 1317 C 375 1290 369 1257 369 1217 C 369 1191 371 1166 376 1144 C 380 1121 385 1102 389 1087 L 76 1094 C 72 1106 67 1124 61 1149 C 55 1174 53 1206 53 1245 C 53 1347 89 1431 162 1497 C 235 1563 335 1597 463 1597 C 584 1597 683 1567 759 1508 C 835 1448 874 1346 874 1200 C 874 1119 854 1047 814 985 C 774 922 712 883 629 868 C 717 865 787 829 838 760 C 889 690 915 589 915 457 Z" unicode="3" />
<glyph horiz-adv-x="991" d="M 950 233 L 795 233 L 795 0 L 477 0 L 477 233 L 57 233 L 57 608 L 481 1573 L 795 1573 L 795 494 L 950 494 L 950 233 Z M 477 494 L 477 1010 L 258 494 L 477 494 Z" unicode="4" />
<glyph horiz-adv-x="940" d="M 889 510 C 889 304 848 162 766 84 C 684 6 583 -33 463 -33 C 327 -33 224 -2 155 59 C 85 120 51 211 51 332 C 51 366 51 399 53 433 C 55 466 59 501 66 537 L 336 535 C 332 513 329 489 327 461 C 325 433 324 404 324 373 C 324 341 331 307 347 273 C 362 238 392 221 436 221 C 472 221 500 241 520 282 C 539 323 549 400 549 512 C 549 604 543 678 533 733 C 523 787 497 815 455 815 C 420 815 395 801 379 774 C 363 746 354 716 352 684 L 76 702 L 115 1573 L 795 1573 L 782 1270 L 356 1270 L 338 973 C 361 1000 389 1021 421 1036 C 453 1051 499 1059 559 1059 C 663 1059 744 1013 802 921 C 860 829 889 692 889 510 Z" unicode="5" />
<glyph horiz-adv-x="995" d="M 944 504 C 944 256 887 105 773 53 C 659 1 571 -25 510 -25 C 338 -25 218 37 152 161 C 86 285 53 494 53 788 C 53 1128 95 1348 180 1448 C 264 1547 382 1597 532 1597 C 655 1597 750 1566 818 1506 C 886 1446 920 1359 920 1247 C 920 1223 919 1202 917 1183 C 915 1163 912 1144 907 1126 L 580 1114 C 584 1128 588 1143 591 1159 C 594 1175 596 1190 596 1204 C 596 1252 590 1289 578 1317 C 566 1344 544 1358 512 1358 C 473 1358 442 1338 419 1298 C 396 1258 385 1176 385 1051 C 385 1026 385 1007 385 993 C 385 979 387 964 389 950 C 399 971 421 992 455 1014 C 488 1036 530 1047 580 1047 C 636 1047 710 1015 804 952 C 897 888 944 739 944 504 Z M 614 537 C 614 619 608 680 597 721 C 586 761 554 782 500 782 C 461 782 434 761 419 721 C 404 680 397 619 397 537 C 397 407 404 323 418 285 C 432 247 460 229 500 229 C 546 229 576 246 591 282 C 606 318 614 403 614 537 Z" unicode="6" />
<glyph horiz-adv-x="856" d="M 844 1307 L 807 1255 C 709 1119 638 968 592 802 C 546 636 524 480 524 336 C 524 270 526 205 532 139 C 538 73 543 27 547 0 L 193 0 C 189 29 186 55 184 79 C 181 102 180 129 180 160 C 180 390 219 610 299 818 C 378 1026 450 1163 514 1229 L 557 1274 L 33 1274 L 33 1573 L 844 1573 L 844 1307 Z" unicode="7" />
<glyph horiz-adv-x="936" d="M 885 446 C 885 323 852 214 787 118 C 722 22 615 -25 467 -25 C 321 -25 214 22 146 118 C 78 214 45 323 45 446 C 45 521 55 591 77 657 C 99 723 141 775 203 813 L 233 831 L 203 846 C 167 862 136 898 110 952 C 84 1006 72 1075 72 1161 C 72 1299 107 1407 178 1483 C 249 1559 345 1597 467 1597 C 590 1597 687 1558 757 1481 C 827 1404 862 1297 862 1161 C 862 1099 851 1036 831 972 C 811 908 784 867 750 850 L 713 831 L 748 813 C 786 792 818 750 845 687 C 871 624 885 544 885 446 Z M 573 467 C 573 571 565 639 550 670 C 534 701 507 717 467 717 C 428 717 401 700 387 668 C 372 636 365 569 365 467 C 365 354 371 283 383 253 C 395 223 423 209 467 209 C 513 209 543 223 555 253 C 567 283 573 354 573 467 Z M 559 1167 C 559 1249 552 1305 540 1335 C 527 1365 503 1380 467 1380 C 430 1380 406 1365 395 1336 C 384 1306 379 1250 379 1167 C 379 1077 384 1017 395 986 C 406 955 430 940 467 940 C 505 940 529 954 541 984 C 553 1013 559 1074 559 1167 Z" unicode="8" />
<glyph horiz-adv-x="997" d="M 936 776 C 936 436 894 216 810 116 C 726 16 609 -33 459 -33 C 335 -33 240 -2 173 58 C 105 118 72 205 72 317 C 72 341 72 362 74 381 C 76 400 80 419 86 438 L 412 451 C 406 436 402 421 399 405 C 396 389 395 374 395 360 C 395 312 401 274 413 247 C 425 220 448 207 481 207 C 519 207 549 226 572 266 C 594 306 606 388 606 514 C 606 538 605 557 604 571 C 603 585 602 598 600 610 L 571 582 C 546 557 520 540 494 531 C 468 522 440 518 412 518 C 356 518 282 550 190 615 C 97 679 51 829 51 1065 C 51 1313 107 1463 221 1517 C 334 1570 421 1597 483 1597 C 655 1597 773 1533 838 1406 C 903 1279 936 1069 936 776 Z M 594 1028 C 594 1156 587 1241 575 1282 C 562 1322 534 1343 492 1343 C 442 1343 410 1323 397 1284 C 383 1244 377 1159 377 1028 C 377 945 382 883 394 843 C 406 802 438 782 492 782 C 531 782 558 802 572 843 C 586 883 594 945 594 1028 Z" unicode="9" />
<glyph horiz-adv-x="471" d="M 395 0 L 80 0 L 80 344 L 395 344 L 395 0 Z M 395 750 L 80 750 L 80 1094 L 395 1094 L 395 750 Z" unicode=":" />
<glyph horiz-adv-x="471" d="M 395 0 C 395 -74 381 -139 353 -193 C 325 -247 277 -289 207 -319 C 187 -327 168 -334 149 -339 C 130 -343 109 -347 86 -350 L 61 -238 C 83 -230 104 -221 124 -211 C 143 -201 160 -189 176 -176 C 203 -152 219 -126 225 -96 C 231 -66 232 -34 229 0 L 80 0 L 80 344 L 395 344 L 395 0 Z M 395 750 L 80 750 L 80 1094 L 395 1094 L 395 750 Z" unicode=";" />
<glyph horiz-adv-x="748" d="M 674 242 L 74 549 L 74 770 L 674 1077 L 674 842 L 311 659 L 674 477 L 674 242 Z" unicode="&#x3C;" />
<glyph horiz-adv-x="877" d="M 803 348 L 74 348 L 74 573 L 803 573 L 803 348 Z M 803 758 L 74 758 L 74 983 L 803 983 L 803 758 Z" unicode="=" />
<glyph horiz-adv-x="748" d="M 674 549 L 74 242 L 74 477 L 436 659 L 74 842 L 74 1077 L 674 770 L 674 549 Z" unicode="&#x3E;" />
<glyph horiz-adv-x="827" d="M 780 1122 C 780 901 753 758 701 694 C 648 630 583 598 506 598 C 452 598 412 605 384 620 C 356 634 331 654 309 680 L 309 440 L 125 440 L 125 1001 L 309 1001 C 309 952 315 915 327 890 C 339 864 360 852 389 852 C 419 852 441 869 454 905 C 466 940 473 1009 473 1112 C 473 1211 465 1276 450 1307 C 435 1338 414 1354 387 1354 C 360 1354 337 1346 319 1330 C 300 1314 291 1287 291 1249 C 291 1220 291 1196 293 1178 C 294 1159 297 1141 301 1124 L 88 1124 C 81 1146 76 1170 73 1196 C 69 1221 68 1248 68 1278 C 68 1364 92 1439 141 1502 C 189 1565 279 1597 410 1597 C 568 1597 669 1550 713 1457 C 757 1364 780 1252 780 1122 Z M 367 0 L 68 0 L 68 344 L 367 344 L 367 0 Z" unicode="?" />
<glyph horiz-adv-x="1788" d="M 1694 862 C 1694 676 1646 531 1551 425 C 1455 319 1353 266 1245 266 C 1164 266 1105 277 1068 300 C 1031 322 1010 351 1006 385 C 985 356 956 327 919 299 C 882 270 818 256 727 256 C 661 256 604 273 556 309 C 507 344 483 401 483 479 C 483 629 534 729 638 777 C 741 825 858 855 989 866 L 999 938 C 1004 968 1002 994 993 1014 C 984 1034 963 1044 930 1044 C 906 1044 889 1034 877 1014 C 865 994 860 970 860 942 C 860 938 860 933 860 928 C 860 922 861 918 862 915 L 551 872 C 550 882 549 893 548 903 C 547 913 547 922 547 932 C 547 1027 579 1101 645 1155 C 711 1208 821 1235 975 1235 C 1103 1235 1195 1205 1249 1147 C 1303 1088 1329 1017 1325 934 C 1320 854 1312 787 1301 733 C 1290 678 1276 605 1260 514 C 1256 496 1258 479 1264 461 C 1270 443 1286 434 1311 434 C 1361 434 1417 465 1480 527 C 1543 589 1575 700 1575 860 C 1575 1078 1508 1240 1375 1346 C 1242 1452 1087 1505 911 1505 C 700 1505 529 1428 399 1275 C 268 1122 203 935 203 715 C 203 488 267 307 397 173 C 526 38 696 -29 907 -29 C 990 -29 1071 -12 1151 19 C 1231 51 1295 92 1343 141 L 1407 49 C 1353 3 1284 -39 1199 -79 C 1113 -119 1013 -139 899 -139 C 639 -139 436 -61 290 93 C 144 248 72 456 72 717 C 72 975 148 1186 300 1350 C 452 1514 662 1597 930 1597 C 1140 1597 1320 1534 1470 1410 C 1619 1285 1694 1102 1694 862 Z M 965 700 C 960 700 953 700 945 701 C 937 701 930 702 924 702 C 882 702 848 690 822 668 C 796 645 784 602 784 539 C 784 513 788 494 798 483 C 808 472 825 467 850 467 C 874 467 896 476 914 495 C 932 513 944 543 948 584 L 965 700 Z" unicode="@" />
<glyph horiz-adv-x="1020" d="M 997 0 L 627 0 L 582 272 L 350 272 L 309 0 L 14 0 L 315 1573 L 664 1573 L 997 0 Z M 545 492 L 451 987 L 381 492 L 545 492 Z" unicode="A" />
<glyph horiz-adv-x="1032" d="M 993 444 C 993 282 963 167 903 100 C 843 33 761 0 655 0 L 92 0 L 92 1573 L 575 1573 C 705 1573 801 1531 862 1447 C 923 1363 954 1261 954 1141 C 954 1055 939 986 910 933 C 880 880 839 844 786 825 C 847 806 897 766 935 705 C 973 644 993 557 993 444 Z M 639 475 C 639 529 628 578 608 623 C 587 667 552 690 502 690 L 420 690 L 420 268 L 506 268 C 544 268 576 281 601 309 C 626 337 639 392 639 475 Z M 610 1112 C 610 1169 601 1216 585 1254 C 569 1292 540 1311 500 1311 L 420 1311 L 420 950 L 504 950 C 540 950 567 964 584 992 C 601 1020 610 1060 610 1112 Z" unicode="B" />
<glyph horiz-adv-x="1022" d="M 973 442 C 973 290 937 172 867 89 C 797 6 679 -35 514 -35 C 355 -35 237 15 160 116 C 83 217 45 412 45 700 C 45 1021 78 1251 145 1389 C 211 1527 341 1597 535 1597 C 679 1597 785 1560 853 1487 C 921 1414 956 1315 956 1190 C 956 1162 952 1122 945 1069 C 938 1015 932 974 926 944 L 625 942 C 627 960 628 986 630 1018 C 632 1050 633 1078 633 1104 C 633 1187 626 1244 613 1275 C 600 1305 575 1321 537 1321 C 485 1321 451 1282 435 1205 C 419 1127 412 984 412 774 C 412 530 419 382 433 329 C 447 276 481 250 535 250 C 581 250 614 270 632 312 C 650 354 659 416 659 500 C 659 533 659 564 660 593 C 660 622 659 658 657 700 L 952 696 C 959 651 964 610 968 572 C 971 534 973 491 973 442 Z" unicode="C" />
<glyph horiz-adv-x="1071" d="M 1026 713 C 1026 507 993 336 929 202 C 865 67 746 0 573 0 L 92 0 L 92 1573 L 598 1573 C 742 1573 849 1494 920 1336 C 990 1178 1026 971 1026 713 Z M 678 750 C 678 959 668 1104 648 1185 C 628 1266 581 1307 508 1307 L 432 1307 L 432 285 L 512 285 C 568 285 609 312 637 368 C 664 423 678 550 678 750 Z" unicode="D" />
<glyph horiz-adv-x="954" d="M 918 0 L 92 0 L 92 1573 L 877 1573 L 877 1276 L 440 1276 L 440 948 L 829 948 L 829 659 L 440 659 L 440 301 L 918 301 L 918 0 Z" unicode="E" />
<glyph horiz-adv-x="891" d="M 856 1260 L 440 1260 L 440 918 L 809 918 L 809 629 L 440 629 L 440 0 L 92 0 L 92 1573 L 856 1573 L 856 1260 Z" unicode="F" />
<glyph horiz-adv-x="1061" d="M 987 0 L 821 0 L 784 104 L 739 66 C 698 31 659 6 622 -9 C 584 -25 536 -33 477 -33 C 334 -33 226 21 154 129 C 81 237 45 441 45 741 C 45 1061 80 1284 152 1409 C 223 1534 351 1597 537 1597 C 674 1597 782 1564 861 1498 C 939 1432 979 1326 979 1180 C 979 1152 976 1113 971 1063 C 966 1013 960 976 954 952 L 653 944 C 655 966 658 997 660 1037 C 662 1077 664 1114 664 1149 C 664 1197 654 1238 635 1272 C 615 1306 583 1323 537 1323 C 485 1323 449 1286 431 1212 C 412 1138 403 981 403 743 C 403 526 413 391 433 337 C 453 283 493 256 551 256 C 603 256 638 274 658 312 C 678 349 688 409 688 492 L 688 586 L 528 586 L 528 807 L 987 807 L 987 0 Z" unicode="G" />
<glyph horiz-adv-x="1087" d="M 995 0 L 647 0 L 647 725 L 440 725 L 440 0 L 92 0 L 92 1573 L 440 1573 L 440 989 L 647 989 L 647 1573 L 995 1573 L 995 0 Z" unicode="H" />
<glyph horiz-adv-x="532" d="M 440 0 L 92 0 L 92 1573 L 440 1573 L 440 0 Z" unicode="I" />
<glyph horiz-adv-x="985" d="M 903 449 C 903 315 865 202 791 111 C 716 20 603 -25 451 -25 C 312 -25 205 18 130 105 C 55 192 18 306 18 446 C 18 495 23 545 34 595 C 45 645 57 687 70 719 L 369 729 C 364 694 359 655 355 611 C 350 567 348 529 348 496 C 348 418 355 363 371 331 C 387 299 412 283 446 283 C 478 283 505 297 525 325 C 545 353 555 405 555 483 L 555 1573 L 903 1573 L 903 449 Z" unicode="J" />
<glyph horiz-adv-x="1067" d="M 1077 0 L 684 0 L 440 651 L 440 0 L 92 0 L 92 1573 L 440 1573 L 440 995 L 676 1573 L 1030 1573 L 727 874 L 1077 0 Z" unicode="K" />
<glyph horiz-adv-x="844" d="M 829 0 L 92 0 L 92 1573 L 440 1573 L 440 301 L 829 301 L 829 0 Z" unicode="L" />
<glyph horiz-adv-x="1413" d="M 1321 0 L 1001 0 L 1001 1130 L 793 0 L 573 0 L 393 1130 L 393 0 L 92 0 L 92 1573 L 557 1573 L 705 823 L 836 1573 L 1321 1573 L 1321 0 Z" unicode="M" />
<glyph horiz-adv-x="1063" d="M 971 0 L 713 0 L 377 831 L 377 0 L 92 0 L 92 1573 L 395 1573 L 698 825 L 698 1573 L 971 1573 L 971 0 Z" unicode="N" />
<glyph horiz-adv-x="1012" d="M 967 788 C 967 487 937 276 879 156 C 821 35 696 -25 506 -25 C 338 -25 219 28 149 134 C 79 240 45 458 45 788 C 45 1060 76 1262 140 1396 C 203 1530 325 1597 506 1597 C 681 1597 802 1535 868 1412 C 934 1289 967 1081 967 788 Z M 610 784 C 610 1000 606 1145 598 1219 C 590 1292 560 1329 506 1329 C 454 1329 423 1292 414 1218 C 405 1144 401 999 401 784 C 401 556 406 412 417 352 C 428 292 458 262 506 262 C 554 262 584 292 594 353 C 604 413 610 557 610 784 Z" unicode="O" />
<glyph horiz-adv-x="1016" d="M 977 1049 C 977 856 941 726 869 660 C 797 594 695 561 565 561 L 432 561 L 432 0 L 92 0 L 92 1573 L 518 1573 C 656 1573 767 1536 851 1463 C 935 1389 977 1251 977 1049 Z M 633 1065 C 633 1156 622 1218 602 1251 C 582 1283 548 1300 500 1300 L 432 1300 L 432 840 L 502 840 C 548 840 581 857 602 893 C 622 929 633 986 633 1065 Z" unicode="P" />
<glyph horiz-adv-x="1012" d="M 967 788 C 965 502 942 298 900 177 C 857 56 776 -12 657 -29 L 600 -35 L 598 -59 C 594 -103 599 -134 613 -154 C 627 -174 646 -184 672 -184 C 707 -184 730 -173 740 -151 C 750 -129 751 -104 743 -78 L 928 -78 L 934 -131 C 942 -216 917 -280 858 -323 C 798 -365 729 -387 651 -387 C 564 -387 495 -365 445 -322 C 394 -279 369 -215 369 -131 C 369 -111 369 -93 370 -75 C 371 -57 373 -43 375 -33 L 354 -31 C 253 -21 176 33 124 135 C 71 236 45 454 45 788 C 45 1060 76 1262 140 1396 C 203 1530 325 1597 506 1597 C 681 1597 801 1530 866 1396 C 931 1262 965 1060 967 788 Z M 610 784 C 610 996 606 1139 598 1215 C 590 1291 560 1329 506 1329 C 454 1329 423 1290 414 1214 C 405 1138 401 994 401 784 C 401 558 406 414 417 353 C 428 292 458 262 506 262 C 554 262 584 293 594 356 C 604 419 610 562 610 784 Z" unicode="Q" />
<glyph horiz-adv-x="1044" d="M 987 1087 C 987 958 965 867 923 814 C 880 761 823 727 752 713 C 820 695 869 660 901 606 C 933 552 952 463 958 340 C 959 309 960 279 961 249 C 962 219 963 195 963 176 C 963 143 967 107 973 69 C 979 31 983 8 985 0 L 629 0 C 619 24 612 52 606 82 C 600 112 598 144 598 180 C 598 203 597 244 597 302 C 597 360 596 408 596 446 C 595 495 589 536 577 569 C 565 601 536 618 492 618 L 440 618 L 440 0 L 92 0 L 92 1573 L 606 1573 C 742 1573 839 1531 898 1448 C 957 1365 987 1245 987 1087 Z M 639 1085 C 639 1174 628 1234 607 1265 C 585 1295 556 1311 518 1311 L 440 1311 L 440 860 L 522 860 C 568 860 599 878 615 914 C 631 950 639 1007 639 1085 Z" unicode="R" />
<glyph horiz-adv-x="1042" d="M 1006 477 C 1006 331 969 210 896 116 C 822 22 693 -25 508 -25 C 340 -25 220 11 147 84 C 73 157 37 254 37 375 C 37 406 39 438 43 472 C 47 506 54 535 63 561 L 365 571 C 357 553 352 529 349 501 C 345 473 344 446 344 422 C 344 373 357 334 383 304 C 409 274 446 260 494 260 C 538 260 575 272 604 296 C 632 320 647 362 647 420 C 647 474 631 517 600 551 C 568 584 524 617 467 651 L 281 762 C 215 800 161 853 117 921 C 73 989 51 1067 51 1155 C 51 1282 92 1387 175 1471 C 257 1555 379 1597 541 1597 C 680 1597 780 1562 841 1492 C 901 1422 932 1331 932 1219 C 932 1191 930 1165 926 1141 C 922 1117 918 1096 913 1079 L 616 1071 C 621 1082 626 1097 631 1115 C 636 1133 639 1154 639 1178 C 639 1230 628 1266 608 1287 C 587 1308 558 1319 522 1319 C 489 1319 462 1308 440 1286 C 418 1264 408 1228 408 1180 C 408 1126 429 1083 473 1049 C 517 1015 564 986 614 963 L 748 897 C 831 856 895 801 939 733 C 983 665 1006 579 1006 477 Z" unicode="S" />
<glyph horiz-adv-x="934" d="M 920 1284 L 641 1284 L 641 0 L 293 0 L 293 1284 L 14 1284 L 14 1573 L 920 1573 L 920 1284 Z" unicode="T" />
<glyph horiz-adv-x="1096" d="M 1008 451 C 1008 320 978 208 919 115 C 859 21 735 -25 547 -25 C 371 -25 251 20 186 110 C 120 200 88 314 88 451 L 88 1573 L 434 1573 L 434 410 C 434 375 443 347 462 326 C 480 305 509 295 547 295 C 585 295 614 306 633 328 C 652 350 662 377 662 410 L 662 1573 L 1008 1573 L 1008 451 Z" unicode="U" />
<glyph horiz-adv-x="989" d="M 989 1573 L 676 0 L 305 0 L -6 1573 L 360 1573 L 516 614 L 526 614 L 659 1573 L 989 1573 Z" unicode="V" />
<glyph horiz-adv-x="1294" d="M 1294 1573 L 1036 0 L 770 0 L 645 811 L 539 0 L 262 0 L 0 1573 L 313 1573 L 430 860 L 545 1573 L 778 1573 L 895 860 L 1012 1573 L 1294 1573 Z" unicode="W" />
<glyph horiz-adv-x="1057" d="M 1038 0 L 678 0 L 510 541 L 350 0 L 0 0 L 313 831 L 61 1573 L 422 1573 L 565 1159 L 680 1573 L 1030 1573 L 774 831 L 1038 0 Z" unicode="X" />
<glyph horiz-adv-x="1022" d="M 1022 1573 L 690 614 L 690 0 L 342 0 L 342 614 L 0 1573 L 348 1573 L 537 989 L 723 1573 L 1022 1573 Z" unicode="Y" />
<glyph horiz-adv-x="926" d="M 874 0 L 55 0 L 55 365 L 547 1278 L 121 1278 L 121 1573 L 874 1573 L 874 1208 L 393 301 L 874 301 L 874 0 Z" unicode="Z" />
<glyph horiz-adv-x="664" d="M 586 -209 L 92 -209 L 92 1573 L 586 1573 L 586 1393 L 354 1393 L 354 -29 L 586 -29 L 586 -209 Z" unicode="[" />
<glyph horiz-adv-x="954" d="M 952 0 L 750 0 L 2 1573 L 203 1573 L 952 0 Z" unicode="\" />
<glyph horiz-adv-x="664" d="M 571 -209 L 78 -209 L 78 -29 L 309 -29 L 309 1393 L 78 1393 L 78 1573 L 571 1573 L 571 -209 Z" unicode="]" />
<glyph horiz-adv-x="971" d="M 860 1186 L 705 1186 L 485 1397 L 266 1186 L 111 1186 L 336 1573 L 635 1573 L 860 1186 Z" unicode="^" />
<glyph horiz-adv-x="1044" d="M 1044 -410 L 0 -410 L 0 -203 L 1044 -203 L 1044 -410 Z" unicode="_" />
<glyph horiz-adv-x="971" d="M 705 1270 L 571 1270 L 205 1550 L 205 1573 L 557 1573 L 705 1270 Z" unicode="`" />
<glyph horiz-adv-x="1051" d="M 1030 37 C 1014 25 984 12 940 -2 C 896 -17 853 -25 813 -25 C 731 -25 679 -10 657 18 C 634 46 617 83 606 127 L 588 90 C 574 63 548 37 508 12 C 468 -12 415 -25 350 -25 C 237 -25 157 12 111 87 C 64 161 41 242 41 330 C 41 427 64 505 112 564 C 159 623 233 663 334 684 L 457 711 C 519 723 559 740 578 761 C 596 782 606 817 606 866 C 606 921 595 960 573 983 C 551 1006 519 1018 477 1018 C 438 1018 405 1006 378 984 C 351 962 338 933 338 897 C 338 876 339 858 342 843 C 345 828 349 813 354 797 L 84 791 C 79 814 75 834 72 850 C 69 866 68 889 68 918 C 68 1022 108 1097 190 1143 C 271 1189 368 1212 481 1212 C 644 1212 759 1187 826 1138 C 892 1088 926 1025 926 948 L 926 264 C 926 242 933 226 948 214 C 963 202 981 197 1001 197 C 1006 197 1011 197 1016 198 C 1020 199 1025 201 1030 203 L 1030 37 Z M 606 465 L 606 584 C 592 575 576 567 558 561 C 540 554 523 549 508 545 C 450 528 411 507 393 482 C 374 457 365 419 365 367 C 365 315 372 275 387 247 C 401 219 428 205 467 205 C 505 205 537 219 565 248 C 592 277 606 349 606 465 Z" unicode="a" />
<glyph horiz-adv-x="995" d="M 954 610 C 954 383 923 221 863 125 C 803 28 701 -20 559 -20 C 480 -20 422 1 384 44 C 346 86 316 128 295 168 L 225 0 L 78 0 L 78 1573 L 401 1573 L 401 1059 C 418 1091 442 1123 473 1153 C 504 1183 552 1198 616 1198 C 710 1198 789 1155 855 1071 C 921 987 954 833 954 610 Z M 629 584 C 629 645 627 696 624 738 C 620 779 615 816 608 848 C 600 881 589 904 576 916 C 563 928 545 934 522 934 C 481 934 451 907 431 853 C 411 799 401 709 401 584 C 401 445 410 351 430 302 C 450 253 477 229 512 229 C 550 229 579 251 599 295 C 619 339 629 436 629 584 Z" unicode="b" />
<glyph horiz-adv-x="946" d="M 907 358 C 907 270 879 185 825 101 C 770 17 666 -25 514 -25 C 364 -25 247 14 165 92 C 82 170 41 321 41 545 C 41 799 84 973 171 1069 C 258 1164 369 1212 504 1212 C 654 1212 755 1174 807 1098 C 859 1022 885 933 885 829 C 885 810 884 792 883 776 C 882 759 881 744 879 731 L 602 723 C 604 731 605 741 606 753 C 607 764 608 777 608 793 C 608 847 599 889 581 919 C 563 949 536 965 500 965 C 448 965 413 940 396 892 C 379 843 371 750 371 612 C 371 451 380 347 398 300 C 416 252 452 229 504 229 C 556 229 588 255 601 308 C 614 361 621 413 621 463 C 621 477 620 490 618 501 C 616 512 614 522 612 530 L 893 516 C 897 496 900 473 903 446 C 905 419 907 390 907 358 Z" unicode="c" />
<glyph horiz-adv-x="997" d="M 920 0 L 612 0 L 612 152 L 584 100 C 566 67 541 39 508 16 C 474 -6 433 -18 385 -18 C 272 -18 186 23 128 105 C 70 187 41 346 41 580 C 41 779 70 932 129 1038 C 187 1144 272 1198 383 1198 C 431 1198 472 1186 506 1163 C 540 1140 565 1111 582 1075 L 596 1044 L 596 1573 L 920 1573 L 920 0 Z M 592 586 C 592 661 589 720 584 764 C 578 807 570 845 559 877 C 550 901 539 920 525 934 C 511 947 491 954 467 954 C 434 954 409 926 391 871 C 373 815 365 721 365 588 C 365 430 376 331 399 291 C 422 251 448 231 477 231 C 513 231 541 255 561 303 C 581 351 592 445 592 586 Z" unicode="d" />
<glyph horiz-adv-x="946" d="M 899 520 L 367 524 C 366 394 377 312 400 278 C 422 244 457 227 504 227 C 548 227 578 241 595 270 C 612 299 618 339 614 389 L 610 436 L 891 428 C 893 417 894 404 895 389 C 896 373 897 357 897 340 C 897 239 868 153 810 82 C 752 10 652 -25 508 -25 C 367 -25 254 13 169 90 C 83 166 41 327 41 571 C 41 796 79 959 155 1060 C 231 1161 339 1212 481 1212 C 608 1212 703 1170 767 1088 C 831 1006 870 891 885 745 C 889 705 892 666 894 629 C 896 592 898 556 899 520 Z M 584 690 C 577 803 569 879 559 918 C 549 957 523 977 481 977 C 438 977 409 952 394 904 C 378 855 369 784 367 690 L 584 690 Z" unicode="e" />
<glyph horiz-adv-x="735" d="M 782 1372 C 782 1350 780 1330 776 1311 C 772 1291 768 1273 764 1257 L 575 1266 C 577 1276 579 1287 580 1299 C 581 1311 582 1324 582 1339 C 582 1359 578 1377 571 1392 C 563 1407 548 1415 526 1415 C 505 1415 490 1405 480 1385 C 470 1365 465 1328 465 1274 C 465 1256 465 1239 466 1223 C 467 1206 468 1190 469 1176 L 735 1176 L 735 954 L 479 954 L 479 0 L 156 0 L 156 954 L 0 954 L 0 1176 L 156 1176 L 156 1294 C 156 1387 186 1461 247 1515 C 308 1569 391 1597 496 1597 C 602 1597 676 1577 718 1539 C 760 1500 782 1444 782 1372 Z" unicode="f" />
<glyph horiz-adv-x="922" d="M 928 -20 C 928 -144 889 -236 813 -296 C 736 -355 612 -385 440 -385 C 328 -385 227 -366 138 -330 C 48 -293 4 -227 4 -131 C 4 -94 13 -64 31 -42 C 49 -20 77 0 113 16 L 166 43 L 127 66 C 87 89 59 116 45 148 C 30 180 23 217 23 260 C 23 313 37 357 67 393 C 97 428 129 457 164 481 L 201 506 L 166 537 C 134 564 106 603 84 654 C 62 705 51 756 51 807 C 51 933 84 1032 151 1104 C 218 1176 316 1212 446 1212 C 486 1212 518 1209 542 1205 C 566 1201 588 1194 610 1186 L 641 1399 L 903 1399 L 723 1128 C 761 1095 795 1053 823 1001 C 851 949 866 884 866 807 C 866 696 833 607 767 539 C 701 471 612 438 500 438 C 475 438 448 438 419 440 C 389 442 365 445 346 451 C 329 440 313 430 298 421 C 283 411 276 396 276 375 C 276 346 287 329 309 324 C 331 319 353 317 377 317 L 571 319 C 682 320 769 292 833 236 C 896 179 928 94 928 -20 Z M 639 -82 C 639 -50 625 -25 597 -7 C 569 11 522 20 455 20 L 311 20 C 297 8 284 -7 272 -26 C 260 -45 254 -65 254 -86 C 254 -122 272 -150 308 -171 C 344 -192 390 -203 444 -203 C 528 -203 582 -192 605 -172 C 627 -152 639 -122 639 -82 Z M 561 834 C 561 920 551 976 533 1001 C 515 1025 488 1038 453 1038 C 417 1038 390 1025 372 1001 C 354 976 346 920 346 834 C 346 746 354 690 372 666 C 390 641 417 629 453 629 C 488 629 515 641 533 666 C 551 690 561 746 561 834 Z" unicode="g" />
<glyph horiz-adv-x="997" d="M 926 0 L 602 0 L 602 831 C 602 857 596 878 585 894 C 573 910 554 918 526 918 C 488 918 458 895 435 850 C 412 805 401 745 401 670 L 401 0 L 78 0 L 78 1573 L 399 1573 L 399 985 C 417 1051 450 1103 496 1141 C 542 1179 599 1198 668 1198 C 734 1198 793 1175 846 1131 C 899 1086 926 1016 926 922 L 926 0 Z" unicode="h" />
<glyph horiz-adv-x="479" d="M 401 0 L 78 0 L 78 1176 L 401 1176 L 401 0 Z M 401 1278 L 78 1278 L 78 1573 L 401 1573 L 401 1278 Z" unicode="i" />
<glyph horiz-adv-x="489" d="M 412 -55 C 412 -165 385 -244 332 -294 C 279 -344 202 -369 100 -369 C 14 -369 -57 -352 -117 -320 C -177 -287 -207 -227 -207 -141 C -207 -126 -204 -108 -199 -87 C -194 -65 -189 -49 -184 -37 L -8 -41 C -10 -51 -13 -63 -16 -77 C -18 -90 -20 -101 -20 -111 C -20 -142 -14 -164 -4 -176 C 6 -188 22 -195 43 -195 C 66 -195 82 -188 91 -174 C 99 -160 104 -143 104 -123 C 104 -116 103 -108 101 -100 C 99 -91 98 -82 96 -72 C 94 -60 92 -48 90 -35 C 88 -21 88 -6 88 10 L 88 1176 L 412 1176 L 412 -55 Z M 412 1278 L 88 1278 L 88 1573 L 412 1573 L 412 1278 Z" unicode="j" />
<glyph horiz-adv-x="993" d="M 979 0 L 608 0 L 481 399 L 401 258 L 401 0 L 78 0 L 78 1573 L 401 1573 L 401 717 L 633 1176 L 963 1176 L 715 721 L 979 0 Z" unicode="k" />
<glyph horiz-adv-x="479" d="M 401 0 L 78 0 L 78 1573 L 401 1573 L 401 0 Z" unicode="l" />
<glyph horiz-adv-x="1522" d="M 1450 0 L 1126 0 L 1126 834 C 1126 860 1120 881 1109 897 C 1097 912 1078 920 1051 920 C 1013 920 982 897 960 852 C 937 807 926 747 926 672 L 926 0 L 604 0 L 604 834 C 604 860 598 881 587 897 C 575 912 556 920 528 920 C 490 920 460 899 436 857 C 412 815 401 753 401 672 C 401 672 401 560 401 338 C 401 115 401 2 401 0 L 78 0 L 78 1176 L 399 1176 L 399 983 C 417 1049 450 1101 497 1140 C 543 1178 601 1198 670 1198 C 736 1198 792 1180 839 1144 C 886 1108 914 1054 924 983 C 942 1049 975 1101 1021 1140 C 1067 1178 1124 1198 1192 1198 C 1258 1198 1317 1175 1370 1131 C 1423 1086 1450 1016 1450 922 L 1450 0 Z" unicode="m" />
<glyph horiz-adv-x="997" d="M 926 0 L 602 0 L 602 831 C 602 857 596 878 585 894 C 573 910 554 918 526 918 C 488 918 458 895 435 850 C 412 805 401 745 401 670 L 401 0 L 78 0 L 78 1176 L 399 1176 L 399 985 C 417 1051 450 1103 496 1141 C 542 1179 599 1198 668 1198 C 734 1198 793 1175 846 1131 C 899 1086 926 1016 926 922 L 926 0 Z" unicode="n" />
<glyph horiz-adv-x="948" d="M 907 596 C 907 397 879 245 823 140 C 767 34 655 -18 485 -18 C 322 -18 207 28 141 121 C 74 214 41 363 41 569 C 41 788 76 950 148 1055 C 220 1159 327 1212 469 1212 C 638 1212 753 1159 815 1055 C 876 950 907 797 907 596 Z M 573 578 C 573 736 566 840 554 892 C 542 943 515 969 473 969 C 430 969 403 943 392 891 C 380 839 375 734 375 578 C 375 428 382 335 398 299 C 413 263 438 246 473 246 C 509 246 535 264 550 300 C 565 336 573 429 573 578 Z" unicode="o" />
<glyph horiz-adv-x="999" d="M 958 555 C 958 356 933 210 884 118 C 834 26 749 -20 629 -20 C 585 -20 546 -7 513 16 C 479 40 454 64 438 88 L 401 152 L 401 -295 L 78 -295 L 78 1176 L 399 1176 L 399 1044 L 428 1087 C 447 1117 472 1143 503 1167 C 534 1190 571 1202 614 1202 C 707 1202 788 1160 856 1077 C 924 993 958 819 958 555 Z M 631 588 C 631 724 619 817 597 868 C 574 918 548 944 520 944 C 484 944 456 922 434 878 C 412 834 401 738 401 590 C 401 451 410 360 429 317 C 448 273 479 252 522 252 C 554 252 581 279 601 335 C 621 391 631 475 631 588 Z" unicode="p" />
<glyph horiz-adv-x="995" d="M 918 -295 L 594 -295 L 594 117 C 576 84 552 53 521 25 C 490 -3 443 -18 379 -18 C 285 -18 205 23 139 106 C 73 189 41 342 41 565 C 41 777 73 936 137 1041 C 201 1145 300 1198 436 1198 C 493 1198 543 1181 587 1147 C 630 1113 663 1070 686 1020 L 770 1176 L 918 1176 L 918 -295 Z M 592 592 C 592 757 578 859 551 897 C 524 935 496 954 467 954 C 435 954 410 930 392 884 C 374 837 365 740 365 592 C 365 439 373 341 390 297 C 406 253 436 231 479 231 C 507 231 532 250 556 289 C 580 327 592 428 592 592 Z" unicode="q" />
<glyph horiz-adv-x="901" d="M 879 895 C 879 841 877 794 873 754 C 869 713 866 679 862 651 L 586 600 C 588 620 591 643 593 668 C 595 693 596 721 596 752 C 596 806 588 843 573 865 C 558 886 537 897 510 897 C 467 897 438 866 423 804 C 408 742 401 670 401 590 L 401 0 L 78 0 L 78 1176 L 395 1176 C 395 1176 395 1149 397 1096 C 398 1042 399 998 399 963 L 414 1004 C 431 1054 458 1098 496 1138 C 533 1178 579 1198 635 1198 C 717 1198 779 1173 819 1123 C 859 1073 879 997 879 895 Z" unicode="r" />
<glyph horiz-adv-x="918" d="M 895 354 C 895 230 861 137 794 74 C 727 11 611 -20 446 -20 C 302 -20 198 5 134 56 C 69 107 37 180 37 276 C 37 302 39 327 44 352 C 48 377 54 400 61 422 L 309 406 C 306 391 304 378 303 366 C 301 354 301 342 301 330 C 301 287 310 254 330 230 C 350 206 381 195 424 195 C 472 195 504 209 520 239 C 535 268 543 294 543 317 C 543 347 533 373 515 394 C 497 415 466 435 422 455 L 295 514 C 244 537 189 574 130 626 C 70 678 41 758 41 866 C 41 977 82 1062 164 1122 C 246 1182 343 1212 455 1212 C 561 1212 652 1188 726 1141 C 800 1094 838 1021 838 922 C 838 900 836 881 833 865 C 829 848 825 831 819 815 L 575 819 C 579 831 582 843 584 855 C 585 866 586 881 586 901 C 586 933 576 958 556 975 C 536 992 509 1001 475 1001 C 441 1001 415 991 398 972 C 381 952 373 927 373 897 C 373 863 384 836 407 818 C 430 799 462 781 502 764 L 659 696 C 725 666 781 627 827 579 C 872 531 895 456 895 354 Z" unicode="s" />
<glyph horiz-adv-x="799" d="M 758 51 C 737 37 695 22 633 7 C 570 -8 508 -16 446 -16 C 362 -16 295 2 245 38 C 194 74 169 137 170 229 L 174 954 L 0 954 L 0 1176 L 178 1176 L 186 1499 L 494 1499 L 494 1176 L 739 1176 L 739 954 L 494 954 L 494 360 C 494 314 510 285 542 274 C 574 263 607 258 639 258 C 664 258 686 260 705 265 C 723 269 741 275 758 283 L 758 51 Z" unicode="t" />
<glyph horiz-adv-x="997" d="M 920 0 L 598 0 L 598 190 C 579 124 547 72 501 34 C 455 -4 398 -23 330 -23 C 264 -23 204 0 151 44 C 98 88 72 158 72 254 L 72 1176 L 395 1176 L 395 344 C 395 317 400 296 412 281 C 424 265 443 258 471 258 C 509 258 539 278 562 320 C 584 361 596 423 596 506 L 596 1176 L 920 1176 L 920 0 Z" unicode="u" />
<glyph horiz-adv-x="942" d="M 942 1176 L 633 0 L 319 0 L 0 1176 L 342 1176 L 500 471 L 629 1176 L 942 1176 Z" unicode="v" />
<glyph horiz-adv-x="1360" d="M 1360 1176 L 1059 0 L 791 0 L 674 672 L 573 0 L 307 0 L 0 1176 L 332 1176 L 444 641 L 539 1176 L 834 1176 L 942 641 L 1040 1176 L 1360 1176 Z" unicode="w" />
<glyph horiz-adv-x="971" d="M 971 0 L 610 0 L 479 328 L 313 0 L 0 0 L 332 625 L 29 1176 L 395 1176 L 510 893 L 637 1176 L 948 1176 L 672 633 L 971 0 Z" unicode="x" />
<glyph horiz-adv-x="967" d="M 967 1176 L 657 -10 C 634 -107 601 -191 558 -262 C 514 -333 426 -369 293 -369 C 180 -369 104 -345 66 -299 C 27 -253 8 -193 8 -119 C 8 -104 8 -90 10 -78 C 12 -66 14 -52 16 -37 L 219 -37 C 217 -49 215 -62 213 -76 C 211 -90 211 -103 211 -117 C 211 -137 217 -154 229 -166 C 241 -178 262 -184 291 -184 C 326 -184 350 -170 364 -142 C 378 -114 385 -77 385 -31 C 385 -14 382 4 376 26 C 370 47 364 68 358 90 L 0 1176 L 360 1176 L 524 485 L 657 1176 L 967 1176 Z" unicode="y" />
<glyph horiz-adv-x="881" d="M 823 0 L 53 0 L 53 328 L 471 930 L 80 930 L 80 1176 L 823 1176 L 823 895 L 358 246 L 823 246 L 823 0 Z" unicode="z" />
<glyph horiz-adv-x="649" d="M 598 -209 L 406 -209 C 316 -209 251 -192 213 -159 C 175 -126 156 -57 156 47 L 156 483 C 156 523 150 551 138 567 C 126 582 104 590 70 590 L 18 590 L 18 868 L 70 868 C 108 868 131 876 141 892 C 151 908 156 940 156 989 L 156 1329 C 156 1413 175 1475 213 1514 C 251 1553 316 1573 406 1573 L 598 1573 L 598 1366 L 479 1366 C 454 1366 437 1357 427 1341 C 417 1325 412 1304 412 1280 L 412 905 C 412 849 400 806 377 778 C 353 749 319 735 274 735 C 312 735 345 718 372 686 C 398 653 412 609 412 553 L 412 82 C 412 52 416 31 425 17 C 434 3 452 -4 479 -4 L 598 -4 L 598 -209 Z" unicode="{" />
<glyph horiz-adv-x="403" d="M 330 -410 L 74 -410 L 74 1638 L 330 1638 L 330 -410 Z" unicode="|" />
<glyph horiz-adv-x="649" d="M 631 590 L 580 590 C 545 590 522 582 511 567 C 499 551 494 523 494 483 L 494 47 C 494 -57 474 -126 436 -159 C 397 -192 333 -209 244 -209 L 51 -209 L 51 -4 L 170 -4 C 196 -4 214 3 224 17 C 233 31 238 52 238 82 L 238 553 C 238 609 251 653 277 686 C 303 718 336 735 375 735 C 330 735 296 749 273 778 C 249 806 238 849 238 905 L 238 1280 C 238 1304 232 1325 222 1341 C 212 1357 194 1366 170 1366 L 51 1366 L 51 1573 L 244 1573 C 333 1573 397 1553 436 1514 C 474 1475 494 1413 494 1329 L 494 989 C 494 940 498 908 508 892 C 517 876 541 868 580 868 L 631 868 L 631 590 Z" unicode="}" />
<glyph horiz-adv-x="907" d="M 803 1432 C 803 1380 787 1330 756 1284 C 725 1237 671 1214 594 1214 C 558 1214 528 1220 504 1233 C 480 1245 460 1258 446 1272 L 395 1317 C 380 1329 366 1340 354 1350 C 341 1359 325 1364 307 1364 C 267 1364 246 1349 244 1320 C 242 1291 242 1269 242 1255 L 139 1255 C 132 1269 127 1287 123 1307 C 119 1327 117 1351 117 1380 C 117 1430 129 1478 153 1526 C 177 1573 225 1597 299 1597 C 343 1597 378 1591 405 1579 C 432 1567 458 1550 483 1530 L 537 1487 C 551 1475 563 1466 574 1459 C 584 1451 599 1448 618 1448 C 654 1448 673 1464 676 1498 C 678 1531 680 1553 680 1565 L 780 1565 C 786 1550 792 1533 796 1514 C 800 1494 803 1467 803 1432 Z" unicode="~" />
<glyph horiz-adv-x="260" d="" unicode=" " />
<glyph horiz-adv-x="426" d="M 63 533 L 124 1065 L 290 1065 L 362 533 L 362 0 L 63 0 L 63 533 Z M 63 1573 L 362 1573 L 362 1229 L 63 1229 L 63 1573 Z" unicode="¡" />
<glyph horiz-adv-x="946" d="M 907 618 C 907 538 884 459 840 381 C 796 303 712 256 590 240 L 590 119 L 416 119 L 416 242 C 296 254 204 302 139 385 C 73 467 41 607 41 805 C 41 1029 75 1191 145 1291 C 215 1391 305 1449 416 1466 L 416 1589 L 590 1589 L 590 1466 C 704 1451 782 1408 823 1336 C 864 1264 885 1182 885 1090 C 885 1070 884 1052 883 1036 C 882 1019 881 1004 879 991 L 602 983 C 604 991 605 1001 606 1013 C 607 1024 608 1037 608 1053 C 608 1107 599 1149 581 1179 C 563 1209 536 1225 500 1225 C 448 1225 413 1200 396 1152 C 379 1103 371 1010 371 872 C 371 711 380 607 398 560 C 416 512 452 489 504 489 C 556 489 588 515 601 568 C 614 621 621 673 621 723 C 621 737 620 750 618 761 C 616 771 614 781 612 791 L 893 776 C 897 756 900 733 903 706 C 905 679 907 650 907 618 Z" unicode="¢" />
<glyph horiz-adv-x="1194" d="M 1182 393 C 1182 285 1148 187 1081 99 C 1014 11 914 -33 780 -33 C 716 -33 647 -25 572 -10 C 497 5 439 24 397 47 C 384 39 351 24 297 4 C 243 -16 190 -27 137 -27 C 99 -27 64 -16 34 5 C 3 27 -12 63 -12 115 C -12 200 13 251 64 268 C 114 284 156 293 190 293 C 218 293 248 290 280 284 C 311 278 332 276 342 276 C 363 298 378 326 388 358 C 398 390 403 425 403 461 C 403 477 401 502 398 536 C 395 570 391 594 385 608 L 106 608 L 106 821 L 303 821 C 288 855 273 904 258 968 C 243 1031 236 1091 236 1149 C 236 1310 276 1425 356 1494 C 436 1562 544 1597 680 1597 C 804 1597 904 1568 980 1511 C 1056 1453 1094 1341 1094 1174 C 1094 1147 1091 1121 1087 1096 C 1082 1071 1077 1050 1073 1034 L 762 1010 C 766 1034 770 1057 774 1077 C 778 1097 780 1118 780 1141 C 780 1234 772 1296 758 1328 C 743 1360 716 1376 678 1376 C 640 1376 615 1358 603 1324 C 591 1290 586 1228 586 1139 C 586 1085 593 1031 609 979 C 625 927 645 874 670 821 L 913 821 L 913 608 L 719 608 C 723 572 723 533 719 489 C 715 445 707 409 694 381 C 681 353 667 328 653 304 C 638 280 621 255 602 227 C 602 227 611 225 629 222 C 647 218 673 217 705 217 C 781 217 831 242 855 294 C 879 346 889 405 885 471 L 1171 500 C 1173 483 1176 464 1178 442 C 1180 420 1182 403 1182 393 Z M 219 123 C 210 129 201 135 191 141 C 181 147 168 150 154 150 C 136 150 123 147 113 143 C 103 138 98 131 98 121 C 98 108 102 99 112 94 C 121 88 133 86 147 86 C 160 86 173 89 185 96 C 197 102 209 111 219 123 Z" unicode="£" />
<glyph horiz-adv-x="1042" d="M 1022 614 L 690 614 L 690 0 L 362 0 L 362 614 L 20 614 L 20 809 L 293 809 L 246 940 L 20 940 L 20 1135 L 176 1135 L 20 1573 L 348 1573 L 547 965 L 743 1573 L 1022 1573 L 870 1135 L 1022 1135 L 1022 940 L 803 940 L 758 809 L 1022 809 L 1022 614 Z" unicode="¥" />
<glyph horiz-adv-x="403" d="M 74 -410 L 74 547 L 330 547 L 330 -410 L 74 -410 Z M 74 682 L 74 1638 L 330 1638 L 330 682 L 74 682 Z" unicode="¦" />
<glyph horiz-adv-x="999" d="M 930 164 C 930 53 887 -32 801 -92 C 715 -152 614 -182 498 -182 C 368 -182 270 -154 203 -99 C 135 -43 102 25 102 109 C 102 130 104 150 108 170 C 112 189 117 204 121 215 L 377 213 C 374 203 372 190 370 175 C 368 160 367 145 367 131 C 367 98 376 73 395 55 C 414 37 441 29 477 29 C 519 29 547 38 562 58 C 576 77 584 102 584 133 C 584 167 573 193 553 213 C 532 232 499 250 455 268 L 291 336 C 215 366 155 409 111 464 C 66 518 43 584 41 662 C 39 729 50 787 75 836 C 100 884 141 926 199 961 C 147 992 112 1032 94 1082 C 76 1131 68 1187 68 1251 C 68 1362 108 1447 188 1507 C 268 1567 366 1597 483 1597 C 612 1597 709 1569 774 1514 C 839 1459 872 1390 872 1307 C 872 1285 870 1265 866 1246 C 862 1226 858 1211 854 1200 L 614 1202 C 617 1212 620 1225 622 1240 C 624 1254 625 1269 625 1284 C 625 1316 614 1343 593 1363 C 571 1383 542 1393 504 1393 C 464 1393 434 1382 416 1360 C 398 1338 389 1312 389 1282 C 389 1248 400 1222 422 1205 C 444 1187 478 1169 524 1151 L 688 1083 C 757 1054 815 1011 861 953 C 907 895 930 828 930 750 C 930 682 919 625 898 578 C 877 531 838 492 780 461 C 835 428 874 388 896 340 C 918 292 930 234 930 164 Z M 651 668 C 651 693 638 717 614 739 C 590 761 562 780 532 795 C 509 805 480 818 444 836 C 408 853 380 865 362 872 C 347 860 336 846 329 832 C 322 817 319 795 319 766 C 319 739 329 715 350 694 C 371 672 405 650 451 627 C 469 616 494 604 524 590 C 554 576 580 565 602 557 C 621 574 634 589 641 602 C 647 615 651 637 651 668 Z" unicode="§" />
<glyph horiz-adv-x="971" d="M 399 1282 L 139 1282 L 139 1548 L 399 1548 L 399 1282 Z M 819 1282 L 559 1282 L 559 1548 L 819 1548 L 819 1282 Z" unicode="¨" />
<glyph horiz-adv-x="1343" d="M 899 719 C 899 659 882 610 850 571 C 818 531 760 512 678 512 C 593 512 529 535 486 581 C 443 627 422 714 422 844 C 422 988 441 1092 479 1156 C 517 1219 584 1251 680 1251 C 752 1251 803 1235 834 1204 C 865 1173 881 1124 881 1057 C 881 1035 879 1015 877 995 C 875 975 874 965 874 965 L 707 954 C 707 954 708 964 710 985 C 712 1005 713 1027 713 1051 C 713 1067 711 1085 707 1103 C 703 1121 692 1130 674 1130 C 650 1130 637 1105 634 1057 C 630 1008 629 948 629 877 C 629 806 632 749 639 706 C 645 662 661 641 686 641 C 710 641 724 653 727 679 C 729 705 731 729 731 752 C 731 777 729 800 727 820 C 724 840 723 850 723 850 L 889 848 C 889 848 890 837 894 815 C 897 793 899 761 899 719 Z M 1303 891 C 1303 703 1246 554 1132 444 C 1018 334 864 279 672 279 C 474 279 320 334 208 445 C 96 555 41 704 41 891 C 41 1085 97 1237 210 1347 C 323 1456 477 1511 672 1511 C 865 1511 1018 1456 1132 1347 C 1246 1237 1303 1085 1303 891 Z M 1192 891 C 1192 1054 1144 1182 1049 1274 C 954 1366 828 1413 672 1413 C 506 1413 377 1365 286 1269 C 195 1173 150 1047 150 891 C 150 729 198 602 294 510 C 390 418 516 373 672 373 C 830 373 957 420 1051 514 C 1145 608 1192 733 1192 891 Z" unicode="©" />
<glyph horiz-adv-x="795" d="M 707 899 C 697 893 680 886 656 878 C 632 870 607 866 582 866 C 532 866 495 875 473 893 C 451 911 436 936 428 967 L 414 940 C 402 918 383 901 357 887 C 330 873 300 866 266 866 C 214 866 169 886 133 925 C 96 963 78 1007 78 1057 C 78 1113 97 1160 135 1198 C 173 1236 220 1263 276 1278 L 336 1290 C 359 1294 379 1301 397 1313 C 415 1325 424 1344 424 1372 C 424 1389 420 1402 414 1411 C 407 1420 397 1425 385 1425 C 371 1425 360 1420 352 1410 C 344 1400 340 1389 340 1378 C 340 1370 340 1361 342 1353 C 344 1344 346 1337 348 1333 L 117 1317 C 113 1321 108 1330 103 1344 C 98 1357 96 1372 96 1389 C 96 1451 126 1496 186 1524 C 246 1552 309 1567 373 1567 C 442 1567 507 1553 569 1526 C 631 1499 662 1441 662 1352 L 662 1038 C 662 1029 663 1021 665 1013 C 667 1005 676 1001 690 1001 L 707 1001 L 707 899 Z M 434 1077 L 434 1217 C 412 1214 392 1200 372 1176 C 352 1152 342 1125 342 1096 C 342 1071 346 1052 354 1040 C 362 1028 375 1022 393 1022 C 406 1022 416 1028 423 1040 C 430 1052 434 1064 434 1077 Z M 745 684 L 61 684 L 61 807 L 745 807 L 745 684 Z" unicode="ª" />
<glyph horiz-adv-x="1098" d="M 545 74 L 74 428 L 74 705 L 545 1055 L 545 778 L 258 565 L 545 350 L 545 74 Z M 1024 74 L 551 428 L 551 705 L 1024 1055 L 1024 778 L 735 565 L 1024 350 L 1024 74 Z" unicode="«" />
<glyph horiz-adv-x="877" d="M 803 565 L 74 565 L 74 807 L 803 807 L 803 565 Z" unicode="­" />
<glyph horiz-adv-x="1343" d="M 922 1016 C 922 960 910 919 887 893 C 863 867 832 854 793 854 L 768 854 L 793 850 C 845 840 875 816 885 777 C 895 737 901 681 903 608 C 903 593 904 578 907 562 C 909 546 912 534 915 528 L 729 528 C 727 532 724 542 721 558 C 718 574 717 592 717 614 L 717 733 C 717 754 713 772 707 788 C 700 803 686 811 666 811 L 645 811 L 645 528 L 444 528 L 444 1237 L 700 1237 C 760 1237 812 1222 856 1192 C 900 1162 922 1103 922 1016 Z M 1303 891 C 1303 703 1246 554 1132 444 C 1018 334 864 279 672 279 C 474 279 320 334 208 445 C 96 555 41 704 41 891 C 41 1085 97 1237 210 1347 C 323 1456 477 1511 672 1511 C 865 1511 1018 1456 1132 1347 C 1246 1237 1303 1085 1303 891 Z M 1192 891 C 1192 1054 1144 1182 1049 1274 C 954 1366 828 1413 672 1413 C 506 1413 377 1365 286 1269 C 195 1173 150 1047 150 891 C 150 729 198 602 294 510 C 390 418 516 373 672 373 C 830 373 957 420 1051 514 C 1145 608 1192 733 1192 891 Z M 715 1014 C 715 1060 711 1089 703 1103 C 695 1117 682 1124 666 1124 L 645 1124 L 645 905 L 668 905 C 688 905 701 914 707 932 C 712 950 715 978 715 1014 Z" unicode="®" />
<glyph horiz-adv-x="971" d="M 795 1296 L 188 1296 L 188 1493 L 795 1493 L 795 1296 Z" unicode="¯" />
<glyph horiz-adv-x="741" d="M 614 1311 C 614 1245 589 1187 541 1139 C 493 1091 434 1067 365 1067 C 297 1067 239 1091 191 1139 C 143 1187 119 1245 119 1311 C 119 1378 143 1435 191 1482 C 239 1528 297 1552 365 1552 C 434 1552 493 1528 541 1482 C 589 1435 614 1378 614 1311 Z M 485 1311 C 485 1342 473 1369 449 1392 C 425 1415 397 1427 365 1427 C 334 1427 307 1415 283 1392 C 259 1369 248 1342 248 1311 C 248 1279 259 1251 283 1229 C 307 1207 334 1196 365 1196 C 397 1196 425 1207 449 1229 C 473 1251 485 1279 485 1311 Z" unicode="°" />
<glyph horiz-adv-x="649" d="M 35 573 L 35 748 C 71 785 108 823 145 861 C 181 899 216 938 248 979 C 282 1023 310 1071 334 1121 C 357 1171 369 1224 369 1282 C 369 1330 364 1362 355 1380 C 345 1398 331 1407 313 1407 C 296 1407 283 1397 274 1378 C 264 1359 260 1326 260 1278 C 260 1258 262 1237 266 1213 C 270 1189 276 1167 283 1147 L 49 1139 C 43 1159 37 1187 32 1221 C 27 1255 25 1286 25 1313 C 25 1401 51 1469 104 1517 C 157 1565 230 1589 324 1589 C 421 1589 495 1564 545 1515 C 595 1466 621 1393 621 1296 C 621 1228 606 1163 576 1101 C 546 1039 507 980 459 926 C 436 900 412 875 386 852 C 360 829 334 807 307 786 C 315 786 329 787 347 787 C 365 787 382 788 399 788 C 431 789 476 790 534 790 C 592 790 621 791 621 791 L 621 573 L 35 573 Z" unicode="²" />
<glyph horiz-adv-x="639" d="M 614 864 C 614 746 585 665 527 622 C 469 578 394 557 301 557 C 210 557 142 578 98 622 C 54 666 31 724 31 797 C 31 829 32 858 35 883 C 38 907 42 928 47 946 L 268 954 C 266 940 263 924 260 906 C 257 888 256 869 256 850 C 256 809 260 780 269 764 C 277 747 292 739 313 739 C 334 739 349 749 358 769 C 366 789 371 829 371 891 C 371 945 363 982 348 1001 C 333 1020 306 1030 268 1030 L 160 1030 L 160 1188 L 246 1188 C 288 1188 317 1197 332 1217 C 346 1236 354 1271 354 1321 C 354 1357 350 1382 343 1395 C 336 1408 324 1415 307 1415 C 288 1415 275 1407 269 1392 C 263 1377 260 1358 260 1335 C 260 1320 261 1305 264 1291 C 266 1277 269 1264 272 1253 L 51 1257 C 49 1268 46 1282 43 1300 C 40 1318 39 1338 39 1362 C 39 1429 63 1484 112 1526 C 160 1568 227 1589 313 1589 C 389 1589 455 1570 509 1533 C 563 1495 590 1430 590 1337 C 590 1286 578 1241 555 1203 C 532 1165 496 1139 446 1126 C 496 1120 536 1095 567 1053 C 598 1010 614 947 614 864 Z" unicode="³" />
<glyph horiz-adv-x="971" d="M 803 1550 L 436 1270 L 303 1270 L 451 1573 L 803 1573 L 803 1550 Z" unicode="´" />
<glyph horiz-adv-x="1198" d="M 1106 0 L 913 0 L 913 1415 L 795 1415 L 795 0 L 602 0 L 602 551 L 422 551 C 314 551 223 585 150 655 C 77 725 41 856 41 1049 C 41 1251 86 1389 176 1463 C 266 1536 368 1573 483 1573 L 1106 1573 L 1106 0 Z M 602 696 L 602 1415 L 575 1415 C 525 1415 491 1390 473 1342 C 455 1294 446 1198 446 1055 C 446 893 453 792 469 754 C 485 715 519 696 571 696 L 602 696 Z" unicode="¶" />
<glyph horiz-adv-x="508" d="M 436 788 C 436 738 418 695 382 659 C 346 623 304 606 254 606 C 204 606 161 623 125 659 C 89 695 72 738 72 788 C 72 838 89 881 125 917 C 161 953 204 971 254 971 C 304 971 346 953 382 917 C 418 881 436 838 436 788 Z" unicode="·" />
<glyph horiz-adv-x="971" d="M 700 -221 C 700 -278 679 -324 637 -358 C 595 -392 537 -410 463 -410 C 403 -410 350 -402 303 -387 C 256 -372 222 -355 201 -336 L 266 -225 C 287 -242 311 -257 339 -271 C 366 -284 405 -291 455 -291 C 486 -291 505 -283 512 -269 C 518 -254 522 -240 522 -227 C 522 -193 507 -173 477 -165 C 447 -157 413 -162 375 -180 L 412 -41 L 489 -41 C 553 -41 604 -58 642 -92 C 680 -126 700 -169 700 -221 Z" unicode="¸" />
<glyph horiz-adv-x="532" d="M 170 573 L 170 1294 C 165 1292 154 1290 136 1290 C 118 1290 101 1290 86 1290 L 4 1290 L 4 1452 C 29 1452 55 1456 83 1463 C 111 1470 136 1480 160 1493 C 181 1505 200 1519 216 1534 C 232 1549 245 1566 254 1585 L 420 1585 L 420 573 L 170 573 Z" unicode="¹" />
<glyph horiz-adv-x="739" d="M 684 1198 C 684 1064 655 975 599 933 C 543 891 466 870 369 870 C 279 870 205 891 145 933 C 85 975 55 1064 55 1198 C 55 1346 86 1446 148 1496 C 210 1546 283 1571 369 1571 C 463 1571 539 1546 597 1496 C 655 1446 684 1346 684 1198 Z M 424 1217 C 424 1258 421 1302 416 1349 C 411 1395 395 1419 369 1419 C 341 1419 324 1395 320 1349 C 315 1302 313 1258 313 1217 C 313 1155 316 1109 322 1081 C 328 1052 344 1038 369 1038 C 391 1038 406 1052 413 1081 C 420 1109 424 1155 424 1217 Z M 688 688 L 61 688 L 61 811 L 688 811 L 688 688 Z" unicode="º" />
<glyph horiz-adv-x="1098" d="M 547 432 L 74 78 L 74 354 L 362 569 L 74 782 L 74 1059 L 547 709 L 547 432 Z M 1024 432 L 553 78 L 553 354 L 840 569 L 553 782 L 553 1059 L 1024 709 L 1024 432 Z" unicode="»" />
<glyph horiz-adv-x="1657" d="M 170 573 L 170 1294 C 165 1292 154 1290 137 1289 C 120 1288 104 1288 90 1288 C 78 1288 61 1288 41 1289 C 20 1289 8 1290 4 1290 L 4 1452 C 31 1452 58 1456 85 1464 C 112 1472 136 1482 158 1495 C 179 1505 198 1518 215 1534 C 232 1549 245 1566 254 1585 L 420 1585 L 420 573 L 170 573 Z M 1272 0 L 1272 184 L 932 184 L 932 422 L 1231 1006 L 1513 1006 L 1513 379 L 1599 379 L 1599 184 L 1513 184 L 1513 0 L 1272 0 Z M 1122 379 L 1274 379 L 1274 616 C 1274 623 1274 637 1274 657 C 1274 677 1276 694 1278 707 L 1237 623 L 1122 379 Z M 125 -18 L 1219 1602 L 1438 1602 L 344 -18 L 125 -18 Z" unicode="¼" />
<glyph horiz-adv-x="1708" d="M 1040 0 L 1040 174 C 1076 212 1113 250 1150 288 C 1187 326 1221 365 1253 406 C 1287 450 1316 498 1339 548 C 1362 598 1374 651 1374 709 C 1374 757 1369 789 1360 807 C 1351 825 1337 834 1319 834 C 1301 834 1288 824 1279 805 C 1270 786 1266 753 1266 705 C 1266 685 1268 664 1272 640 C 1276 616 1282 593 1288 573 L 1055 565 C 1048 585 1042 613 1037 647 C 1032 681 1030 712 1030 739 C 1030 828 1056 896 1110 944 C 1163 992 1236 1016 1329 1016 C 1427 1016 1501 991 1551 942 C 1601 893 1626 820 1626 723 C 1626 655 1611 590 1581 528 C 1551 466 1512 407 1464 352 C 1441 326 1417 302 1392 279 C 1366 256 1340 234 1313 213 C 1321 213 1334 214 1352 214 C 1370 214 1387 215 1405 215 C 1436 215 1481 216 1539 216 C 1597 216 1626 217 1626 217 L 1626 0 L 1040 0 Z M 170 573 L 170 1294 C 165 1292 154 1290 136 1290 C 118 1290 101 1290 86 1290 L 4 1290 L 4 1452 C 29 1452 55 1456 83 1463 C 111 1470 136 1480 160 1493 C 181 1505 200 1519 216 1534 C 232 1549 245 1566 254 1585 L 420 1585 L 420 573 L 170 573 Z M 125 -18 L 1219 1602 L 1438 1602 L 344 -18 L 125 -18 Z" unicode="½" />
<glyph horiz-adv-x="1657" d="M 614 864 C 614 746 585 665 527 622 C 469 578 394 557 301 557 C 210 557 142 578 98 622 C 54 666 31 724 31 797 C 31 829 32 858 35 883 C 38 907 42 928 47 946 L 268 954 C 266 940 263 924 260 906 C 257 888 256 869 256 850 C 256 809 260 780 269 764 C 277 747 292 739 313 739 C 334 739 349 749 358 769 C 366 789 371 829 371 891 C 371 945 363 982 348 1001 C 333 1020 306 1030 268 1030 L 160 1030 L 160 1188 L 246 1188 C 288 1188 317 1197 332 1217 C 346 1236 354 1271 354 1321 C 354 1357 350 1382 343 1395 C 336 1408 324 1415 307 1415 C 288 1415 275 1407 269 1392 C 263 1377 260 1358 260 1335 C 260 1320 261 1305 264 1291 C 266 1277 269 1264 272 1253 L 51 1257 C 49 1268 46 1282 43 1300 C 40 1318 39 1338 39 1362 C 39 1429 63 1484 112 1526 C 160 1568 227 1589 313 1589 C 389 1589 455 1570 509 1533 C 563 1495 590 1430 590 1337 C 590 1286 578 1241 555 1203 C 532 1165 496 1139 446 1126 C 496 1120 536 1095 567 1053 C 598 1010 614 947 614 864 Z M 1272 0 L 1272 184 L 932 184 L 932 422 L 1231 1006 L 1513 1006 L 1513 379 L 1599 379 L 1599 184 L 1513 184 L 1513 0 L 1272 0 Z M 1122 379 L 1274 379 L 1274 616 C 1274 623 1274 637 1274 657 C 1274 677 1276 694 1278 707 L 1237 623 L 1122 379 Z M 186 -18 L 1280 1602 L 1499 1602 L 406 -18 L 186 -18 Z" unicode="¾" />
<glyph horiz-adv-x="827" d="M 52 451 C 52 671 78 814 131 878 C 183 942 248 975 326 975 C 379 975 419 967 447 953 C 475 938 500 918 523 893 L 523 1133 L 707 1133 L 707 572 L 523 572 C 523 620 516 657 504 683 C 492 708 471 721 443 721 C 412 721 390 703 378 668 C 365 632 359 563 359 461 C 359 361 366 296 381 265 C 396 234 417 219 445 219 C 471 219 494 226 513 242 C 531 258 541 285 541 324 C 541 352 540 376 539 395 C 537 413 535 431 531 449 L 744 449 C 750 426 755 402 759 377 C 762 351 764 324 764 295 C 764 208 739 133 691 70 C 642 7 552 -23 422 -23 C 264 -23 162 22 118 115 C 74 208 52 320 52 451 Z M 465 1573 L 764 1573 L 764 1229 L 465 1229 L 465 1573 Z" unicode="¿" />
<glyph horiz-adv-x="1020" d="M 997 0 L 627 0 L 582 272 L 350 272 L 309 0 L 14 0 L 315 1573 L 664 1573 L 997 0 Z M 596 1618 L 463 1618 L 96 1870 L 96 1890 L 463 1890 L 596 1618 Z M 545 492 L 451 987 L 381 492 L 545 492 Z" unicode="À" />
<glyph horiz-adv-x="1020" d="M 997 0 L 627 0 L 582 272 L 350 272 L 309 0 L 14 0 L 315 1573 L 664 1573 L 997 0 Z M 883 1870 L 516 1618 L 383 1618 L 516 1890 L 883 1890 L 883 1870 Z M 545 492 L 451 987 L 381 492 L 545 492 Z" unicode="Á" />
<glyph horiz-adv-x="1020" d="M 997 0 L 627 0 L 582 272 L 350 272 L 309 0 L 14 0 L 315 1573 L 664 1573 L 997 0 Z M 786 1618 L 680 1618 L 475 1759 L 270 1618 L 164 1618 L 334 1909 L 637 1909 L 786 1618 Z M 545 492 L 451 987 L 381 492 L 545 492 Z" unicode="Â" />
<glyph horiz-adv-x="1020" d="M 997 0 L 627 0 L 582 272 L 350 272 L 309 0 L 14 0 L 315 1573 L 664 1573 L 997 0 Z M 545 492 L 451 987 L 381 492 L 545 492 Z M 797 1806 C 797 1759 785 1717 762 1681 C 739 1644 693 1626 623 1626 C 578 1626 543 1630 517 1640 C 491 1650 464 1666 435 1689 C 421 1700 408 1710 395 1719 C 382 1727 366 1732 347 1732 C 313 1732 292 1721 286 1700 C 279 1679 278 1658 283 1638 L 183 1638 C 177 1651 171 1665 167 1681 C 162 1697 160 1716 160 1740 C 160 1787 171 1829 194 1866 C 217 1902 264 1921 334 1921 C 374 1921 406 1916 431 1907 C 455 1897 484 1880 517 1855 C 531 1843 545 1833 560 1825 C 574 1817 591 1814 611 1814 C 644 1814 664 1824 671 1845 C 678 1866 679 1887 674 1908 L 775 1908 C 781 1896 786 1881 790 1865 C 794 1849 797 1829 797 1806 Z" unicode="Ã" />
<glyph horiz-adv-x="1020" d="M 997 0 L 627 0 L 582 272 L 350 272 L 309 0 L 14 0 L 315 1573 L 664 1573 L 997 0 Z M 420 1618 L 174 1618 L 174 1864 L 420 1864 L 420 1618 Z M 797 1618 L 551 1618 L 551 1864 L 797 1864 L 797 1618 Z M 545 492 L 451 987 L 381 492 L 545 492 Z" unicode="Ä" />
<glyph horiz-adv-x="1020" d="M 997 0 L 627 0 L 582 272 L 350 272 L 309 0 L 14 0 L 305 1526 C 289 1542 274 1564 260 1591 C 245 1618 238 1652 238 1692 C 238 1759 262 1816 310 1863 C 358 1909 415 1933 483 1933 C 552 1933 611 1909 660 1863 C 708 1816 733 1759 733 1692 C 733 1664 728 1636 718 1609 C 708 1582 693 1556 672 1532 L 997 0 Z M 602 1688 C 602 1718 590 1745 567 1769 C 544 1792 515 1804 481 1804 C 448 1804 420 1792 398 1769 C 376 1745 365 1718 365 1688 C 365 1657 375 1630 397 1607 C 419 1584 447 1573 481 1573 C 517 1573 546 1584 568 1607 C 590 1630 602 1657 602 1688 Z M 545 492 L 451 987 L 381 492 L 545 492 Z" unicode="Å" />
<glyph horiz-adv-x="1389" d="M 1352 0 L 618 0 L 618 375 L 391 375 L 295 0 L 14 0 L 471 1573 L 1311 1573 L 1311 1276 L 956 1276 L 956 948 L 1264 948 L 1264 659 L 956 659 L 956 313 L 1352 313 L 1352 0 Z M 618 594 L 618 1233 L 612 1233 C 612 1222 611 1211 609 1201 C 607 1190 604 1177 600 1163 L 451 594 L 618 594 Z" unicode="Æ" />
<glyph horiz-adv-x="1022" d="M 973 442 C 973 290 937 172 867 89 C 797 6 679 -35 514 -35 C 355 -35 237 15 160 116 C 83 217 45 412 45 700 C 45 1021 78 1251 145 1389 C 211 1527 341 1597 535 1597 C 679 1597 785 1560 853 1487 C 921 1414 956 1315 956 1190 C 956 1162 952 1122 945 1069 C 938 1015 932 974 926 944 L 625 942 C 627 960 628 986 630 1018 C 632 1050 633 1078 633 1104 C 633 1187 626 1244 613 1275 C 600 1305 575 1321 537 1321 C 485 1321 451 1282 435 1205 C 419 1127 412 984 412 774 C 412 530 419 382 433 329 C 447 276 481 250 535 250 C 581 250 614 270 632 312 C 650 354 659 416 659 500 C 659 533 659 564 660 593 C 660 622 659 658 657 700 L 952 696 C 959 651 964 610 968 572 C 971 534 973 491 973 442 Z M 754 -221 C 754 -278 733 -324 691 -358 C 649 -392 591 -410 517 -410 C 457 -410 404 -402 357 -387 C 310 -372 276 -355 255 -336 L 320 -225 C 341 -242 365 -257 393 -271 C 420 -284 459 -291 509 -291 C 540 -291 559 -283 566 -269 C 572 -254 576 -240 576 -227 C 576 -193 561 -173 531 -165 C 501 -157 467 -162 429 -180 L 466 -41 L 543 -41 C 607 -41 658 -58 696 -92 C 734 -126 754 -169 754 -221 Z" unicode="Ç" />
<glyph horiz-adv-x="954" d="M 918 0 L 92 0 L 92 1573 L 877 1573 L 877 1276 L 440 1276 L 440 948 L 829 948 L 829 659 L 440 659 L 440 301 L 918 301 L 918 0 Z M 670 1618 L 537 1618 L 170 1870 L 170 1890 L 537 1890 L 670 1618 Z" unicode="È" />
<glyph horiz-adv-x="954" d="M 918 0 L 92 0 L 92 1573 L 877 1573 L 877 1276 L 440 1276 L 440 948 L 829 948 L 829 659 L 440 659 L 440 301 L 918 301 L 918 0 Z M 842 1870 L 475 1618 L 342 1618 L 475 1890 L 842 1890 L 842 1870 Z" unicode="É" />
<glyph horiz-adv-x="954" d="M 918 0 L 92 0 L 92 1573 L 877 1573 L 877 1276 L 440 1276 L 440 948 L 829 948 L 829 659 L 440 659 L 440 301 L 918 301 L 918 0 Z M 786 1618 L 680 1618 L 475 1759 L 270 1618 L 164 1618 L 334 1909 L 637 1909 L 786 1618 Z" unicode="Ê" />
<glyph horiz-adv-x="954" d="M 918 0 L 92 0 L 92 1573 L 877 1573 L 877 1276 L 440 1276 L 440 948 L 829 948 L 829 659 L 440 659 L 440 301 L 918 301 L 918 0 Z M 420 1618 L 174 1618 L 174 1864 L 420 1864 L 420 1618 Z M 797 1618 L 551 1618 L 551 1864 L 797 1864 L 797 1618 Z" unicode="Ë" />
<glyph horiz-adv-x="532" d="M 362 1618 L 229 1618 L -137 1870 L -137 1890 L 229 1890 L 362 1618 Z M 440 0 L 92 0 L 92 1573 L 440 1573 L 440 0 Z" unicode="Ì" />
<glyph horiz-adv-x="532" d="M 647 1870 L 281 1618 L 147 1618 L 281 1890 L 647 1890 L 647 1870 Z M 440 0 L 92 0 L 92 1573 L 440 1573 L 440 0 Z" unicode="Í" />
<glyph horiz-adv-x="532" d="M 578 1618 L 471 1618 L 266 1759 L 61 1618 L -45 1618 L 125 1909 L 428 1909 L 578 1618 Z M 440 0 L 92 0 L 92 1573 L 440 1573 L 440 0 Z" unicode="Î" />
<glyph horiz-adv-x="532" d="M 201 1618 L -45 1618 L -45 1864 L 201 1864 L 201 1618 Z M 440 0 L 92 0 L 92 1573 L 440 1573 L 440 0 Z M 578 1618 L 332 1618 L 332 1864 L 578 1864 L 578 1618 Z" unicode="Ï" />
<glyph horiz-adv-x="1071" d="M 1026 713 C 1026 507 993 336 929 202 C 865 67 746 0 573 0 L 92 0 L 92 670 L 0 670 L 0 899 L 92 899 L 92 1573 L 598 1573 C 742 1573 849 1494 920 1336 C 990 1178 1026 971 1026 713 Z M 678 750 C 678 959 668 1104 648 1185 C 628 1266 581 1307 508 1307 L 432 1307 L 432 899 L 592 899 L 592 670 L 432 670 L 432 285 L 512 285 C 568 285 609 312 637 368 C 664 423 678 550 678 750 Z" unicode="Ð" />
<glyph horiz-adv-x="1063" d="M 971 0 L 713 0 L 377 831 L 377 0 L 92 0 L 92 1573 L 395 1573 L 698 825 L 698 1573 L 971 1573 L 971 0 Z M 827 1806 C 827 1759 815 1717 792 1681 C 769 1644 723 1626 653 1626 C 608 1626 573 1630 547 1640 C 521 1650 494 1666 465 1689 C 451 1700 438 1710 425 1719 C 412 1727 396 1732 377 1732 C 343 1732 322 1721 316 1700 C 309 1679 308 1658 313 1638 L 213 1638 C 207 1651 201 1665 197 1681 C 192 1697 190 1716 190 1740 C 190 1787 201 1829 224 1866 C 247 1902 294 1921 364 1921 C 404 1921 436 1916 461 1907 C 485 1897 514 1880 547 1855 C 561 1843 575 1833 590 1825 C 604 1817 621 1814 641 1814 C 674 1814 694 1824 701 1845 C 708 1866 709 1887 704 1908 L 805 1908 C 811 1896 816 1881 820 1865 C 824 1849 827 1829 827 1806 Z" unicode="Ñ" />
<glyph horiz-adv-x="1012" d="M 967 788 C 967 487 937 276 879 156 C 821 35 696 -25 506 -25 C 338 -25 219 28 149 134 C 79 240 45 458 45 788 C 45 1060 76 1262 140 1396 C 203 1530 325 1597 506 1597 C 681 1597 802 1535 868 1412 C 934 1289 967 1081 967 788 Z M 610 784 C 610 1000 606 1145 598 1219 C 590 1292 560 1329 506 1329 C 454 1329 423 1292 414 1218 C 405 1144 401 999 401 784 C 401 556 406 412 417 352 C 428 292 458 262 506 262 C 554 262 584 292 594 353 C 604 413 610 557 610 784 Z M 670 1638 L 537 1638 L 170 1890 L 170 1911 L 537 1911 L 670 1638 Z" unicode="Ò" />
<glyph horiz-adv-x="1012" d="M 967 788 C 967 487 937 276 879 156 C 821 35 696 -25 506 -25 C 338 -25 219 28 149 134 C 79 240 45 458 45 788 C 45 1060 76 1262 140 1396 C 203 1530 325 1597 506 1597 C 681 1597 802 1535 868 1412 C 934 1289 967 1081 967 788 Z M 610 784 C 610 1000 606 1145 598 1219 C 590 1292 560 1329 506 1329 C 454 1329 423 1292 414 1218 C 405 1144 401 999 401 784 C 401 556 406 412 417 352 C 428 292 458 262 506 262 C 554 262 584 292 594 353 C 604 413 610 557 610 784 Z M 877 1890 L 510 1638 L 377 1638 L 510 1911 L 877 1911 L 877 1890 Z" unicode="Ó" />
<glyph horiz-adv-x="1012" d="M 967 788 C 967 487 937 276 879 156 C 821 35 696 -25 506 -25 C 338 -25 219 28 149 134 C 79 240 45 458 45 788 C 45 1060 76 1262 140 1396 C 203 1530 325 1597 506 1597 C 681 1597 802 1535 868 1412 C 934 1289 967 1081 967 788 Z M 610 784 C 610 1000 606 1145 598 1219 C 590 1292 560 1329 506 1329 C 454 1329 423 1292 414 1218 C 405 1144 401 999 401 784 C 401 556 406 412 417 352 C 428 292 458 262 506 262 C 554 262 584 292 594 353 C 604 413 610 557 610 784 Z M 817 1638 L 711 1638 L 506 1780 L 301 1638 L 195 1638 L 365 1929 L 668 1929 L 817 1638 Z" unicode="Ô" />
<glyph horiz-adv-x="1012" d="M 967 788 C 967 487 937 276 879 156 C 821 35 696 -25 506 -25 C 338 -25 219 28 149 134 C 79 240 45 458 45 788 C 45 1060 76 1262 140 1396 C 203 1530 325 1597 506 1597 C 681 1597 802 1535 868 1412 C 934 1289 967 1081 967 788 Z M 610 784 C 610 1000 606 1145 598 1219 C 590 1292 560 1329 506 1329 C 454 1329 423 1292 414 1218 C 405 1144 401 999 401 784 C 401 556 406 412 417 352 C 428 292 458 262 506 262 C 554 262 584 292 594 353 C 604 413 610 557 610 784 Z M 827 1818 C 827 1771 815 1729 792 1693 C 769 1656 723 1638 653 1638 C 608 1638 573 1642 547 1652 C 521 1662 494 1678 465 1701 C 451 1712 438 1722 425 1731 C 412 1739 396 1744 377 1744 C 343 1744 322 1733 316 1712 C 309 1691 308 1670 313 1650 L 213 1650 C 207 1663 201 1677 197 1693 C 192 1709 190 1728 190 1752 C 190 1799 201 1841 224 1878 C 247 1914 294 1933 364 1933 C 404 1933 436 1928 461 1919 C 485 1909 514 1892 547 1867 C 561 1855 575 1845 590 1837 C 604 1829 621 1826 641 1826 C 674 1826 694 1836 701 1857 C 708 1878 709 1899 704 1920 L 805 1920 C 811 1908 816 1893 820 1877 C 824 1861 827 1841 827 1818 Z" unicode="Õ" />
<glyph horiz-adv-x="1012" d="M 967 788 C 967 487 937 276 879 156 C 821 35 696 -25 506 -25 C 338 -25 219 28 149 134 C 79 240 45 458 45 788 C 45 1060 76 1262 140 1396 C 203 1530 325 1597 506 1597 C 681 1597 802 1535 868 1412 C 934 1289 967 1081 967 788 Z M 610 784 C 610 1000 606 1145 598 1219 C 590 1292 560 1329 506 1329 C 454 1329 423 1292 414 1218 C 405 1144 401 999 401 784 C 401 556 406 412 417 352 C 428 292 458 262 506 262 C 554 262 584 292 594 353 C 604 413 610 557 610 784 Z M 440 1638 L 195 1638 L 195 1884 L 440 1884 L 440 1638 Z M 817 1638 L 571 1638 L 571 1884 L 817 1884 L 817 1638 Z" unicode="Ö" />
<glyph horiz-adv-x="821" d="M 582 686 L 754 514 L 584 342 L 412 514 L 238 342 L 68 514 L 240 684 L 68 858 L 240 1028 L 410 856 L 582 1028 L 754 858 L 582 686 Z" unicode="×" />
<glyph horiz-adv-x="1012" d="M 973 1597 L 874 1403 C 906 1339 930 1257 945 1155 C 959 1053 967 930 967 788 C 967 487 937 276 879 156 C 821 35 696 -25 506 -25 C 438 -25 378 -17 326 -3 C 274 11 231 37 195 74 L 145 -25 L 37 -25 L 131 162 C 100 223 78 304 65 406 C 51 508 45 635 45 788 C 45 1060 76 1262 140 1396 C 203 1530 325 1597 506 1597 C 573 1597 632 1588 682 1572 C 732 1555 775 1529 811 1493 L 864 1597 L 973 1597 Z M 618 784 L 618 903 L 397 473 C 402 381 413 322 430 295 C 446 267 472 254 506 254 C 554 254 585 285 598 349 C 611 412 618 557 618 784 Z M 614 1108 C 610 1194 600 1254 584 1287 C 568 1320 542 1337 506 1337 C 454 1337 422 1298 410 1222 C 398 1145 393 999 393 784 L 393 676 L 614 1108 Z" unicode="Ø" />
<glyph horiz-adv-x="1096" d="M 1008 451 C 1008 320 978 208 919 115 C 859 21 735 -25 547 -25 C 371 -25 251 20 186 110 C 120 200 88 314 88 451 L 88 1573 L 434 1573 L 434 410 C 434 375 443 347 462 326 C 480 305 509 295 547 295 C 585 295 614 306 633 328 C 652 350 662 377 662 410 L 662 1573 L 1008 1573 L 1008 451 Z M 676 1618 L 543 1618 L 176 1870 L 176 1890 L 543 1890 L 676 1618 Z" unicode="Ù" />
<glyph horiz-adv-x="1096" d="M 1008 451 C 1008 320 978 208 919 115 C 859 21 735 -25 547 -25 C 371 -25 251 20 186 110 C 120 200 88 314 88 451 L 88 1573 L 434 1573 L 434 410 C 434 375 443 347 462 326 C 480 305 509 295 547 295 C 585 295 614 306 633 328 C 652 350 662 377 662 410 L 662 1573 L 1008 1573 L 1008 451 Z M 940 1870 L 573 1618 L 440 1618 L 573 1890 L 940 1890 L 940 1870 Z" unicode="Ú" />
<glyph horiz-adv-x="1096" d="M 1008 451 C 1008 320 978 208 919 115 C 859 21 735 -25 547 -25 C 371 -25 251 20 186 110 C 120 200 88 314 88 451 L 88 1573 L 434 1573 L 434 410 C 434 375 443 347 462 326 C 480 305 509 295 547 295 C 585 295 614 306 633 328 C 652 350 662 377 662 410 L 662 1573 L 1008 1573 L 1008 451 Z M 868 1618 L 762 1618 L 557 1759 L 352 1618 L 246 1618 L 416 1909 L 719 1909 L 868 1618 Z" unicode="Û" />
<glyph horiz-adv-x="1096" d="M 1008 451 C 1008 320 978 208 919 115 C 859 21 735 -25 547 -25 C 371 -25 251 20 186 110 C 120 200 88 314 88 451 L 88 1573 L 434 1573 L 434 410 C 434 375 443 347 462 326 C 480 305 509 295 547 295 C 585 295 614 306 633 328 C 652 350 662 377 662 410 L 662 1573 L 1008 1573 L 1008 451 Z M 481 1618 L 236 1618 L 236 1864 L 481 1864 L 481 1618 Z M 858 1618 L 612 1618 L 612 1864 L 858 1864 L 858 1618 Z" unicode="Ü" />
<glyph horiz-adv-x="1022" d="M 1022 1573 L 690 614 L 690 0 L 342 0 L 342 614 L 0 1573 L 348 1573 L 537 989 L 723 1573 L 1022 1573 Z M 876 1898 L 509 1618 L 376 1618 L 524 1921 L 876 1921 L 876 1898 Z" unicode="Ý" />
<glyph horiz-adv-x="1016" d="M 977 750 C 977 556 941 427 869 361 C 797 295 695 262 565 262 L 432 262 L 432 0 L 92 0 L 92 1573 L 432 1573 L 432 1274 L 518 1274 C 656 1274 767 1237 851 1164 C 935 1090 977 952 977 750 Z M 633 766 C 633 857 622 919 602 952 C 582 984 548 1001 500 1001 L 432 1001 L 432 541 L 500 541 C 546 541 580 558 601 594 C 622 630 633 687 633 766 Z" unicode="Þ" />
<glyph horiz-adv-x="1020" d="M 975 444 C 975 291 942 179 877 107 C 812 35 701 0 543 0 L 494 0 L 494 242 L 506 242 C 560 242 598 258 620 291 C 642 323 653 387 653 483 C 653 565 640 622 615 653 C 589 684 552 700 502 700 L 494 700 L 494 954 L 506 954 C 554 954 586 970 601 1003 C 615 1036 623 1096 623 1184 C 623 1256 615 1305 600 1333 C 584 1360 556 1374 514 1374 C 478 1374 452 1362 438 1339 C 423 1315 416 1289 416 1260 L 416 0 L 92 0 L 92 1202 C 92 1331 121 1429 180 1496 C 239 1563 341 1597 487 1597 C 645 1597 757 1556 823 1476 C 889 1396 922 1300 922 1188 C 922 1098 903 1021 865 956 C 827 890 766 856 682 852 L 682 842 C 766 833 836 796 892 731 C 947 666 975 570 975 444 Z" unicode="ß" />
<glyph horiz-adv-x="1051" d="M 1030 37 C 1014 25 984 12 940 -2 C 896 -17 853 -25 813 -25 C 731 -25 679 -10 657 18 C 634 46 617 83 606 127 L 588 90 C 574 63 548 37 508 12 C 468 -12 415 -25 350 -25 C 237 -25 157 12 111 87 C 64 161 41 242 41 330 C 41 427 64 505 112 564 C 159 623 233 663 334 684 L 457 711 C 519 723 559 740 578 761 C 596 782 606 817 606 866 C 606 921 595 960 573 983 C 551 1006 519 1018 477 1018 C 438 1018 405 1006 378 984 C 351 962 338 933 338 897 C 338 876 339 858 342 843 C 345 828 349 813 354 797 L 84 791 C 79 814 75 834 72 850 C 69 866 68 889 68 918 C 68 1022 108 1097 190 1143 C 271 1189 368 1212 481 1212 C 644 1212 759 1187 826 1138 C 892 1088 926 1025 926 948 L 926 264 C 926 242 933 226 948 214 C 963 202 981 197 1001 197 C 1006 197 1011 197 1016 198 C 1020 199 1025 201 1030 203 L 1030 37 Z M 606 465 L 606 584 C 592 575 576 567 558 561 C 540 554 523 549 508 545 C 450 528 411 507 393 482 C 374 457 365 419 365 367 C 365 315 372 275 387 247 C 401 219 428 205 467 205 C 505 205 537 219 565 248 C 592 277 606 349 606 465 Z M 687 1272 L 553 1272 L 187 1552 L 187 1575 L 539 1575 L 687 1272 Z" unicode="à" />
<glyph horiz-adv-x="1051" d="M 1030 37 C 1014 25 984 12 940 -2 C 896 -17 853 -25 813 -25 C 731 -25 679 -10 657 18 C 634 46 617 83 606 127 L 588 90 C 574 63 548 37 508 12 C 468 -12 415 -25 350 -25 C 237 -25 157 12 111 87 C 64 161 41 242 41 330 C 41 427 64 505 112 564 C 159 623 233 663 334 684 L 457 711 C 519 723 559 740 578 761 C 596 782 606 817 606 866 C 606 921 595 960 573 983 C 551 1006 519 1018 477 1018 C 438 1018 405 1006 378 984 C 351 962 338 933 338 897 C 338 876 339 858 342 843 C 345 828 349 813 354 797 L 84 791 C 79 814 75 834 72 850 C 69 866 68 889 68 918 C 68 1022 108 1097 190 1143 C 271 1189 368 1212 481 1212 C 644 1212 759 1187 826 1138 C 892 1088 926 1025 926 948 L 926 264 C 926 242 933 226 948 214 C 963 202 981 197 1001 197 C 1006 197 1011 197 1016 198 C 1020 199 1025 201 1030 203 L 1030 37 Z M 606 465 L 606 584 C 592 575 576 567 558 561 C 540 554 523 549 508 545 C 450 528 411 507 393 482 C 374 457 365 419 365 367 C 365 315 372 275 387 247 C 401 219 428 205 467 205 C 505 205 537 219 565 248 C 592 277 606 349 606 465 Z M 856 1552 L 489 1272 L 356 1272 L 504 1575 L 856 1575 L 856 1552 Z" unicode="á" />
<glyph horiz-adv-x="1051" d="M 1030 37 C 1014 25 984 12 940 -2 C 896 -17 853 -25 813 -25 C 731 -25 679 -10 657 18 C 634 46 617 83 606 127 L 588 90 C 574 63 548 37 508 12 C 468 -12 415 -25 350 -25 C 237 -25 157 12 111 87 C 64 161 41 242 41 330 C 41 427 64 505 112 564 C 159 623 233 663 334 684 L 457 711 C 519 723 559 740 578 761 C 596 782 606 817 606 866 C 606 921 595 960 573 983 C 551 1006 519 1018 477 1018 C 438 1018 405 1006 378 984 C 351 962 338 933 338 897 C 338 876 339 858 342 843 C 345 828 349 813 354 797 L 84 791 C 79 814 75 834 72 850 C 69 866 68 889 68 918 C 68 1022 108 1097 190 1143 C 271 1189 368 1212 481 1212 C 644 1212 759 1187 826 1138 C 892 1088 926 1025 926 948 L 926 264 C 926 242 933 226 948 214 C 963 202 981 197 1001 197 C 1006 197 1011 197 1016 198 C 1020 199 1025 201 1030 203 L 1030 37 Z M 606 465 L 606 584 C 592 575 576 567 558 561 C 540 554 523 549 508 545 C 450 528 411 507 393 482 C 374 457 365 419 365 367 C 365 315 372 275 387 247 C 401 219 428 205 467 205 C 505 205 537 219 565 248 C 592 277 606 349 606 465 Z M 811 1271 L 705 1271 L 500 1429 L 295 1271 L 189 1271 L 359 1595 L 662 1595 L 811 1271 Z" unicode="â" />
<glyph horiz-adv-x="1051" d="M 1030 37 C 1014 25 984 12 940 -2 C 896 -17 853 -25 813 -25 C 731 -25 679 -10 657 18 C 634 46 617 83 606 127 L 588 90 C 574 63 548 37 508 12 C 468 -12 415 -25 350 -25 C 237 -25 157 12 111 87 C 64 161 41 242 41 330 C 41 427 64 505 112 564 C 159 623 233 663 334 684 L 457 711 C 519 723 559 740 578 761 C 596 782 606 817 606 866 C 606 921 595 960 573 983 C 551 1006 519 1018 477 1018 C 438 1018 405 1006 378 984 C 351 962 338 933 338 897 C 338 876 339 858 342 843 C 345 828 349 813 354 797 L 84 791 C 79 814 75 834 72 850 C 69 866 68 889 68 918 C 68 1022 108 1097 190 1143 C 271 1189 368 1212 481 1212 C 644 1212 759 1187 826 1138 C 892 1088 926 1025 926 948 L 926 264 C 926 242 933 226 948 214 C 963 202 981 197 1001 197 C 1006 197 1011 197 1016 198 C 1020 199 1025 201 1030 203 L 1030 37 Z M 606 465 L 606 584 C 592 575 576 567 558 561 C 540 554 523 549 508 545 C 450 528 411 507 393 482 C 374 457 365 419 365 367 C 365 315 372 275 387 247 C 401 219 428 205 467 205 C 505 205 537 219 565 248 C 592 277 606 349 606 465 Z M 821 1440 C 821 1393 809 1351 786 1315 C 763 1278 717 1260 647 1260 C 602 1260 567 1264 541 1274 C 515 1284 488 1300 459 1323 C 445 1334 432 1344 419 1353 C 406 1361 390 1366 371 1366 C 337 1366 316 1355 310 1334 C 303 1313 302 1292 307 1272 L 207 1272 C 201 1285 195 1299 191 1315 C 186 1331 184 1350 184 1374 C 184 1421 195 1463 218 1500 C 241 1536 288 1555 358 1555 C 398 1555 430 1550 455 1541 C 479 1531 508 1514 541 1489 C 555 1477 569 1467 584 1459 C 598 1451 615 1448 635 1448 C 668 1448 688 1458 695 1479 C 702 1500 703 1521 698 1542 L 799 1542 C 805 1530 810 1515 814 1499 C 818 1483 821 1463 821 1440 Z" unicode="ã" />
<glyph horiz-adv-x="1051" d="M 1030 37 C 1014 25 984 12 940 -2 C 896 -17 853 -25 813 -25 C 731 -25 679 -10 657 18 C 634 46 617 83 606 127 L 588 90 C 574 63 548 37 508 12 C 468 -12 415 -25 350 -25 C 237 -25 157 12 111 87 C 64 161 41 242 41 330 C 41 427 64 505 112 564 C 159 623 233 663 334 684 L 457 711 C 519 723 559 740 578 761 C 596 782 606 817 606 866 C 606 921 595 960 573 983 C 551 1006 519 1018 477 1018 C 438 1018 405 1006 378 984 C 351 962 338 933 338 897 C 338 876 339 858 342 843 C 345 828 349 813 354 797 L 84 791 C 79 814 75 834 72 850 C 69 866 68 889 68 918 C 68 1022 108 1097 190 1143 C 271 1189 368 1212 481 1212 C 644 1212 759 1187 826 1138 C 892 1088 926 1025 926 948 L 926 264 C 926 242 933 226 948 214 C 963 202 981 197 1001 197 C 1006 197 1011 197 1016 198 C 1020 199 1025 201 1030 203 L 1030 37 Z M 606 465 L 606 584 C 592 575 576 567 558 561 C 540 554 523 549 508 545 C 450 528 411 507 393 482 C 374 457 365 419 365 367 C 365 315 372 275 387 247 C 401 219 428 205 467 205 C 505 205 537 219 565 248 C 592 277 606 349 606 465 Z M 409 1272 L 149 1272 L 149 1538 L 409 1538 L 409 1272 Z M 829 1272 L 569 1272 L 569 1538 L 829 1538 L 829 1272 Z" unicode="ä" />
<glyph horiz-adv-x="1051" d="M 1030 37 C 1014 25 984 12 940 -2 C 896 -17 853 -25 813 -25 C 731 -25 679 -10 657 18 C 634 46 617 83 606 127 L 588 90 C 574 63 548 37 508 12 C 468 -12 415 -25 350 -25 C 237 -25 157 12 111 87 C 64 161 41 242 41 330 C 41 427 64 505 112 564 C 159 623 233 663 334 684 L 457 711 C 519 723 559 740 578 761 C 596 782 606 817 606 866 C 606 921 595 960 573 983 C 551 1006 519 1018 477 1018 C 438 1018 405 1006 378 984 C 351 962 338 933 338 897 C 338 876 339 858 342 843 C 345 828 349 813 354 797 L 84 791 C 79 814 75 834 72 850 C 69 866 68 889 68 918 C 68 1022 108 1097 190 1143 C 271 1189 368 1212 481 1212 C 644 1212 759 1187 826 1138 C 892 1088 926 1025 926 948 L 926 264 C 926 242 933 226 948 214 C 963 202 981 197 1001 197 C 1006 197 1011 197 1016 198 C 1020 199 1025 201 1030 203 L 1030 37 Z M 606 465 L 606 584 C 592 575 576 567 558 561 C 540 554 523 549 508 545 C 450 528 411 507 393 482 C 374 457 365 419 365 367 C 365 315 372 275 387 247 C 401 219 428 205 467 205 C 505 205 537 219 565 248 C 592 277 606 349 606 465 Z M 747 1485 C 747 1419 722 1361 674 1313 C 625 1265 566 1241 497 1241 C 429 1241 372 1265 324 1313 C 276 1361 252 1419 252 1485 C 252 1552 276 1609 324 1656 C 372 1702 429 1726 497 1726 C 566 1726 625 1702 674 1656 C 722 1609 747 1552 747 1485 Z M 618 1483 C 618 1513 605 1540 581 1564 C 557 1587 529 1599 497 1599 C 467 1599 441 1587 417 1564 C 393 1540 381 1513 381 1483 C 381 1452 393 1425 417 1402 C 441 1379 467 1368 497 1368 C 529 1368 557 1379 581 1402 C 605 1425 618 1452 618 1483 Z" unicode="å" />
<glyph horiz-adv-x="1470" d="M 1423 520 L 891 524 C 890 394 901 313 924 280 C 946 247 981 231 1028 231 C 1072 231 1102 244 1119 272 C 1136 300 1143 339 1139 389 L 1135 436 L 1415 428 C 1417 417 1418 404 1419 389 C 1420 373 1421 357 1421 340 C 1421 239 1392 154 1334 84 C 1276 14 1176 -20 1032 -20 C 970 -20 905 -11 835 6 C 765 24 710 61 670 119 L 623 78 C 598 57 562 35 514 11 C 466 -13 412 -25 350 -25 C 237 -25 157 12 111 87 C 64 161 41 242 41 330 C 41 427 64 505 112 564 C 159 623 233 663 334 684 L 457 711 C 525 725 566 743 582 763 C 598 783 606 817 606 866 C 606 921 595 960 573 983 C 551 1006 519 1018 477 1018 C 438 1018 405 1006 378 984 C 351 962 338 933 338 897 C 338 876 339 858 343 844 C 346 829 350 813 354 797 L 84 791 C 79 814 75 834 72 850 C 69 866 68 889 68 918 C 68 1022 108 1097 190 1143 C 271 1189 368 1212 481 1212 C 523 1212 569 1206 620 1195 C 670 1184 715 1166 754 1141 C 785 1162 821 1179 862 1192 C 902 1205 950 1212 1006 1212 C 1133 1212 1228 1170 1292 1088 C 1355 1006 1394 891 1409 745 C 1413 705 1416 666 1418 629 C 1420 592 1422 556 1423 520 Z M 606 465 L 606 584 C 592 575 576 567 558 561 C 540 554 523 549 508 545 C 450 528 411 507 393 482 C 374 457 365 419 365 367 C 365 315 372 275 387 247 C 401 219 428 205 467 205 C 505 205 537 219 565 248 C 592 277 606 349 606 465 Z M 1108 690 C 1102 803 1094 879 1084 918 C 1074 957 1048 977 1006 977 C 963 977 934 952 918 904 C 902 855 893 784 891 690 L 1108 690 Z" unicode="æ" />
<glyph horiz-adv-x="946" d="M 907 358 C 907 270 879 185 825 101 C 770 17 666 -25 514 -25 C 364 -25 247 14 165 92 C 82 170 41 321 41 545 C 41 799 84 973 171 1069 C 258 1164 369 1212 504 1212 C 654 1212 755 1174 807 1098 C 859 1022 885 933 885 829 C 885 810 884 792 883 776 C 882 759 881 744 879 731 L 602 723 C 604 731 605 741 606 753 C 607 764 608 777 608 793 C 608 847 599 889 581 919 C 563 949 536 965 500 965 C 448 965 413 940 396 892 C 379 843 371 750 371 612 C 371 451 380 347 398 300 C 416 252 452 229 504 229 C 556 229 588 255 601 308 C 614 361 621 413 621 463 C 621 477 620 490 618 501 C 616 512 614 522 612 530 L 893 516 C 897 496 900 473 903 446 C 905 419 907 390 907 358 Z M 740 -221 C 740 -278 719 -324 677 -358 C 635 -392 577 -410 503 -410 C 443 -410 390 -402 343 -387 C 296 -372 262 -355 241 -336 L 306 -225 C 327 -242 351 -257 379 -271 C 406 -284 445 -291 495 -291 C 526 -291 545 -283 552 -269 C 558 -254 562 -240 562 -227 C 562 -193 547 -173 517 -165 C 487 -157 453 -162 415 -180 L 452 -41 L 529 -41 C 593 -41 644 -58 682 -92 C 720 -126 740 -169 740 -221 Z" unicode="ç" />
<glyph horiz-adv-x="946" d="M 899 520 L 367 524 C 366 394 377 312 400 278 C 422 244 457 227 504 227 C 548 227 578 241 595 270 C 612 299 618 339 614 389 L 610 436 L 891 428 C 893 417 894 404 895 389 C 896 373 897 357 897 340 C 897 239 868 153 810 82 C 752 10 652 -25 508 -25 C 367 -25 254 13 169 90 C 83 166 41 327 41 571 C 41 796 79 959 155 1060 C 231 1161 339 1212 481 1212 C 608 1212 703 1170 767 1088 C 831 1006 870 891 885 745 C 889 705 892 666 894 629 C 896 592 898 556 899 520 Z M 584 690 C 577 803 569 879 559 918 C 549 957 523 977 481 977 C 438 977 409 952 394 904 C 378 855 369 784 367 690 L 584 690 Z M 613 1272 L 479 1272 L 113 1552 L 113 1575 L 465 1575 L 613 1272 Z" unicode="è" />
<glyph horiz-adv-x="946" d="M 899 520 L 367 524 C 366 394 377 312 400 278 C 422 244 457 227 504 227 C 548 227 578 241 595 270 C 612 299 618 339 614 389 L 610 436 L 891 428 C 893 417 894 404 895 389 C 896 373 897 357 897 340 C 897 239 868 153 810 82 C 752 10 652 -25 508 -25 C 367 -25 254 13 169 90 C 83 166 41 327 41 571 C 41 796 79 959 155 1060 C 231 1161 339 1212 481 1212 C 608 1212 703 1170 767 1088 C 831 1006 870 891 885 745 C 889 705 892 666 894 629 C 896 592 898 556 899 520 Z M 584 690 C 577 803 569 879 559 918 C 549 957 523 977 481 977 C 438 977 409 952 394 904 C 378 855 369 784 367 690 L 584 690 Z M 846 1552 L 479 1272 L 346 1272 L 494 1575 L 846 1575 L 846 1552 Z" unicode="é" />
<glyph horiz-adv-x="946" d="M 899 520 L 367 524 C 366 394 377 312 400 278 C 422 244 457 227 504 227 C 548 227 578 241 595 270 C 612 299 618 339 614 389 L 610 436 L 891 428 C 893 417 894 404 895 389 C 896 373 897 357 897 340 C 897 239 868 153 810 82 C 752 10 652 -25 508 -25 C 367 -25 254 13 169 90 C 83 166 41 327 41 571 C 41 796 79 959 155 1060 C 231 1161 339 1212 481 1212 C 608 1212 703 1170 767 1088 C 831 1006 870 891 885 745 C 889 705 892 666 894 629 C 896 592 898 556 899 520 Z M 584 690 C 577 803 569 879 559 918 C 549 957 523 977 481 977 C 438 977 409 952 394 904 C 378 855 369 784 367 690 L 584 690 Z M 783 1241 L 677 1241 L 472 1399 L 267 1241 L 161 1241 L 331 1565 L 634 1565 L 783 1241 Z" unicode="ê" />
<glyph horiz-adv-x="946" d="M 899 520 L 367 524 C 366 394 377 312 400 278 C 422 244 457 227 504 227 C 548 227 578 241 595 270 C 612 299 618 339 614 389 L 610 436 L 891 428 C 893 417 894 404 895 389 C 896 373 897 357 897 340 C 897 239 868 153 810 82 C 752 10 652 -25 508 -25 C 367 -25 254 13 169 90 C 83 166 41 327 41 571 C 41 796 79 959 155 1060 C 231 1161 339 1212 481 1212 C 608 1212 703 1170 767 1088 C 831 1006 870 891 885 745 C 889 705 892 666 894 629 C 896 592 898 556 899 520 Z M 584 690 C 577 803 569 879 559 918 C 549 957 523 977 481 977 C 438 977 409 952 394 904 C 378 855 369 784 367 690 L 584 690 Z M 389 1272 L 129 1272 L 129 1538 L 389 1538 L 389 1272 Z M 809 1272 L 549 1272 L 549 1538 L 809 1538 L 809 1272 Z" unicode="ë" />
<glyph horiz-adv-x="479" d="M 401 0 L 78 0 L 78 1176 L 401 1176 L 401 0 Z M 359 1242 L 225 1242 L -141 1522 L -141 1545 L 211 1545 L 359 1242 Z" unicode="ì" />
<glyph horiz-adv-x="479" d="M 401 0 L 78 0 L 78 1176 L 401 1176 L 401 0 Z M 625 1522 L 258 1242 L 125 1242 L 273 1545 L 625 1545 L 625 1522 Z" unicode="í" />
<glyph horiz-adv-x="479" d="M 401 0 L 78 0 L 78 1176 L 401 1176 L 401 0 Z M 551 1241 L 445 1241 L 240 1399 L 35 1241 L -71 1241 L 99 1565 L 402 1565 L 551 1241 Z" unicode="î" />
<glyph horiz-adv-x="479" d="M 401 0 L 78 0 L 78 1176 L 401 1176 L 401 0 Z M 162 1242 L -98 1242 L -98 1508 L 162 1508 L 162 1242 Z M 582 1242 L 322 1242 L 322 1508 L 582 1508 L 582 1242 Z" unicode="ï" />
<glyph horiz-adv-x="958" d="M 930 1446 C 930 1421 921 1397 903 1373 C 885 1349 855 1329 811 1313 C 840 1234 863 1139 881 1027 C 898 915 907 785 907 637 C 907 411 879 246 823 140 C 767 34 655 -18 485 -18 C 322 -18 207 28 141 121 C 74 214 41 363 41 569 C 41 762 76 907 147 1004 C 217 1100 320 1149 455 1149 C 482 1149 505 1142 523 1130 C 541 1117 557 1104 569 1092 C 566 1131 562 1168 556 1204 C 550 1240 543 1273 535 1303 C 508 1295 490 1287 480 1277 C 470 1267 465 1255 465 1243 C 465 1236 466 1229 470 1222 C 473 1214 477 1208 481 1204 L 385 1169 C 370 1180 356 1197 344 1219 C 332 1241 326 1267 326 1298 C 326 1326 336 1352 356 1377 C 376 1401 413 1422 469 1440 C 459 1452 448 1462 436 1470 C 424 1477 411 1481 399 1481 C 374 1481 351 1476 330 1466 C 309 1456 291 1444 276 1430 L 186 1567 C 210 1587 248 1604 298 1618 C 348 1631 392 1638 430 1638 C 490 1638 546 1623 600 1593 C 653 1563 701 1515 743 1450 C 760 1456 772 1463 778 1472 C 784 1481 788 1491 788 1501 C 788 1509 786 1517 784 1523 C 781 1529 778 1536 774 1542 L 868 1575 C 884 1563 899 1546 911 1522 C 923 1498 930 1472 930 1446 Z M 573 578 C 573 721 566 815 554 860 C 542 905 515 928 473 928 C 430 928 403 906 392 864 C 380 822 375 726 375 578 C 375 428 382 335 398 299 C 413 263 438 246 473 246 C 509 246 535 264 550 300 C 565 336 573 429 573 578 Z" unicode="ð" />
<glyph horiz-adv-x="997" d="M 926 0 L 602 0 L 602 831 C 602 857 596 878 585 894 C 573 910 554 918 526 918 C 488 918 458 895 435 850 C 412 805 401 745 401 670 L 401 0 L 78 0 L 78 1176 L 399 1176 L 399 985 C 417 1051 450 1103 496 1141 C 542 1179 599 1198 668 1198 C 734 1198 793 1175 846 1131 C 899 1086 926 1016 926 922 L 926 0 Z M 823 1440 C 823 1393 811 1351 788 1315 C 765 1278 719 1260 649 1260 C 604 1260 569 1264 543 1274 C 517 1284 490 1300 461 1323 C 447 1334 434 1344 421 1353 C 408 1361 392 1366 373 1366 C 339 1366 318 1355 312 1334 C 305 1313 304 1292 309 1272 L 209 1272 C 203 1285 197 1299 193 1315 C 188 1331 186 1350 186 1374 C 186 1421 197 1463 220 1500 C 243 1536 290 1555 360 1555 C 400 1555 432 1550 457 1541 C 481 1531 510 1514 543 1489 C 557 1477 571 1467 586 1459 C 600 1451 617 1448 637 1448 C 670 1448 690 1458 697 1479 C 704 1500 705 1521 700 1542 L 801 1542 C 807 1530 812 1515 816 1499 C 820 1483 823 1463 823 1440 Z" unicode="ñ" />
<glyph horiz-adv-x="948" d="M 907 596 C 907 397 879 245 823 140 C 767 34 655 -18 485 -18 C 322 -18 207 28 141 121 C 74 214 41 363 41 569 C 41 788 76 950 148 1055 C 220 1159 327 1212 469 1212 C 638 1212 753 1159 815 1055 C 876 950 907 797 907 596 Z M 573 578 C 573 736 566 840 554 892 C 542 943 515 969 473 969 C 430 969 403 943 392 891 C 380 839 375 734 375 578 C 375 428 382 335 398 299 C 413 263 438 246 473 246 C 509 246 535 264 550 300 C 565 336 573 429 573 578 Z M 644 1272 L 510 1272 L 144 1552 L 144 1575 L 496 1575 L 644 1272 Z" unicode="ò" />
<glyph horiz-adv-x="948" d="M 907 596 C 907 397 879 245 823 140 C 767 34 655 -18 485 -18 C 322 -18 207 28 141 121 C 74 214 41 363 41 569 C 41 788 76 950 148 1055 C 220 1159 327 1212 469 1212 C 638 1212 753 1159 815 1055 C 876 950 907 797 907 596 Z M 573 578 C 573 736 566 840 554 892 C 542 943 515 969 473 969 C 430 969 403 943 392 891 C 380 839 375 734 375 578 C 375 428 382 335 398 299 C 413 263 438 246 473 246 C 509 246 535 264 550 300 C 565 336 573 429 573 578 Z M 813 1552 L 446 1272 L 313 1272 L 461 1575 L 813 1575 L 813 1552 Z" unicode="ó" />
<glyph horiz-adv-x="948" d="M 907 596 C 907 397 879 245 823 140 C 767 34 655 -18 485 -18 C 322 -18 207 28 141 121 C 74 214 41 363 41 569 C 41 788 76 950 148 1055 C 220 1159 327 1212 469 1212 C 638 1212 753 1159 815 1055 C 876 950 907 797 907 596 Z M 573 578 C 573 736 566 840 554 892 C 542 943 515 969 473 969 C 430 969 403 943 392 891 C 380 839 375 734 375 578 C 375 428 382 335 398 299 C 413 263 438 246 473 246 C 509 246 535 264 550 300 C 565 336 573 429 573 578 Z M 783 1271 L 677 1271 L 472 1429 L 267 1271 L 161 1271 L 331 1595 L 634 1595 L 783 1271 Z" unicode="ô" />
<glyph horiz-adv-x="948" d="M 907 596 C 907 397 879 245 823 140 C 767 34 655 -18 485 -18 C 322 -18 207 28 141 121 C 74 214 41 363 41 569 C 41 788 76 950 148 1055 C 220 1159 327 1212 469 1212 C 638 1212 753 1159 815 1055 C 876 950 907 797 907 596 Z M 573 578 C 573 736 566 840 554 892 C 542 943 515 969 473 969 C 430 969 403 943 392 891 C 380 839 375 734 375 578 C 375 428 382 335 398 299 C 413 263 438 246 473 246 C 509 246 535 264 550 300 C 565 336 573 429 573 578 Z M 791 1440 C 791 1393 779 1351 756 1315 C 733 1278 687 1260 617 1260 C 572 1260 537 1264 511 1274 C 485 1284 458 1300 429 1323 C 415 1334 402 1344 389 1353 C 376 1361 360 1366 341 1366 C 307 1366 286 1355 280 1334 C 273 1313 272 1292 277 1272 L 177 1272 C 171 1285 165 1299 161 1315 C 156 1331 154 1350 154 1374 C 154 1421 165 1463 188 1500 C 211 1536 258 1555 328 1555 C 368 1555 400 1550 425 1541 C 449 1531 478 1514 511 1489 C 525 1477 539 1467 554 1459 C 568 1451 585 1448 605 1448 C 638 1448 658 1458 665 1479 C 672 1500 673 1521 668 1542 L 769 1542 C 775 1530 780 1515 784 1499 C 788 1483 791 1463 791 1440 Z" unicode="õ" />
<glyph horiz-adv-x="948" d="M 907 596 C 907 397 879 245 823 140 C 767 34 655 -18 485 -18 C 322 -18 207 28 141 121 C 74 214 41 363 41 569 C 41 788 76 950 148 1055 C 220 1159 327 1212 469 1212 C 638 1212 753 1159 815 1055 C 876 950 907 797 907 596 Z M 573 578 C 573 736 566 840 554 892 C 542 943 515 969 473 969 C 430 969 403 943 392 891 C 380 839 375 734 375 578 C 375 428 382 335 398 299 C 413 263 438 246 473 246 C 509 246 535 264 550 300 C 565 336 573 429 573 578 Z M 391 1272 L 131 1272 L 131 1538 L 391 1538 L 391 1272 Z M 811 1272 L 551 1272 L 551 1538 L 811 1538 L 811 1272 Z" unicode="ö" />
<glyph horiz-adv-x="948" d="M 930 1212 L 827 1053 C 859 1001 883 937 897 861 C 911 784 918 696 918 596 C 918 397 890 245 834 140 C 778 34 666 -18 496 -18 C 430 -18 373 -10 323 3 C 273 17 231 40 197 70 L 141 -14 L 39 -14 L 137 137 C 107 185 86 244 72 316 C 58 388 51 472 51 569 C 51 788 87 950 159 1055 C 231 1159 337 1212 479 1212 C 543 1212 599 1204 647 1189 C 695 1174 736 1152 770 1122 L 827 1212 L 930 1212 Z M 584 578 L 584 672 L 391 377 C 397 319 407 283 423 268 C 438 253 458 246 483 246 C 519 246 545 264 561 300 C 576 336 584 429 584 578 Z M 575 821 C 571 878 561 917 547 938 C 533 958 511 969 483 969 C 440 969 413 943 402 891 C 390 839 385 734 385 578 L 385 524 L 575 821 Z" unicode="ø" />
<glyph horiz-adv-x="997" d="M 920 0 L 598 0 L 598 190 C 579 124 547 72 501 34 C 455 -4 398 -23 330 -23 C 264 -23 204 0 151 44 C 98 88 72 158 72 254 L 72 1176 L 395 1176 L 395 344 C 395 317 400 296 412 281 C 424 265 443 258 471 258 C 509 258 539 278 562 320 C 584 361 596 423 596 506 L 596 1176 L 920 1176 L 920 0 Z M 667 1242 L 533 1242 L 167 1522 L 167 1545 L 519 1545 L 667 1242 Z" unicode="ù" />
<glyph horiz-adv-x="997" d="M 920 0 L 598 0 L 598 190 C 579 124 547 72 501 34 C 455 -4 398 -23 330 -23 C 264 -23 204 0 151 44 C 98 88 72 158 72 254 L 72 1176 L 395 1176 L 395 344 C 395 317 400 296 412 281 C 424 265 443 258 471 258 C 509 258 539 278 562 320 C 584 361 596 423 596 506 L 596 1176 L 920 1176 L 920 0 Z M 846 1522 L 479 1242 L 346 1242 L 494 1545 L 846 1545 L 846 1522 Z" unicode="ú" />
<glyph horiz-adv-x="997" d="M 920 0 L 598 0 L 598 190 C 579 124 547 72 501 34 C 455 -4 398 -23 330 -23 C 264 -23 204 0 151 44 C 98 88 72 158 72 254 L 72 1176 L 395 1176 L 395 344 C 395 317 400 296 412 281 C 424 265 443 258 471 258 C 509 258 539 278 562 320 C 584 361 596 423 596 506 L 596 1176 L 920 1176 L 920 0 Z M 807 1241 L 701 1241 L 496 1399 L 291 1241 L 185 1241 L 355 1565 L 658 1565 L 807 1241 Z" unicode="û" />
<glyph horiz-adv-x="997" d="M 920 0 L 598 0 L 598 190 C 579 124 547 72 501 34 C 455 -4 398 -23 330 -23 C 264 -23 204 0 151 44 C 98 88 72 158 72 254 L 72 1176 L 395 1176 L 395 344 C 395 317 400 296 412 281 C 424 265 443 258 471 258 C 509 258 539 278 562 320 C 584 361 596 423 596 506 L 596 1176 L 920 1176 L 920 0 Z M 415 1242 L 155 1242 L 155 1508 L 415 1508 L 415 1242 Z M 835 1242 L 575 1242 L 575 1508 L 835 1508 L 835 1242 Z" unicode="ü" />
<glyph horiz-adv-x="967" d="M 967 1176 L 657 -10 C 634 -107 601 -191 558 -262 C 514 -333 426 -369 293 -369 C 180 -369 104 -345 66 -299 C 27 -253 8 -193 8 -119 C 8 -104 8 -90 10 -78 C 12 -66 14 -52 16 -37 L 219 -37 C 217 -49 215 -62 213 -76 C 211 -90 211 -103 211 -117 C 211 -137 217 -154 229 -166 C 241 -178 262 -184 291 -184 C 326 -184 350 -170 364 -142 C 378 -114 385 -77 385 -31 C 385 -14 382 4 376 26 C 370 47 364 68 358 90 L 0 1176 L 360 1176 L 524 485 L 657 1176 L 967 1176 Z M 819 1522 L 452 1242 L 319 1242 L 467 1545 L 819 1545 L 819 1522 Z" unicode="ý" />
<glyph horiz-adv-x="999" d="M 958 555 C 958 356 933 210 884 118 C 834 26 749 -20 629 -20 C 585 -20 546 -8 512 15 C 478 38 453 62 438 88 L 389 170 L 389 -295 L 78 -295 L 78 1573 L 389 1573 L 389 1028 L 428 1087 C 446 1115 471 1142 503 1166 C 534 1190 571 1202 614 1202 C 707 1202 788 1160 856 1077 C 924 993 958 819 958 555 Z M 631 588 C 631 724 619 817 597 868 C 574 918 548 944 520 944 C 484 944 456 922 434 878 C 412 834 401 738 401 590 C 401 451 410 360 429 317 C 448 273 479 252 522 252 C 554 252 581 279 601 335 C 621 391 631 475 631 588 Z" unicode="þ" />
<glyph horiz-adv-x="967" d="M 967 1176 L 657 -10 C 634 -107 601 -191 558 -262 C 514 -333 426 -369 293 -369 C 180 -369 104 -345 66 -299 C 27 -253 8 -193 8 -119 C 8 -104 8 -90 10 -78 C 12 -66 14 -52 16 -37 L 219 -37 C 217 -49 215 -62 213 -76 C 211 -90 211 -103 211 -117 C 211 -137 217 -154 229 -166 C 241 -178 262 -184 291 -184 C 326 -184 350 -170 364 -142 C 378 -114 385 -77 385 -31 C 385 -14 382 4 376 26 C 370 47 364 68 358 90 L 0 1176 L 360 1176 L 524 485 L 657 1176 L 967 1176 Z M 395 1241 L 135 1241 L 135 1507 L 395 1507 L 395 1241 Z M 877 1241 L 616 1241 L 616 1507 L 877 1507 L 877 1241 Z" unicode="ÿ" />
<glyph horiz-adv-x="479" d="M 401 0 L 78 0 L 78 1176 L 401 1176 L 401 0 Z" unicode="ı" />
<glyph horiz-adv-x="844" d="M 829 0 L 92 0 L 92 377 L 47 338 L -109 524 L 92 694 L 92 1573 L 440 1573 L 440 993 L 662 1182 L 817 995 L 440 674 L 440 301 L 829 301 L 829 0 Z" unicode="Ł" />
<glyph horiz-adv-x="651" d="M 709 842 L 487 664 L 487 0 L 164 0 L 164 403 L 106 358 L -49 545 L 164 715 L 164 1573 L 487 1573 L 487 975 L 553 1028 L 709 842 Z" unicode="ł" />
<glyph horiz-adv-x="1382" d="M 1346 0 L 680 0 C 652 -8 624 -15 594 -19 C 564 -23 534 -25 506 -25 C 340 -25 222 30 151 141 C 80 252 45 468 45 788 C 45 1060 76 1262 140 1396 C 203 1530 325 1597 506 1597 C 535 1597 564 1595 592 1591 C 620 1587 649 1581 678 1573 L 1305 1573 L 1305 1276 L 950 1276 L 950 948 L 1257 948 L 1257 659 L 950 659 L 950 313 L 1346 313 L 1346 0 Z M 610 559 L 610 1010 C 610 1132 601 1216 585 1261 C 568 1306 542 1329 506 1329 C 454 1329 423 1290 414 1214 C 405 1138 401 994 401 784 C 401 558 406 414 417 353 C 428 292 458 262 506 262 C 542 262 568 280 585 318 C 601 355 610 435 610 559 Z" unicode="Œ" />
<glyph horiz-adv-x="1483" d="M 1436 520 L 903 524 C 902 394 913 313 936 280 C 958 247 993 231 1040 231 C 1084 231 1114 244 1131 272 C 1148 300 1155 339 1151 389 L 1147 436 L 1427 428 C 1429 417 1431 404 1432 389 C 1433 373 1434 357 1434 340 C 1434 239 1405 154 1347 84 C 1289 14 1188 -20 1044 -20 C 994 -20 944 -16 895 -8 C 846 0 798 19 750 51 C 710 24 669 6 629 -3 C 589 -13 542 -18 489 -18 C 326 -18 211 28 145 121 C 78 214 45 363 45 569 C 45 788 80 950 152 1055 C 224 1159 331 1212 473 1212 C 548 1212 607 1203 651 1186 C 694 1168 729 1149 756 1128 C 782 1150 816 1170 856 1187 C 896 1203 950 1212 1018 1212 C 1145 1212 1240 1170 1304 1088 C 1368 1006 1407 891 1421 745 C 1425 705 1429 666 1431 629 C 1433 592 1435 556 1436 520 Z M 578 578 C 578 736 571 840 559 892 C 546 943 519 969 477 969 C 434 969 407 943 396 891 C 384 839 379 734 379 578 C 379 428 386 335 402 299 C 418 263 443 246 477 246 C 513 246 539 264 555 300 C 570 336 578 429 578 578 Z M 1120 690 C 1114 803 1106 879 1096 918 C 1086 957 1060 977 1018 977 C 975 977 946 952 930 904 C 914 855 905 784 903 690 L 1120 690 Z" unicode="œ" />
<glyph horiz-adv-x="1042" d="M 1006 477 C 1006 331 969 210 896 116 C 822 22 693 -25 508 -25 C 340 -25 220 11 147 84 C 73 157 37 254 37 375 C 37 406 39 438 43 472 C 47 506 54 535 63 561 L 365 571 C 357 553 352 529 349 501 C 345 473 344 446 344 422 C 344 373 357 334 383 304 C 409 274 446 260 494 260 C 538 260 575 272 604 296 C 632 320 647 362 647 420 C 647 474 631 517 600 551 C 568 584 524 617 467 651 L 281 762 C 215 800 161 853 117 921 C 73 989 51 1067 51 1155 C 51 1282 92 1387 175 1471 C 257 1555 379 1597 541 1597 C 680 1597 780 1562 841 1492 C 901 1422 932 1331 932 1219 C 932 1191 930 1165 926 1141 C 922 1117 918 1096 913 1079 L 616 1071 C 621 1082 626 1097 631 1115 C 636 1133 639 1154 639 1178 C 639 1230 628 1266 608 1287 C 587 1308 558 1319 522 1319 C 489 1319 462 1308 440 1286 C 418 1264 408 1228 408 1180 C 408 1126 429 1083 473 1049 C 517 1015 564 986 614 963 L 748 897 C 831 856 895 801 939 733 C 983 665 1006 579 1006 477 Z M 823 1962 L 674 1638 L 371 1638 L 201 1962 L 307 1962 L 512 1804 L 717 1962 L 823 1962 Z" unicode="Š" />
<glyph horiz-adv-x="918" d="M 895 354 C 895 230 861 137 794 74 C 727 11 611 -20 446 -20 C 302 -20 198 5 134 56 C 69 107 37 180 37 276 C 37 302 39 327 44 352 C 48 377 54 400 61 422 L 309 406 C 306 391 304 378 303 366 C 301 354 301 342 301 330 C 301 287 310 254 330 230 C 350 206 381 195 424 195 C 472 195 504 209 520 239 C 535 268 543 294 543 317 C 543 347 533 373 515 394 C 497 415 466 435 422 455 L 295 514 C 244 537 189 574 130 626 C 70 678 41 758 41 866 C 41 977 82 1062 164 1122 C 246 1182 343 1212 455 1212 C 561 1212 652 1188 726 1141 C 800 1094 838 1021 838 922 C 838 900 836 881 833 865 C 829 848 825 831 819 815 L 575 819 C 579 831 582 843 584 855 C 585 866 586 881 586 901 C 586 933 576 958 556 975 C 536 992 509 1001 475 1001 C 441 1001 415 991 398 972 C 381 952 373 927 373 897 C 373 863 384 836 407 818 C 430 799 462 781 502 764 L 659 696 C 725 666 781 627 827 579 C 872 531 895 456 895 354 Z M 766 1597 L 617 1273 L 314 1273 L 144 1597 L 250 1597 L 455 1439 L 660 1597 L 766 1597 Z" unicode="š" />
<glyph horiz-adv-x="1022" d="M 1022 1573 L 690 614 L 690 0 L 342 0 L 342 614 L 0 1573 L 348 1573 L 537 989 L 723 1573 L 1022 1573 Z M 440 1618 L 195 1618 L 195 1864 L 440 1864 L 440 1618 Z M 858 1618 L 612 1618 L 612 1864 L 858 1864 L 858 1618 Z" unicode="Ÿ" />
<glyph horiz-adv-x="926" d="M 874 0 L 55 0 L 55 365 L 547 1278 L 121 1278 L 121 1573 L 874 1573 L 874 1208 L 393 301 L 874 301 L 874 0 Z M 781 1962 L 632 1638 L 329 1638 L 159 1962 L 265 1962 L 470 1804 L 675 1962 L 781 1962 Z" unicode="Ž" />
<glyph horiz-adv-x="881" d="M 823 0 L 53 0 L 53 328 L 471 930 L 80 930 L 80 1176 L 823 1176 L 823 895 L 358 246 L 823 246 L 823 0 Z M 770 1565 L 621 1241 L 318 1241 L 148 1565 L 254 1565 L 459 1407 L 664 1565 L 770 1565 Z" unicode="ž" />
<glyph horiz-adv-x="791" d="M 793 1372 C 793 1350 791 1330 787 1311 C 783 1291 778 1273 774 1257 L 586 1266 C 588 1278 589 1289 590 1300 C 591 1311 592 1324 592 1339 C 592 1359 588 1377 581 1392 C 574 1407 559 1415 537 1415 C 508 1415 490 1398 484 1366 C 478 1334 475 1276 475 1194 C 475 1142 475 1089 476 1037 C 477 985 478 951 479 936 L 690 936 L 690 715 L 489 715 L 489 -53 C 489 -163 462 -242 410 -292 C 357 -342 280 -367 178 -367 C 92 -367 20 -350 -39 -318 C -99 -285 -129 -225 -129 -139 C -129 -124 -126 -106 -121 -85 C -116 -63 -111 -47 -106 -35 L 70 -39 C 68 -49 65 -60 62 -73 C 58 -85 57 -97 57 -109 C 57 -140 62 -162 73 -174 C 84 -186 100 -193 121 -193 C 144 -193 160 -186 169 -172 C 177 -158 182 -141 182 -121 C 182 -115 181 -107 180 -99 C 179 -91 178 -82 176 -74 C 174 -62 171 -50 169 -36 C 167 -22 166 -6 166 12 L 166 715 L 10 715 L 10 936 L 166 936 L 166 1294 C 166 1387 196 1461 257 1515 C 318 1569 401 1597 506 1597 C 614 1597 688 1577 730 1537 C 772 1497 793 1442 793 1372 Z" unicode="ƒ" />
<glyph horiz-adv-x="434" d="M 403 1526 C 380 1518 359 1509 340 1499 C 320 1489 303 1477 289 1464 C 261 1440 244 1414 239 1384 C 233 1354 232 1322 236 1288 L 356 1288 L 356 944 L 70 944 L 70 1288 C 70 1362 83 1427 111 1481 C 139 1535 188 1578 258 1608 C 277 1616 296 1622 315 1627 C 334 1631 355 1635 379 1638 L 403 1526 Z" unicode="ʻ" />
<glyph horiz-adv-x="971" d="M 817 1251 L 711 1251 L 506 1409 L 301 1251 L 195 1251 L 365 1575 L 668 1575 L 817 1251 Z" unicode="ˆ" />
<glyph horiz-adv-x="971" d="M 817 1575 L 668 1251 L 365 1251 L 195 1575 L 301 1575 L 506 1417 L 711 1575 L 817 1575 Z" unicode="ˇ" />
<glyph horiz-adv-x="971" d="M 795 1296 L 188 1296 L 188 1493 L 795 1493 L 795 1296 Z" unicode="ˉ" />
<glyph horiz-adv-x="971" d="M 811 1520 C 811 1415 784 1345 731 1309 C 677 1273 593 1255 479 1255 C 365 1255 281 1272 227 1307 C 173 1342 147 1413 147 1520 L 356 1520 C 355 1490 363 1464 380 1442 C 397 1420 430 1409 479 1409 C 525 1409 558 1420 577 1442 C 595 1464 604 1490 604 1520 L 811 1520 Z" unicode="˘" />
<glyph horiz-adv-x="971" d="M 604 1272 L 350 1272 L 350 1528 L 604 1528 L 604 1272 Z" unicode="˙" />
<glyph horiz-adv-x="971" d="M 731 1481 C 731 1415 706 1357 658 1309 C 609 1261 550 1237 481 1237 C 413 1237 356 1261 308 1309 C 260 1357 236 1415 236 1481 C 236 1548 260 1605 308 1652 C 356 1698 413 1722 481 1722 C 550 1722 609 1698 658 1652 C 706 1605 731 1548 731 1481 Z M 602 1479 C 602 1509 589 1536 565 1560 C 541 1583 513 1595 481 1595 C 451 1595 425 1583 401 1560 C 377 1536 365 1509 365 1479 C 365 1448 377 1421 401 1398 C 425 1375 451 1364 481 1364 C 513 1364 541 1375 565 1398 C 589 1421 602 1448 602 1479 Z" unicode="˚" />
<glyph horiz-adv-x="971" d="M 649 -272 C 649 -316 629 -351 590 -377 C 550 -403 501 -416 442 -416 C 380 -416 333 -401 301 -372 C 269 -343 254 -304 254 -256 C 254 -205 276 -158 320 -116 C 364 -74 409 -38 457 -10 L 473 0 L 602 0 L 580 -14 C 558 -27 524 -58 478 -107 C 431 -156 408 -206 408 -256 C 408 -277 411 -294 417 -308 C 423 -321 434 -328 449 -328 C 470 -328 485 -321 493 -308 C 501 -295 506 -280 506 -264 C 506 -251 504 -237 501 -221 C 497 -205 494 -192 492 -182 L 641 -182 C 643 -199 645 -215 647 -230 C 648 -245 649 -259 649 -272 Z" unicode="˛" />
<glyph horiz-adv-x="971" d="M 819 1448 C 819 1401 807 1359 784 1323 C 761 1286 715 1268 645 1268 C 600 1268 565 1272 539 1282 C 513 1292 486 1308 457 1331 C 443 1342 430 1352 417 1361 C 404 1369 388 1374 369 1374 C 335 1374 314 1363 308 1342 C 301 1321 300 1300 305 1280 L 205 1280 C 199 1293 193 1307 189 1323 C 184 1339 182 1358 182 1382 C 182 1429 193 1471 216 1508 C 239 1544 286 1563 356 1563 C 396 1563 428 1558 453 1549 C 477 1539 506 1522 539 1497 C 553 1485 567 1475 582 1467 C 596 1459 613 1456 633 1456 C 666 1456 686 1466 693 1487 C 700 1508 701 1529 696 1550 L 797 1550 C 803 1538 808 1523 812 1507 C 816 1491 819 1471 819 1448 Z" unicode="˜" />
<glyph horiz-adv-x="971" d="M 539 1505 L 254 1262 L 147 1262 L 291 1528 L 539 1528 L 539 1505 Z M 913 1505 L 604 1262 L 498 1262 L 641 1528 L 913 1528 L 913 1505 Z" unicode="˝" />
<glyph horiz-adv-x="877" d="M 803 565 L 74 565 L 74 807 L 803 807 L 803 565 Z" unicode="‐" />
<glyph horiz-adv-x="877" d="M 803 565 L 74 565 L 74 807 L 803 807 L 803 565 Z" unicode="‑" />
<glyph horiz-adv-x="1024" d="M 1024 588 L -2 588 L -2 786 L 1024 786 L 1024 588 Z" unicode="–" />
<glyph horiz-adv-x="1638" d="M 1638 588 L 0 588 L 0 786 L 1638 786 L 1638 588 Z" unicode="—" />
<glyph horiz-adv-x="434" d="M 403 1526 C 380 1518 359 1509 340 1499 C 320 1489 303 1477 289 1464 C 261 1440 244 1414 239 1384 C 233 1354 232 1322 236 1288 L 356 1288 L 356 944 L 70 944 L 70 1288 C 70 1362 83 1427 111 1481 C 139 1535 188 1578 258 1608 C 277 1616 296 1622 315 1627 C 334 1631 355 1635 379 1638 L 403 1526 Z" unicode="‘" />
<glyph horiz-adv-x="434" d="M 365 1229 C 365 1154 351 1089 323 1035 C 295 981 246 939 176 909 C 156 901 137 894 118 890 C 99 885 78 881 55 879 L 31 991 C 53 998 74 1007 94 1017 C 113 1027 130 1039 145 1053 C 173 1076 189 1102 195 1132 C 200 1162 201 1194 199 1229 L 78 1229 L 78 1573 L 365 1573 L 365 1229 Z" unicode="’" />
<glyph horiz-adv-x="434" d="M 365 0 C 365 -74 351 -139 323 -193 C 295 -247 246 -289 176 -319 C 156 -327 137 -334 118 -339 C 99 -343 78 -347 55 -350 L 31 -238 C 53 -230 74 -221 94 -211 C 113 -201 130 -189 145 -176 C 173 -152 189 -126 195 -96 C 200 -66 201 -34 199 0 L 78 0 L 78 344 L 365 344 L 365 0 Z" unicode="‚" />
<glyph horiz-adv-x="864" d="M 403 1526 C 380 1518 359 1509 340 1499 C 320 1489 303 1477 289 1464 C 261 1440 244 1414 239 1384 C 233 1354 232 1322 236 1288 L 356 1288 L 356 944 L 70 944 L 70 1288 C 70 1362 83 1427 111 1481 C 139 1535 188 1578 258 1608 C 277 1616 296 1622 315 1627 C 334 1631 355 1635 379 1638 L 403 1526 Z M 838 1526 C 815 1518 794 1509 775 1499 C 755 1489 738 1477 723 1464 C 695 1440 679 1414 674 1384 C 668 1354 667 1322 670 1288 L 791 1288 L 791 944 L 504 944 L 504 1288 C 504 1362 517 1427 545 1481 C 573 1535 622 1578 692 1608 C 711 1616 730 1622 749 1627 C 768 1631 789 1635 813 1638 L 838 1526 Z" unicode="“" />
<glyph horiz-adv-x="864" d="M 365 1229 C 365 1154 351 1089 323 1035 C 295 981 246 939 176 909 C 156 901 137 894 118 890 C 99 885 78 881 55 879 L 31 991 C 53 998 74 1007 94 1017 C 113 1027 130 1039 145 1053 C 173 1076 189 1102 195 1132 C 200 1162 201 1194 199 1229 L 78 1229 L 78 1573 L 365 1573 L 365 1229 Z M 799 1229 C 799 1154 785 1089 757 1035 C 729 981 680 939 610 909 C 590 901 571 894 553 890 C 534 885 513 881 489 879 L 465 991 C 487 998 508 1007 528 1017 C 547 1027 564 1039 580 1053 C 607 1076 623 1102 629 1132 C 634 1162 635 1194 633 1229 L 512 1229 L 512 1573 L 799 1573 L 799 1229 Z" unicode="”" />
<glyph horiz-adv-x="864" d="M 365 0 C 365 -74 351 -139 323 -193 C 295 -247 246 -289 176 -319 C 156 -327 137 -334 118 -339 C 99 -343 78 -347 55 -350 L 31 -238 C 53 -230 74 -221 94 -211 C 113 -201 130 -189 145 -176 C 173 -152 189 -126 195 -96 C 200 -66 201 -34 199 0 L 78 0 L 78 344 L 365 344 L 365 0 Z M 799 0 C 799 -74 785 -139 757 -193 C 729 -247 680 -289 610 -319 C 590 -327 571 -334 553 -339 C 534 -343 513 -347 489 -350 L 465 -238 C 487 -230 508 -221 528 -211 C 547 -201 564 -189 580 -176 C 607 -152 623 -126 629 -96 C 634 -66 635 -34 633 0 L 512 0 L 512 344 L 799 344 L 799 0 Z" unicode="„" />
<glyph horiz-adv-x="913" d="M 868 993 L 625 993 L 625 -184 L 289 -184 L 289 993 L 45 993 L 45 1257 L 289 1257 L 289 1573 L 625 1573 L 625 1257 L 868 1257 L 868 993 Z" unicode="†" />
<glyph horiz-adv-x="913" d="M 868 170 L 625 170 L 625 -184 L 289 -184 L 289 170 L 45 170 L 45 434 L 289 434 L 289 993 L 45 993 L 45 1257 L 289 1257 L 289 1573 L 625 1573 L 625 1257 L 868 1257 L 868 993 L 625 993 L 625 434 L 868 434 L 868 170 Z" unicode="‡" />
<glyph horiz-adv-x="1028" d="M 975 684 C 975 559 929 452 839 364 C 749 275 640 231 514 231 C 386 231 277 275 187 364 C 96 452 51 559 51 684 C 51 808 96 915 187 1004 C 277 1092 386 1137 514 1137 C 640 1137 749 1092 839 1004 C 929 915 975 808 975 684 Z" unicode="•" />
<glyph horiz-adv-x="1389" d="M 389 0 L 74 0 L 74 344 L 389 344 L 389 0 Z M 852 0 L 537 0 L 537 344 L 852 344 L 852 0 Z M 1315 0 L 999 0 L 999 344 L 1315 344 L 1315 0 Z" unicode="…" />
<glyph horiz-adv-x="2619" d="M 780 1053 C 780 899 752 784 697 707 C 641 630 545 592 408 592 C 273 592 178 630 122 707 C 66 783 39 897 39 1049 C 39 1236 64 1374 116 1463 C 168 1552 265 1597 408 1597 C 552 1597 650 1552 702 1464 C 754 1375 780 1238 780 1053 Z M 502 1098 C 502 1218 497 1301 489 1345 C 480 1389 454 1411 412 1411 C 368 1411 341 1389 331 1345 C 321 1301 317 1218 317 1098 C 317 983 321 907 331 869 C 340 831 366 813 408 813 C 452 813 479 831 488 869 C 497 907 502 983 502 1098 Z M 1765 428 C 1765 275 1737 160 1682 83 C 1626 5 1530 -33 1393 -33 C 1258 -33 1163 5 1107 82 C 1051 159 1024 273 1024 424 C 1024 611 1049 749 1101 839 C 1153 928 1250 973 1393 973 C 1537 973 1635 928 1687 839 C 1739 750 1765 613 1765 428 Z M 1487 473 C 1487 594 1482 676 1474 720 C 1465 764 1439 786 1397 786 C 1353 786 1326 764 1317 720 C 1307 676 1303 594 1303 473 C 1303 359 1307 283 1316 245 C 1325 207 1351 188 1393 188 C 1437 188 1464 207 1473 245 C 1482 283 1487 359 1487 473 Z M 2576 428 C 2576 275 2548 160 2493 83 C 2437 5 2341 -33 2204 -33 C 2069 -33 1974 5 1918 82 C 1862 159 1835 273 1835 424 C 1835 611 1860 749 1912 839 C 1964 928 2061 973 2204 973 C 2348 973 2446 928 2498 839 C 2550 750 2576 613 2576 428 Z M 2298 473 C 2298 594 2293 676 2285 720 C 2276 764 2250 786 2208 786 C 2164 786 2137 764 2128 720 C 2118 676 2114 594 2114 473 C 2114 359 2118 283 2127 245 C 2136 207 2162 188 2204 188 C 2248 188 2275 207 2284 245 C 2293 283 2298 359 2298 473 Z M 1321 1597 L 662 -33 L 489 -33 L 1149 1597 L 1321 1597 Z" unicode="‰" />
<glyph horiz-adv-x="618" d="M 545 74 L 74 428 L 74 705 L 545 1055 L 545 778 L 258 565 L 545 350 L 545 74 Z" unicode="‹" />
<glyph horiz-adv-x="618" d="M 545 428 L 74 74 L 74 350 L 360 565 L 74 778 L 74 1055 L 545 705 L 545 428 Z" unicode="›" />
<glyph horiz-adv-x="522" d="M 920 1597 L -180 -29 L -356 -29 L 743 1597 L 920 1597 Z" unicode="⁄" />
<glyph horiz-adv-x="1038" d="M 436 535 C 440 391 452 301 471 267 C 489 232 521 215 565 215 C 611 215 640 241 652 295 C 664 348 670 416 670 500 C 670 533 670 564 670 593 C 670 622 670 658 668 700 L 963 696 C 969 651 974 610 978 572 C 981 534 983 491 983 442 C 983 290 949 174 882 94 C 814 14 705 -25 553 -25 C 398 -25 286 14 216 93 C 146 172 104 319 92 535 L 20 535 L 20 719 L 88 719 C 88 741 88 763 88 785 C 88 807 89 828 90 850 L 20 850 L 20 1034 L 98 1034 C 116 1244 160 1390 230 1473 C 300 1555 410 1597 561 1597 C 699 1597 801 1560 867 1487 C 933 1414 967 1315 967 1190 C 967 1162 963 1122 956 1069 C 948 1015 942 974 936 944 L 635 942 C 637 960 638 991 640 1034 C 642 1076 643 1111 643 1137 C 643 1220 639 1284 631 1329 C 623 1374 595 1397 547 1397 C 506 1397 478 1371 463 1321 C 447 1270 438 1174 436 1034 L 578 1034 L 578 850 L 434 850 L 434 719 L 578 719 L 578 535 L 436 535 Z" unicode="€" />
<glyph horiz-adv-x="1343" d="M 1303 891 C 1303 703 1246 554 1132 444 C 1018 334 864 279 672 279 C 474 279 320 334 208 445 C 96 555 41 704 41 891 C 41 1085 97 1237 210 1347 C 323 1456 477 1511 672 1511 C 865 1511 1018 1456 1132 1347 C 1246 1237 1303 1085 1303 891 Z M 1192 891 C 1192 1054 1144 1182 1049 1274 C 954 1366 828 1413 672 1413 C 506 1413 377 1365 286 1269 C 195 1173 150 1047 150 891 C 150 729 198 602 294 510 C 390 418 516 373 672 373 C 830 373 957 420 1051 514 C 1145 608 1192 733 1192 891 Z M 946 1006 C 946 922 924 866 880 836 C 836 806 784 791 725 791 L 670 791 L 670 528 L 469 528 L 469 1237 L 725 1237 C 791 1237 844 1220 885 1187 C 925 1153 946 1093 946 1006 Z M 739 1004 C 739 1054 735 1086 727 1101 C 719 1116 707 1124 690 1124 L 670 1124 L 670 885 L 692 885 C 712 885 725 894 731 913 C 736 931 739 962 739 1004 Z" unicode="℗" />
<glyph horiz-adv-x="1081" d="M 958 1100 L 829 1100 L 829 1399 L 780 1100 L 682 1100 L 625 1399 L 625 1100 L 494 1100 L 494 1573 L 694 1573 L 725 1393 L 725 1372 L 733 1372 L 733 1393 L 766 1573 L 958 1573 L 958 1100 Z M 436 1479 L 338 1479 L 338 1100 L 190 1100 L 190 1479 L 94 1479 L 94 1573 L 436 1573 L 436 1479 Z" unicode="™" />
<glyph horiz-adv-x="877" d="M 803 565 L 74 565 L 74 807 L 803 807 L 803 565 Z" unicode="−" />
<glyph horiz-adv-x="522" d="M 920 1597 L -180 -29 L -356 -29 L 743 1597 L 920 1597 Z" unicode="∕" />
<glyph horiz-adv-x="508" d="M 436 788 C 436 738 418 695 382 659 C 346 623 304 606 254 606 C 204 606 161 623 125 659 C 89 695 72 738 72 788 C 72 838 89 881 125 917 C 161 953 204 971 254 971 C 304 971 346 953 382 917 C 418 881 436 838 436 788 Z" unicode="∙" />
<glyph horiz-adv-x="1587" d="M 1587 1907 C 1497 1802 1400 1649 1295 1447 C 1189 1245 1106 1066 1044 911 C 959 700 887 504 829 322 C 770 140 724 -35 690 -205 L 485 -295 L 0 541 L 303 676 L 567 -4 C 603 156 648 322 702 494 C 756 666 812 820 868 956 C 926 1096 989 1233 1057 1367 C 1125 1501 1204 1638 1296 1778 L 1587 1907 Z" unicode="√" />
<glyph horiz-adv-x="1339" d="M 1288 643 C 1288 471 1226 323 1104 200 C 981 77 834 16 662 16 C 489 16 341 77 219 200 C 96 323 35 471 35 643 C 35 815 96 962 219 1085 C 341 1208 489 1270 662 1270 C 834 1270 981 1208 1104 1085 C 1226 962 1288 815 1288 643 Z M 1065 459 L 944 586 L 977 1042 L 698 846 L 408 1106 L 389 692 L 166 457 L 453 418 L 604 152 L 758 440 L 1065 459 Z" unicode="" />
<glyph horiz-adv-x="1266" d="M 1309 1372 C 1309 1353 1307 1333 1303 1313 C 1299 1292 1294 1273 1290 1257 L 1102 1266 C 1104 1276 1105 1287 1106 1299 C 1107 1311 1108 1324 1108 1339 C 1108 1359 1104 1377 1097 1392 C 1090 1407 1075 1415 1053 1415 C 1030 1415 1014 1404 1005 1382 C 995 1360 991 1324 991 1274 C 991 1259 991 1243 992 1225 C 993 1207 994 1190 995 1176 L 1262 1176 L 1262 954 L 1006 954 L 1006 0 L 682 0 L 682 954 L 479 954 L 479 0 L 156 0 L 156 954 L 0 954 L 0 1176 L 156 1176 L 156 1294 C 156 1387 186 1461 247 1515 C 308 1569 391 1597 496 1597 C 560 1597 615 1592 661 1583 C 707 1573 748 1554 784 1526 C 818 1548 852 1566 888 1578 C 924 1590 968 1597 1022 1597 C 1134 1597 1210 1576 1250 1534 C 1289 1492 1309 1438 1309 1372 Z M 682 1176 L 682 1348 C 664 1371 647 1388 630 1399 C 612 1409 592 1415 569 1415 C 541 1415 517 1408 495 1396 C 473 1383 463 1363 463 1337 C 463 1309 463 1282 465 1254 C 467 1226 468 1200 469 1176 L 682 1176 Z" unicode="ﬀ" />
<glyph horiz-adv-x="1100" d="M 680 954 L 479 954 L 479 0 L 156 0 L 156 954 L 0 954 L 0 1176 L 156 1176 L 156 1294 C 156 1387 186 1461 247 1515 C 308 1569 391 1597 496 1597 C 608 1597 684 1576 723 1534 C 762 1492 782 1438 782 1372 C 782 1350 780 1330 776 1311 C 772 1291 768 1273 764 1257 L 575 1266 C 577 1278 579 1289 580 1300 C 581 1311 582 1324 582 1339 C 582 1359 578 1377 571 1392 C 563 1407 548 1415 526 1415 C 501 1415 485 1403 477 1379 C 469 1355 465 1320 465 1274 C 465 1256 465 1239 466 1223 C 467 1206 468 1190 469 1176 L 1004 1176 L 1004 0 L 680 0 L 680 954 Z" unicode="ﬁ" />
<glyph horiz-adv-x="1102" d="M 1006 0 L 682 0 L 682 1350 C 662 1375 643 1392 625 1401 C 607 1410 587 1415 567 1415 C 531 1415 504 1406 488 1390 C 471 1374 463 1353 463 1329 C 463 1296 463 1268 465 1246 C 467 1224 468 1200 469 1176 L 623 1176 L 623 954 L 479 954 L 479 0 L 156 0 L 156 954 L 0 954 L 0 1176 L 156 1176 L 156 1294 C 156 1398 189 1475 257 1524 C 324 1572 404 1597 496 1597 C 528 1597 563 1595 601 1592 C 638 1589 671 1583 700 1573 L 1006 1573 L 1006 0 Z" unicode="ﬂ" />
<glyph horiz-adv-x="1626" d="M 1530 1176 L 1530 0 L 1206 0 L 1206 954 L 1006 954 L 1006 0 L 682 0 L 682 954 L 479 954 L 479 0 L 156 0 L 156 954 L 0 954 L 0 1176 L 156 1176 L 156 1294 C 156 1387 186 1461 247 1515 C 308 1569 391 1597 496 1597 C 560 1597 615 1592 661 1583 C 707 1573 748 1554 784 1526 C 814 1548 848 1566 886 1578 C 923 1590 968 1597 1022 1597 C 1140 1597 1218 1574 1254 1530 C 1290 1486 1309 1433 1309 1372 C 1309 1350 1307 1330 1303 1311 C 1299 1291 1294 1273 1290 1257 L 1102 1266 C 1104 1278 1105 1289 1106 1300 C 1107 1311 1108 1324 1108 1339 C 1108 1359 1104 1377 1097 1392 C 1090 1407 1075 1415 1053 1415 C 1028 1415 1011 1402 1003 1378 C 995 1354 991 1320 991 1276 C 991 1257 991 1239 992 1223 C 993 1206 994 1190 995 1176 L 1530 1176 Z M 682 1176 L 682 1348 C 664 1371 647 1388 630 1399 C 612 1409 592 1415 569 1415 C 541 1415 517 1408 495 1396 C 473 1383 463 1363 463 1337 C 463 1309 463 1282 465 1254 C 467 1226 468 1200 469 1176 L 682 1176 Z" unicode="ﬃ" />
<glyph horiz-adv-x="1628" d="M 1532 0 L 1208 0 L 1208 1350 C 1194 1364 1179 1379 1164 1393 C 1148 1407 1125 1415 1094 1415 C 1057 1415 1030 1406 1014 1390 C 997 1374 989 1353 989 1329 C 989 1296 989 1268 991 1246 C 993 1224 994 1200 995 1176 L 1149 1176 L 1149 954 L 1006 954 L 1006 0 L 682 0 L 682 954 L 479 954 L 479 0 L 156 0 L 156 954 L 0 954 L 0 1176 L 156 1176 L 156 1294 C 156 1387 186 1461 247 1515 C 308 1569 391 1597 496 1597 C 560 1597 615 1592 661 1583 C 707 1573 748 1554 784 1526 C 801 1540 829 1555 869 1572 C 909 1588 960 1597 1022 1597 C 1054 1597 1089 1595 1127 1592 C 1165 1589 1198 1583 1227 1573 L 1532 1573 L 1532 0 Z M 682 1176 L 682 1348 C 664 1371 647 1388 630 1399 C 612 1409 592 1415 569 1415 C 541 1415 517 1408 495 1396 C 473 1383 463 1363 463 1337 C 463 1309 463 1282 465 1254 C 467 1226 468 1200 469 1176 L 682 1176 Z" unicode="ﬄ" />
</font>
</defs>
</svg>
