<?xml version="1.0" encoding="utf-8" ?><svg version="1.1" xmlns = 'http://www.w3.org/2000/svg'><defs><font id='web' horiz-adv-x="1000">
<font-face font-family="web" descent="-510" cap-height="1406" units-per-em="2048" bbox="-838,-508,2375,2091" x-height="938" ascent="1538" />
<missing-glyph horiz-adv-x="995" d="M 995 1396 L 995 0 L 0 0 L 0 1396 L 995 1396 Z M 898 98 L 898 1299 L 98 1299 L 98 98 L 898 98 Z M 437 455 L 435 488 C 435 576 448 639 476 675 C 503 711 527 739 549 759 C 589 800 615 831 627 853 C 639 874 645 898 645 926 C 645 976 630 1015 600 1044 C 570 1073 536 1088 498 1088 C 456 1088 421 1073 392 1045 C 363 1017 345 970 337 904 L 241 919 C 251 1009 280 1076 328 1120 C 376 1164 434 1186 503 1186 C 572 1186 630 1164 676 1120 C 722 1076 745 1014 745 935 C 745 891 737 852 721 820 C 705 787 672 747 624 700 C 575 656 546 621 538 594 C 530 566 526 522 526 460 L 437 455 Z M 416 291 C 416 310 422 326 436 340 C 449 354 465 361 485 361 C 504 361 520 354 534 340 C 548 326 555 310 555 291 C 555 271 548 254 534 241 C 520 228 504 222 485 222 C 465 222 449 228 436 241 C 422 254 416 271 416 291 Z" /><glyph horiz-adv-x="483" d="" unicode="	" />
<glyph horiz-adv-x="483" d="" unicode=" " />
<glyph horiz-adv-x="564" d="M 254 399 L 364 1347 L 598 1361 L 605 1353 L 318 400 L 254 399 Z M 240 210 C 278 210 308 199 328 177 C 348 155 359 127 359 92 C 359 56 347 27 325 5 C 302 -16 273 -28 238 -28 C 204 -28 177 -16 157 5 C 137 27 127 56 127 92 C 127 127 138 155 160 177 C 182 199 209 210 240 210 Z" unicode="!" />
<glyph horiz-adv-x="706" d="M 250 1487 L 436 1487 L 265 1002 L 200 1002 L 250 1487 Z M 570 1487 L 756 1487 L 585 1002 L 520 1002 L 570 1487 Z" unicode="&#x22;" />
<glyph horiz-adv-x="1130" d="M 276 -10 L 159 -10 L 245 381 L 44 381 L 52 496 L 271 496 L 336 787 L 135 787 L 143 902 L 361 902 L 448 1294 L 565 1294 L 478 902 L 767 902 L 854 1294 L 970 1294 L 884 902 L 1086 902 L 1078 787 L 858 787 L 794 496 L 995 496 L 987 381 L 768 381 L 682 -10 L 565 -10 L 651 381 L 362 381 L 276 -10 Z M 388 496 L 677 496 L 742 787 L 453 787 L 388 496 Z" unicode="#" />
<glyph horiz-adv-x="901" d="M 350 -151 L 275 -159 L 302 -25 C 191 -23 82 -7 -26 23 L -30 31 L 66 321 L 102 328 L 119 81 C 184 62 250 52 318 52 L 401 459 C 295 499 222 542 184 588 C 146 633 127 688 127 753 C 127 835 164 905 238 963 C 312 1021 407 1054 524 1063 L 547 1174 L 620 1182 L 596 1065 C 687 1064 786 1052 892 1030 L 897 1023 L 800 762 L 767 756 L 746 966 C 702 980 647 988 581 988 L 503 607 C 611 565 687 520 731 472 C 774 424 796 368 796 304 C 796 209 756 132 678 73 C 599 13 498 -19 375 -25 L 350 -151 Z M 633 245 C 633 285 619 320 593 350 C 566 379 524 406 468 431 L 392 55 C 463 63 521 83 566 115 C 610 147 633 191 633 245 Z M 287 812 C 287 767 300 732 326 706 C 352 680 389 656 437 635 L 508 984 C 438 976 384 957 345 927 C 306 897 287 859 287 812 Z" unicode="$" />
<glyph horiz-adv-x="1687" d="M 292 916 C 292 843 302 788 323 750 C 344 712 376 693 420 693 C 449 693 476 702 502 720 C 528 738 550 761 570 791 C 589 820 605 853 617 891 C 629 929 639 967 647 1006 C 655 1045 660 1083 663 1120 C 666 1157 668 1190 668 1218 C 668 1288 657 1341 635 1377 C 613 1413 580 1431 536 1431 C 506 1431 478 1422 453 1405 C 428 1387 406 1364 388 1336 C 369 1307 353 1274 341 1238 C 329 1202 319 1164 312 1126 C 304 1088 299 1050 296 1014 C 293 977 292 944 292 916 Z M 808 1186 C 808 1142 804 1098 796 1054 C 788 1010 777 967 763 927 C 748 886 730 848 708 813 C 686 778 660 748 631 722 C 602 696 570 675 535 661 C 499 646 460 639 418 639 C 336 639 271 665 223 717 C 175 769 151 844 151 941 C 151 985 154 1029 162 1073 C 170 1117 181 1159 196 1199 C 211 1239 230 1277 252 1312 C 274 1347 299 1377 328 1403 C 357 1428 389 1448 425 1463 C 460 1477 499 1485 541 1485 C 624 1485 689 1459 737 1407 C 784 1355 808 1282 808 1186 Z M 235 0 L 1459 1477 L 1522 1430 L 297 -47 L 235 0 Z M 1121 258 C 1121 185 1131 130 1152 92 C 1173 54 1205 35 1249 35 C 1278 35 1305 44 1331 62 C 1357 80 1379 103 1399 133 C 1418 162 1434 195 1446 233 C 1458 271 1468 309 1476 348 C 1484 387 1489 425 1492 462 C 1495 499 1497 532 1497 560 C 1497 630 1486 683 1464 719 C 1442 755 1409 773 1365 773 C 1335 773 1307 764 1282 747 C 1257 729 1235 706 1217 678 C 1198 649 1182 616 1170 580 C 1158 544 1148 506 1141 468 C 1133 430 1128 392 1125 356 C 1122 319 1121 286 1121 258 Z M 1637 528 C 1637 484 1633 440 1625 396 C 1617 352 1606 309 1592 269 C 1577 228 1559 190 1537 155 C 1515 120 1489 90 1460 64 C 1431 38 1399 17 1364 3 C 1328 -11 1289 -19 1247 -19 C 1165 -19 1100 7 1052 59 C 1004 111 980 186 980 283 C 980 327 983 371 991 415 C 999 459 1010 501 1025 541 C 1040 581 1059 619 1081 654 C 1103 689 1128 719 1157 745 C 1186 770 1218 790 1254 805 C 1289 819 1328 827 1370 827 C 1453 827 1518 801 1566 749 C 1613 697 1637 624 1637 528 Z" unicode="%" />
<glyph horiz-adv-x="1501" d="M 738 415 C 719 443 710 473 710 503 C 710 563 743 618 809 668 C 875 718 949 743 1030 743 C 1063 743 1096 739 1129 733 C 1161 727 1193 720 1225 712 C 1255 704 1283 697 1311 691 C 1339 685 1365 682 1390 682 C 1437 682 1489 709 1546 765 L 1577 737 C 1531 664 1492 616 1459 592 C 1425 568 1389 556 1351 556 C 1309 556 1242 569 1149 597 L 1147 593 C 1175 546 1190 492 1190 432 C 1190 369 1174 309 1144 253 C 1114 196 1072 146 1018 104 C 964 61 901 27 828 2 C 754 -23 674 -36 588 -36 C 434 -36 310 1 214 77 C 118 153 70 253 70 377 C 70 475 101 559 163 627 C 225 695 317 744 441 773 L 441 779 C 353 849 309 932 309 1030 C 309 1134 353 1218 443 1283 C 533 1347 646 1380 783 1380 C 875 1380 966 1368 1054 1346 L 1060 1339 L 959 1058 L 919 1051 L 897 1279 C 857 1293 813 1300 767 1300 C 687 1300 621 1276 570 1230 C 518 1183 493 1119 493 1039 C 493 904 572 821 730 791 L 714 731 C 685 736 651 739 612 739 C 508 739 426 708 364 647 C 302 586 271 508 271 412 C 271 312 306 231 377 169 C 448 107 541 77 656 77 C 714 77 770 85 824 103 C 878 121 925 145 966 177 C 1007 209 1040 246 1064 290 C 1088 334 1101 382 1101 435 C 1101 473 1096 506 1086 534 C 1076 561 1063 583 1048 601 C 1033 618 1017 631 999 639 C 981 647 963 651 947 651 C 912 651 886 641 868 622 C 850 602 842 581 842 557 C 842 527 852 499 874 473 L 872 465 C 830 445 785 429 738 415 Z" unicode="&#x26;" />
<glyph horiz-adv-x="386" d="M 250 1487 L 436 1487 L 265 1002 L 200 1002 L 250 1487 Z" unicode="'" />
<glyph horiz-adv-x="751" d="M 428 -376 C 232 -166 135 85 135 379 C 135 855 362 1252 817 1570 L 858 1527 C 484 1199 298 802 298 335 C 298 59 356 -167 472 -343 L 428 -376 Z" unicode="(" />
<glyph horiz-adv-x="755" d="M 372 1570 C 567 1360 665 1108 665 815 C 665 338 437 -58 -17 -376 L -58 -333 C 315 -5 502 391 502 859 C 501 1135 443 1361 328 1537 L 372 1570 Z" unicode=")" />
<glyph horiz-adv-x="887" d="M 743 1410 L 619 1115 L 924 1183 L 943 1037 L 623 1063 L 781 797 L 648 733 L 575 1043 L 369 809 L 268 916 L 541 1083 L 256 1206 L 326 1336 L 569 1127 L 598 1438 L 743 1410 Z" unicode="*" />
<glyph horiz-adv-x="1130" d="M 83 522 L 495 522 L 495 934 L 616 934 L 616 522 L 1027 522 L 1027 401 L 616 401 L 616 -10 L 495 -10 L 495 401 L 83 401 L 83 522 Z" unicode="+" />
<glyph horiz-adv-x="524" d="M -39 -234 C 71 -154 126 -73 126 7 C 126 63 98 109 42 143 C 44 180 57 210 81 233 C 104 255 133 267 167 267 C 203 267 232 254 254 228 C 276 202 288 167 288 123 C 288 -21 190 -155 -6 -279 L -39 -234 Z" unicode="," />
<glyph horiz-adv-x="693" d="M 94 562 L 620 562 L 593 432 L 67 432 L 94 562 Z" unicode="-" />
<glyph horiz-adv-x="524" d="M 172 210 C 210 210 240 199 260 177 C 280 155 291 127 291 92 C 291 56 279 27 257 5 C 234 -16 205 -28 170 -28 C 136 -28 109 -16 89 5 C 69 27 59 56 59 92 C 59 127 70 155 92 177 C 114 199 141 210 172 210 Z" unicode="." />
<glyph horiz-adv-x="805" d="M 50 -226 L 655 1426 L 775 1426 L 170 -226 L 50 -226 Z" unicode="/" />
<glyph horiz-adv-x="1103" d="M 603 950 C 727 950 827 912 903 837 C 979 761 1017 659 1017 531 C 1017 368 969 234 873 130 C 777 26 655 -26 507 -26 C 380 -26 279 11 204 87 C 129 162 92 262 92 387 C 92 552 139 687 235 792 C 331 897 453 950 603 950 Z M 591 872 C 501 872 427 823 371 727 C 315 630 287 513 287 377 C 287 278 307 199 348 140 C 389 81 446 52 519 52 C 609 52 682 100 738 196 C 794 292 822 409 822 547 C 822 649 801 728 759 786 C 717 843 661 872 591 872 Z" unicode="0" />
<glyph horiz-adv-x="630" d="M 117 842 L 120 884 C 251 904 382 926 514 950 L 521 942 C 491 825 465 705 441 581 L 393 327 C 375 239 362 168 354 114 C 350 94 357 82 373 78 L 523 37 L 519 -3 C 399 -1 308 0 246 0 C 184 0 94 -1 -24 -3 L -20 37 L 142 78 C 158 82 169 93 173 110 C 185 164 197 224 209 290 L 243 466 C 268 600 289 718 307 822 L 117 842 Z" unicode="1" />
<glyph horiz-adv-x="942" d="M 813 314 L 856 322 L 776 4 L 768 -3 C 660 -1 528 0 371 0 C 201 0 74 -1 -10 -3 L -3 76 C 103 144 195 204 271 257 C 347 309 410 358 459 402 C 507 446 543 488 566 527 C 588 566 600 606 600 647 C 600 701 582 744 546 776 C 510 807 465 823 411 823 C 338 823 261 801 181 759 L 151 823 C 265 907 381 950 497 950 C 584 950 657 925 717 876 C 776 826 806 763 806 687 C 806 642 794 599 771 559 C 747 518 712 477 664 435 C 616 393 557 350 485 304 C 413 258 329 208 233 154 L 233 149 L 707 149 L 813 314 Z" unicode="2" />
<glyph horiz-adv-x="935" d="M 221 332 C 343 345 445 379 525 434 C 605 489 645 559 645 644 C 645 698 625 743 587 778 C 548 812 497 830 433 830 C 345 830 254 804 159 754 L 133 820 C 269 906 402 950 532 950 C 628 950 705 926 762 879 C 818 832 847 774 847 704 C 847 619 811 546 741 486 C 671 426 582 379 475 346 L 475 342 C 571 345 651 321 715 270 C 779 219 811 148 811 58 C 811 0 799 -53 775 -101 C 751 -149 718 -193 676 -231 C 634 -269 584 -303 526 -331 C 468 -359 406 -383 339 -402 C 271 -421 200 -435 126 -445 C 51 -455 -23 -460 -99 -460 L -95 -386 C -33 -384 26 -380 84 -372 C 142 -364 198 -352 250 -337 C 302 -322 350 -303 394 -281 C 438 -258 476 -231 508 -201 C 540 -171 564 -136 582 -97 C 600 -58 609 -15 609 33 C 609 108 587 167 545 209 C 503 251 442 272 362 272 C 311 272 261 267 213 259 L 221 332 Z" unicode="3" />
<glyph horiz-adv-x="1062" d="M 594 155 L 657 493 L 836 508 L 769 155 L 987 155 L 969 37 C 899 39 825 40 748 40 L 718 -117 C 710 -157 702 -200 694 -247 C 685 -294 677 -345 669 -400 C 609 -406 550 -415 491 -426 L 483 -418 C 494 -366 504 -316 513 -269 C 522 -221 531 -176 540 -133 L 573 40 L 336 40 C 292 40 244 39 192 39 C 139 39 82 38 20 37 L 27 110 C 93 186 160 262 228 338 C 296 414 364 487 431 559 C 497 631 562 699 625 764 C 688 829 747 889 803 943 L 933 950 L 937 938 C 901 903 861 864 819 821 C 777 777 733 732 688 685 C 643 638 598 590 552 542 C 506 493 462 445 419 399 C 376 353 335 309 297 267 C 258 225 224 187 194 155 L 594 155 Z" unicode="4" />
<glyph horiz-adv-x="952" d="M -95 -458 L -91 -384 C 9 -382 102 -370 189 -349 C 275 -327 350 -297 414 -259 C 477 -221 527 -175 563 -121 C 599 -67 618 -6 618 62 C 618 156 583 232 515 290 C 446 348 325 385 152 403 L 147 410 L 294 928 C 364 925 459 924 577 924 C 716 924 823 925 897 928 L 900 920 L 847 759 L 339 773 L 271 544 C 449 526 585 480 678 404 C 771 328 818 229 818 109 C 818 49 806 -5 784 -56 C 762 -107 730 -153 690 -195 C 649 -237 600 -274 544 -306 C 488 -338 426 -366 359 -388 C 291 -410 219 -427 142 -439 C 65 -451 -13 -457 -95 -458 Z" unicode="5" />
<glyph horiz-adv-x="1108" d="M 1105 1322 C 743 1284 494 1084 358 722 L 360 721 C 442 809 543 853 663 853 C 766 853 850 820 916 755 C 982 689 1015 605 1015 501 C 1015 359 964 235 863 131 C 762 26 639 -26 494 -26 C 369 -26 273 13 206 91 C 139 169 106 277 106 413 C 106 483 115 555 134 629 C 153 703 181 775 219 845 C 257 915 304 982 360 1045 C 416 1108 480 1164 554 1213 C 628 1262 710 1302 802 1334 C 893 1366 993 1385 1101 1393 L 1105 1322 Z M 815 491 C 813 577 793 644 755 692 C 716 740 661 764 591 764 C 502 764 429 725 373 649 C 317 573 289 476 289 358 C 289 262 307 187 345 132 C 383 77 436 50 505 50 C 596 50 670 93 728 180 C 786 266 815 370 815 491 Z" unicode="6" />
<glyph horiz-adv-x="990" d="M 72 -403 L 835 773 L 233 773 L 142 575 L 100 568 L 150 920 L 159 928 C 233 926 306 925 377 925 C 447 924 517 924 585 924 L 648 924 C 716 924 782 924 845 925 C 907 925 968 926 1027 928 L 1023 885 C 976 813 929 740 881 665 C 833 589 785 513 738 436 C 691 359 645 283 600 207 C 555 131 512 58 472 -13 C 431 -85 393 -153 358 -219 C 322 -284 291 -344 264 -400 L 76 -410 L 72 -403 Z" unicode="7" />
<glyph horiz-adv-x="1099" d="M 264 1025 C 264 1121 305 1203 389 1271 C 472 1338 577 1372 704 1372 C 811 1372 899 1346 967 1296 C 1035 1246 1070 1182 1070 1105 C 1070 1027 1039 957 977 896 C 915 834 831 782 725 740 C 829 674 902 613 945 556 C 988 499 1010 437 1010 369 C 1010 255 960 161 861 86 C 761 11 639 -26 495 -26 C 367 -26 264 3 185 61 C 106 119 67 196 67 293 C 67 385 100 462 166 526 C 232 589 332 648 468 702 C 398 748 346 797 313 848 C 280 899 264 958 264 1025 Z M 252 314 C 252 239 277 177 328 128 C 378 78 444 54 524 54 C 603 54 671 78 728 126 C 784 174 813 236 813 313 C 813 375 794 432 756 484 C 718 536 641 596 525 665 C 421 619 350 569 311 513 C 271 457 252 391 252 314 Z M 891 1092 C 891 1156 871 1206 831 1241 C 791 1275 738 1293 672 1293 C 600 1293 542 1272 500 1230 C 457 1188 436 1134 436 1066 C 436 1010 456 960 496 915 C 536 869 590 825 660 782 C 814 852 891 955 891 1092 Z" unicode="8" />
<glyph horiz-adv-x="1108" d="M 20 -387 C 387 -348 636 -152 767 202 L 765 203 C 683 115 582 71 462 71 C 358 71 273 103 208 168 C 142 233 110 318 110 423 C 110 567 161 690 263 794 C 365 898 488 950 631 950 C 753 950 848 911 916 835 C 984 758 1019 650 1019 511 C 1019 440 1009 368 990 295 C 971 222 943 151 905 82 C 867 12 821 -53 765 -115 C 709 -177 644 -233 570 -281 C 496 -329 414 -369 323 -400 C 231 -431 132 -450 24 -458 L 20 -387 Z M 310 433 C 311 346 331 279 370 231 C 408 183 463 160 534 160 C 622 160 695 197 751 273 C 807 348 836 446 836 566 C 836 664 816 739 778 793 C 739 847 686 874 620 874 C 529 874 455 831 397 745 C 339 659 310 555 310 433 Z" unicode="9" />
<glyph horiz-adv-x="524" d="M 219 210 C 257 210 287 199 307 177 C 327 155 338 127 338 92 C 338 56 326 27 304 5 C 281 -16 252 -28 217 -28 C 183 -28 156 -16 136 5 C 116 27 106 56 106 92 C 106 127 117 155 139 177 C 161 199 188 210 219 210 Z M 360 913 C 398 913 428 902 448 880 C 468 858 479 830 479 795 C 479 759 467 730 445 708 C 422 686 393 675 358 675 C 324 675 297 686 277 708 C 257 730 247 759 247 795 C 247 830 258 858 280 880 C 302 902 329 913 360 913 Z" unicode=":" />
<glyph horiz-adv-x="524" d="M 51 -234 C 161 -154 216 -73 216 7 C 216 63 188 109 132 143 C 134 180 147 210 171 233 C 194 255 223 267 257 267 C 293 267 322 254 344 228 C 366 202 378 167 378 123 C 378 -21 280 -155 84 -279 L 51 -234 Z M 360 913 C 398 913 428 902 448 880 C 468 858 479 830 479 795 C 479 759 467 730 445 708 C 422 686 393 675 358 675 C 324 675 297 686 277 708 C 257 730 247 759 247 795 C 247 830 258 858 280 880 C 302 902 329 913 360 913 Z" unicode=";" />
<glyph horiz-adv-x="1130" d="M 83 522 L 1027 922 L 1027 795 L 228 461 L 1027 128 L 1027 1 L 83 401 L 83 522 Z" unicode="&#x3C;" />
<glyph horiz-adv-x="1130" d="M 83 692 L 1027 692 L 1027 571 L 83 571 L 83 692 Z M 83 352 L 1027 352 L 1027 231 L 83 231 L 83 352 Z" unicode="=" />
<glyph horiz-adv-x="1130" d="M 1027 401 L 83 1 L 83 128 L 882 461 L 83 795 L 83 922 L 1027 522 L 1027 401 Z" unicode="&#x3E;" />
<glyph horiz-adv-x="890" d="M 433 386 C 337 475 290 546 290 599 C 290 622 296 645 308 667 C 320 689 337 711 358 733 C 378 755 402 776 428 798 C 454 819 481 840 509 862 C 545 890 578 915 606 939 C 634 962 658 985 678 1007 C 697 1029 712 1051 722 1074 C 732 1096 737 1121 737 1148 C 737 1198 721 1237 691 1265 C 661 1292 618 1306 564 1306 C 515 1306 466 1296 416 1277 L 314 1049 L 273 1042 L 273 1323 C 395 1366 505 1388 605 1388 C 701 1388 777 1367 831 1327 C 885 1286 913 1226 913 1146 C 913 1103 905 1064 889 1028 C 873 992 853 958 828 928 C 802 897 774 868 742 841 C 710 814 679 788 647 764 C 619 742 593 722 568 702 C 543 682 521 661 502 641 C 482 621 467 600 455 579 C 443 558 438 536 438 514 C 438 484 449 451 472 416 L 433 386 Z M 335 210 C 373 210 403 199 423 177 C 443 155 454 127 454 92 C 454 56 442 27 420 5 C 397 -16 368 -28 333 -28 C 299 -28 272 -16 252 5 C 232 27 222 56 222 92 C 222 127 233 155 255 177 C 277 199 304 210 335 210 Z" unicode="?" />
<glyph horiz-adv-x="1727" d="M 968 186 C 851 90 770 43 726 43 C 656 43 598 69 552 122 C 506 175 484 246 484 335 C 484 486 531 613 625 716 C 719 818 834 870 970 870 C 1021 870 1082 859 1154 838 C 1191 845 1224 854 1254 866 L 1266 859 C 1256 825 1245 783 1233 734 C 1221 685 1209 628 1196 562 L 1133 253 C 1129 233 1127 217 1127 205 C 1127 161 1143 140 1176 140 C 1189 140 1207 144 1229 152 C 1251 160 1276 172 1302 190 C 1328 208 1354 230 1381 258 C 1407 286 1431 319 1453 358 C 1474 397 1491 442 1505 493 C 1519 544 1526 602 1526 667 C 1526 811 1480 926 1388 1011 C 1296 1096 1175 1139 1025 1139 C 798 1139 610 1062 461 910 C 312 758 238 568 238 340 C 238 164 291 19 397 -92 C 503 -204 642 -261 816 -261 C 1058 -261 1272 -177 1458 -10 L 1494 -58 C 1401 -150 1290 -223 1160 -278 C 1030 -333 896 -361 758 -361 C 555 -361 392 -297 268 -171 C 144 -45 83 117 83 317 C 83 565 175 776 359 950 C 543 1124 768 1212 1032 1212 C 1210 1212 1354 1162 1465 1064 C 1576 966 1632 836 1632 675 C 1632 606 1623 543 1607 485 C 1590 427 1568 375 1540 328 C 1512 281 1480 240 1444 204 C 1408 168 1371 139 1333 115 C 1295 91 1257 72 1219 60 C 1181 48 1146 42 1115 42 C 1071 42 1035 54 1009 80 C 983 105 969 140 968 186 Z M 1080 766 C 1038 788 996 799 956 799 C 875 799 804 756 744 670 C 683 584 653 486 653 376 C 653 311 664 259 688 220 C 712 181 743 162 783 162 C 819 162 883 193 975 257 L 1080 766 Z" unicode="@" />
<glyph horiz-adv-x="1353" d="M 299 42 L 292 -3 C 208 -1 130 0 58 0 C -14 0 -79 -1 -138 -3 L -134 40 L -33 71 C -17 76 -3 83 8 91 C 20 99 31 109 41 119 C 51 129 59 139 67 150 C 74 161 81 172 88 183 L 808 1406 L 906 1421 L 1117 198 C 1123 152 1132 121 1144 104 C 1155 87 1172 75 1195 68 L 1288 40 L 1282 -3 C 1198 -1 1116 0 1036 0 C 958 0 872 -1 779 -3 L 783 40 L 878 68 C 892 72 903 78 912 86 C 921 93 926 107 926 129 C 926 150 921 190 911 249 L 867 520 L 400 520 L 248 252 C 226 214 209 182 196 156 C 182 130 176 111 176 100 C 176 93 178 87 184 82 C 189 77 198 73 210 69 L 299 42 Z M 852 608 L 762 1159 L 450 608 L 852 608 Z" unicode="A" />
<glyph horiz-adv-x="1203" d="M 269 1400 C 357 1397 441 1396 523 1396 C 543 1396 580 1397 634 1401 C 688 1404 726 1406 748 1406 C 888 1406 994 1380 1066 1329 C 1138 1277 1174 1208 1174 1120 C 1174 924 1064 802 846 754 C 1026 704 1117 602 1117 446 C 1117 301 1061 189 949 111 C 837 33 690 -6 506 -6 C 472 -6 435 -5 393 -3 C 351 -1 307 0 259 0 C 178 0 96 -1 14 -3 L 18 40 L 143 77 C 161 82 172 92 177 108 C 182 134 188 164 195 197 C 201 230 209 267 217 307 L 372 1118 C 378 1152 384 1182 389 1210 C 393 1237 397 1262 401 1284 C 404 1300 398 1312 384 1318 L 263 1357 L 269 1400 Z M 481 702 L 366 87 C 401 76 449 71 510 71 C 638 71 735 101 802 161 C 869 221 903 310 903 426 C 903 516 876 585 824 633 C 772 681 696 706 596 706 C 558 706 519 704 481 702 Z M 497 779 C 527 777 559 777 594 777 C 721 777 816 803 879 856 C 942 909 974 989 974 1097 C 974 1170 950 1226 902 1265 C 854 1304 784 1324 691 1324 C 661 1324 631 1321 599 1317 L 497 779 Z" unicode="B" />
<glyph horiz-adv-x="1320" d="M 1255 1051 L 1214 1045 L 1191 1310 C 1124 1329 1051 1339 972 1339 C 785 1339 631 1264 510 1116 C 388 968 328 790 328 582 C 328 426 372 304 462 216 C 551 128 673 84 828 84 C 928 84 1033 103 1142 141 L 1154 100 C 1019 13 871 -30 711 -30 C 531 -30 387 23 279 131 C 171 239 117 382 117 562 C 117 814 202 1020 372 1181 C 542 1342 755 1423 1012 1423 C 1122 1423 1240 1409 1366 1382 L 1371 1374 L 1255 1051 Z" unicode="C" />
<glyph horiz-adv-x="1537" d="M 259 0 C 178 0 96 -1 14 -3 L 18 40 L 143 77 C 163 82 174 92 177 108 C 182 134 188 164 195 197 C 201 230 209 267 217 307 L 372 1118 C 378 1152 384 1182 389 1210 C 393 1237 397 1262 401 1284 C 404 1300 398 1312 384 1318 L 263 1357 L 269 1400 C 357 1397 441 1396 523 1396 C 562 1396 614 1397 679 1401 C 744 1404 799 1406 844 1406 C 1042 1406 1197 1360 1308 1270 C 1418 1179 1474 1048 1474 877 C 1474 614 1391 401 1227 238 C 1062 75 841 -6 565 -6 C 529 -6 479 -5 414 -3 C 348 -1 297 0 259 0 Z M 368 86 C 430 76 504 72 590 72 C 794 72 958 149 1080 303 C 1202 457 1264 650 1264 882 C 1264 1030 1226 1140 1152 1214 C 1078 1287 964 1324 811 1324 C 751 1324 681 1321 601 1316 L 368 86 Z" unicode="D" />
<glyph horiz-adv-x="1166" d="M 520 1396 L 740 1396 C 889 1396 1047 1397 1214 1400 L 1219 1392 L 1106 1083 L 1064 1076 L 1045 1309 L 600 1309 L 495 756 L 596 756 C 644 756 710 756 796 757 C 814 758 827 767 835 784 L 897 920 L 951 922 C 930 826 915 755 907 711 C 899 667 887 601 872 511 L 818 507 L 807 645 C 805 662 797 671 782 672 C 723 673 655 674 579 674 L 479 674 L 410 309 C 396 235 382 161 370 88 L 837 88 L 997 344 L 1046 352 L 963 4 L 956 -3 C 784 -1 624 0 478 0 L 259 0 C 178 0 96 -1 14 -3 L 18 40 L 143 77 C 161 81 172 92 177 108 C 182 134 188 164 195 197 C 201 230 209 267 217 307 L 372 1118 C 378 1152 384 1182 389 1210 C 393 1237 397 1262 401 1284 C 404 1301 398 1312 384 1318 L 263 1357 L 269 1400 C 357 1397 440 1396 520 1396 Z" unicode="E" />
<glyph horiz-adv-x="1082" d="M 409 307 C 394 228 382 163 374 113 C 372 97 378 86 394 82 L 532 40 L 525 -3 C 426 -1 337 0 259 0 C 179 0 97 -1 14 -3 L 18 40 L 143 77 C 162 82 173 92 177 108 C 189 162 202 228 217 307 L 372 1118 C 378 1152 384 1182 389 1210 C 393 1237 397 1262 401 1284 C 404 1301 398 1312 384 1318 L 263 1357 L 269 1400 C 357 1397 440 1396 520 1396 L 740 1396 C 889 1396 1047 1397 1214 1400 L 1219 1392 L 1106 1083 L 1064 1076 L 1045 1309 L 600 1309 L 491 735 L 565 735 C 634 735 712 735 798 736 C 816 737 828 746 836 763 L 903 899 L 952 901 C 932 807 918 738 910 694 C 901 650 889 582 874 490 L 825 486 L 809 624 C 806 641 798 650 784 651 C 696 652 618 653 548 653 L 475 653 L 409 307 Z" unicode="F" />
<glyph horiz-adv-x="1387" d="M 1253 1051 L 1212 1045 L 1188 1310 C 1125 1329 1055 1339 978 1339 C 786 1339 629 1265 508 1118 C 386 970 326 793 326 586 C 326 431 367 303 451 202 C 534 101 644 51 780 51 C 827 51 876 56 928 68 L 979 340 C 986 374 992 404 996 431 C 1000 458 1005 483 1010 506 C 1010 522 1004 534 992 540 L 871 579 L 877 622 C 965 619 1048 618 1125 618 C 1205 618 1281 619 1354 622 L 1350 579 L 1240 546 C 1222 541 1211 531 1207 516 C 1201 489 1196 462 1190 434 C 1184 406 1178 376 1172 344 L 1111 27 L 1104 20 C 979 -13 858 -30 741 -30 C 545 -30 392 21 281 124 C 169 226 114 370 114 555 C 114 812 198 1021 366 1182 C 534 1342 751 1423 1018 1423 C 1130 1423 1245 1409 1364 1382 L 1369 1374 L 1253 1051 Z" unicode="G" />
<glyph horiz-adv-x="1597" d="M 483 694 L 409 307 C 394 228 382 162 373 109 C 370 91 377 79 393 75 L 500 40 L 494 -3 C 414 -1 335 0 257 0 C 178 0 97 -1 14 -3 L 18 40 L 143 77 C 162 82 173 92 177 108 C 189 162 202 228 217 307 L 372 1118 C 384 1184 394 1240 401 1284 C 404 1301 398 1312 384 1318 L 263 1357 L 269 1400 C 357 1397 439 1396 516 1396 C 596 1396 676 1397 755 1400 L 751 1357 L 631 1322 C 613 1318 603 1307 599 1291 C 588 1243 576 1186 564 1122 L 500 784 L 1213 784 L 1277 1122 C 1289 1186 1300 1243 1308 1291 C 1310 1307 1304 1318 1288 1322 L 1181 1357 L 1187 1400 C 1269 1397 1349 1396 1428 1396 C 1506 1396 1585 1397 1667 1400 L 1663 1357 L 1533 1318 C 1517 1312 1507 1301 1503 1284 C 1493 1240 1481 1184 1469 1118 L 1314 307 C 1300 228 1288 162 1279 108 C 1277 92 1283 82 1299 77 L 1418 40 L 1412 -3 C 1322 -1 1238 0 1161 0 C 1081 0 1003 -1 928 -3 L 932 40 L 1049 75 C 1067 79 1078 91 1082 109 C 1094 162 1107 228 1122 307 L 1196 694 L 483 694 Z" unicode="H" />
<glyph horiz-adv-x="692" d="M 409 307 C 401 267 394 230 388 198 C 382 165 377 135 373 109 C 371 92 380 81 401 75 L 513 40 L 506 -3 C 418 -1 336 0 260 0 C 178 0 96 -1 14 -3 L 18 40 L 143 77 C 161 81 172 92 177 108 C 182 134 188 164 195 197 C 201 230 209 267 217 307 L 372 1118 C 378 1152 384 1182 389 1210 C 393 1237 397 1262 401 1284 C 404 1301 398 1312 384 1318 L 263 1357 L 269 1400 C 357 1397 440 1396 519 1396 C 597 1396 678 1397 762 1400 L 757 1357 L 630 1320 C 613 1316 603 1305 599 1289 C 593 1265 587 1240 582 1212 C 576 1184 570 1154 564 1122 L 409 307 Z" unicode="I" />
<glyph horiz-adv-x="638" d="M 255 1400 C 343 1397 426 1396 506 1396 C 583 1396 663 1397 747 1400 L 743 1357 L 616 1320 C 599 1316 588 1305 584 1289 C 578 1265 573 1240 567 1212 C 561 1184 556 1154 550 1122 L 378 216 C 365 150 351 91 335 37 C 319 -16 302 -64 282 -106 C 262 -148 237 -185 208 -218 C 178 -251 144 -280 104 -306 C 64 -332 18 -354 -35 -374 C -89 -393 -149 -410 -216 -426 L -228 -377 C -153 -347 -92 -315 -46 -280 C 0 -244 37 -204 66 -159 C 95 -113 118 -62 134 -6 C 150 50 165 114 179 186 L 358 1118 C 364 1152 369 1182 374 1210 C 379 1237 383 1262 387 1284 C 389 1301 383 1312 369 1318 L 248 1357 L 255 1400 Z" unicode="J" />
<glyph horiz-adv-x="1344" d="M 564 1122 L 409 307 C 401 267 394 230 388 198 C 382 165 377 135 373 109 C 371 91 377 80 393 75 L 502 40 L 496 -3 C 414 -1 335 0 259 0 C 178 0 96 -1 14 -3 L 18 40 L 143 77 C 162 82 173 92 177 108 C 182 134 188 164 195 197 C 201 230 209 267 217 307 L 372 1118 C 378 1152 384 1182 389 1210 C 393 1237 397 1262 401 1284 C 404 1301 398 1312 384 1318 L 263 1357 L 269 1400 C 357 1397 440 1396 520 1396 C 597 1396 674 1397 751 1400 L 747 1357 L 631 1322 C 614 1318 603 1307 599 1291 C 594 1267 589 1241 583 1213 C 577 1185 570 1154 564 1122 Z M 513 713 L 986 1157 C 1022 1192 1052 1222 1076 1246 C 1100 1270 1113 1290 1117 1305 C 1119 1318 1112 1327 1096 1332 L 1017 1354 L 1023 1400 C 1090 1397 1166 1396 1251 1396 C 1327 1396 1399 1397 1465 1400 L 1461 1357 L 1358 1325 C 1326 1315 1296 1299 1268 1279 C 1240 1258 1210 1234 1178 1206 L 703 760 L 1034 171 C 1050 143 1066 121 1082 106 C 1097 91 1119 79 1149 70 L 1250 40 L 1244 -3 C 1185 -1 1113 0 1027 0 C 1004 0 982 0 962 0 C 942 0 920 -1 896 -2 C 882 46 837 136 763 269 L 513 713 Z" unicode="K" />
<glyph horiz-adv-x="1117" d="M 564 1122 L 410 309 C 396 235 382 161 370 88 L 845 88 L 1015 354 L 1064 362 L 979 4 L 972 -3 C 820 -1 671 0 525 0 L 259 0 C 178 0 96 -1 14 -3 L 18 40 L 143 77 C 161 81 172 92 177 108 C 182 134 188 164 195 197 C 201 230 209 267 217 307 L 372 1118 C 378 1152 384 1182 389 1210 C 393 1237 397 1262 401 1284 C 404 1301 398 1312 384 1318 L 263 1357 L 269 1400 C 357 1397 440 1396 520 1396 C 598 1396 678 1397 762 1400 L 757 1357 L 630 1320 C 613 1316 603 1305 599 1289 C 593 1265 585 1231 577 1187 C 568 1142 564 1120 564 1122 Z" unicode="L" />
<glyph horiz-adv-x="1827" d="M 1538 1400 C 1597 1397 1651 1396 1701 1396 C 1750 1396 1817 1397 1901 1400 L 1897 1357 L 1764 1318 C 1747 1312 1737 1301 1733 1284 C 1723 1240 1711 1184 1699 1118 L 1544 307 C 1529 228 1517 162 1508 108 C 1506 92 1513 82 1529 77 L 1644 40 L 1638 -3 C 1550 -1 1467 0 1389 0 C 1309 0 1231 -1 1155 -3 L 1159 40 L 1279 75 C 1296 79 1307 91 1312 110 C 1323 162 1336 228 1351 307 L 1517 1173 L 798 0 L 739 -5 L 467 1173 L 301 307 C 286 228 274 162 266 110 C 262 91 269 79 285 75 L 390 40 L 384 -3 C 305 -1 239 0 186 0 C 138 0 71 -1 -15 -3 L -11 40 L 118 77 C 137 82 148 92 152 108 C 164 162 177 228 192 307 L 347 1118 C 359 1184 369 1240 376 1284 C 379 1301 373 1312 359 1318 L 242 1357 L 248 1400 C 333 1397 401 1396 451 1396 C 504 1396 556 1397 607 1400 L 864 296 L 1538 1400 Z" unicode="M" />
<glyph horiz-adv-x="1487" d="M 457 1143 L 303 307 C 295 267 289 230 283 198 C 277 166 272 137 268 111 C 265 92 271 81 286 77 L 403 42 L 396 -3 C 310 -1 243 0 194 0 C 140 0 72 -1 -10 -3 L -6 40 L 119 77 C 138 82 149 92 153 108 C 159 135 165 165 172 198 C 178 230 185 267 193 307 L 343 1118 C 349 1152 354 1182 359 1210 C 363 1237 367 1262 371 1284 C 374 1302 368 1313 354 1318 L 233 1357 L 239 1400 C 283 1398 322 1397 356 1397 C 390 1396 418 1396 442 1396 C 457 1396 472 1396 488 1397 C 503 1397 518 1398 534 1400 L 1137 322 L 1289 1122 C 1295 1154 1301 1184 1306 1212 C 1311 1240 1316 1265 1320 1289 C 1322 1304 1315 1314 1299 1320 L 1184 1354 L 1190 1400 C 1234 1398 1273 1397 1307 1397 C 1341 1396 1370 1396 1395 1396 C 1421 1396 1451 1396 1485 1397 C 1519 1397 1556 1398 1597 1400 L 1593 1357 L 1463 1318 C 1447 1313 1437 1302 1433 1284 C 1427 1262 1422 1237 1417 1210 C 1411 1182 1405 1152 1399 1118 L 1186 0 L 1105 -8 L 457 1143 Z" unicode="N" />
<glyph horiz-adv-x="1595" d="M 713 -35 C 530 -35 385 15 278 116 C 170 216 117 359 117 543 C 117 788 196 997 355 1169 C 514 1341 709 1428 940 1428 C 1122 1428 1267 1378 1375 1278 C 1483 1178 1537 1035 1537 850 C 1537 602 1457 393 1298 222 C 1139 50 944 -35 713 -35 Z M 1322 877 C 1322 1024 1285 1139 1213 1223 C 1140 1306 1042 1348 920 1348 C 736 1348 592 1269 488 1111 C 383 953 331 755 331 517 C 331 371 366 255 438 171 C 510 87 608 45 733 45 C 916 45 1060 123 1165 280 C 1269 437 1322 636 1322 877 Z" unicode="O" />
<glyph horiz-adv-x="1176" d="M 478 675 C 510 667 551 663 601 663 C 731 663 831 695 899 760 C 967 825 1001 919 1001 1043 C 1001 1132 976 1201 926 1249 C 876 1297 801 1322 702 1322 C 665 1322 631 1318 600 1311 L 478 675 Z M 18 40 L 143 77 C 163 82 174 92 177 108 C 182 134 188 164 195 197 C 201 230 209 267 217 307 L 372 1118 C 378 1152 384 1182 389 1210 C 393 1237 397 1262 401 1284 C 404 1300 398 1312 384 1318 L 263 1357 L 269 1400 C 353 1397 426 1396 488 1396 C 513 1396 559 1397 625 1400 C 691 1402 738 1404 766 1404 C 904 1404 1012 1375 1091 1317 C 1170 1259 1210 1177 1210 1069 C 1210 911 1153 790 1041 706 C 929 622 785 580 610 580 C 559 580 510 584 462 592 L 407 307 C 392 227 380 162 372 111 C 370 95 376 84 392 80 L 525 40 L 519 -3 C 421 -1 333 0 256 0 C 177 0 96 -1 14 -3 L 18 40 Z" unicode="P" />
<glyph horiz-adv-x="1596" d="M 940 1428 C 1122 1428 1267 1378 1375 1278 C 1483 1178 1537 1036 1537 850 C 1537 611 1464 410 1320 246 C 1175 82 1007 -8 816 -28 C 868 -182 1002 -260 1218 -260 C 1306 -260 1384 -246 1454 -218 L 1465 -263 C 1332 -373 1226 -428 1148 -428 C 904 -428 747 -296 679 -34 C 511 -27 376 24 272 121 C 168 218 117 359 117 543 C 117 787 196 996 355 1169 C 513 1341 708 1428 940 1428 Z M 1322 877 C 1322 1024 1285 1139 1213 1223 C 1140 1306 1042 1348 920 1348 C 736 1348 592 1268 488 1110 C 383 952 331 754 331 517 C 331 371 366 255 438 171 C 510 87 608 45 733 45 C 916 45 1060 123 1165 279 C 1269 435 1322 635 1322 877 Z" unicode="Q" />
<glyph horiz-adv-x="1277" d="M 409 307 C 401 267 394 231 388 199 C 382 167 378 138 374 112 C 371 91 377 78 393 73 L 502 40 L 496 -3 C 414 -1 335 0 259 0 C 178 0 96 -1 14 -3 L 18 40 L 143 77 C 161 82 172 92 177 108 C 182 134 188 164 195 197 C 201 230 209 267 217 307 L 372 1118 C 378 1152 384 1182 389 1210 C 393 1237 397 1262 401 1284 C 405 1300 399 1312 384 1318 L 263 1357 L 269 1400 C 357 1397 441 1396 523 1396 C 532 1396 545 1396 563 1397 C 581 1398 605 1399 636 1401 C 666 1402 691 1403 711 1404 C 731 1404 745 1405 754 1405 C 896 1405 1005 1378 1080 1325 C 1155 1271 1193 1195 1193 1097 C 1193 885 1065 746 809 682 C 827 645 843 608 859 572 C 874 536 889 499 904 462 C 918 426 932 392 946 358 C 960 324 975 289 991 253 C 1003 222 1016 194 1029 170 C 1041 145 1056 124 1073 106 C 1090 88 1110 74 1134 62 C 1157 50 1186 42 1222 37 L 1215 -7 C 1172 -13 1133 -16 1099 -16 C 1058 -16 1023 -13 995 -8 C 966 -2 941 7 920 21 C 898 35 879 54 863 78 C 846 102 829 134 813 172 C 800 201 788 231 776 263 C 764 294 752 326 741 360 C 727 396 714 433 700 471 C 686 509 671 548 655 588 C 649 601 643 612 637 620 C 631 628 625 635 619 640 C 613 645 606 648 598 650 C 590 652 581 653 571 653 L 475 656 L 409 307 Z M 490 729 C 528 727 564 726 598 726 C 723 726 819 755 885 813 C 951 871 984 956 984 1069 C 984 1155 960 1218 912 1260 C 864 1302 796 1323 708 1323 C 682 1323 646 1320 601 1315 L 490 729 Z" unicode="R" />
<glyph horiz-adv-x="1043" d="M 905 1316 C 855 1332 802 1340 746 1340 C 642 1340 556 1315 488 1265 C 420 1215 387 1148 387 1066 C 387 1024 394 989 410 959 C 426 929 447 903 473 880 C 499 857 529 837 562 820 C 594 802 628 785 664 769 C 702 749 739 729 774 707 C 809 685 840 661 867 633 C 893 605 915 574 931 538 C 947 502 956 460 956 412 C 956 344 942 282 914 228 C 886 174 845 127 790 88 C 679 11 539 -27 370 -27 C 240 -27 122 -9 17 25 L 13 33 L 123 373 L 169 380 L 187 87 C 251 66 318 56 386 56 C 498 56 588 81 656 132 C 724 183 759 252 759 338 C 759 380 751 417 736 447 C 721 477 701 503 676 526 C 650 549 621 570 587 588 C 553 606 518 624 482 643 C 443 661 406 682 372 705 C 338 727 307 753 281 782 C 254 810 233 843 217 880 C 201 917 193 959 193 1006 C 193 1130 247 1231 355 1308 C 463 1384 601 1423 767 1423 C 867 1423 969 1410 1074 1385 L 1080 1378 L 968 1066 L 927 1059 L 905 1316 Z" unicode="S" />
<glyph horiz-adv-x="1232" d="M 529 0 C 447 0 355 -1 254 -3 L 264 40 L 416 84 C 434 88 444 99 448 115 C 459 165 472 230 488 309 L 678 1309 L 341 1309 L 202 1041 L 159 1034 L 198 1392 L 206 1400 C 368 1397 525 1396 675 1396 L 917 1396 C 1067 1396 1225 1397 1392 1400 L 1397 1392 L 1271 1041 L 1230 1034 L 1211 1309 L 870 1309 L 680 309 C 664 230 652 165 644 115 C 642 99 649 88 665 84 L 809 40 L 803 -3 C 697 -1 605 0 529 0 Z" unicode="T" />
<glyph horiz-adv-x="1496" d="M 234 1400 C 322 1397 404 1396 482 1396 C 562 1396 643 1397 727 1400 L 723 1357 L 596 1320 C 578 1316 568 1305 564 1289 C 558 1265 553 1240 547 1212 C 541 1184 535 1154 529 1122 L 430 597 C 414 516 407 449 407 395 C 407 291 433 210 486 154 C 539 98 616 70 718 70 C 794 70 859 81 911 105 C 963 128 1008 162 1044 208 C 1080 253 1109 310 1131 378 C 1153 446 1173 526 1191 617 L 1287 1122 C 1293 1154 1298 1184 1303 1212 C 1307 1240 1312 1265 1316 1289 C 1318 1304 1311 1314 1296 1320 L 1182 1354 L 1188 1400 C 1273 1397 1344 1396 1400 1396 C 1458 1396 1528 1397 1610 1400 L 1606 1357 L 1477 1318 C 1460 1312 1450 1300 1446 1284 C 1441 1262 1436 1237 1430 1210 C 1424 1182 1419 1152 1413 1118 L 1314 605 C 1293 501 1267 410 1236 331 C 1205 251 1165 184 1117 130 C 1068 76 1009 35 940 8 C 871 -19 789 -33 694 -33 C 538 -33 419 3 337 75 C 254 147 213 252 213 390 C 213 443 219 502 231 566 L 337 1118 C 343 1152 349 1182 354 1210 C 358 1237 363 1262 367 1284 C 370 1300 364 1312 349 1318 L 228 1357 L 234 1400 Z" unicode="U" />
<glyph horiz-adv-x="1365" d="M 1147 1400 C 1231 1397 1309 1396 1381 1396 C 1453 1396 1518 1397 1578 1400 L 1573 1357 L 1473 1325 C 1457 1320 1443 1313 1431 1305 C 1419 1297 1408 1287 1398 1277 C 1388 1267 1379 1256 1372 1246 C 1364 1235 1358 1224 1352 1214 L 635 0 L 532 -8 L 323 1198 C 314 1245 305 1277 296 1293 C 284 1309 267 1321 244 1328 L 152 1357 L 158 1400 C 242 1397 324 1396 404 1396 C 481 1396 566 1397 659 1400 L 655 1357 L 559 1328 C 543 1323 531 1316 523 1308 C 515 1300 511 1285 511 1265 C 511 1246 516 1207 527 1148 L 678 248 L 1191 1144 C 1213 1182 1230 1214 1244 1240 C 1257 1266 1264 1285 1264 1296 C 1264 1302 1261 1308 1256 1314 C 1250 1319 1242 1323 1230 1327 L 1141 1354 L 1147 1400 Z" unicode="V" />
<glyph horiz-adv-x="2055" d="M 1286 -8 L 1142 1057 L 582 0 L 487 -8 L 324 1220 C 320 1251 312 1275 302 1293 C 291 1310 274 1322 252 1329 L 161 1357 L 168 1400 C 241 1397 317 1396 397 1396 C 477 1396 568 1397 668 1400 L 664 1357 L 555 1326 C 531 1320 519 1300 519 1266 C 519 1248 523 1208 531 1148 L 638 289 L 1206 1398 L 1285 1404 L 1436 281 L 1891 1183 C 1906 1214 1917 1239 1925 1257 C 1933 1275 1937 1290 1937 1301 C 1937 1309 1934 1315 1929 1319 C 1924 1323 1916 1326 1906 1329 L 1814 1354 L 1820 1400 C 1899 1397 1971 1396 2037 1396 C 2108 1396 2177 1397 2243 1400 L 2239 1357 L 2136 1325 C 2115 1319 2097 1309 2083 1297 C 2069 1284 2053 1262 2037 1231 L 1381 0 L 1286 -8 Z" unicode="W" />
<glyph horiz-adv-x="1318" d="M 194 1400 C 269 1397 354 1396 450 1396 C 530 1396 616 1397 710 1400 L 706 1357 L 616 1332 C 583 1322 567 1305 567 1280 C 567 1258 579 1221 603 1171 L 753 848 L 1045 1191 C 1087 1241 1109 1276 1109 1298 C 1109 1313 1099 1324 1077 1330 L 989 1354 L 995 1400 C 1069 1397 1146 1396 1227 1396 C 1305 1396 1377 1397 1443 1400 L 1439 1357 L 1336 1325 C 1310 1318 1287 1306 1267 1289 C 1247 1272 1221 1244 1187 1206 L 797 757 L 1065 181 C 1086 135 1102 106 1114 94 C 1125 82 1141 73 1163 67 L 1253 40 L 1247 -3 C 1172 -1 1094 0 1014 0 C 926 0 832 -1 730 -3 L 735 40 L 830 65 C 858 73 873 91 873 120 C 873 140 861 175 837 226 L 654 618 L 301 204 C 259 153 238 118 238 100 C 238 83 250 71 275 65 L 358 42 L 351 -3 C 276 -1 199 0 119 0 C 48 0 -22 -1 -94 -3 L -90 40 L 11 71 C 35 78 58 90 78 107 C 97 123 121 146 150 178 L 612 708 L 369 1228 C 354 1260 341 1284 330 1298 C 319 1312 302 1322 278 1329 L 188 1357 L 194 1400 Z" unicode="X" />
<glyph horiz-adv-x="1212" d="M 707 712 L 1021 1149 C 1044 1181 1064 1209 1081 1235 C 1098 1261 1107 1281 1107 1295 C 1107 1311 1094 1323 1070 1330 L 982 1354 L 988 1400 C 1062 1397 1138 1396 1214 1396 C 1286 1396 1356 1397 1423 1400 L 1419 1357 L 1316 1325 C 1290 1317 1269 1306 1253 1290 C 1237 1274 1221 1254 1203 1231 L 740 614 L 681 307 C 673 267 666 230 660 198 C 654 165 649 135 645 109 C 643 92 652 81 673 75 L 785 40 L 778 -3 C 690 -1 606 0 528 0 C 449 0 368 -1 286 -3 L 290 40 L 415 77 C 433 81 444 92 449 108 C 454 134 460 164 467 197 C 473 230 481 267 489 307 L 546 610 L 319 1203 C 301 1243 287 1273 275 1291 C 263 1309 244 1321 220 1329 L 130 1357 L 136 1400 C 198 1397 280 1396 382 1396 C 463 1396 551 1397 645 1400 L 641 1357 L 545 1331 C 529 1327 518 1322 510 1314 C 502 1306 498 1295 498 1281 C 498 1263 509 1226 531 1171 L 707 712 Z" unicode="Y" />
<glyph horiz-adv-x="1162" d="M -20 -3 L -16 40 L 950 1309 L 387 1309 L 284 1067 L 242 1060 L 244 1392 L 251 1400 C 419 1397 576 1396 723 1396 L 923 1396 C 1018 1396 1117 1397 1219 1400 L 1215 1357 L 251 88 L 844 88 L 1017 360 L 1066 367 L 979 4 L 971 -3 C 785 -1 619 0 473 0 L 252 0 C 158 0 67 -1 -20 -3 Z" unicode="Z" />
<glyph horiz-adv-x="707" d="M 217 -256 L 452 -313 L 445 -356 L 48 -356 L 439 1549 L 834 1549 L 827 1506 L 566 1449 L 217 -256 Z" unicode="[" />
<glyph horiz-adv-x="805" d="M 590 -226 L 200 1426 L 317 1426 L 707 -226 L 590 -226 Z" unicode="\" />
<glyph horiz-adv-x="707" d="M 532 1449 L 297 1506 L 304 1549 L 701 1549 L 310 -356 L -84 -356 L -77 -313 L 183 -256 L 532 1449 Z" unicode="]" />
<glyph horiz-adv-x="1130" d="M 636 1396 L 1026 582 L 897 582 L 573 1261 L 250 582 L 125 582 L 515 1396 L 636 1396 Z" unicode="^" />
<glyph horiz-adv-x="1024" d="M 944 -268 L -80 -268 L -80 -178 L 944 -178 L 944 -268 Z" unicode="_" />
<glyph horiz-adv-x="840" d="M 581 1044 L 514 1044 L 331 1417 L 523 1417 L 581 1044 Z M 0 938 L 0 938 Z" unicode="`" />
<glyph horiz-adv-x="1052" d="M 960 930 C 951 899 940 859 928 809 C 915 759 892 651 858 486 L 795 174 C 792 160 791 147 791 135 C 791 106 801 86 822 76 C 843 66 881 61 936 63 L 933 24 C 846 -4 782 -18 741 -18 C 703 -18 672 -6 649 16 C 626 38 615 71 615 115 C 615 121 615 132 616 147 C 549 88 492 45 445 18 C 397 -8 364 -22 345 -22 C 259 -22 192 10 143 76 C 93 142 69 223 69 321 C 69 495 121 641 226 760 C 330 879 463 939 623 939 C 684 939 754 926 834 902 C 866 909 905 921 949 938 L 960 930 Z M 751 819 C 702 847 654 861 608 861 C 510 861 427 809 359 707 C 291 604 257 491 257 367 C 257 295 270 235 296 186 C 322 136 360 112 408 112 C 423 112 449 121 487 139 C 524 157 572 187 630 231 L 751 819 Z" unicode="a" />
<glyph horiz-adv-x="1053" d="M 86 34 C 94 68 102 101 109 133 C 116 165 136 264 170 429 L 362 1372 L 213 1398 L 213 1433 C 324 1454 438 1478 556 1506 L 565 1494 C 553 1444 538 1379 522 1301 C 506 1223 488 1138 468 1046 L 422 821 C 562 898 653 937 697 937 C 774 937 839 905 892 843 C 944 780 971 697 971 594 C 971 420 917 274 810 155 C 703 36 570 -23 410 -23 C 290 -23 182 -4 86 34 Z M 270 78 C 323 64 374 57 422 57 C 523 57 608 107 678 209 C 748 311 783 424 783 548 C 783 620 769 681 742 731 C 715 781 677 806 629 806 C 567 806 492 784 405 742 L 270 78 Z" unicode="b" />
<glyph horiz-adv-x="936" d="M 770 182 L 792 148 C 743 96 685 54 617 24 C 549 -5 484 -21 420 -21 C 319 -21 236 13 171 81 C 106 149 74 242 74 360 C 74 524 130 661 243 772 C 356 882 492 938 652 938 C 738 938 821 920 901 885 C 876 791 856 701 840 616 L 801 610 L 725 843 C 697 851 667 855 637 855 C 527 855 437 810 367 720 C 297 630 262 520 262 391 C 262 298 284 226 328 176 C 372 126 435 101 517 101 C 591 101 675 128 770 182 Z" unicode="c" />
<glyph horiz-adv-x="1062" d="M 725 1398 L 725 1433 C 841 1455 956 1479 1072 1506 L 1081 1494 C 1069 1444 1054 1379 1037 1301 C 1019 1223 1001 1137 983 1045 L 804 174 C 801 160 800 147 800 135 C 800 106 810 86 831 76 C 852 66 890 61 945 63 L 942 24 C 856 -4 792 -18 751 -18 C 712 -18 681 -6 659 16 C 636 38 625 71 625 115 C 625 121 625 132 626 147 C 557 88 499 45 451 18 C 403 -8 369 -22 349 -22 C 263 -22 194 10 144 76 C 93 142 68 223 68 321 C 68 495 121 641 229 759 C 337 877 472 937 635 937 C 679 937 728 932 782 924 L 875 1372 L 725 1398 Z M 760 822 C 710 846 662 859 614 859 C 514 859 429 808 360 706 C 290 604 256 491 256 367 C 256 295 269 235 296 186 C 323 136 361 112 411 112 C 427 112 454 121 492 139 C 530 157 580 187 640 231 L 760 822 Z" unicode="d" />
<glyph horiz-adv-x="916" d="M 262 436 C 259 412 258 390 258 369 C 258 283 279 216 321 170 C 363 124 422 101 499 101 C 586 101 675 125 767 175 L 789 140 C 743 91 685 52 615 22 C 545 -7 475 -22 406 -22 C 305 -22 224 11 162 79 C 100 147 70 234 70 342 C 70 395 76 447 89 497 C 102 547 120 594 144 638 C 168 682 196 723 229 760 C 262 796 299 828 340 855 C 381 881 425 902 473 917 C 520 931 570 939 622 939 C 704 939 766 921 810 886 C 854 851 876 805 876 749 C 875 647 813 571 689 520 C 565 469 423 441 262 436 Z M 273 509 C 415 518 521 543 593 584 C 664 624 700 677 700 741 C 700 776 689 804 668 824 C 646 844 617 854 581 854 C 513 854 450 823 394 761 C 338 699 297 615 273 509 Z" unicode="e" />
<glyph horiz-adv-x="616" d="M 252 817 L 120 846 L 123 889 L 267 902 L 269 912 C 305 1096 373 1240 472 1343 C 570 1446 688 1498 824 1498 C 886 1498 946 1489 1002 1471 C 979 1394 960 1311 945 1222 L 903 1215 L 840 1409 C 828 1412 811 1414 790 1414 C 710 1414 644 1380 591 1312 C 537 1244 492 1120 456 938 L 449 903 L 701 903 L 683 813 L 432 813 L 278 68 C 238 -130 184 -273 115 -361 C 45 -449 -49 -494 -170 -494 C -214 -494 -265 -487 -322 -474 C -310 -411 -297 -352 -281 -296 L -274 -293 C -186 -359 -123 -393 -87 -393 C -8 -393 48 -295 84 -100 L 252 817 Z" unicode="f" />
<glyph horiz-adv-x="1041" d="M 623 142 C 555 88 498 49 451 25 C 404 0 371 -12 351 -12 C 267 -12 200 20 148 84 C 96 148 70 229 70 325 C 70 499 122 644 228 762 C 334 880 468 939 631 939 C 692 939 763 926 843 902 C 859 905 876 910 896 916 C 915 922 936 930 959 938 L 969 930 C 965 914 960 896 955 876 C 949 856 944 833 939 808 C 933 784 923 745 911 691 C 899 637 884 568 867 486 L 809 204 C 783 81 753 -24 719 -112 C 684 -200 644 -272 599 -330 C 553 -387 502 -429 446 -456 C 389 -483 326 -497 256 -497 C 174 -497 78 -480 -31 -446 C -21 -383 -5 -320 15 -256 L 22 -253 C 160 -344 263 -390 331 -390 C 365 -390 395 -381 421 -365 C 447 -349 470 -323 492 -288 C 514 -253 534 -208 552 -152 C 570 -96 588 -29 604 50 L 623 142 Z M 762 819 C 714 847 666 861 617 861 C 517 861 432 810 362 709 C 292 608 258 497 258 375 C 258 301 271 241 298 194 C 324 146 363 123 413 123 C 455 123 532 159 642 231 L 762 819 Z" unicode="g" />
<glyph horiz-adv-x="1127" d="M 80 -5 L 363 1372 L 213 1398 L 213 1433 C 327 1454 442 1478 559 1506 L 567 1494 C 555 1444 540 1379 524 1301 C 508 1223 490 1137 472 1045 L 423 816 C 553 898 670 939 772 939 C 842 939 896 920 934 883 C 972 845 991 795 991 731 C 991 701 987 670 981 639 L 878 164 C 876 156 875 150 875 144 C 874 138 874 132 874 128 C 874 101 885 83 907 75 C 929 67 966 63 1019 63 L 1016 24 C 930 -4 863 -18 814 -18 C 775 -18 745 -8 725 10 C 704 29 694 59 694 99 C 694 117 697 141 703 169 L 797 602 C 803 630 807 656 807 681 C 807 723 796 755 775 779 C 753 802 718 814 668 814 C 587 814 500 786 407 732 L 257 5 L 80 -5 Z" unicode="h" />
<glyph horiz-adv-x="557" d="M 302 164 C 298 150 297 138 297 128 C 297 101 308 83 330 75 C 352 67 389 63 442 63 L 439 24 C 352 -4 285 -18 237 -18 C 199 -18 170 -8 149 11 C 128 30 118 59 118 99 C 118 117 120 141 126 169 L 246 752 C 248 763 249 773 251 781 C 253 789 254 797 254 804 C 254 822 246 834 231 842 C 215 849 176 853 113 853 L 116 891 C 206 921 277 937 329 937 C 363 937 389 929 408 913 C 427 897 437 873 437 840 C 437 826 435 812 433 799 L 302 164 Z M 524 1298 C 524 1263 513 1235 492 1213 C 470 1191 444 1181 412 1181 C 380 1181 354 1191 334 1211 C 314 1231 304 1258 304 1290 C 304 1325 314 1353 336 1374 C 357 1394 384 1405 417 1405 C 448 1405 474 1395 494 1376 C 514 1357 524 1331 524 1298 Z" unicode="i" />
<glyph horiz-adv-x="537" d="M 117 853 L 120 891 C 211 921 282 937 334 937 C 368 937 394 929 413 913 C 432 897 442 873 442 840 C 442 826 440 812 438 799 L 296 114 C 270 -18 226 -126 165 -212 C 104 -298 -6 -395 -167 -503 L -205 -462 C -69 -330 12 -230 41 -160 C 70 -90 95 -6 115 91 L 251 752 C 253 763 254 773 256 781 C 258 789 259 797 259 804 C 259 822 251 834 236 842 C 220 849 181 853 117 853 Z M 529 1298 C 529 1263 518 1235 497 1213 C 475 1191 449 1181 417 1181 C 385 1181 358 1191 338 1211 C 318 1231 308 1258 308 1290 C 308 1325 318 1353 340 1374 C 361 1394 388 1405 422 1405 C 453 1405 479 1395 499 1376 C 519 1357 529 1331 529 1298 Z" unicode="j" />
<glyph horiz-adv-x="1048" d="M 85 -5 L 368 1372 L 218 1398 L 218 1433 C 275 1443 332 1455 390 1467 C 447 1479 505 1492 564 1506 L 572 1494 C 560 1444 545 1379 529 1301 C 513 1223 495 1137 477 1045 L 262 5 L 85 -5 Z M 966 -3 C 874 -1 809 0 771 0 C 759 0 745 0 729 0 C 713 0 695 -1 675 -2 C 645 68 607 145 561 229 C 514 313 458 405 393 506 C 606 692 736 828 784 914 C 808 913 829 913 845 913 C 888 913 965 914 1077 916 L 1073 875 C 1037 866 1008 858 984 851 C 960 844 939 837 922 830 C 903 822 885 812 867 802 C 849 791 828 775 805 755 L 575 552 L 807 166 C 832 122 854 92 872 77 C 890 62 923 49 972 38 L 966 -3 Z" unicode="k" />
<glyph horiz-adv-x="552" d="M 209 1398 L 209 1433 C 325 1455 441 1479 557 1506 L 565 1494 C 553 1444 538 1379 521 1301 C 504 1223 486 1137 467 1045 L 287 164 C 284 152 283 140 283 128 C 283 101 294 83 317 75 C 339 67 377 63 430 63 L 426 24 C 340 -4 273 -18 223 -18 C 184 -18 154 -8 134 10 C 113 29 103 59 103 99 C 103 108 103 118 104 130 C 105 142 107 155 111 169 L 359 1372 L 209 1398 Z" unicode="l" />
<glyph horiz-adv-x="1709" d="M 95 -5 L 251 750 C 256 780 259 798 259 804 C 259 820 251 833 235 841 C 219 849 180 853 118 853 L 121 891 C 209 921 280 937 334 937 C 367 937 393 928 412 912 C 431 896 441 873 441 844 C 441 840 440 835 440 831 C 440 826 439 821 439 816 C 566 898 680 939 782 939 C 894 939 963 891 988 797 C 1124 891 1248 939 1358 939 C 1428 939 1481 920 1518 883 C 1555 846 1574 795 1574 731 C 1574 698 1570 667 1563 639 L 1460 164 C 1458 156 1457 150 1457 144 C 1456 138 1456 132 1456 128 C 1456 101 1467 83 1489 75 C 1511 67 1548 63 1601 63 L 1598 24 C 1516 -4 1450 -18 1400 -18 C 1360 -18 1330 -8 1309 10 C 1287 29 1277 59 1277 99 C 1277 108 1277 118 1279 130 C 1280 142 1282 155 1285 169 L 1380 602 C 1386 630 1389 657 1389 682 C 1389 725 1378 758 1357 780 C 1336 802 1301 814 1253 814 C 1172 814 1086 785 995 728 C 994 698 991 669 986 639 L 856 5 L 676 -5 L 801 602 C 807 630 811 657 811 682 C 811 725 801 758 781 780 C 761 802 726 814 677 814 C 599 814 514 786 423 732 L 275 5 L 95 -5 Z" unicode="m" />
<glyph horiz-adv-x="1142" d="M 95 -5 L 251 750 C 256 778 259 796 259 804 C 259 822 251 834 236 842 C 220 849 181 853 118 853 L 121 891 C 210 921 281 937 334 937 C 367 937 393 928 412 912 C 431 896 441 873 441 844 C 441 836 440 826 439 816 C 569 898 685 939 787 939 C 857 939 912 920 950 883 C 988 845 1007 795 1007 731 C 1007 701 1003 670 996 639 L 893 164 C 891 156 890 150 890 144 C 889 138 889 132 889 128 C 889 101 900 83 922 75 C 944 67 981 63 1034 63 L 1031 24 C 946 -4 878 -18 828 -18 C 789 -18 759 -8 738 10 C 717 29 707 59 707 99 C 707 117 709 141 715 169 L 813 602 C 819 630 822 657 822 682 C 822 724 811 756 790 779 C 768 802 733 814 683 814 C 603 814 516 786 423 732 L 275 5 L 95 -5 Z" unicode="n" />
<glyph horiz-adv-x="1072" d="M 579 938 C 701 938 799 901 873 827 C 946 753 983 653 983 528 C 983 370 936 239 844 135 C 751 31 631 -20 485 -20 C 360 -20 261 16 189 90 C 116 164 80 262 80 384 C 80 544 125 676 217 781 C 308 885 429 938 579 938 Z M 567 854 C 478 854 406 807 351 713 C 296 619 269 506 270 375 C 270 277 290 201 330 146 C 369 91 425 64 497 64 C 589 64 661 112 714 208 C 766 304 793 416 793 543 C 793 641 773 717 733 772 C 693 826 637 854 567 854 Z" unicode="o" />
<glyph horiz-adv-x="1069" d="M -124 -445 L -14 -411 C 4 -405 15 -394 18 -380 C 23 -355 29 -324 37 -288 C 45 -251 54 -208 64 -159 L 250 750 C 255 780 258 798 258 804 C 258 820 250 833 234 841 C 218 849 179 853 117 853 L 120 891 C 208 921 279 937 333 937 C 366 937 392 928 411 912 C 430 896 440 873 440 844 C 440 840 439 837 439 833 C 439 829 438 825 438 821 L 439 821 C 579 898 671 937 714 937 C 790 937 855 905 908 843 C 961 780 988 697 988 594 C 988 420 933 273 824 154 C 715 34 577 -25 409 -25 C 364 -25 317 -20 267 -11 L 222 -232 C 214 -265 208 -293 204 -316 C 200 -339 197 -358 195 -372 C 192 -392 199 -404 215 -408 L 350 -445 L 343 -486 C 240 -484 160 -483 104 -483 C 38 -483 -39 -484 -128 -486 L -124 -445 Z M 286 73 C 330 63 374 58 417 58 C 533 58 625 108 695 210 C 765 311 800 424 800 548 C 800 620 786 681 759 731 C 732 781 694 806 646 806 C 583 806 508 784 422 742 L 286 73 Z" unicode="p" />
<glyph horiz-adv-x="1044" d="M 358 -445 L 480 -411 C 497 -405 508 -395 513 -380 C 530 -299 566 -125 621 142 C 554 86 497 44 451 18 C 403 -8 369 -22 349 -22 C 263 -22 194 10 144 76 C 93 142 68 223 68 319 C 68 493 121 640 227 760 C 333 879 467 939 629 939 C 691 939 762 926 841 902 C 874 909 913 921 957 938 L 967 930 C 959 899 949 859 937 809 C 925 759 901 651 865 486 L 730 -171 C 707 -281 693 -350 689 -378 C 686 -396 692 -407 706 -412 L 817 -445 L 811 -486 C 727 -484 652 -483 588 -483 C 521 -483 443 -484 354 -486 L 358 -445 Z M 760 819 C 712 847 663 861 615 861 C 515 861 430 809 360 707 C 290 604 256 491 256 367 C 256 295 269 235 296 186 C 323 136 361 112 411 112 C 427 112 454 121 492 139 C 530 157 580 187 640 231 L 760 819 Z" unicode="q" />
<glyph horiz-adv-x="792" d="M 95 -5 L 251 750 C 256 778 259 796 259 804 C 259 822 251 834 236 842 C 220 849 181 853 118 853 L 121 891 C 210 921 281 937 334 937 C 367 937 393 928 412 912 C 431 896 441 873 441 844 C 441 839 440 830 439 816 C 575 898 694 939 798 939 L 803 932 C 781 833 760 728 739 617 L 699 611 C 683 675 667 720 650 746 C 632 772 604 785 566 785 C 527 785 480 770 425 742 L 275 5 L 95 -5 Z" unicode="r" />
<glyph horiz-adv-x="865" d="M 651 838 C 615 849 573 855 527 855 C 459 855 404 841 362 813 C 320 785 299 749 299 705 C 299 680 304 659 316 641 C 328 623 343 607 362 593 C 381 579 403 566 428 555 C 453 544 479 533 506 522 C 534 509 563 496 591 482 C 619 468 645 452 667 434 C 689 416 707 394 721 370 C 735 346 742 316 742 282 C 742 188 702 114 624 60 C 546 6 444 -21 320 -21 C 216 -21 115 0 15 43 C 37 123 57 208 75 300 L 114 307 L 178 84 C 224 69 276 62 334 62 C 399 62 451 76 491 105 C 531 133 551 173 551 224 C 551 245 545 263 535 279 C 524 295 510 309 493 322 C 475 334 455 346 433 357 C 410 368 386 379 362 390 C 334 402 306 415 279 429 C 251 443 227 459 205 479 C 183 498 166 521 152 548 C 138 574 132 606 132 644 C 132 734 171 806 249 859 C 327 911 427 938 551 938 C 641 938 729 922 813 891 C 793 823 774 741 756 645 L 717 638 L 651 838 Z" unicode="s" />
<glyph horiz-adv-x="738" d="M 442 813 C 414 701 391 601 371 513 C 351 425 334 347 320 279 C 312 239 308 209 308 188 C 308 154 319 129 341 112 C 363 94 397 86 443 86 C 485 86 538 93 604 109 L 610 64 C 562 38 511 18 455 4 C 399 -10 348 -18 301 -18 C 243 -18 198 -4 168 22 C 138 49 123 89 123 141 C 123 161 126 189 132 223 C 144 286 160 366 182 464 C 203 561 230 678 262 816 L 129 846 L 131 889 L 295 903 L 402 1153 C 436 1161 473 1171 514 1183 L 522 1176 C 500 1086 479 995 459 903 L 742 903 L 722 813 L 442 813 Z" unicode="t" />
<glyph horiz-adv-x="1139" d="M 855 906 L 1034 917 L 884 191 C 878 167 876 149 876 135 C 876 105 886 86 907 76 C 928 66 966 61 1021 63 L 1018 24 C 932 -4 869 -18 827 -18 C 788 -18 757 -6 735 15 C 712 37 701 71 701 115 C 701 127 701 139 702 152 C 578 36 469 -22 375 -22 C 299 -22 241 0 201 46 C 160 91 140 154 140 235 C 140 271 144 309 153 351 L 236 752 C 238 763 239 773 241 781 C 243 789 244 797 244 804 C 244 820 236 833 220 841 C 204 849 164 853 102 853 L 106 891 C 195 921 266 937 319 937 C 353 937 379 929 398 913 C 417 897 427 873 427 840 C 427 824 425 811 423 799 L 324 350 C 317 319 314 292 314 269 C 314 218 326 179 352 153 C 378 126 415 113 464 113 C 528 113 612 154 716 237 L 855 906 Z" unicode="u" />
<glyph horiz-adv-x="936" d="M 431 197 C 473 250 512 304 548 359 C 584 413 614 469 640 526 C 666 582 686 640 700 700 C 714 760 722 821 722 884 C 785 900 848 918 910 938 L 921 930 C 921 888 911 840 892 786 C 873 732 848 675 818 616 C 787 556 752 496 713 435 C 673 373 633 315 593 259 C 552 203 512 152 474 105 C 435 58 401 19 371 -13 L 291 -21 C 281 63 270 144 260 221 C 249 298 237 378 223 460 C 219 484 214 514 208 548 C 202 582 196 616 189 650 C 181 683 173 715 164 745 C 155 775 145 797 134 811 C 126 819 119 825 112 831 C 104 836 95 840 85 843 C 75 845 63 847 49 849 C 35 851 18 852 -1 853 L 2 891 C 91 921 162 937 216 937 C 242 937 263 932 279 923 C 294 913 306 900 314 882 C 320 866 326 845 332 819 C 338 793 345 765 351 734 C 357 703 363 670 369 636 C 375 601 380 567 386 533 C 391 499 396 467 400 437 C 404 407 408 380 412 356 C 416 334 419 309 422 281 C 424 253 427 225 431 197 Z" unicode="v" />
<glyph horiz-adv-x="1424" d="M 926 197 C 968 250 1006 304 1040 359 C 1074 413 1104 469 1128 526 C 1152 582 1172 640 1186 700 C 1200 760 1207 821 1207 884 C 1273 900 1335 918 1395 938 L 1406 930 C 1406 888 1396 840 1378 786 C 1359 732 1335 675 1305 616 C 1275 556 1240 496 1202 435 C 1163 373 1124 315 1084 259 C 1044 203 1005 152 967 105 C 929 58 895 19 867 -13 L 786 -21 C 770 167 748 344 719 508 C 635 352 520 179 373 -13 L 291 -21 C 281 63 270 144 260 221 C 249 298 237 378 223 460 C 219 484 214 514 208 548 C 202 582 196 616 189 650 C 181 683 173 715 164 745 C 155 775 145 797 134 811 C 126 819 119 825 111 831 C 103 836 95 840 85 843 C 75 845 63 847 49 849 C 35 851 18 852 -1 853 L 2 891 C 89 921 160 937 216 937 C 242 937 263 932 279 923 C 294 913 306 900 314 882 C 320 866 326 845 332 819 C 338 793 345 765 351 734 C 357 703 363 670 369 636 C 375 601 380 567 386 533 C 391 499 396 467 400 437 C 404 406 408 379 412 356 C 421 278 427 225 430 199 C 534 344 622 492 696 642 C 682 724 665 806 646 888 C 704 899 756 911 804 924 L 814 918 C 822 880 830 837 839 787 C 848 737 857 686 866 634 C 874 582 882 531 890 482 C 897 432 903 390 908 356 C 917 278 923 225 926 197 Z" unicode="w" />
<glyph horiz-adv-x="1016" d="M 964 745 C 934 753 907 758 882 758 C 860 758 839 754 819 748 C 798 741 776 728 753 710 C 730 691 705 666 679 634 C 653 602 623 560 589 510 C 617 442 645 377 673 314 C 701 251 726 197 748 151 C 757 130 766 114 774 103 C 782 91 791 83 802 77 C 813 71 827 67 844 66 C 861 64 884 63 912 63 L 908 24 C 824 -4 757 -18 708 -18 C 684 -18 664 -12 646 -2 C 628 7 612 29 598 61 C 579 100 559 145 538 196 C 516 246 494 298 472 351 C 422 281 380 222 346 175 C 312 128 280 90 250 62 C 220 34 189 14 159 2 C 129 -10 93 -16 52 -16 C 27 -16 3 -13 -21 -9 C -3 61 15 121 33 171 L 38 174 C 68 167 97 164 125 164 C 149 164 171 167 192 173 C 213 179 235 192 259 211 C 282 229 308 256 336 291 C 364 326 398 373 437 432 C 425 458 412 487 399 517 C 386 547 373 577 361 607 C 348 637 336 665 324 693 C 312 721 300 746 290 770 C 281 788 272 803 262 814 C 252 825 240 833 227 838 C 213 843 198 847 182 849 C 166 851 147 852 125 853 L 128 891 C 218 921 287 937 333 937 C 352 937 367 934 378 929 C 388 924 398 917 406 908 C 414 898 422 887 429 873 C 436 859 444 844 452 827 C 466 793 482 756 500 716 C 517 676 535 634 555 590 C 599 652 637 705 670 749 C 702 792 734 827 764 854 C 794 881 824 901 854 913 C 884 925 918 931 956 931 C 982 931 1005 929 1025 926 C 1011 872 993 813 969 749 L 964 745 Z" unicode="x" />
<glyph horiz-adv-x="983" d="M 757 883 C 823 900 887 918 951 938 L 960 930 C 933 834 901 743 865 655 C 829 567 791 483 752 405 C 712 327 673 254 634 187 C 595 119 560 59 528 6 C 481 -68 441 -140 409 -212 C 377 -283 349 -347 325 -405 C 315 -427 305 -445 296 -457 C 286 -469 275 -479 261 -486 C 247 -492 230 -497 210 -499 C 190 -501 167 -502 139 -502 C 68 -502 5 -498 -50 -492 L -54 -454 C -16 -449 18 -441 49 -429 C 79 -417 106 -402 129 -384 C 142 -373 156 -359 172 -342 C 188 -324 207 -301 229 -272 C 251 -242 277 -206 307 -162 C 336 -118 371 -64 412 0 L 374 9 C 369 45 362 88 353 136 C 343 184 332 234 320 286 C 307 338 294 391 280 444 C 266 496 251 545 237 590 C 223 635 209 675 196 709 C 183 743 172 768 162 784 C 151 799 140 811 129 821 C 117 830 105 837 91 841 C 77 845 61 847 45 849 C 28 851 10 852 -9 853 L -6 891 C 81 921 153 937 209 937 C 235 937 257 932 274 922 C 291 912 304 899 314 882 C 323 865 334 841 346 810 C 358 779 371 744 384 705 C 396 665 409 622 422 576 C 434 530 446 482 458 434 C 469 386 479 338 488 290 C 496 242 503 196 509 154 C 577 270 631 389 671 509 C 711 629 739 753 757 883 Z" unicode="y" />
<glyph horiz-adv-x="996" d="M 1 20 C 138 176 251 307 341 415 C 431 523 546 663 687 836 L 320 836 L 207 619 L 167 613 C 168 729 167 827 165 907 L 171 917 C 306 914 438 913 566 913 C 688 913 819 914 960 917 L 963 895 C 844 759 732 627 627 499 C 521 370 408 230 286 80 L 667 80 L 827 303 L 870 309 C 850 205 832 103 816 4 L 807 -3 C 683 -1 542 0 384 0 C 246 0 120 -1 6 -3 L 1 20 Z" unicode="z" />
<glyph horiz-adv-x="720" d="M 108 614 C 170 625 218 644 250 670 C 282 696 307 749 323 827 L 417 1288 C 435 1380 467 1448 513 1492 C 559 1536 635 1558 743 1558 C 761 1558 787 1557 819 1556 L 812 1507 C 739 1500 687 1484 657 1458 C 626 1432 604 1390 592 1330 L 510 927 C 488 825 460 750 424 703 C 388 655 333 621 259 601 L 258 595 C 308 578 343 554 363 524 C 382 493 392 454 392 407 C 392 369 386 322 375 267 L 307 -65 C 293 -126 286 -170 286 -198 C 286 -232 297 -258 319 -277 C 341 -295 381 -309 439 -319 L 432 -365 C 322 -365 243 -349 197 -319 C 150 -289 127 -239 127 -170 C 127 -140 131 -103 140 -60 L 228 367 C 234 397 238 425 238 450 C 238 488 228 517 208 536 C 188 555 153 570 103 580 L 108 614 Z" unicode="{" />
<glyph horiz-adv-x="712" d="M 447 1525 L 447 -508 L 335 -508 L 335 1525 L 447 1525 Z" unicode="|" />
<glyph horiz-adv-x="720" d="M 653 578 C 590 566 542 547 510 521 C 478 495 454 443 438 365 L 344 -96 C 325 -188 293 -256 247 -300 C 201 -344 125 -366 18 -366 C 0 -366 -26 -365 -58 -364 L -51 -315 C 21 -308 73 -292 104 -266 C 134 -240 156 -198 169 -138 L 251 265 C 272 367 301 441 337 489 C 373 536 428 570 502 591 L 503 597 C 452 613 417 637 398 668 C 378 698 369 737 369 785 C 369 823 374 869 386 925 L 454 1257 C 468 1318 475 1362 475 1390 C 475 1424 463 1450 441 1469 C 419 1487 379 1501 322 1511 L 329 1557 C 439 1557 517 1541 564 1511 C 610 1481 634 1431 634 1362 C 634 1332 629 1295 621 1252 L 533 825 C 526 794 523 766 523 742 C 523 703 532 674 552 655 C 572 636 607 622 658 612 L 653 578 Z" unicode="}" />
<glyph horiz-adv-x="1130" d="M 83 497 C 173 555 257 585 337 585 C 379 585 421 578 461 565 C 501 551 541 537 581 521 C 618 505 654 491 690 479 C 725 466 762 460 800 460 C 864 460 939 489 1027 547 L 1027 426 C 942 370 860 343 781 343 C 738 343 696 349 655 363 C 614 376 574 391 534 407 C 496 421 460 435 425 447 C 389 459 353 465 316 465 C 250 465 173 435 83 376 L 83 497 Z" unicode="~" />
<glyph horiz-adv-x="483" d="" unicode=" " />
<glyph horiz-adv-x="524" d="M 303 511 L 193 -437 L -41 -451 L -48 -443 L 239 510 L 303 511 Z M 317 700 C 278 700 248 710 228 732 C 208 754 198 782 198 818 C 198 853 209 882 232 904 C 254 926 283 938 319 938 C 353 938 380 926 400 904 C 420 882 430 853 430 818 C 430 782 418 754 396 732 C 374 710 347 700 317 700 Z" unicode="¡" />
<glyph horiz-adv-x="929" d="M 436 -161 L 358 -169 L 389 -25 C 290 -15 213 24 157 94 C 101 164 74 254 74 362 C 74 506 121 633 217 744 C 313 854 439 919 595 937 L 624 1074 L 703 1082 L 672 939 C 749 937 825 920 901 887 L 843 640 L 804 634 L 754 841 C 717 850 684 855 654 856 L 491 97 C 497 96 505 96 514 96 C 587 96 671 123 767 177 L 789 143 C 697 49 590 -6 466 -24 L 436 -161 Z M 262 393 C 262 246 314 152 418 111 L 576 851 C 482 832 407 780 349 695 C 291 610 262 509 262 393 Z" unicode="¢" />
<glyph horiz-adv-x="991" d="M 432 549 L 707 549 L 691 470 L 417 470 C 409 428 400 393 390 364 C 380 335 368 309 353 285 C 337 261 318 238 296 216 C 273 193 245 167 212 138 L 212 129 L 735 129 L 855 312 L 897 319 L 817 4 L 808 -3 C 700 -1 538 0 322 0 C 247 0 180 0 122 0 C 63 0 3 -1 -58 -3 L -54 37 C -6 56 34 75 67 95 C 99 115 127 140 149 170 C 171 200 190 237 204 282 C 218 327 232 390 246 470 L 96 470 L 112 549 L 260 549 L 285 693 C 295 753 314 806 340 852 C 366 898 399 937 439 969 C 478 1000 523 1024 574 1040 C 625 1056 680 1065 740 1065 C 810 1065 879 1053 948 1030 L 952 1025 L 862 755 L 824 749 L 810 971 C 775 983 741 989 709 989 C 639 989 584 964 545 916 C 506 868 478 797 461 703 L 432 549 Z" unicode="£" />
<glyph horiz-adv-x="1130" d="M 158 1190 L 312 1036 C 386 1090 474 1118 574 1118 C 677 1118 765 1090 838 1035 L 993 1190 L 1072 1111 L 917 956 C 973 879 1001 792 1001 694 C 1001 598 972 510 916 431 L 1072 276 L 993 197 L 837 353 C 758 298 670 271 574 271 C 473 271 386 298 313 352 L 158 197 L 79 276 L 233 430 C 176 504 148 592 148 694 C 148 796 176 884 232 957 L 79 1111 L 158 1190 Z M 266 694 C 266 600 294 522 351 462 C 407 401 482 371 574 371 C 666 371 740 401 797 462 C 854 523 883 600 883 694 C 883 788 854 866 796 927 C 738 987 664 1018 574 1018 C 484 1018 411 988 353 929 C 295 869 266 791 266 694 Z" unicode="¤" />
<glyph horiz-adv-x="1076" d="M 119 279 L 135 358 L 421 358 L 445 484 L 157 484 L 173 563 L 417 563 L 283 860 C 275 878 267 894 261 907 C 254 920 247 931 241 940 C 235 949 228 956 220 962 C 212 968 202 973 192 977 L 118 1003 L 124 1042 C 153 1040 185 1039 219 1039 C 253 1039 294 1039 342 1039 C 416 1039 497 1040 585 1042 L 582 1003 L 493 979 C 478 975 467 969 460 963 C 452 956 449 946 449 932 C 449 913 460 879 483 830 L 593 582 L 766 810 C 788 840 807 866 823 890 C 838 914 846 932 846 945 C 846 961 834 972 812 978 L 730 1000 L 736 1042 C 804 1040 874 1039 945 1039 C 979 1039 1010 1039 1039 1039 C 1067 1039 1097 1040 1129 1042 L 1125 1003 L 1045 973 C 1021 964 1002 953 988 939 C 973 925 957 907 940 886 L 679 563 L 919 563 L 903 484 L 623 484 L 599 358 L 880 358 L 864 279 L 585 279 C 575 231 569 198 566 180 C 562 162 558 138 553 108 C 551 98 552 90 554 84 C 556 78 564 73 578 69 L 682 37 L 675 -3 C 593 -1 516 0 444 0 C 371 0 296 -1 220 -3 L 224 37 L 339 71 C 357 77 368 86 371 100 C 376 124 382 151 388 181 C 394 210 400 243 407 279 L 119 279 Z" unicode="¥" />
<glyph horiz-adv-x="742" d="M 330 854 L 330 1525 L 472 1525 L 472 854 L 330 854 Z M 330 -68 L 330 603 L 472 603 L 472 -68 L 330 -68 Z" unicode="¦" />
<glyph horiz-adv-x="1106" d="M 867 1316 C 817 1334 756 1344 685 1344 C 610 1344 551 1327 508 1295 C 465 1263 444 1218 444 1162 C 444 1122 451 1086 465 1052 C 479 1018 497 985 520 954 C 543 923 569 893 598 864 C 627 835 657 806 688 778 C 719 748 750 717 780 687 C 810 657 837 625 861 592 C 885 558 904 523 919 486 C 933 449 941 409 941 367 C 941 303 887 205 781 75 C 792 43 798 10 798 -22 C 798 -124 756 -202 673 -258 C 589 -313 481 -341 348 -341 C 240 -341 130 -324 19 -290 L 15 -283 L 125 58 L 171 65 L 189 -230 C 253 -252 316 -263 377 -263 C 453 -263 513 -246 555 -213 C 597 -179 618 -135 618 -81 C 618 -41 611 -4 597 29 C 583 63 564 96 541 127 C 518 158 492 188 462 218 C 432 247 402 276 372 306 C 340 336 309 366 279 396 C 249 426 222 457 199 490 C 175 523 156 558 142 595 C 128 631 121 671 121 714 C 121 778 174 875 281 1006 C 269 1040 264 1072 264 1103 C 264 1204 305 1283 388 1339 C 471 1395 580 1423 714 1423 C 816 1423 924 1410 1037 1385 L 1042 1378 L 930 1067 L 889 1060 L 867 1316 Z M 312 938 C 291 897 281 855 281 811 C 281 771 286 733 298 699 C 309 664 324 631 344 600 C 364 568 386 538 412 510 C 438 482 465 454 493 428 C 517 405 541 382 565 360 C 589 337 612 314 635 291 C 657 268 678 244 698 220 C 718 195 735 169 750 143 C 770 183 781 226 781 270 C 781 310 775 347 763 382 C 751 417 736 450 716 482 C 696 513 674 543 648 571 C 622 599 594 627 566 655 C 542 677 519 700 495 722 C 471 744 447 767 425 790 C 403 813 382 837 363 861 C 343 885 326 911 312 938 Z" unicode="§" />
<glyph horiz-adv-x="840" d="M 490 1304 C 490 1270 479 1243 459 1222 C 439 1200 414 1190 384 1190 C 354 1190 329 1199 310 1219 C 290 1239 281 1265 281 1297 C 281 1331 291 1358 311 1378 C 331 1398 357 1409 388 1409 C 418 1409 443 1399 462 1381 C 480 1362 490 1336 490 1304 Z M 863 1304 C 863 1270 852 1243 832 1222 C 812 1200 787 1190 757 1190 C 727 1190 702 1199 683 1219 C 663 1239 654 1265 654 1297 C 654 1331 664 1358 684 1378 C 704 1398 730 1409 761 1409 C 791 1409 815 1399 834 1381 C 853 1362 863 1336 863 1304 Z M 0 938 L 0 938 Z" unicode="¨" />
<glyph horiz-adv-x="1631" d="M 839 1386 C 1043 1386 1212 1319 1348 1185 C 1483 1051 1551 881 1551 675 C 1551 477 1483 312 1348 180 C 1212 48 1042 -18 836 -18 C 630 -18 459 48 323 180 C 187 312 120 479 120 680 C 120 885 188 1054 326 1187 C 463 1319 634 1386 839 1386 Z M 837 1308 C 653 1308 504 1249 390 1132 C 276 1014 219 865 219 684 C 219 502 276 352 391 235 C 506 118 656 60 840 60 C 1020 60 1168 118 1282 234 C 1396 350 1453 500 1453 684 C 1453 868 1395 1018 1279 1134 C 1163 1250 1016 1308 837 1308 Z M 1077 772 L 1046 767 L 987 985 C 951 998 914 1005 875 1005 C 795 1005 732 978 686 925 C 640 871 617 802 617 717 C 617 622 647 546 707 488 C 767 430 847 401 948 401 C 1011 401 1078 416 1149 447 L 1157 410 C 1071 340 972 305 862 305 C 741 305 641 339 563 408 C 484 477 445 567 445 679 C 445 801 487 897 573 968 C 659 1038 768 1074 900 1074 C 974 1074 1048 1062 1122 1040 L 1127 1034 L 1077 772 Z" unicode="©" />
<glyph horiz-adv-x="652" d="M 76 418 L 90 493 L 638 493 L 624 418 L 76 418 Z M 682 1192 C 677 1176 671 1154 664 1128 C 657 1102 644 1045 626 957 L 592 791 C 590 781 589 771 589 762 C 589 740 596 726 612 718 C 628 710 656 707 698 708 L 696 679 C 630 658 582 648 552 648 C 523 648 500 656 483 673 C 466 689 458 714 458 747 C 458 752 458 758 459 765 C 382 685 327 646 293 646 C 244 646 204 664 174 702 C 144 739 129 786 129 842 C 129 942 160 1027 223 1096 C 286 1164 363 1199 453 1199 C 491 1199 536 1189 587 1171 C 611 1177 640 1186 674 1198 L 682 1192 Z M 526 1115 C 498 1132 470 1141 443 1141 C 399 1141 359 1114 323 1062 C 287 1009 269 948 269 880 C 269 842 276 810 290 784 C 304 758 324 745 348 745 C 372 745 412 774 469 834 L 526 1115 Z" unicode="ª" />
<glyph horiz-adv-x="1014" d="M 413 70 C 303 219 192 345 80 449 L 80 485 C 214 584 351 708 491 857 L 539 831 C 464 711 378 591 280 469 C 347 342 405 217 454 94 L 413 70 Z M 813 70 C 703 219 592 345 480 449 L 480 485 C 614 584 751 708 891 857 L 939 831 C 864 711 778 591 680 469 C 747 342 805 217 854 94 L 813 70 Z" unicode="«" />
<glyph horiz-adv-x="1130" d="M 43 522 L 987 522 L 987 -10 L 866 -10 L 866 401 L 43 401 L 43 522 Z" unicode="¬" />
<glyph horiz-adv-x="693" d="M 94 562 L 620 562 L 593 432 L 67 432 L 94 562 Z" unicode="­" />
<glyph horiz-adv-x="844" d="M 544 1406 C 650 1406 735 1375 800 1314 C 864 1252 897 1169 897 1063 C 897 955 864 869 798 805 C 732 741 646 710 538 710 C 432 710 347 741 283 805 C 219 869 187 954 187 1060 C 187 1164 220 1248 288 1311 C 356 1374 441 1406 544 1406 Z M 539 1357 C 455 1357 387 1330 335 1278 C 283 1225 257 1153 257 1061 C 257 967 283 894 335 840 C 387 786 455 759 541 759 C 627 759 696 784 748 836 C 800 888 826 963 826 1061 C 826 1151 799 1223 747 1277 C 694 1330 625 1357 539 1357 Z M 495 1019 C 495 1003 495 988 495 975 C 495 961 495 949 496 939 C 496 929 499 923 505 922 L 545 911 L 546 894 C 529 894 513 895 499 895 C 485 895 470 895 455 895 C 438 895 421 895 404 895 C 386 895 369 894 353 894 L 351 911 L 400 925 C 406 927 410 932 411 938 C 411 948 412 961 412 975 C 412 989 412 1004 412 1020 L 412 1126 C 412 1140 412 1153 412 1165 C 412 1176 411 1186 411 1196 C 410 1204 406 1209 399 1211 L 352 1224 L 351 1243 C 368 1242 385 1241 401 1241 C 417 1241 434 1241 451 1241 C 460 1241 475 1241 496 1243 C 517 1244 535 1245 549 1245 C 643 1245 691 1215 691 1157 C 691 1116 664 1086 612 1066 C 631 1036 647 1011 659 989 C 671 967 685 949 701 934 C 709 926 716 920 722 917 C 728 914 738 911 752 909 L 754 893 C 736 889 718 887 700 887 C 681 887 666 888 655 891 C 644 894 634 900 624 908 C 615 915 604 929 592 951 C 579 973 567 994 555 1014 C 547 1028 540 1037 536 1041 C 531 1044 524 1046 514 1046 L 495 1046 L 495 1019 Z M 495 1078 C 501 1077 510 1077 521 1077 C 577 1077 606 1099 606 1144 C 606 1167 599 1184 587 1195 C 574 1205 554 1211 526 1211 C 518 1211 507 1210 495 1209 L 495 1078 Z" unicode="®" />
<glyph horiz-adv-x="840" d="M 296 1190 L 317 1296 L 837 1296 L 816 1190 L 296 1190 Z M 0 938 L 0 938 Z" unicode="¯" />
<glyph horiz-adv-x="702" d="M 205 1095 C 205 1031 223 980 261 942 C 299 903 349 884 411 884 C 471 884 521 903 559 941 C 597 979 617 1031 617 1095 C 617 1157 597 1208 559 1248 C 521 1288 471 1308 411 1308 C 349 1308 299 1288 261 1248 C 223 1208 205 1157 205 1095 Z M 110 1094 C 110 1181 138 1253 196 1310 C 254 1367 325 1396 411 1396 C 496 1396 567 1367 625 1311 C 683 1254 712 1182 712 1096 C 712 1009 683 937 625 881 C 567 824 495 796 411 796 C 325 796 254 824 196 880 C 138 936 110 1007 110 1094 Z" unicode="°" />
<glyph horiz-adv-x="1130" d="M 83 683 L 495 683 L 495 1015 L 616 1015 L 616 683 L 1027 683 L 1027 562 L 616 562 L 616 231 L 495 231 L 495 562 L 83 562 L 83 683 Z M 83 131 L 1027 131 L 1027 10 L 83 10 L 83 131 Z" unicode="±" />
<glyph horiz-adv-x="738" d="M 680 868 L 719 875 L 665 660 L 659 656 C 585 657 483 658 351 658 C 259 658 172 657 92 655 L 98 704 C 178 764 250 818 314 867 C 377 916 431 962 475 1006 C 519 1049 552 1091 575 1131 C 598 1171 610 1214 610 1258 C 610 1300 595 1334 565 1360 C 535 1385 495 1398 445 1398 C 398 1398 344 1381 284 1349 L 267 1400 C 353 1456 442 1485 534 1485 C 604 1485 660 1466 702 1430 C 744 1394 765 1349 765 1295 C 765 1249 753 1206 729 1165 C 705 1123 671 1081 627 1039 C 583 997 531 953 469 908 C 407 862 339 813 264 761 L 264 758 L 609 760 L 680 868 Z" unicode="²" />
<glyph horiz-adv-x="738" d="M 310 1118 C 393 1128 459 1149 509 1182 C 559 1214 584 1254 584 1301 C 584 1331 571 1357 546 1377 C 521 1397 487 1407 445 1407 C 391 1407 335 1391 276 1361 L 253 1414 C 338 1461 420 1485 500 1485 C 577 1485 636 1470 678 1441 C 719 1411 740 1373 740 1327 C 740 1279 717 1237 673 1203 C 629 1169 567 1142 489 1122 L 489 1119 C 559 1119 615 1103 656 1073 C 697 1043 718 1001 718 947 C 718 894 700 848 666 810 C 632 771 586 739 530 713 C 474 687 410 668 338 655 C 266 642 192 636 117 636 L 120 692 C 178 693 233 698 286 708 C 339 718 386 732 427 752 C 468 772 501 796 525 826 C 549 855 562 890 562 932 C 562 976 548 1010 520 1034 C 492 1058 453 1071 401 1071 C 369 1071 338 1068 306 1064 L 310 1118 Z" unicode="³" />
<glyph horiz-adv-x="840" d="M 639 1417 L 846 1417 L 534 1044 L 464 1044 L 639 1417 Z M 0 938 L 0 938 Z" unicode="´" />
<glyph horiz-adv-x="1101" d="M 811 906 C 875 918 939 932 1005 950 L 1013 943 C 991 855 969 759 949 657 L 850 180 C 846 162 845 148 845 136 C 845 118 848 105 855 96 C 862 86 872 79 886 75 C 900 70 917 67 938 66 C 959 64 984 64 1012 64 L 1009 24 C 913 -4 842 -18 794 -18 C 708 -18 666 24 666 108 C 666 116 666 123 667 131 C 581 29 490 -21 396 -21 C 320 -21 264 13 229 81 C 210 -38 195 -144 183 -236 C 171 -328 162 -407 156 -474 C 86 -481 22 -490 -36 -501 L -44 -494 L 185 642 C 205 742 219 830 227 906 C 291 918 355 932 421 950 L 429 943 C 407 855 385 759 365 657 L 295 320 C 289 293 287 269 287 247 C 287 153 336 106 435 106 C 531 106 612 141 680 211 L 769 642 C 789 742 803 830 811 906 Z" unicode="µ" />
<glyph horiz-adv-x="1172" d="M 916 1312 L 827 1315 L 655 563 C 634 561 617 561 603 561 C 459 561 343 600 254 680 C 165 760 121 862 121 987 C 121 1112 167 1213 259 1289 C 351 1365 474 1404 630 1404 C 665 1404 727 1402 817 1400 C 907 1397 964 1396 989 1396 C 1076 1396 1157 1397 1233 1400 L 1229 1357 L 1062 1319 C 1040 1315 1027 1305 1022 1289 C 1017 1273 1012 1249 1006 1215 L 892 571 C 875 477 858 390 842 310 C 826 230 808 157 788 91 C 768 25 746 -33 720 -84 C 694 -134 664 -177 628 -212 C 592 -246 551 -273 503 -291 C 455 -309 400 -318 337 -318 C 263 -318 190 -311 116 -298 C 126 -232 140 -166 157 -100 L 164 -97 C 220 -137 269 -168 312 -188 C 354 -208 391 -218 422 -218 C 447 -218 469 -213 489 -203 C 509 -193 527 -176 544 -152 C 561 -128 577 -95 593 -55 C 608 -14 624 36 641 98 C 658 160 676 233 696 319 C 715 404 737 503 762 616 L 916 1312 Z" unicode="¶" />
<glyph horiz-adv-x="499" d="M 245 621 C 285 621 315 609 336 587 C 357 565 368 536 368 500 C 368 463 356 433 333 410 C 309 387 279 376 243 376 C 208 376 180 387 160 410 C 139 433 129 463 129 500 C 129 536 140 565 163 587 C 186 609 213 621 245 621 Z" unicode="·" />
<glyph horiz-adv-x="840" d="M 157 -183 L 298 0 L 383 0 L 301 -109 C 369 -141 404 -185 404 -240 C 404 -313 336 -395 202 -486 L 168 -448 C 232 -397 265 -348 265 -301 C 265 -252 230 -215 160 -191 L 157 -183 Z" unicode="¸" />
<glyph horiz-adv-x="738" d="M 334 1396 L 336 1428 C 445 1441 549 1457 648 1477 L 653 1473 C 641 1431 631 1385 621 1336 C 611 1287 601 1238 592 1190 L 529 876 C 525 858 522 843 520 830 C 517 817 515 805 513 794 C 511 783 509 773 507 763 C 505 753 504 742 503 731 C 501 721 504 716 512 715 L 636 689 L 633 656 C 550 657 477 658 414 658 C 354 658 284 657 204 656 L 206 689 L 345 715 C 355 717 361 723 363 733 C 368 753 373 775 377 797 C 381 819 385 843 391 868 L 439 1112 C 449 1163 457 1211 465 1256 C 473 1301 479 1342 484 1379 L 334 1396 Z" unicode="¹" />
<glyph horiz-adv-x="653" d="M 79 418 L 93 493 L 634 493 L 620 418 L 79 418 Z M 443 1199 C 517 1199 577 1177 622 1135 C 667 1092 690 1034 690 962 C 690 871 661 796 605 736 C 548 676 475 646 385 646 C 308 646 247 667 203 710 C 159 752 137 809 137 880 C 137 972 164 1048 220 1108 C 276 1168 350 1199 443 1199 Z M 432 1136 C 386 1136 348 1110 320 1060 C 292 1009 278 948 279 877 C 279 824 290 783 310 753 C 330 723 358 709 396 709 C 443 709 480 735 507 787 C 534 839 548 899 548 968 C 548 1021 537 1062 517 1092 C 496 1121 468 1136 432 1136 Z" unicode="º" />
<glyph horiz-adv-x="1014" d="M 201 856 C 311 706 422 580 534 477 L 534 441 C 400 341 263 217 123 69 L 75 95 C 149 214 236 335 334 457 C 266 583 208 708 160 832 L 201 856 Z M 601 856 C 711 706 822 580 934 477 L 934 441 C 800 341 663 217 523 69 L 475 95 C 549 214 636 335 734 457 C 666 583 608 708 560 832 L 601 856 Z" unicode="»" />
<glyph horiz-adv-x="1687" d="M 274 1396 L 276 1428 C 385 1441 489 1457 588 1477 L 593 1473 C 581 1431 571 1385 561 1336 C 551 1287 541 1238 532 1190 L 469 876 C 465 858 462 843 460 830 C 457 817 455 805 453 794 C 451 783 449 773 447 763 C 445 753 444 742 443 731 C 441 721 444 716 452 715 L 576 689 L 573 656 C 490 657 417 658 354 658 C 294 658 224 657 144 656 L 146 689 L 285 715 C 295 717 301 723 303 733 C 308 753 313 775 317 797 C 321 819 325 843 331 868 L 379 1112 C 389 1163 397 1211 405 1256 C 413 1301 419 1342 424 1379 L 274 1396 Z M 285 0 L 1509 1477 L 1572 1430 L 347 -47 L 285 0 Z M 1276 211 L 1129 211 C 1103 211 1075 211 1045 211 C 1015 211 982 210 946 210 L 951 270 C 985 314 1023 361 1065 411 C 1107 461 1149 511 1192 560 C 1235 609 1277 656 1319 701 C 1360 745 1397 784 1430 818 L 1527 822 L 1529 815 C 1503 790 1476 763 1448 734 C 1420 704 1391 674 1361 642 C 1331 610 1302 578 1273 546 C 1243 514 1215 482 1188 451 C 1161 420 1136 391 1114 363 C 1091 335 1071 311 1055 290 L 1292 290 L 1330 492 L 1468 501 L 1428 290 L 1550 290 L 1537 209 C 1501 210 1460 211 1413 211 L 1388 73 C 1386 60 1389 53 1399 51 L 1491 32 L 1488 -2 C 1419 0 1359 0 1307 0 C 1248 0 1186 0 1122 -2 L 1125 32 L 1230 52 C 1240 55 1247 61 1249 70 C 1252 88 1256 109 1261 133 C 1265 157 1270 183 1276 211 Z" unicode="¼" />
<glyph horiz-adv-x="1687" d="M 274 1396 L 276 1428 C 385 1441 489 1457 588 1477 L 593 1473 C 581 1431 571 1385 561 1336 C 551 1287 541 1238 532 1190 L 469 876 C 465 858 462 843 460 830 C 457 817 455 805 453 794 C 451 783 449 773 447 763 C 445 753 444 742 443 731 C 441 721 444 716 452 715 L 576 689 L 573 656 C 490 657 417 658 354 658 C 294 658 224 657 144 656 L 146 689 L 285 715 C 295 717 301 723 303 733 C 308 753 313 775 317 797 C 321 819 325 843 331 868 L 379 1112 C 389 1163 397 1211 405 1256 C 413 1301 419 1342 424 1379 L 274 1396 Z M 235 0 L 1459 1477 L 1522 1430 L 297 -47 L 235 0 Z M 1529 210 L 1568 217 L 1514 2 L 1508 -2 C 1434 0 1332 0 1200 0 C 1108 0 1021 -1 941 -3 L 947 46 C 1027 106 1099 160 1163 209 C 1226 258 1280 304 1324 348 C 1368 391 1401 433 1424 473 C 1447 513 1459 556 1459 600 C 1459 642 1444 676 1414 702 C 1384 727 1344 740 1294 740 C 1247 740 1193 723 1133 691 L 1116 742 C 1202 798 1291 827 1383 827 C 1453 827 1509 808 1551 772 C 1593 736 1614 691 1614 637 C 1614 591 1602 548 1578 507 C 1554 465 1520 423 1476 381 C 1432 339 1380 295 1318 250 C 1256 204 1188 155 1113 103 L 1113 100 L 1458 102 L 1529 210 Z" unicode="½" />
<glyph horiz-adv-x="1687" d="M 270 1118 C 353 1128 419 1149 469 1182 C 519 1214 544 1254 544 1301 C 544 1331 531 1357 506 1377 C 481 1397 447 1407 405 1407 C 351 1407 295 1391 236 1361 L 213 1414 C 298 1461 380 1485 460 1485 C 537 1485 596 1470 638 1441 C 679 1411 700 1373 700 1327 C 700 1279 677 1237 633 1203 C 589 1169 527 1142 449 1122 L 449 1119 C 519 1119 575 1103 616 1073 C 657 1043 678 1001 678 947 C 678 894 660 848 626 810 C 592 771 546 739 490 713 C 434 687 370 668 298 655 C 226 642 152 636 77 636 L 80 692 C 138 693 193 698 246 708 C 299 718 346 732 387 752 C 428 772 461 796 485 826 C 509 855 522 890 522 932 C 522 976 508 1010 480 1034 C 452 1058 413 1071 361 1071 C 329 1071 298 1068 266 1064 L 270 1118 Z M 265 0 L 1489 1477 L 1552 1430 L 327 -47 L 265 0 Z M 1266 211 L 1119 211 C 1093 211 1065 211 1035 211 C 1005 211 972 210 936 210 L 941 270 C 975 314 1013 361 1055 411 C 1097 461 1139 511 1182 560 C 1225 609 1267 656 1309 701 C 1350 745 1387 784 1420 818 L 1517 822 L 1519 815 C 1493 790 1466 763 1438 734 C 1410 704 1381 674 1351 642 C 1321 610 1292 578 1263 546 C 1233 514 1205 482 1178 451 C 1151 420 1126 391 1104 363 C 1081 335 1061 311 1045 290 L 1282 290 L 1320 492 L 1458 501 L 1418 290 L 1540 290 L 1527 209 C 1491 210 1450 211 1403 211 L 1378 73 C 1376 60 1379 53 1389 51 L 1481 32 L 1478 -2 C 1409 0 1349 0 1297 0 C 1238 0 1176 0 1112 -2 L 1115 32 L 1220 52 C 1230 55 1237 61 1239 70 C 1242 88 1246 109 1251 133 C 1255 157 1260 183 1266 211 Z" unicode="¾" />
<glyph horiz-adv-x="880" d="M 461 524 C 556 434 604 363 604 311 C 604 287 597 264 585 242 C 573 220 556 198 536 176 C 515 154 491 133 465 112 C 439 90 412 69 385 48 C 348 20 315 -5 287 -29 C 259 -52 235 -75 216 -97 C 196 -119 182 -141 172 -164 C 162 -186 157 -211 157 -238 C 157 -288 172 -327 202 -355 C 232 -382 275 -396 330 -396 C 378 -396 428 -386 478 -367 L 580 -139 L 621 -132 L 621 -413 C 499 -456 388 -478 289 -478 C 192 -478 116 -457 62 -417 C 8 -376 -19 -316 -19 -236 C -19 -193 -11 -154 4 -118 C 20 -82 40 -48 66 -18 C 91 12 119 41 151 68 C 183 95 215 121 247 146 C 274 167 300 188 325 208 C 350 228 372 248 392 268 C 411 288 426 309 438 330 C 450 351 456 373 456 396 C 456 426 444 458 422 494 L 461 524 Z M 559 700 C 520 700 490 710 470 732 C 450 754 440 782 440 818 C 440 853 451 882 474 904 C 496 926 525 938 561 938 C 595 938 622 926 642 904 C 662 882 672 853 672 818 C 672 782 660 754 638 732 C 616 710 589 700 559 700 Z" unicode="¿" />
<glyph horiz-adv-x="1353" d="M 299 42 L 292 -3 C 208 -1 130 0 58 0 C -14 0 -79 -1 -138 -3 L -134 40 L -33 71 C -17 76 -3 83 8 91 C 20 99 31 109 41 119 C 51 129 59 139 67 150 C 74 161 81 172 88 183 L 808 1406 L 906 1421 L 1117 198 C 1123 152 1132 121 1144 104 C 1155 87 1172 75 1195 68 L 1288 40 L 1282 -3 C 1198 -1 1116 0 1036 0 C 958 0 872 -1 779 -3 L 783 40 L 878 68 C 892 72 903 78 912 86 C 921 93 926 107 926 129 C 926 150 921 190 911 249 L 867 520 L 400 520 L 248 252 C 226 214 209 182 196 156 C 182 130 176 111 176 100 C 176 93 178 87 184 82 C 189 77 198 73 210 69 L 299 42 Z M 852 608 L 762 1159 L 450 608 L 852 608 Z M 633 1651 L 740 1770 L 1041 1525 L 1018 1486 L 633 1636 L 633 1651 Z M 250 1400 L 250 1400 Z" unicode="À" />
<glyph horiz-adv-x="1353" d="M 299 42 L 292 -3 C 208 -1 130 0 58 0 C -14 0 -79 -1 -138 -3 L -134 40 L -33 71 C -17 76 -3 83 8 91 C 20 99 31 109 41 119 C 51 129 59 139 67 150 C 74 161 81 172 88 183 L 808 1406 L 906 1421 L 1117 198 C 1123 152 1132 121 1144 104 C 1155 87 1172 75 1195 68 L 1288 40 L 1282 -3 C 1198 -1 1116 0 1036 0 C 958 0 872 -1 779 -3 L 783 40 L 878 68 C 892 72 903 78 912 86 C 921 93 926 107 926 129 C 926 150 921 190 911 249 L 867 520 L 400 520 L 248 252 C 226 214 209 182 196 156 C 182 130 176 111 176 100 C 176 93 178 87 184 82 C 189 77 198 73 210 69 L 299 42 Z M 852 608 L 762 1159 L 450 608 L 852 608 Z M 1111 1636 L 695 1486 L 672 1527 L 995 1770 L 1111 1651 L 1111 1636 Z M 250 1400 L 250 1400 Z" unicode="Á" />
<glyph horiz-adv-x="1353" d="M 299 42 L 292 -3 C 208 -1 130 0 58 0 C -14 0 -79 -1 -138 -3 L -134 40 L -33 71 C -17 76 -3 83 8 91 C 20 99 31 109 41 119 C 51 129 59 139 67 150 C 74 161 81 172 88 183 L 808 1406 L 906 1421 L 1117 198 C 1123 152 1132 121 1144 104 C 1155 87 1172 75 1195 68 L 1288 40 L 1282 -3 C 1198 -1 1116 0 1036 0 C 958 0 872 -1 779 -3 L 783 40 L 878 68 C 892 72 903 78 912 86 C 921 93 926 107 926 129 C 926 150 921 190 911 249 L 867 520 L 400 520 L 248 252 C 226 214 209 182 196 156 C 182 130 176 111 176 100 C 176 93 178 87 184 82 C 189 77 198 73 210 69 L 299 42 Z M 852 608 L 762 1159 L 450 608 L 852 608 Z M 932 1770 L 1195 1531 L 1168 1485 L 876 1620 L 559 1485 L 533 1531 L 842 1770 L 932 1770 Z M 250 1400 L 250 1400 Z" unicode="Â" />
<glyph horiz-adv-x="1353" d="M 299 42 L 292 -3 C 208 -1 130 0 58 0 C -14 0 -79 -1 -138 -3 L -134 40 L -33 71 C -17 76 -3 83 8 91 C 20 99 31 109 41 119 C 51 129 59 139 67 150 C 74 161 81 172 88 183 L 808 1406 L 906 1421 L 1117 198 C 1123 152 1132 121 1144 104 C 1155 87 1172 75 1195 68 L 1288 40 L 1282 -3 C 1198 -1 1116 0 1036 0 C 958 0 872 -1 779 -3 L 783 40 L 878 68 C 892 72 903 78 912 86 C 921 93 926 107 926 129 C 926 150 921 190 911 249 L 867 520 L 400 520 L 248 252 C 226 214 209 182 196 156 C 182 130 176 111 176 100 C 176 93 178 87 184 82 C 189 77 198 73 210 69 L 299 42 Z M 852 608 L 762 1159 L 450 608 L 852 608 Z M 757 1622 C 731 1622 708 1613 687 1597 C 666 1581 643 1558 617 1528 L 570 1565 C 610 1629 648 1677 686 1710 C 723 1743 760 1760 797 1760 C 817 1760 838 1754 860 1744 C 882 1733 905 1721 928 1708 C 948 1696 968 1686 986 1677 C 1004 1667 1020 1663 1034 1663 C 1060 1663 1083 1671 1104 1687 C 1124 1703 1148 1727 1174 1757 L 1222 1725 C 1181 1657 1142 1607 1105 1574 C 1067 1541 1030 1525 994 1525 C 974 1525 952 1530 930 1541 C 907 1551 885 1563 864 1576 C 844 1587 824 1597 806 1607 C 788 1617 771 1622 757 1622 Z M 250 1400 L 250 1400 Z" unicode="Ã" />
<glyph horiz-adv-x="1353" d="M 299 42 L 292 -3 C 208 -1 130 0 58 0 C -14 0 -79 -1 -138 -3 L -134 40 L -33 71 C -17 76 -3 83 8 91 C 20 99 31 109 41 119 C 51 129 59 139 67 150 C 74 161 81 172 88 183 L 808 1406 L 906 1421 L 1117 198 C 1123 152 1132 121 1144 104 C 1155 87 1172 75 1195 68 L 1288 40 L 1282 -3 C 1198 -1 1116 0 1036 0 C 958 0 872 -1 779 -3 L 783 40 L 878 68 C 892 72 903 78 912 86 C 921 93 926 107 926 129 C 926 150 921 190 911 249 L 867 520 L 400 520 L 248 252 C 226 214 209 182 196 156 C 182 130 176 111 176 100 C 176 93 178 87 184 82 C 189 77 198 73 210 69 L 299 42 Z M 852 608 L 762 1159 L 450 608 L 852 608 Z M 783 1630 C 783 1596 772 1568 752 1547 C 732 1525 707 1515 677 1515 C 647 1515 622 1525 603 1545 C 583 1565 574 1590 574 1622 C 574 1656 584 1684 604 1704 C 624 1724 650 1735 682 1735 C 712 1735 736 1725 755 1707 C 773 1688 783 1662 783 1630 Z M 1192 1630 C 1192 1596 1181 1568 1161 1547 C 1141 1525 1116 1515 1086 1515 C 1056 1515 1031 1525 1012 1545 C 992 1565 983 1590 983 1622 C 983 1656 993 1684 1013 1704 C 1033 1724 1059 1735 1090 1735 C 1120 1735 1144 1725 1163 1707 C 1182 1688 1192 1662 1192 1630 Z M 250 1400 L 250 1400 Z" unicode="Ä" />
<glyph horiz-adv-x="1353" d="M 299 42 L 292 -3 C 208 -1 130 0 58 0 C -14 0 -79 -1 -138 -3 L -134 40 L -33 71 C -17 76 -3 83 8 91 C 20 99 31 109 41 119 C 51 129 59 139 67 150 C 74 161 81 172 88 183 L 808 1406 L 906 1421 L 1117 198 C 1123 152 1132 121 1144 104 C 1155 87 1172 75 1195 68 L 1288 40 L 1282 -3 C 1198 -1 1116 0 1036 0 C 958 0 872 -1 779 -3 L 783 40 L 878 68 C 892 72 903 78 912 86 C 921 93 926 107 926 129 C 926 150 921 190 911 249 L 867 520 L 400 520 L 248 252 C 226 214 209 182 196 156 C 182 130 176 111 176 100 C 176 93 178 87 184 82 C 189 77 198 73 210 69 L 299 42 Z M 852 608 L 762 1159 L 450 608 L 852 608 Z M 861 1473 C 803 1473 757 1486 723 1512 C 689 1538 672 1575 672 1623 C 672 1684 696 1735 745 1775 C 794 1815 851 1836 917 1836 C 969 1836 1014 1822 1050 1794 C 1086 1766 1104 1729 1104 1683 C 1104 1621 1080 1571 1034 1532 C 987 1492 929 1473 861 1473 Z M 872 1531 C 909 1531 939 1544 961 1571 C 983 1598 995 1633 995 1675 C 995 1705 987 1730 973 1749 C 958 1768 936 1778 906 1778 C 867 1778 836 1764 814 1737 C 792 1709 781 1675 781 1633 C 781 1603 788 1579 804 1560 C 819 1540 842 1531 872 1531 Z M 250 1400 L 250 1400 Z" unicode="Å" />
<glyph horiz-adv-x="1840" d="M 969 1396 L 1414 1396 C 1563 1396 1721 1397 1888 1400 L 1893 1392 L 1780 1083 L 1738 1076 L 1719 1309 L 1274 1309 L 1165 735 L 1266 735 C 1314 735 1380 735 1466 736 C 1484 737 1497 746 1505 763 L 1567 899 L 1621 901 C 1600 805 1585 734 1577 690 C 1569 646 1557 580 1542 490 L 1488 486 L 1477 624 C 1475 641 1467 650 1452 651 C 1393 652 1325 653 1249 653 L 1149 653 L 1084 309 C 1070 235 1056 161 1044 88 L 1511 88 L 1671 344 L 1720 352 L 1637 4 L 1630 -3 C 1458 -1 1298 0 1152 0 L 933 0 C 852 0 770 -1 688 -3 L 692 40 L 817 77 C 835 81 846 92 851 108 C 856 134 862 164 869 197 C 875 230 883 267 891 307 L 957 653 L 546 653 L 268 250 C 241 212 219 180 203 154 C 187 128 178 109 178 98 C 176 91 178 85 183 80 C 187 75 195 71 207 67 L 293 40 L 289 -3 C 200 -1 120 0 49 0 C -22 0 -88 -1 -149 -3 L -145 40 L -39 71 C -23 76 -8 83 4 91 C 17 99 29 109 40 119 C 50 129 60 139 69 150 C 78 161 86 172 94 183 L 867 1276 C 871 1282 874 1288 874 1293 C 874 1299 869 1304 859 1308 L 709 1357 L 715 1400 C 803 1397 887 1396 969 1396 Z M 1082 1309 L 998 1309 L 603 735 L 972 735 L 1082 1309 Z" unicode="Æ" />
<glyph horiz-adv-x="1320" d="M 502 -183 L 624 -25 C 466 -7 342 54 252 159 C 162 264 117 398 117 562 C 117 814 202 1020 372 1181 C 542 1342 755 1423 1012 1423 C 1122 1423 1240 1409 1366 1382 L 1371 1374 L 1255 1051 L 1214 1045 L 1191 1310 C 1124 1329 1051 1339 972 1339 C 785 1339 631 1264 510 1116 C 388 968 328 790 328 582 C 328 426 372 304 462 216 C 551 128 673 84 828 84 C 928 84 1033 103 1142 141 L 1154 100 C 1019 13 870 -30 706 -30 L 646 -109 C 714 -141 749 -185 749 -240 C 749 -313 681 -395 547 -486 L 513 -448 C 577 -397 610 -348 610 -301 C 610 -252 575 -215 505 -191 L 502 -183 Z" unicode="Ç" />
<glyph horiz-adv-x="1166" d="M 520 1396 L 740 1396 C 889 1396 1047 1397 1214 1400 L 1219 1392 L 1106 1083 L 1064 1076 L 1045 1309 L 600 1309 L 495 756 L 596 756 C 644 756 710 756 796 757 C 814 758 827 767 835 784 L 897 920 L 951 922 C 930 826 915 755 907 711 C 899 667 887 601 872 511 L 818 507 L 807 645 C 805 662 797 671 782 672 C 723 673 655 674 579 674 L 479 674 L 410 309 C 396 235 382 161 370 88 L 837 88 L 997 344 L 1046 352 L 963 4 L 956 -3 C 784 -1 624 0 478 0 L 259 0 C 178 0 96 -1 14 -3 L 18 40 L 143 77 C 161 81 172 92 177 108 C 182 134 188 164 195 197 C 201 230 209 267 217 307 L 372 1118 C 378 1152 384 1182 389 1210 C 393 1237 397 1262 401 1284 C 404 1301 398 1312 384 1318 L 263 1357 L 269 1400 C 357 1397 440 1396 520 1396 Z M 553 1651 L 660 1770 L 961 1525 L 938 1486 L 553 1636 L 553 1651 Z M 170 1400 L 170 1400 Z" unicode="È" />
<glyph horiz-adv-x="1166" d="M 520 1396 L 740 1396 C 889 1396 1047 1397 1214 1400 L 1219 1392 L 1106 1083 L 1064 1076 L 1045 1309 L 600 1309 L 495 756 L 596 756 C 644 756 710 756 796 757 C 814 758 827 767 835 784 L 897 920 L 951 922 C 930 826 915 755 907 711 C 899 667 887 601 872 511 L 818 507 L 807 645 C 805 662 797 671 782 672 C 723 673 655 674 579 674 L 479 674 L 410 309 C 396 235 382 161 370 88 L 837 88 L 997 344 L 1046 352 L 963 4 L 956 -3 C 784 -1 624 0 478 0 L 259 0 C 178 0 96 -1 14 -3 L 18 40 L 143 77 C 161 81 172 92 177 108 C 182 134 188 164 195 197 C 201 230 209 267 217 307 L 372 1118 C 378 1152 384 1182 389 1210 C 393 1237 397 1262 401 1284 C 404 1301 398 1312 384 1318 L 263 1357 L 269 1400 C 357 1397 440 1396 520 1396 Z M 1031 1636 L 615 1486 L 592 1527 L 915 1770 L 1031 1651 L 1031 1636 Z M 170 1400 L 170 1400 Z" unicode="É" />
<glyph horiz-adv-x="1166" d="M 520 1396 L 740 1396 C 889 1396 1047 1397 1214 1400 L 1219 1392 L 1106 1083 L 1064 1076 L 1045 1309 L 600 1309 L 495 756 L 596 756 C 644 756 710 756 796 757 C 814 758 827 767 835 784 L 897 920 L 951 922 C 930 826 915 755 907 711 C 899 667 887 601 872 511 L 818 507 L 807 645 C 805 662 797 671 782 672 C 723 673 655 674 579 674 L 479 674 L 410 309 C 396 235 382 161 370 88 L 837 88 L 997 344 L 1046 352 L 963 4 L 956 -3 C 784 -1 624 0 478 0 L 259 0 C 178 0 96 -1 14 -3 L 18 40 L 143 77 C 161 81 172 92 177 108 C 182 134 188 164 195 197 C 201 230 209 267 217 307 L 372 1118 C 378 1152 384 1182 389 1210 C 393 1237 397 1262 401 1284 C 404 1301 398 1312 384 1318 L 263 1357 L 269 1400 C 357 1397 440 1396 520 1396 Z M 852 1770 L 1115 1531 L 1088 1485 L 796 1620 L 479 1485 L 453 1531 L 762 1770 L 852 1770 Z M 170 1400 L 170 1400 Z" unicode="Ê" />
<glyph horiz-adv-x="1166" d="M 520 1396 L 740 1396 C 889 1396 1047 1397 1214 1400 L 1219 1392 L 1106 1083 L 1064 1076 L 1045 1309 L 600 1309 L 495 756 L 596 756 C 644 756 710 756 796 757 C 814 758 827 767 835 784 L 897 920 L 951 922 C 930 826 915 755 907 711 C 899 667 887 601 872 511 L 818 507 L 807 645 C 805 662 797 671 782 672 C 723 673 655 674 579 674 L 479 674 L 410 309 C 396 235 382 161 370 88 L 837 88 L 997 344 L 1046 352 L 963 4 L 956 -3 C 784 -1 624 0 478 0 L 259 0 C 178 0 96 -1 14 -3 L 18 40 L 143 77 C 161 81 172 92 177 108 C 182 134 188 164 195 197 C 201 230 209 267 217 307 L 372 1118 C 378 1152 384 1182 389 1210 C 393 1237 397 1262 401 1284 C 404 1301 398 1312 384 1318 L 263 1357 L 269 1400 C 357 1397 440 1396 520 1396 Z M 703 1630 C 703 1596 692 1568 672 1547 C 652 1525 627 1515 597 1515 C 567 1515 542 1525 523 1545 C 503 1565 494 1590 494 1622 C 494 1656 504 1684 524 1704 C 544 1724 570 1735 602 1735 C 632 1735 656 1725 675 1707 C 693 1688 703 1662 703 1630 Z M 1112 1630 C 1112 1596 1101 1568 1081 1547 C 1061 1525 1036 1515 1006 1515 C 976 1515 951 1525 932 1545 C 912 1565 903 1590 903 1622 C 903 1656 913 1684 933 1704 C 953 1724 979 1735 1010 1735 C 1040 1735 1064 1725 1083 1707 C 1102 1688 1112 1662 1112 1630 Z M 170 1400 L 170 1400 Z" unicode="Ë" />
<glyph horiz-adv-x="692" d="M 409 307 C 401 267 394 230 388 198 C 382 165 377 135 373 109 C 371 92 380 81 401 75 L 513 40 L 506 -3 C 418 -1 336 0 260 0 C 178 0 96 -1 14 -3 L 18 40 L 143 77 C 161 81 172 92 177 108 C 182 134 188 164 195 197 C 201 230 209 267 217 307 L 372 1118 C 378 1152 384 1182 389 1210 C 393 1237 397 1262 401 1284 C 404 1301 398 1312 384 1318 L 263 1357 L 269 1400 C 357 1397 440 1396 519 1396 C 597 1396 678 1397 762 1400 L 757 1357 L 630 1320 C 613 1316 603 1305 599 1289 C 593 1265 587 1240 582 1212 C 576 1184 570 1154 564 1122 L 409 307 Z M 295 1651 L 402 1770 L 703 1525 L 680 1486 L 295 1636 L 295 1651 Z M -88 1400 L -88 1400 Z" unicode="Ì" />
<glyph horiz-adv-x="692" d="M 409 307 C 401 267 394 230 388 198 C 382 165 377 135 373 109 C 371 92 380 81 401 75 L 513 40 L 506 -3 C 418 -1 336 0 260 0 C 178 0 96 -1 14 -3 L 18 40 L 143 77 C 161 81 172 92 177 108 C 182 134 188 164 195 197 C 201 230 209 267 217 307 L 372 1118 C 378 1152 384 1182 389 1210 C 393 1237 397 1262 401 1284 C 404 1301 398 1312 384 1318 L 263 1357 L 269 1400 C 357 1397 440 1396 519 1396 C 597 1396 678 1397 762 1400 L 757 1357 L 630 1320 C 613 1316 603 1305 599 1289 C 593 1265 587 1240 582 1212 C 576 1184 570 1154 564 1122 L 409 307 Z M 773 1636 L 357 1486 L 334 1527 L 657 1770 L 773 1651 L 773 1636 Z M -88 1400 L -88 1400 Z" unicode="Í" />
<glyph horiz-adv-x="692" d="M 409 307 C 401 267 394 230 388 198 C 382 165 377 135 373 109 C 371 92 380 81 401 75 L 513 40 L 506 -3 C 418 -1 336 0 260 0 C 178 0 96 -1 14 -3 L 18 40 L 143 77 C 161 81 172 92 177 108 C 182 134 188 164 195 197 C 201 230 209 267 217 307 L 372 1118 C 378 1152 384 1182 389 1210 C 393 1237 397 1262 401 1284 C 404 1301 398 1312 384 1318 L 263 1357 L 269 1400 C 357 1397 440 1396 519 1396 C 597 1396 678 1397 762 1400 L 757 1357 L 630 1320 C 613 1316 603 1305 599 1289 C 593 1265 587 1240 582 1212 C 576 1184 570 1154 564 1122 L 409 307 Z M 605 1770 L 868 1531 L 841 1485 L 549 1620 L 232 1485 L 206 1531 L 515 1770 L 605 1770 Z M -77 1400 L -77 1400 Z" unicode="Î" />
<glyph horiz-adv-x="692" d="M 409 307 C 401 267 394 230 388 198 C 382 165 377 135 373 109 C 371 92 380 81 401 75 L 513 40 L 506 -3 C 418 -1 336 0 260 0 C 178 0 96 -1 14 -3 L 18 40 L 143 77 C 161 81 172 92 177 108 C 182 134 188 164 195 197 C 201 230 209 267 217 307 L 372 1118 C 378 1152 384 1182 389 1210 C 393 1237 397 1262 401 1284 C 404 1301 398 1312 384 1318 L 263 1357 L 269 1400 C 357 1397 440 1396 519 1396 C 597 1396 678 1397 762 1400 L 757 1357 L 630 1320 C 613 1316 603 1305 599 1289 C 593 1265 587 1240 582 1212 C 576 1184 570 1154 564 1122 L 409 307 Z M 456 1630 C 456 1596 445 1568 425 1547 C 405 1525 380 1515 350 1515 C 320 1515 295 1525 276 1545 C 256 1565 247 1590 247 1622 C 247 1656 257 1684 277 1704 C 297 1724 323 1735 355 1735 C 385 1735 409 1725 428 1707 C 446 1688 456 1662 456 1630 Z M 865 1630 C 865 1596 854 1568 834 1547 C 814 1525 789 1515 759 1515 C 729 1515 704 1525 685 1545 C 665 1565 656 1590 656 1622 C 656 1656 666 1684 686 1704 C 706 1724 732 1735 763 1735 C 793 1735 817 1725 836 1707 C 855 1688 865 1662 865 1630 Z M -77 1400 L -77 1400 Z" unicode="Ï" />
<glyph horiz-adv-x="1537" d="M 259 0 C 178 0 96 -1 14 -3 L 18 40 L 143 77 C 163 82 174 92 177 108 C 182 134 188 164 195 197 C 201 230 209 267 217 307 L 290 692 L 139 692 L 156 781 L 307 781 L 372 1118 C 378 1152 384 1182 389 1210 C 393 1237 397 1262 401 1284 C 404 1300 398 1312 384 1318 L 263 1357 L 269 1400 C 357 1397 441 1396 523 1396 C 562 1396 614 1397 679 1401 C 744 1404 799 1406 844 1406 C 1042 1406 1197 1360 1308 1270 C 1418 1179 1474 1048 1474 877 C 1474 614 1391 401 1227 238 C 1062 75 841 -6 565 -6 C 529 -6 479 -5 414 -3 C 348 -1 297 0 259 0 Z M 368 86 C 430 76 504 72 590 72 C 794 72 958 149 1080 303 C 1202 457 1264 650 1264 882 C 1264 1030 1226 1140 1152 1214 C 1078 1287 964 1324 811 1324 C 751 1324 681 1321 601 1316 L 500 781 L 826 781 L 809 692 L 483 692 L 368 86 Z" unicode="Ð" />
<glyph horiz-adv-x="1487" d="M 457 1143 L 303 307 C 295 267 289 230 283 198 C 277 166 272 137 268 111 C 265 92 271 81 286 77 L 403 42 L 396 -3 C 310 -1 243 0 194 0 C 140 0 72 -1 -10 -3 L -6 40 L 119 77 C 138 82 149 92 153 108 C 159 135 165 165 172 198 C 178 230 185 267 193 307 L 343 1118 C 349 1152 354 1182 359 1210 C 363 1237 367 1262 371 1284 C 374 1302 368 1313 354 1318 L 233 1357 L 239 1400 C 283 1398 322 1397 356 1397 C 390 1396 418 1396 442 1396 C 457 1396 472 1396 488 1397 C 503 1397 518 1398 534 1400 L 1137 322 L 1289 1122 C 1295 1154 1301 1184 1306 1212 C 1311 1240 1316 1265 1320 1289 C 1322 1304 1315 1314 1299 1320 L 1184 1354 L 1190 1400 C 1234 1398 1273 1397 1307 1397 C 1341 1396 1370 1396 1395 1396 C 1421 1396 1451 1396 1485 1397 C 1519 1397 1556 1398 1597 1400 L 1593 1357 L 1463 1318 C 1447 1313 1437 1302 1433 1284 C 1427 1262 1422 1237 1417 1210 C 1411 1182 1405 1152 1399 1118 L 1186 0 L 1105 -8 L 457 1143 Z M 827 1622 C 801 1622 778 1613 757 1597 C 736 1581 713 1558 687 1528 L 640 1565 C 680 1629 718 1677 756 1710 C 793 1743 830 1760 867 1760 C 887 1760 908 1754 930 1744 C 952 1733 975 1721 998 1708 C 1018 1696 1038 1686 1056 1677 C 1074 1667 1090 1663 1104 1663 C 1130 1663 1153 1671 1174 1687 C 1194 1703 1218 1727 1244 1757 L 1292 1725 C 1251 1657 1212 1607 1175 1574 C 1137 1541 1100 1525 1064 1525 C 1044 1525 1022 1530 1000 1541 C 977 1551 955 1563 934 1576 C 914 1587 894 1597 876 1607 C 858 1617 841 1622 827 1622 Z M 320 1400 L 320 1400 Z" unicode="Ñ" />
<glyph horiz-adv-x="1595" d="M 713 -35 C 530 -35 385 15 278 116 C 170 216 117 359 117 543 C 117 788 196 997 355 1169 C 514 1341 709 1428 940 1428 C 1122 1428 1267 1378 1375 1278 C 1483 1178 1537 1035 1537 850 C 1537 602 1457 393 1298 222 C 1139 50 944 -35 713 -35 Z M 1322 877 C 1322 1024 1285 1139 1213 1223 C 1140 1306 1042 1348 920 1348 C 736 1348 592 1269 488 1111 C 383 953 331 755 331 517 C 331 371 366 255 438 171 C 510 87 608 45 733 45 C 916 45 1060 123 1165 280 C 1269 437 1322 636 1322 877 Z M 723 1651 L 830 1770 L 1131 1525 L 1108 1486 L 723 1636 L 723 1651 Z M 340 1400 L 340 1400 Z" unicode="Ò" />
<glyph horiz-adv-x="1595" d="M 713 -35 C 530 -35 385 15 278 116 C 170 216 117 359 117 543 C 117 788 196 997 355 1169 C 514 1341 709 1428 940 1428 C 1122 1428 1267 1378 1375 1278 C 1483 1178 1537 1035 1537 850 C 1537 602 1457 393 1298 222 C 1139 50 944 -35 713 -35 Z M 1322 877 C 1322 1024 1285 1139 1213 1223 C 1140 1306 1042 1348 920 1348 C 736 1348 592 1269 488 1111 C 383 953 331 755 331 517 C 331 371 366 255 438 171 C 510 87 608 45 733 45 C 916 45 1060 123 1165 280 C 1269 437 1322 636 1322 877 Z M 1201 1636 L 785 1486 L 762 1527 L 1085 1770 L 1201 1651 L 1201 1636 Z M 340 1400 L 340 1400 Z" unicode="Ó" />
<glyph horiz-adv-x="1595" d="M 713 -35 C 530 -35 385 15 278 116 C 170 216 117 359 117 543 C 117 788 196 997 355 1169 C 514 1341 709 1428 940 1428 C 1122 1428 1267 1378 1375 1278 C 1483 1178 1537 1035 1537 850 C 1537 602 1457 393 1298 222 C 1139 50 944 -35 713 -35 Z M 1322 877 C 1322 1024 1285 1139 1213 1223 C 1140 1306 1042 1348 920 1348 C 736 1348 592 1269 488 1111 C 383 953 331 755 331 517 C 331 371 366 255 438 171 C 510 87 608 45 733 45 C 916 45 1060 123 1165 280 C 1269 437 1322 636 1322 877 Z M 1022 1770 L 1285 1531 L 1258 1485 L 966 1620 L 649 1485 L 623 1531 L 932 1770 L 1022 1770 Z M 340 1400 L 340 1400 Z" unicode="Ô" />
<glyph horiz-adv-x="1595" d="M 713 -35 C 530 -35 385 15 278 116 C 170 216 117 359 117 543 C 117 788 196 997 355 1169 C 514 1341 709 1428 940 1428 C 1122 1428 1267 1378 1375 1278 C 1483 1178 1537 1035 1537 850 C 1537 602 1457 393 1298 222 C 1139 50 944 -35 713 -35 Z M 1322 877 C 1322 1024 1285 1139 1213 1223 C 1140 1306 1042 1348 920 1348 C 736 1348 592 1269 488 1111 C 383 953 331 755 331 517 C 331 371 366 255 438 171 C 510 87 608 45 733 45 C 916 45 1060 123 1165 280 C 1269 437 1322 636 1322 877 Z M 847 1622 C 821 1622 798 1613 777 1597 C 756 1581 733 1558 707 1528 L 660 1565 C 700 1629 738 1677 776 1710 C 813 1743 850 1760 887 1760 C 907 1760 928 1754 950 1744 C 972 1733 995 1721 1018 1708 C 1038 1696 1058 1686 1076 1677 C 1094 1667 1110 1663 1124 1663 C 1150 1663 1173 1671 1194 1687 C 1214 1703 1238 1727 1264 1757 L 1312 1725 C 1271 1657 1232 1607 1195 1574 C 1157 1541 1120 1525 1084 1525 C 1064 1525 1042 1530 1020 1541 C 997 1551 975 1563 954 1576 C 934 1587 914 1597 896 1607 C 878 1617 861 1622 847 1622 Z M 340 1400 L 340 1400 Z" unicode="Õ" />
<glyph horiz-adv-x="1595" d="M 713 -35 C 530 -35 385 15 278 116 C 170 216 117 359 117 543 C 117 788 196 997 355 1169 C 514 1341 709 1428 940 1428 C 1122 1428 1267 1378 1375 1278 C 1483 1178 1537 1035 1537 850 C 1537 602 1457 393 1298 222 C 1139 50 944 -35 713 -35 Z M 1322 877 C 1322 1024 1285 1139 1213 1223 C 1140 1306 1042 1348 920 1348 C 736 1348 592 1269 488 1111 C 383 953 331 755 331 517 C 331 371 366 255 438 171 C 510 87 608 45 733 45 C 916 45 1060 123 1165 280 C 1269 437 1322 636 1322 877 Z M 873 1630 C 873 1596 862 1568 842 1547 C 822 1525 797 1515 767 1515 C 737 1515 712 1525 693 1545 C 673 1565 664 1590 664 1622 C 664 1656 674 1684 694 1704 C 714 1724 740 1735 772 1735 C 802 1735 826 1725 845 1707 C 863 1688 873 1662 873 1630 Z M 1282 1630 C 1282 1596 1271 1568 1251 1547 C 1231 1525 1206 1515 1176 1515 C 1146 1515 1121 1525 1102 1545 C 1082 1565 1073 1590 1073 1622 C 1073 1656 1083 1684 1103 1704 C 1123 1724 1149 1735 1180 1735 C 1210 1735 1234 1725 1253 1707 C 1272 1688 1282 1662 1282 1630 Z M 340 1400 L 340 1400 Z" unicode="Ö" />
<glyph horiz-adv-x="1130" d="M 184 918 L 555 547 L 926 918 L 1012 833 L 641 461 L 1011 91 L 926 5 L 555 376 L 184 5 L 99 91 L 469 461 L 98 833 L 184 918 Z" unicode="×" />
<glyph horiz-adv-x="1595" d="M 159 -93 L 98 -39 L 259 135 C 164 234 117 370 117 543 C 117 788 196 997 355 1169 C 514 1341 709 1428 940 1428 C 1104 1428 1238 1387 1342 1306 L 1496 1472 L 1563 1423 L 1403 1250 C 1492 1152 1537 1018 1537 850 C 1537 602 1457 393 1298 222 C 1139 50 944 -35 713 -35 C 553 -35 421 3 319 80 L 159 -93 Z M 1237 1192 C 1163 1296 1058 1349 920 1349 C 736 1349 592 1269 487 1111 C 381 953 329 755 329 517 C 329 419 345 335 379 265 L 1237 1192 Z M 422 191 C 495 93 599 44 733 44 C 916 44 1060 122 1166 280 C 1271 437 1324 636 1324 877 C 1324 969 1309 1049 1279 1116 L 422 191 Z" unicode="Ø" />
<glyph horiz-adv-x="1496" d="M 234 1400 C 322 1397 404 1396 482 1396 C 562 1396 643 1397 727 1400 L 723 1357 L 596 1320 C 578 1316 568 1305 564 1289 C 558 1265 553 1240 547 1212 C 541 1184 535 1154 529 1122 L 430 597 C 414 516 407 449 407 395 C 407 291 433 210 486 154 C 539 98 616 70 718 70 C 794 70 859 81 911 105 C 963 128 1008 162 1044 208 C 1080 253 1109 310 1131 378 C 1153 446 1173 526 1191 617 L 1287 1122 C 1293 1154 1298 1184 1303 1212 C 1307 1240 1312 1265 1316 1289 C 1318 1304 1311 1314 1296 1320 L 1182 1354 L 1188 1400 C 1273 1397 1344 1396 1400 1396 C 1458 1396 1528 1397 1610 1400 L 1606 1357 L 1477 1318 C 1460 1312 1450 1300 1446 1284 C 1441 1262 1436 1237 1430 1210 C 1424 1182 1419 1152 1413 1118 L 1314 605 C 1293 501 1267 410 1236 331 C 1205 251 1165 184 1117 130 C 1068 76 1009 35 940 8 C 871 -19 789 -33 694 -33 C 538 -33 419 3 337 75 C 254 147 213 252 213 390 C 213 443 219 502 231 566 L 337 1118 C 343 1152 349 1182 354 1210 C 358 1237 363 1262 367 1284 C 370 1300 364 1312 349 1318 L 228 1357 L 234 1400 Z M 718 1651 L 825 1770 L 1126 1525 L 1103 1486 L 718 1636 L 718 1651 Z M 335 1400 L 335 1400 Z" unicode="Ù" />
<glyph horiz-adv-x="1496" d="M 234 1400 C 322 1397 404 1396 482 1396 C 562 1396 643 1397 727 1400 L 723 1357 L 596 1320 C 578 1316 568 1305 564 1289 C 558 1265 553 1240 547 1212 C 541 1184 535 1154 529 1122 L 430 597 C 414 516 407 449 407 395 C 407 291 433 210 486 154 C 539 98 616 70 718 70 C 794 70 859 81 911 105 C 963 128 1008 162 1044 208 C 1080 253 1109 310 1131 378 C 1153 446 1173 526 1191 617 L 1287 1122 C 1293 1154 1298 1184 1303 1212 C 1307 1240 1312 1265 1316 1289 C 1318 1304 1311 1314 1296 1320 L 1182 1354 L 1188 1400 C 1273 1397 1344 1396 1400 1396 C 1458 1396 1528 1397 1610 1400 L 1606 1357 L 1477 1318 C 1460 1312 1450 1300 1446 1284 C 1441 1262 1436 1237 1430 1210 C 1424 1182 1419 1152 1413 1118 L 1314 605 C 1293 501 1267 410 1236 331 C 1205 251 1165 184 1117 130 C 1068 76 1009 35 940 8 C 871 -19 789 -33 694 -33 C 538 -33 419 3 337 75 C 254 147 213 252 213 390 C 213 443 219 502 231 566 L 337 1118 C 343 1152 349 1182 354 1210 C 358 1237 363 1262 367 1284 C 370 1300 364 1312 349 1318 L 228 1357 L 234 1400 Z M 1196 1636 L 780 1486 L 757 1527 L 1080 1770 L 1196 1651 L 1196 1636 Z M 335 1400 L 335 1400 Z" unicode="Ú" />
<glyph horiz-adv-x="1496" d="M 234 1400 C 322 1397 404 1396 482 1396 C 562 1396 643 1397 727 1400 L 723 1357 L 596 1320 C 578 1316 568 1305 564 1289 C 558 1265 553 1240 547 1212 C 541 1184 535 1154 529 1122 L 430 597 C 414 516 407 449 407 395 C 407 291 433 210 486 154 C 539 98 616 70 718 70 C 794 70 859 81 911 105 C 963 128 1008 162 1044 208 C 1080 253 1109 310 1131 378 C 1153 446 1173 526 1191 617 L 1287 1122 C 1293 1154 1298 1184 1303 1212 C 1307 1240 1312 1265 1316 1289 C 1318 1304 1311 1314 1296 1320 L 1182 1354 L 1188 1400 C 1273 1397 1344 1396 1400 1396 C 1458 1396 1528 1397 1610 1400 L 1606 1357 L 1477 1318 C 1460 1312 1450 1300 1446 1284 C 1441 1262 1436 1237 1430 1210 C 1424 1182 1419 1152 1413 1118 L 1314 605 C 1293 501 1267 410 1236 331 C 1205 251 1165 184 1117 130 C 1068 76 1009 35 940 8 C 871 -19 789 -33 694 -33 C 538 -33 419 3 337 75 C 254 147 213 252 213 390 C 213 443 219 502 231 566 L 337 1118 C 343 1152 349 1182 354 1210 C 358 1237 363 1262 367 1284 C 370 1300 364 1312 349 1318 L 228 1357 L 234 1400 Z M 1017 1770 L 1280 1531 L 1253 1485 L 961 1620 L 644 1485 L 618 1531 L 927 1770 L 1017 1770 Z M 335 1400 L 335 1400 Z" unicode="Û" />
<glyph horiz-adv-x="1496" d="M 234 1400 C 322 1397 404 1396 482 1396 C 562 1396 643 1397 727 1400 L 723 1357 L 596 1320 C 578 1316 568 1305 564 1289 C 558 1265 553 1240 547 1212 C 541 1184 535 1154 529 1122 L 430 597 C 414 516 407 449 407 395 C 407 291 433 210 486 154 C 539 98 616 70 718 70 C 794 70 859 81 911 105 C 963 128 1008 162 1044 208 C 1080 253 1109 310 1131 378 C 1153 446 1173 526 1191 617 L 1287 1122 C 1293 1154 1298 1184 1303 1212 C 1307 1240 1312 1265 1316 1289 C 1318 1304 1311 1314 1296 1320 L 1182 1354 L 1188 1400 C 1273 1397 1344 1396 1400 1396 C 1458 1396 1528 1397 1610 1400 L 1606 1357 L 1477 1318 C 1460 1312 1450 1300 1446 1284 C 1441 1262 1436 1237 1430 1210 C 1424 1182 1419 1152 1413 1118 L 1314 605 C 1293 501 1267 410 1236 331 C 1205 251 1165 184 1117 130 C 1068 76 1009 35 940 8 C 871 -19 789 -33 694 -33 C 538 -33 419 3 337 75 C 254 147 213 252 213 390 C 213 443 219 502 231 566 L 337 1118 C 343 1152 349 1182 354 1210 C 358 1237 363 1262 367 1284 C 370 1300 364 1312 349 1318 L 228 1357 L 234 1400 Z M 868 1630 C 868 1596 857 1568 837 1547 C 817 1525 792 1515 762 1515 C 732 1515 707 1525 688 1545 C 668 1565 659 1590 659 1622 C 659 1656 669 1684 689 1704 C 709 1724 735 1735 767 1735 C 797 1735 821 1725 840 1707 C 858 1688 868 1662 868 1630 Z M 1277 1630 C 1277 1596 1266 1568 1246 1547 C 1226 1525 1201 1515 1171 1515 C 1141 1515 1116 1525 1097 1545 C 1077 1565 1068 1590 1068 1622 C 1068 1656 1078 1684 1098 1704 C 1118 1724 1144 1735 1175 1735 C 1205 1735 1229 1725 1248 1707 C 1267 1688 1277 1662 1277 1630 Z M 335 1400 L 335 1400 Z" unicode="Ü" />
<glyph horiz-adv-x="1212" d="M 707 712 L 1021 1149 C 1044 1181 1064 1209 1081 1235 C 1098 1261 1107 1281 1107 1295 C 1107 1311 1094 1323 1070 1330 L 982 1354 L 988 1400 C 1062 1397 1138 1396 1214 1396 C 1286 1396 1356 1397 1423 1400 L 1419 1357 L 1316 1325 C 1290 1317 1269 1306 1253 1290 C 1237 1274 1221 1254 1203 1231 L 740 614 L 681 307 C 673 267 666 230 660 198 C 654 165 649 135 645 109 C 643 92 652 81 673 75 L 785 40 L 778 -3 C 690 -1 606 0 528 0 C 449 0 368 -1 286 -3 L 290 40 L 415 77 C 433 81 444 92 449 108 C 454 134 460 164 467 197 C 473 230 481 267 489 307 L 546 610 L 319 1203 C 301 1243 287 1273 275 1291 C 263 1309 244 1321 220 1329 L 130 1357 L 136 1400 C 198 1397 280 1396 382 1396 C 463 1396 551 1397 645 1400 L 641 1357 L 545 1331 C 529 1327 518 1322 510 1314 C 502 1306 498 1295 498 1281 C 498 1263 509 1226 531 1171 L 707 712 Z M 1061 1636 L 645 1486 L 622 1527 L 945 1770 L 1061 1651 L 1061 1636 Z M 200 1400 L 200 1400 Z" unicode="Ý" />
<glyph horiz-adv-x="1181" d="M 269 1400 C 357 1397 440 1396 519 1396 C 597 1396 678 1397 762 1400 L 757 1357 L 630 1320 C 613 1316 603 1305 599 1289 C 593 1265 587 1242 583 1219 C 578 1195 573 1170 568 1143 C 636 1147 686 1150 717 1150 C 855 1150 963 1121 1042 1063 C 1121 1005 1161 923 1161 815 C 1161 657 1104 536 992 452 C 880 368 736 326 561 326 C 511 326 462 329 415 337 L 409 307 C 401 267 394 230 388 198 C 382 165 377 135 373 109 C 371 92 380 81 401 75 L 513 40 L 506 -3 C 418 -1 336 0 260 0 C 178 0 96 -1 14 -3 L 18 40 L 143 77 C 161 81 172 92 177 108 C 182 134 188 164 195 197 C 201 230 209 267 217 307 L 372 1118 C 378 1152 384 1182 389 1210 C 393 1237 397 1262 401 1284 C 404 1301 398 1312 384 1318 L 263 1357 L 269 1400 Z M 551 1057 L 431 420 C 462 412 502 409 552 409 C 682 409 782 441 850 506 C 918 571 952 665 952 789 C 952 878 927 947 877 995 C 827 1043 752 1068 653 1068 C 617 1068 583 1064 551 1057 Z" unicode="Þ" />
<glyph horiz-adv-x="1209" d="M 824 1498 C 923 1498 997 1473 1046 1424 C 1094 1375 1119 1305 1119 1215 C 1119 1152 1106 1079 1082 996 C 838 943 717 867 717 767 C 717 745 722 724 732 705 C 742 686 756 668 774 651 C 791 634 811 618 833 602 C 855 586 878 569 902 553 C 928 535 953 516 978 497 C 1003 477 1026 457 1046 435 C 1066 413 1082 389 1094 363 C 1106 337 1113 308 1113 277 C 1113 183 1073 110 994 58 C 915 6 815 -20 695 -20 C 591 -20 492 0 400 41 L 453 288 L 492 295 L 554 84 C 604 68 653 61 701 61 C 766 61 819 75 861 103 C 902 131 923 173 923 229 C 923 253 918 274 908 294 C 898 313 884 331 868 348 C 851 365 832 381 811 397 C 789 412 767 427 745 443 C 721 459 698 475 676 491 C 653 507 633 525 615 545 C 597 564 582 585 571 608 C 560 631 555 657 555 686 C 555 837 677 950 922 1025 C 940 1087 950 1145 950 1197 C 950 1277 936 1333 909 1367 C 881 1400 842 1417 791 1417 C 711 1417 645 1382 591 1314 C 537 1245 492 1120 456 938 L 278 68 C 238 -130 184 -273 115 -361 C 45 -449 -49 -494 -170 -494 C -214 -494 -265 -487 -322 -474 C -310 -411 -297 -352 -281 -296 L -274 -293 C -186 -359 -123 -393 -87 -393 C -8 -393 48 -295 84 -100 L 252 817 L 120 846 L 123 889 L 267 902 L 269 912 C 305 1096 373 1240 472 1343 C 570 1446 688 1498 824 1498 Z" unicode="ß" />
<glyph horiz-adv-x="1052" d="M 960 930 C 951 899 940 859 928 809 C 915 759 892 651 858 486 L 795 174 C 792 160 791 147 791 135 C 791 106 801 86 822 76 C 843 66 881 61 936 63 L 933 24 C 846 -4 782 -18 741 -18 C 703 -18 672 -6 649 16 C 626 38 615 71 615 115 C 615 121 615 132 616 147 C 549 88 492 45 445 18 C 397 -8 364 -22 345 -22 C 259 -22 192 10 143 76 C 93 142 69 223 69 321 C 69 495 121 641 226 760 C 330 879 463 939 623 939 C 684 939 754 926 834 902 C 866 909 905 921 949 938 L 960 930 Z M 751 819 C 702 847 654 861 608 861 C 510 861 427 809 359 707 C 291 604 257 491 257 367 C 257 295 270 235 296 186 C 322 136 360 112 408 112 C 423 112 449 121 487 139 C 524 157 572 187 630 231 L 751 819 Z M 693 1044 L 626 1044 L 443 1417 L 635 1417 L 693 1044 Z M 112 938 L 112 938 Z" unicode="à" />
<glyph horiz-adv-x="1052" d="M 960 930 C 951 899 940 859 928 809 C 915 759 892 651 858 486 L 795 174 C 792 160 791 147 791 135 C 791 106 801 86 822 76 C 843 66 881 61 936 63 L 933 24 C 846 -4 782 -18 741 -18 C 703 -18 672 -6 649 16 C 626 38 615 71 615 115 C 615 121 615 132 616 147 C 549 88 492 45 445 18 C 397 -8 364 -22 345 -22 C 259 -22 192 10 143 76 C 93 142 69 223 69 321 C 69 495 121 641 226 760 C 330 879 463 939 623 939 C 684 939 754 926 834 902 C 866 909 905 921 949 938 L 960 930 Z M 751 819 C 702 847 654 861 608 861 C 510 861 427 809 359 707 C 291 604 257 491 257 367 C 257 295 270 235 296 186 C 322 136 360 112 408 112 C 423 112 449 121 487 139 C 524 157 572 187 630 231 L 751 819 Z M 751 1417 L 958 1417 L 646 1044 L 576 1044 L 751 1417 Z M 112 938 L 112 938 Z" unicode="á" />
<glyph horiz-adv-x="1052" d="M 960 930 C 951 899 940 859 928 809 C 915 759 892 651 858 486 L 795 174 C 792 160 791 147 791 135 C 791 106 801 86 822 76 C 843 66 881 61 936 63 L 933 24 C 846 -4 782 -18 741 -18 C 703 -18 672 -6 649 16 C 626 38 615 71 615 115 C 615 121 615 132 616 147 C 549 88 492 45 445 18 C 397 -8 364 -22 345 -22 C 259 -22 192 10 143 76 C 93 142 69 223 69 321 C 69 495 121 641 226 760 C 330 879 463 939 623 939 C 684 939 754 926 834 902 C 866 909 905 921 949 938 L 960 930 Z M 751 819 C 702 847 654 861 608 861 C 510 861 427 809 359 707 C 291 604 257 491 257 367 C 257 295 270 235 296 186 C 322 136 360 112 408 112 C 423 112 449 121 487 139 C 524 157 572 187 630 231 L 751 819 Z M 932 1044 L 860 1044 L 684 1273 L 428 1044 L 352 1044 L 635 1417 L 782 1417 L 932 1044 Z M 112 938 L 112 938 Z" unicode="â" />
<glyph horiz-adv-x="1052" d="M 960 930 C 951 899 940 859 928 809 C 915 759 892 651 858 486 L 795 174 C 792 160 791 147 791 135 C 791 106 801 86 822 76 C 843 66 881 61 936 63 L 933 24 C 846 -4 782 -18 741 -18 C 703 -18 672 -6 649 16 C 626 38 615 71 615 115 C 615 121 615 132 616 147 C 549 88 492 45 445 18 C 397 -8 364 -22 345 -22 C 259 -22 192 10 143 76 C 93 142 69 223 69 321 C 69 495 121 641 226 760 C 330 879 463 939 623 939 C 684 939 754 926 834 902 C 866 909 905 921 949 938 L 960 930 Z M 751 819 C 702 847 654 861 608 861 C 510 861 427 809 359 707 C 291 604 257 491 257 367 C 257 295 270 235 296 186 C 322 136 360 112 408 112 C 423 112 449 121 487 139 C 524 157 572 187 630 231 L 751 819 Z M 539 1216 C 512 1216 488 1207 466 1190 C 444 1173 420 1149 394 1118 L 345 1156 C 386 1222 426 1273 465 1307 C 503 1341 542 1359 580 1359 C 600 1359 622 1353 646 1342 C 669 1330 692 1318 716 1305 C 737 1293 757 1282 776 1272 C 794 1262 811 1258 826 1258 C 852 1258 876 1266 898 1283 C 920 1300 944 1324 971 1356 L 1021 1322 C 979 1252 938 1200 900 1166 C 861 1132 823 1115 785 1115 C 763 1115 741 1120 718 1131 C 694 1142 672 1154 650 1168 C 629 1180 609 1191 590 1201 C 571 1211 554 1216 539 1216 Z M 112 938 L 112 938 Z" unicode="ã" />
<glyph horiz-adv-x="1052" d="M 960 930 C 951 899 940 859 928 809 C 915 759 892 651 858 486 L 795 174 C 792 160 791 147 791 135 C 791 106 801 86 822 76 C 843 66 881 61 936 63 L 933 24 C 846 -4 782 -18 741 -18 C 703 -18 672 -6 649 16 C 626 38 615 71 615 115 C 615 121 615 132 616 147 C 549 88 492 45 445 18 C 397 -8 364 -22 345 -22 C 259 -22 192 10 143 76 C 93 142 69 223 69 321 C 69 495 121 641 226 760 C 330 879 463 939 623 939 C 684 939 754 926 834 902 C 866 909 905 921 949 938 L 960 930 Z M 751 819 C 702 847 654 861 608 861 C 510 861 427 809 359 707 C 291 604 257 491 257 367 C 257 295 270 235 296 186 C 322 136 360 112 408 112 C 423 112 449 121 487 139 C 524 157 572 187 630 231 L 751 819 Z M 602 1304 C 602 1270 591 1243 571 1222 C 551 1200 526 1190 496 1190 C 466 1190 441 1199 422 1219 C 402 1239 393 1265 393 1297 C 393 1331 403 1358 423 1378 C 443 1398 469 1409 500 1409 C 530 1409 555 1399 574 1381 C 592 1362 602 1336 602 1304 Z M 975 1304 C 975 1270 964 1243 944 1222 C 924 1200 899 1190 869 1190 C 839 1190 814 1199 795 1219 C 775 1239 766 1265 766 1297 C 766 1331 776 1358 796 1378 C 816 1398 842 1409 873 1409 C 903 1409 927 1399 946 1381 C 965 1362 975 1336 975 1304 Z M 112 938 L 112 938 Z" unicode="ä" />
<glyph horiz-adv-x="1052" d="M 960 930 C 951 899 940 859 928 809 C 915 759 892 651 858 486 L 795 174 C 792 160 791 147 791 135 C 791 106 801 86 822 76 C 843 66 881 61 936 63 L 933 24 C 846 -4 782 -18 741 -18 C 703 -18 672 -6 649 16 C 626 38 615 71 615 115 C 615 121 615 132 616 147 C 549 88 492 45 445 18 C 397 -8 364 -22 345 -22 C 259 -22 192 10 143 76 C 93 142 69 223 69 321 C 69 495 121 641 226 760 C 330 879 463 939 623 939 C 684 939 754 926 834 902 C 866 909 905 921 949 938 L 960 930 Z M 751 819 C 702 847 654 861 608 861 C 510 861 427 809 359 707 C 291 604 257 491 257 367 C 257 295 270 235 296 186 C 322 136 360 112 408 112 C 423 112 449 121 487 139 C 524 157 572 187 630 231 L 751 819 Z M 647 1044 C 586 1044 538 1057 502 1085 C 466 1113 449 1151 449 1201 C 449 1265 474 1318 526 1360 C 577 1402 637 1424 705 1424 C 760 1424 806 1409 844 1380 C 882 1351 901 1312 901 1264 C 901 1199 876 1146 827 1105 C 778 1064 718 1044 647 1044 Z M 658 1105 C 697 1105 729 1119 753 1147 C 777 1175 789 1211 789 1255 C 789 1287 781 1313 765 1333 C 749 1353 725 1363 694 1363 C 653 1363 621 1348 597 1320 C 573 1291 561 1255 561 1211 C 561 1180 569 1155 586 1135 C 602 1115 626 1105 658 1105 Z M 112 938 L 112 938 Z" unicode="å" />
<glyph horiz-adv-x="1491" d="M 837 436 C 834 412 833 390 833 369 C 833 283 854 216 896 170 C 938 124 997 101 1074 101 C 1161 101 1250 125 1342 175 L 1364 140 C 1318 91 1260 52 1190 22 C 1120 -7 1050 -22 981 -22 C 830 -22 725 51 666 199 C 572 109 500 50 450 21 C 399 -7 362 -22 339 -22 C 255 -22 189 10 141 76 C 93 142 69 223 69 321 C 69 495 120 641 223 760 C 326 879 456 939 614 939 C 704 939 808 913 926 862 C 1010 913 1100 939 1197 939 C 1279 939 1341 921 1385 886 C 1429 851 1451 805 1451 749 C 1450 647 1388 571 1264 520 C 1140 469 998 441 837 436 Z M 599 861 C 503 861 422 809 356 707 C 290 604 257 491 257 367 C 257 295 269 235 295 186 C 320 136 356 112 403 112 C 447 112 529 161 651 260 C 647 286 645 313 645 342 C 645 504 702 648 817 774 C 733 832 661 861 599 861 Z M 848 509 C 990 518 1096 543 1168 584 C 1239 624 1275 677 1275 741 C 1275 776 1264 804 1243 824 C 1221 844 1192 854 1156 854 C 1088 854 1025 823 969 761 C 913 699 872 615 848 509 Z" unicode="æ" />
<glyph horiz-adv-x="936" d="M 237 -183 L 364 -17 C 278 -5 209 34 155 100 C 101 166 74 253 74 360 C 74 524 130 661 243 772 C 356 882 492 938 652 938 C 738 938 821 920 901 885 C 876 791 856 701 840 616 L 801 610 L 725 843 C 697 851 667 855 637 855 C 527 855 437 810 367 720 C 297 630 262 520 262 391 C 262 298 284 226 328 176 C 372 126 435 101 517 101 C 591 101 675 128 770 182 L 792 148 C 743 96 687 56 624 28 C 561 0 502 -16 448 -20 L 381 -109 C 449 -141 484 -185 484 -240 C 484 -313 416 -395 282 -486 L 248 -448 C 312 -397 345 -348 345 -301 C 345 -252 310 -215 240 -191 L 237 -183 Z" unicode="ç" />
<glyph horiz-adv-x="916" d="M 262 436 C 259 412 258 390 258 369 C 258 283 279 216 321 170 C 363 124 422 101 499 101 C 586 101 675 125 767 175 L 789 140 C 743 91 685 52 615 22 C 545 -7 475 -22 406 -22 C 305 -22 224 11 162 79 C 100 147 70 234 70 342 C 70 395 76 447 89 497 C 102 547 120 594 144 638 C 168 682 196 723 229 760 C 262 796 299 828 340 855 C 381 881 425 902 473 917 C 520 931 570 939 622 939 C 704 939 766 921 810 886 C 854 851 876 805 876 749 C 875 647 813 571 689 520 C 565 469 423 441 262 436 Z M 273 509 C 415 518 521 543 593 584 C 664 624 700 677 700 741 C 700 776 689 804 668 824 C 646 844 617 854 581 854 C 513 854 450 823 394 761 C 338 699 297 615 273 509 Z M 662 1044 L 595 1044 L 412 1417 L 604 1417 L 662 1044 Z M 81 938 L 81 938 Z" unicode="è" />
<glyph horiz-adv-x="916" d="M 262 436 C 259 412 258 390 258 369 C 258 283 279 216 321 170 C 363 124 422 101 499 101 C 586 101 675 125 767 175 L 789 140 C 743 91 685 52 615 22 C 545 -7 475 -22 406 -22 C 305 -22 224 11 162 79 C 100 147 70 234 70 342 C 70 395 76 447 89 497 C 102 547 120 594 144 638 C 168 682 196 723 229 760 C 262 796 299 828 340 855 C 381 881 425 902 473 917 C 520 931 570 939 622 939 C 704 939 766 921 810 886 C 854 851 876 805 876 749 C 875 647 813 571 689 520 C 565 469 423 441 262 436 Z M 273 509 C 415 518 521 543 593 584 C 664 624 700 677 700 741 C 700 776 689 804 668 824 C 646 844 617 854 581 854 C 513 854 450 823 394 761 C 338 699 297 615 273 509 Z M 720 1417 L 927 1417 L 615 1044 L 545 1044 L 720 1417 Z M 81 938 L 81 938 Z" unicode="é" />
<glyph horiz-adv-x="916" d="M 262 436 C 259 412 258 390 258 369 C 258 283 279 216 321 170 C 363 124 422 101 499 101 C 586 101 675 125 767 175 L 789 140 C 743 91 685 52 615 22 C 545 -7 475 -22 406 -22 C 305 -22 224 11 162 79 C 100 147 70 234 70 342 C 70 395 76 447 89 497 C 102 547 120 594 144 638 C 168 682 196 723 229 760 C 262 796 299 828 340 855 C 381 881 425 902 473 917 C 520 931 570 939 622 939 C 704 939 766 921 810 886 C 854 851 876 805 876 749 C 875 647 813 571 689 520 C 565 469 423 441 262 436 Z M 273 509 C 415 518 521 543 593 584 C 664 624 700 677 700 741 C 700 776 689 804 668 824 C 646 844 617 854 581 854 C 513 854 450 823 394 761 C 338 699 297 615 273 509 Z M 901 1044 L 829 1044 L 653 1273 L 397 1044 L 321 1044 L 604 1417 L 751 1417 L 901 1044 Z M 81 938 L 81 938 Z" unicode="ê" />
<glyph horiz-adv-x="916" d="M 262 436 C 259 412 258 390 258 369 C 258 283 279 216 321 170 C 363 124 422 101 499 101 C 586 101 675 125 767 175 L 789 140 C 743 91 685 52 615 22 C 545 -7 475 -22 406 -22 C 305 -22 224 11 162 79 C 100 147 70 234 70 342 C 70 395 76 447 89 497 C 102 547 120 594 144 638 C 168 682 196 723 229 760 C 262 796 299 828 340 855 C 381 881 425 902 473 917 C 520 931 570 939 622 939 C 704 939 766 921 810 886 C 854 851 876 805 876 749 C 875 647 813 571 689 520 C 565 469 423 441 262 436 Z M 273 509 C 415 518 521 543 593 584 C 664 624 700 677 700 741 C 700 776 689 804 668 824 C 646 844 617 854 581 854 C 513 854 450 823 394 761 C 338 699 297 615 273 509 Z M 571 1304 C 571 1270 560 1243 540 1222 C 520 1200 495 1190 465 1190 C 435 1190 410 1199 391 1219 C 371 1239 362 1265 362 1297 C 362 1331 372 1358 392 1378 C 412 1398 438 1409 469 1409 C 499 1409 524 1399 543 1381 C 561 1362 571 1336 571 1304 Z M 944 1304 C 944 1270 933 1243 913 1222 C 893 1200 868 1190 838 1190 C 808 1190 783 1199 764 1219 C 744 1239 735 1265 735 1297 C 735 1331 745 1358 765 1378 C 785 1398 811 1409 842 1409 C 872 1409 896 1399 915 1381 C 934 1362 944 1336 944 1304 Z M 81 938 L 81 938 Z" unicode="ë" />
<glyph horiz-adv-x="557" d="M 302 164 C 298 150 297 138 297 128 C 297 101 308 83 330 75 C 352 67 389 63 442 63 L 439 24 C 352 -4 285 -18 237 -18 C 199 -18 170 -8 149 11 C 128 30 118 59 118 99 C 118 117 120 141 126 169 L 246 752 C 248 763 249 773 251 781 C 253 789 254 797 254 804 C 254 822 246 834 231 842 C 215 849 176 853 113 853 L 116 891 C 206 921 277 937 329 937 C 363 937 389 929 408 913 C 427 897 437 873 437 840 C 437 826 435 812 433 799 L 302 164 Z M 394 1044 L 327 1044 L 144 1417 L 336 1417 L 394 1044 Z M -187 938 L -187 938 Z" unicode="ì" />
<glyph horiz-adv-x="557" d="M 302 164 C 298 150 297 138 297 128 C 297 101 308 83 330 75 C 352 67 389 63 442 63 L 439 24 C 352 -4 285 -18 237 -18 C 199 -18 170 -8 149 11 C 128 30 118 59 118 99 C 118 117 120 141 126 169 L 246 752 C 248 763 249 773 251 781 C 253 789 254 797 254 804 C 254 822 246 834 231 842 C 215 849 176 853 113 853 L 116 891 C 206 921 277 937 329 937 C 363 937 389 929 408 913 C 427 897 437 873 437 840 C 437 826 435 812 433 799 L 302 164 Z M 452 1417 L 659 1417 L 347 1044 L 277 1044 L 452 1417 Z M -187 938 L -187 938 Z" unicode="í" />
<glyph horiz-adv-x="557" d="M 302 164 C 298 150 297 138 297 128 C 297 101 308 83 330 75 C 352 67 389 63 442 63 L 439 24 C 352 -4 285 -18 237 -18 C 199 -18 170 -8 149 11 C 128 30 118 59 118 99 C 118 117 120 141 126 169 L 246 752 C 248 763 249 773 251 781 C 253 789 254 797 254 804 C 254 822 246 834 231 842 C 215 849 176 853 113 853 L 116 891 C 206 921 277 937 329 937 C 363 937 389 929 408 913 C 427 897 437 873 437 840 C 437 826 435 812 433 799 L 302 164 Z M 633 1044 L 561 1044 L 385 1273 L 129 1044 L 53 1044 L 336 1417 L 483 1417 L 633 1044 Z M -187 938 L -187 938 Z" unicode="î" />
<glyph horiz-adv-x="557" d="M 302 164 C 298 150 297 138 297 128 C 297 101 308 83 330 75 C 352 67 389 63 442 63 L 439 24 C 352 -4 285 -18 237 -18 C 199 -18 170 -8 149 11 C 128 30 118 59 118 99 C 118 117 120 141 126 169 L 246 752 C 248 763 249 773 251 781 C 253 789 254 797 254 804 C 254 822 246 834 231 842 C 215 849 176 853 113 853 L 116 891 C 206 921 277 937 329 937 C 363 937 389 929 408 913 C 427 897 437 873 437 840 C 437 826 435 812 433 799 L 302 164 Z M 303 1304 C 303 1270 292 1243 272 1222 C 252 1200 227 1190 197 1190 C 167 1190 142 1199 123 1219 C 103 1239 94 1265 94 1297 C 94 1331 104 1358 124 1378 C 144 1398 170 1409 201 1409 C 231 1409 256 1399 275 1381 C 293 1362 303 1336 303 1304 Z M 676 1304 C 676 1270 665 1243 645 1222 C 625 1200 600 1190 570 1190 C 540 1190 515 1199 496 1219 C 476 1239 467 1265 467 1297 C 467 1331 477 1358 497 1378 C 517 1398 543 1409 574 1409 C 604 1409 628 1399 647 1381 C 666 1362 676 1336 676 1304 Z M -187 938 L -187 938 Z" unicode="ï" />
<glyph horiz-adv-x="1079" d="M 345 1464 L 347 1476 L 577 1476 C 654 1424 717 1373 766 1323 L 1027 1451 L 1063 1381 L 821 1261 C 939 1117 999 932 999 708 C 999 492 953 316 863 182 C 773 47 646 -20 482 -20 C 358 -20 260 15 187 87 C 113 159 77 255 77 376 C 77 528 121 656 210 760 C 298 863 413 915 553 915 C 659 915 747 878 817 804 L 822 806 C 808 948 758 1076 673 1189 L 362 1035 L 327 1108 L 620 1252 C 553 1325 461 1396 345 1464 Z M 560 834 C 471 834 400 788 347 698 C 293 607 267 497 267 367 C 267 271 287 197 327 144 C 367 90 422 64 494 64 C 584 64 654 110 705 203 C 755 295 781 405 781 531 C 781 627 761 701 723 754 C 685 807 630 834 560 834 Z" unicode="ð" />
<glyph horiz-adv-x="1142" d="M 95 -5 L 251 750 C 256 778 259 796 259 804 C 259 822 251 834 236 842 C 220 849 181 853 118 853 L 121 891 C 210 921 281 937 334 937 C 367 937 393 928 412 912 C 431 896 441 873 441 844 C 441 836 440 826 439 816 C 569 898 685 939 787 939 C 857 939 912 920 950 883 C 988 845 1007 795 1007 731 C 1007 701 1003 670 996 639 L 893 164 C 891 156 890 150 890 144 C 889 138 889 132 889 128 C 889 101 900 83 922 75 C 944 67 981 63 1034 63 L 1031 24 C 946 -4 878 -18 828 -18 C 789 -18 759 -8 738 10 C 717 29 707 59 707 99 C 707 117 709 141 715 169 L 813 602 C 819 630 822 657 822 682 C 822 724 811 756 790 779 C 768 802 733 814 683 814 C 603 814 516 786 423 732 L 275 5 L 95 -5 Z M 572 1216 C 545 1216 521 1207 499 1190 C 477 1173 453 1149 427 1118 L 378 1156 C 419 1222 459 1273 498 1307 C 536 1341 575 1359 613 1359 C 633 1359 655 1353 679 1342 C 702 1330 725 1318 749 1305 C 770 1293 790 1282 809 1272 C 827 1262 844 1258 859 1258 C 885 1258 909 1266 931 1283 C 953 1300 977 1324 1004 1356 L 1054 1322 C 1012 1252 971 1200 933 1166 C 894 1132 856 1115 818 1115 C 796 1115 774 1120 751 1131 C 727 1142 705 1154 683 1168 C 662 1180 642 1191 623 1201 C 604 1211 587 1216 572 1216 Z M 145 938 L 145 938 Z" unicode="ñ" />
<glyph horiz-adv-x="1072" d="M 579 938 C 701 938 799 901 873 827 C 946 753 983 653 983 528 C 983 370 936 239 844 135 C 751 31 631 -20 485 -20 C 360 -20 261 16 189 90 C 116 164 80 262 80 384 C 80 544 125 676 217 781 C 308 885 429 938 579 938 Z M 567 854 C 478 854 406 807 351 713 C 296 619 269 506 270 375 C 270 277 290 201 330 146 C 369 91 425 64 497 64 C 589 64 661 112 714 208 C 766 304 793 416 793 543 C 793 641 773 717 733 772 C 693 826 637 854 567 854 Z M 660 1044 L 593 1044 L 410 1417 L 602 1417 L 660 1044 Z M 79 938 L 79 938 Z" unicode="ò" />
<glyph horiz-adv-x="1072" d="M 579 938 C 701 938 799 901 873 827 C 946 753 983 653 983 528 C 983 370 936 239 844 135 C 751 31 631 -20 485 -20 C 360 -20 261 16 189 90 C 116 164 80 262 80 384 C 80 544 125 676 217 781 C 308 885 429 938 579 938 Z M 567 854 C 478 854 406 807 351 713 C 296 619 269 506 270 375 C 270 277 290 201 330 146 C 369 91 425 64 497 64 C 589 64 661 112 714 208 C 766 304 793 416 793 543 C 793 641 773 717 733 772 C 693 826 637 854 567 854 Z M 718 1417 L 925 1417 L 613 1044 L 543 1044 L 718 1417 Z M 79 938 L 79 938 Z" unicode="ó" />
<glyph horiz-adv-x="1072" d="M 579 938 C 701 938 799 901 873 827 C 946 753 983 653 983 528 C 983 370 936 239 844 135 C 751 31 631 -20 485 -20 C 360 -20 261 16 189 90 C 116 164 80 262 80 384 C 80 544 125 676 217 781 C 308 885 429 938 579 938 Z M 567 854 C 478 854 406 807 351 713 C 296 619 269 506 270 375 C 270 277 290 201 330 146 C 369 91 425 64 497 64 C 589 64 661 112 714 208 C 766 304 793 416 793 543 C 793 641 773 717 733 772 C 693 826 637 854 567 854 Z M 899 1044 L 827 1044 L 651 1273 L 395 1044 L 319 1044 L 602 1417 L 749 1417 L 899 1044 Z M 79 938 L 79 938 Z" unicode="ô" />
<glyph horiz-adv-x="1072" d="M 579 938 C 701 938 799 901 873 827 C 946 753 983 653 983 528 C 983 370 936 239 844 135 C 751 31 631 -20 485 -20 C 360 -20 261 16 189 90 C 116 164 80 262 80 384 C 80 544 125 676 217 781 C 308 885 429 938 579 938 Z M 567 854 C 478 854 406 807 351 713 C 296 619 269 506 270 375 C 270 277 290 201 330 146 C 369 91 425 64 497 64 C 589 64 661 112 714 208 C 766 304 793 416 793 543 C 793 641 773 717 733 772 C 693 826 637 854 567 854 Z M 506 1216 C 479 1216 455 1207 433 1190 C 411 1173 387 1149 361 1118 L 312 1156 C 353 1222 393 1273 432 1307 C 470 1341 509 1359 547 1359 C 567 1359 589 1353 613 1342 C 636 1330 659 1318 683 1305 C 704 1293 724 1282 743 1272 C 761 1262 778 1258 793 1258 C 819 1258 843 1266 865 1283 C 887 1300 911 1324 938 1356 L 988 1322 C 946 1252 905 1200 867 1166 C 828 1132 790 1115 752 1115 C 730 1115 708 1120 685 1131 C 661 1142 639 1154 617 1168 C 596 1180 576 1191 557 1201 C 538 1211 521 1216 506 1216 Z M 79 938 L 79 938 Z" unicode="õ" />
<glyph horiz-adv-x="1072" d="M 579 938 C 701 938 799 901 873 827 C 946 753 983 653 983 528 C 983 370 936 239 844 135 C 751 31 631 -20 485 -20 C 360 -20 261 16 189 90 C 116 164 80 262 80 384 C 80 544 125 676 217 781 C 308 885 429 938 579 938 Z M 567 854 C 478 854 406 807 351 713 C 296 619 269 506 270 375 C 270 277 290 201 330 146 C 369 91 425 64 497 64 C 589 64 661 112 714 208 C 766 304 793 416 793 543 C 793 641 773 717 733 772 C 693 826 637 854 567 854 Z M 569 1304 C 569 1270 558 1243 538 1222 C 518 1200 493 1190 463 1190 C 433 1190 408 1199 389 1219 C 369 1239 360 1265 360 1297 C 360 1331 370 1358 390 1378 C 410 1398 436 1409 467 1409 C 497 1409 522 1399 541 1381 C 559 1362 569 1336 569 1304 Z M 942 1304 C 942 1270 931 1243 911 1222 C 891 1200 866 1190 836 1190 C 806 1190 781 1199 762 1219 C 742 1239 733 1265 733 1297 C 733 1331 743 1358 763 1378 C 783 1398 809 1409 840 1409 C 870 1409 894 1399 913 1381 C 932 1362 942 1336 942 1304 Z M 79 938 L 79 938 Z" unicode="ö" />
<glyph horiz-adv-x="1130" d="M 556 904 C 589 904 616 893 638 872 C 660 851 671 824 671 790 C 671 756 660 728 638 707 C 616 685 589 675 556 675 C 521 675 493 685 472 707 C 450 728 440 756 440 790 C 440 824 450 851 472 872 C 493 893 521 904 556 904 Z M 556 258 C 589 258 616 247 638 226 C 660 205 671 178 671 144 C 671 110 660 82 638 61 C 616 39 589 29 556 29 C 521 29 493 39 472 61 C 450 82 440 110 440 144 C 440 178 450 205 472 226 C 493 247 521 258 556 258 Z M 83 522 L 1027 522 L 1027 401 L 83 401 L 83 522 Z" unicode="÷" />
<glyph horiz-adv-x="1072" d="M 153 -71 L 95 -28 L 189 90 C 116 164 80 262 80 384 C 80 544 125 676 217 781 C 308 885 429 938 579 938 C 673 938 753 916 818 872 L 907 982 L 964 938 L 874 826 C 946 752 983 652 983 528 C 983 370 936 239 844 135 C 751 31 631 -20 485 -20 C 389 -20 309 1 245 44 L 153 -71 Z M 736 770 C 695 827 639 856 567 856 C 478 856 406 808 350 714 C 294 619 266 506 267 375 C 267 314 275 261 291 217 L 736 770 Z M 328 146 C 368 90 425 62 497 62 C 589 62 661 110 715 207 C 769 304 796 416 796 543 C 796 603 788 655 772 700 L 328 146 Z" unicode="ø" />
<glyph horiz-adv-x="1139" d="M 855 906 L 1034 917 L 884 191 C 878 167 876 149 876 135 C 876 105 886 86 907 76 C 928 66 966 61 1021 63 L 1018 24 C 932 -4 869 -18 827 -18 C 788 -18 757 -6 735 15 C 712 37 701 71 701 115 C 701 127 701 139 702 152 C 578 36 469 -22 375 -22 C 299 -22 241 0 201 46 C 160 91 140 154 140 235 C 140 271 144 309 153 351 L 236 752 C 238 763 239 773 241 781 C 243 789 244 797 244 804 C 244 820 236 833 220 841 C 204 849 164 853 102 853 L 106 891 C 195 921 266 937 319 937 C 353 937 379 929 398 913 C 417 897 427 873 427 840 C 427 824 425 811 423 799 L 324 350 C 317 319 314 292 314 269 C 314 218 326 179 352 153 C 378 126 415 113 464 113 C 528 113 612 154 716 237 L 855 906 Z M 706 1044 L 639 1044 L 456 1417 L 648 1417 L 706 1044 Z M 125 938 L 125 938 Z" unicode="ù" />
<glyph horiz-adv-x="1139" d="M 855 906 L 1034 917 L 884 191 C 878 167 876 149 876 135 C 876 105 886 86 907 76 C 928 66 966 61 1021 63 L 1018 24 C 932 -4 869 -18 827 -18 C 788 -18 757 -6 735 15 C 712 37 701 71 701 115 C 701 127 701 139 702 152 C 578 36 469 -22 375 -22 C 299 -22 241 0 201 46 C 160 91 140 154 140 235 C 140 271 144 309 153 351 L 236 752 C 238 763 239 773 241 781 C 243 789 244 797 244 804 C 244 820 236 833 220 841 C 204 849 164 853 102 853 L 106 891 C 195 921 266 937 319 937 C 353 937 379 929 398 913 C 417 897 427 873 427 840 C 427 824 425 811 423 799 L 324 350 C 317 319 314 292 314 269 C 314 218 326 179 352 153 C 378 126 415 113 464 113 C 528 113 612 154 716 237 L 855 906 Z M 764 1417 L 971 1417 L 659 1044 L 589 1044 L 764 1417 Z M 125 938 L 125 938 Z" unicode="ú" />
<glyph horiz-adv-x="1139" d="M 855 906 L 1034 917 L 884 191 C 878 167 876 149 876 135 C 876 105 886 86 907 76 C 928 66 966 61 1021 63 L 1018 24 C 932 -4 869 -18 827 -18 C 788 -18 757 -6 735 15 C 712 37 701 71 701 115 C 701 127 701 139 702 152 C 578 36 469 -22 375 -22 C 299 -22 241 0 201 46 C 160 91 140 154 140 235 C 140 271 144 309 153 351 L 236 752 C 238 763 239 773 241 781 C 243 789 244 797 244 804 C 244 820 236 833 220 841 C 204 849 164 853 102 853 L 106 891 C 195 921 266 937 319 937 C 353 937 379 929 398 913 C 417 897 427 873 427 840 C 427 824 425 811 423 799 L 324 350 C 317 319 314 292 314 269 C 314 218 326 179 352 153 C 378 126 415 113 464 113 C 528 113 612 154 716 237 L 855 906 Z M 945 1044 L 873 1044 L 697 1273 L 441 1044 L 365 1044 L 648 1417 L 795 1417 L 945 1044 Z M 125 938 L 125 938 Z" unicode="û" />
<glyph horiz-adv-x="1139" d="M 855 906 L 1034 917 L 884 191 C 878 167 876 149 876 135 C 876 105 886 86 907 76 C 928 66 966 61 1021 63 L 1018 24 C 932 -4 869 -18 827 -18 C 788 -18 757 -6 735 15 C 712 37 701 71 701 115 C 701 127 701 139 702 152 C 578 36 469 -22 375 -22 C 299 -22 241 0 201 46 C 160 91 140 154 140 235 C 140 271 144 309 153 351 L 236 752 C 238 763 239 773 241 781 C 243 789 244 797 244 804 C 244 820 236 833 220 841 C 204 849 164 853 102 853 L 106 891 C 195 921 266 937 319 937 C 353 937 379 929 398 913 C 417 897 427 873 427 840 C 427 824 425 811 423 799 L 324 350 C 317 319 314 292 314 269 C 314 218 326 179 352 153 C 378 126 415 113 464 113 C 528 113 612 154 716 237 L 855 906 Z M 615 1304 C 615 1270 604 1243 584 1222 C 564 1200 539 1190 509 1190 C 479 1190 454 1199 435 1219 C 415 1239 406 1265 406 1297 C 406 1331 416 1358 436 1378 C 456 1398 482 1409 513 1409 C 543 1409 568 1399 587 1381 C 605 1362 615 1336 615 1304 Z M 988 1304 C 988 1270 977 1243 957 1222 C 937 1200 912 1190 882 1190 C 852 1190 827 1199 808 1219 C 788 1239 779 1265 779 1297 C 779 1331 789 1358 809 1378 C 829 1398 855 1409 886 1409 C 916 1409 940 1399 959 1381 C 978 1362 988 1336 988 1304 Z M 125 938 L 125 938 Z" unicode="ü" />
<glyph horiz-adv-x="983" d="M 757 883 C 823 900 887 918 951 938 L 960 930 C 933 834 901 743 865 655 C 829 567 791 483 752 405 C 712 327 673 254 634 187 C 595 119 560 59 528 6 C 481 -68 441 -140 409 -212 C 377 -283 349 -347 325 -405 C 315 -427 305 -445 296 -457 C 286 -469 275 -479 261 -486 C 247 -492 230 -497 210 -499 C 190 -501 167 -502 139 -502 C 68 -502 5 -498 -50 -492 L -54 -454 C -16 -449 18 -441 49 -429 C 79 -417 106 -402 129 -384 C 142 -373 156 -359 172 -342 C 188 -324 207 -301 229 -272 C 251 -242 277 -206 307 -162 C 336 -118 371 -64 412 0 L 374 9 C 369 45 362 88 353 136 C 343 184 332 234 320 286 C 307 338 294 391 280 444 C 266 496 251 545 237 590 C 223 635 209 675 196 709 C 183 743 172 768 162 784 C 151 799 140 811 129 821 C 117 830 105 837 91 841 C 77 845 61 847 45 849 C 28 851 10 852 -9 853 L -6 891 C 81 921 153 937 209 937 C 235 937 257 932 274 922 C 291 912 304 899 314 882 C 323 865 334 841 346 810 C 358 779 371 744 384 705 C 396 665 409 622 422 576 C 434 530 446 482 458 434 C 469 386 479 338 488 290 C 496 242 503 196 509 154 C 577 270 631 389 671 509 C 711 629 739 753 757 883 Z M 659 1417 L 866 1417 L 554 1044 L 484 1044 L 659 1417 Z M 20 938 L 20 938 Z" unicode="ý" />
<glyph horiz-adv-x="1052" d="M 170 429 L 362 1372 L 213 1398 L 213 1433 C 324 1454 438 1478 556 1506 L 565 1494 C 553 1444 538 1379 522 1301 C 506 1223 488 1138 468 1046 L 422 821 C 562 898 653 937 697 937 C 774 937 839 905 892 843 C 944 780 971 697 971 594 C 971 420 916 274 808 154 C 700 34 562 -25 394 -25 C 348 -25 301 -20 251 -11 L 206 -232 C 198 -265 193 -293 189 -316 C 185 -339 181 -358 179 -372 C 176 -392 183 -404 199 -408 L 334 -445 L 327 -486 C 224 -484 144 -483 88 -483 C 22 -483 -54 -484 -143 -486 L -139 -445 L -28 -411 C -10 -405 0 -394 3 -380 C 8 -355 15 -324 23 -288 C 31 -251 39 -208 49 -159 L 170 429 Z M 270 73 C 316 63 359 58 397 58 C 515 58 609 108 679 209 C 748 310 783 423 783 548 C 783 620 769 681 742 731 C 715 781 677 806 629 806 C 567 806 492 784 405 742 L 270 73 Z" unicode="þ" />
<glyph horiz-adv-x="983" d="M 757 883 C 823 900 887 918 951 938 L 960 930 C 933 834 901 743 865 655 C 829 567 791 483 752 405 C 712 327 673 254 634 187 C 595 119 560 59 528 6 C 481 -68 441 -140 409 -212 C 377 -283 349 -347 325 -405 C 315 -427 305 -445 296 -457 C 286 -469 275 -479 261 -486 C 247 -492 230 -497 210 -499 C 190 -501 167 -502 139 -502 C 68 -502 5 -498 -50 -492 L -54 -454 C -16 -449 18 -441 49 -429 C 79 -417 106 -402 129 -384 C 142 -373 156 -359 172 -342 C 188 -324 207 -301 229 -272 C 251 -242 277 -206 307 -162 C 336 -118 371 -64 412 0 L 374 9 C 369 45 362 88 353 136 C 343 184 332 234 320 286 C 307 338 294 391 280 444 C 266 496 251 545 237 590 C 223 635 209 675 196 709 C 183 743 172 768 162 784 C 151 799 140 811 129 821 C 117 830 105 837 91 841 C 77 845 61 847 45 849 C 28 851 10 852 -9 853 L -6 891 C 81 921 153 937 209 937 C 235 937 257 932 274 922 C 291 912 304 899 314 882 C 323 865 334 841 346 810 C 358 779 371 744 384 705 C 396 665 409 622 422 576 C 434 530 446 482 458 434 C 469 386 479 338 488 290 C 496 242 503 196 509 154 C 577 270 631 389 671 509 C 711 629 739 753 757 883 Z M 510 1304 C 510 1270 499 1243 479 1222 C 459 1200 434 1190 404 1190 C 374 1190 349 1199 330 1219 C 310 1239 301 1265 301 1297 C 301 1331 311 1358 331 1378 C 351 1398 377 1409 408 1409 C 438 1409 463 1399 482 1381 C 500 1362 510 1336 510 1304 Z M 883 1304 C 883 1270 872 1243 852 1222 C 832 1200 807 1190 777 1190 C 747 1190 722 1199 703 1219 C 683 1239 674 1265 674 1297 C 674 1331 684 1358 704 1378 C 724 1398 750 1409 781 1409 C 811 1409 835 1399 854 1381 C 873 1362 883 1336 883 1304 Z M 20 938 L 20 938 Z" unicode="ÿ" />
<glyph horiz-adv-x="1353" d="M 299 42 L 292 -3 C 208 -1 130 0 58 0 C -14 0 -79 -1 -138 -3 L -134 40 L -33 71 C -17 76 -3 83 8 91 C 20 99 31 109 41 119 C 51 129 59 139 67 150 C 74 161 81 172 88 183 L 808 1406 L 906 1421 L 1117 198 C 1123 152 1132 121 1144 104 C 1155 87 1172 75 1195 68 L 1288 40 L 1282 -3 C 1198 -1 1116 0 1036 0 C 958 0 872 -1 779 -3 L 783 40 L 878 68 C 892 72 903 78 912 86 C 921 93 926 107 926 129 C 926 150 921 190 911 249 L 867 520 L 400 520 L 248 252 C 226 214 209 182 196 156 C 182 130 176 111 176 100 C 176 93 178 87 184 82 C 189 77 198 73 210 69 L 299 42 Z M 852 608 L 762 1159 L 450 608 L 852 608 Z M 620 1557 L 641 1663 L 1141 1663 L 1120 1557 L 620 1557 Z M 250 1400 L 250 1400 Z" unicode="Ā" />
<glyph horiz-adv-x="1052" d="M 960 930 C 951 899 940 859 928 809 C 915 759 892 651 858 486 L 795 174 C 792 160 791 147 791 135 C 791 106 801 86 822 76 C 843 66 881 61 936 63 L 933 24 C 846 -4 782 -18 741 -18 C 703 -18 672 -6 649 16 C 626 38 615 71 615 115 C 615 121 615 132 616 147 C 549 88 492 45 445 18 C 397 -8 364 -22 345 -22 C 259 -22 192 10 143 76 C 93 142 69 223 69 321 C 69 495 121 641 226 760 C 330 879 463 939 623 939 C 684 939 754 926 834 902 C 866 909 905 921 949 938 L 960 930 Z M 751 819 C 702 847 654 861 608 861 C 510 861 427 809 359 707 C 291 604 257 491 257 367 C 257 295 270 235 296 186 C 322 136 360 112 408 112 C 423 112 449 121 487 139 C 524 157 572 187 630 231 L 751 819 Z M 408 1190 L 429 1296 L 949 1296 L 928 1190 L 408 1190 Z M 112 938 L 112 938 Z" unicode="ā" />
<glyph horiz-adv-x="1353" d="M 299 42 L 292 -3 C 208 -1 130 0 58 0 C -14 0 -79 -1 -138 -3 L -134 40 L -33 71 C -17 76 -3 83 8 91 C 20 99 31 109 41 119 C 51 129 59 139 67 150 C 74 161 81 172 88 183 L 808 1406 L 906 1421 L 1117 198 C 1123 152 1132 121 1144 104 C 1155 87 1172 75 1195 68 L 1288 40 L 1282 -3 C 1198 -1 1116 0 1036 0 C 958 0 872 -1 779 -3 L 783 40 L 878 68 C 892 72 903 78 912 86 C 921 93 926 107 926 129 C 926 150 921 190 911 249 L 867 520 L 400 520 L 248 252 C 226 214 209 182 196 156 C 182 130 176 111 176 100 C 176 93 178 87 184 82 C 189 77 198 73 210 69 L 299 42 Z M 852 608 L 762 1159 L 450 608 L 852 608 Z M 710 1816 C 710 1758 724 1714 752 1684 C 780 1654 823 1639 881 1639 C 936 1639 983 1653 1021 1683 C 1059 1713 1088 1754 1110 1808 L 1178 1815 C 1164 1725 1131 1652 1077 1594 C 1023 1536 952 1508 866 1508 C 790 1508 733 1527 695 1566 C 656 1605 637 1662 637 1738 C 637 1759 639 1782 643 1808 L 710 1816 Z M 250 1400 L 250 1400 Z" unicode="Ă" />
<glyph horiz-adv-x="1052" d="M 960 930 C 951 899 940 859 928 809 C 915 759 892 651 858 486 L 795 174 C 792 160 791 147 791 135 C 791 106 801 86 822 76 C 843 66 881 61 936 63 L 933 24 C 846 -4 782 -18 741 -18 C 703 -18 672 -6 649 16 C 626 38 615 71 615 115 C 615 121 615 132 616 147 C 549 88 492 45 445 18 C 397 -8 364 -22 345 -22 C 259 -22 192 10 143 76 C 93 142 69 223 69 321 C 69 495 121 641 226 760 C 330 879 463 939 623 939 C 684 939 754 926 834 902 C 866 909 905 921 949 938 L 960 930 Z M 751 819 C 702 847 654 861 608 861 C 510 861 427 809 359 707 C 291 604 257 491 257 367 C 257 295 270 235 296 186 C 322 136 360 112 408 112 C 423 112 449 121 487 139 C 524 157 572 187 630 231 L 751 819 Z M 494 1395 C 494 1329 508 1278 538 1244 C 568 1210 611 1193 668 1193 C 726 1193 774 1209 814 1243 C 853 1277 884 1325 906 1387 L 975 1394 C 961 1296 925 1216 868 1153 C 811 1090 738 1059 648 1059 C 574 1059 517 1080 479 1123 C 440 1166 421 1229 421 1311 C 421 1334 423 1359 427 1387 L 494 1395 Z M 112 938 L 112 938 Z" unicode="ă" />
<glyph horiz-adv-x="1353" d="M 996 0 C 931 0 875 -24 827 -74 C 779 -124 755 -183 755 -252 C 755 -302 770 -340 802 -364 C 834 -388 878 -401 936 -402 C 952 -402 967 -401 981 -400 L 986 -439 C 888 -473 814 -490 765 -490 C 710 -490 667 -473 635 -441 C 603 -409 587 -366 587 -314 C 587 -250 607 -191 649 -135 C 691 -79 750 -27 828 21 C 865 43 891 60 905 72 C 919 84 926 100 926 122 C 926 148 921 190 911 249 L 867 520 L 400 520 L 248 252 C 226 214 209 182 196 156 C 182 130 176 111 176 100 C 176 93 178 87 184 82 C 189 77 198 73 210 69 L 299 42 L 292 -3 C 208 -1 130 0 58 0 C -14 0 -79 -1 -138 -3 L -134 40 L -33 71 C -17 76 -3 83 8 91 C 20 99 31 109 41 119 C 51 129 59 139 67 150 C 74 161 81 172 88 183 L 808 1406 L 906 1421 L 1117 198 C 1123 152 1132 121 1144 104 C 1155 87 1172 75 1195 68 L 1288 40 L 1282 -3 C 1198 -1 1102 0 996 0 Z M 852 608 L 762 1159 L 450 608 L 852 608 Z" unicode="Ą" />
<glyph horiz-adv-x="1052" d="M 960 930 C 955 914 950 897 945 877 C 940 857 934 834 928 809 C 921 783 912 744 901 691 C 889 637 875 569 858 486 L 795 174 C 792 162 791 149 791 135 C 791 121 793 109 798 99 C 803 89 811 82 823 76 C 834 70 849 67 867 65 C 885 63 908 62 936 63 L 933 24 C 861 0 803 -13 757 -17 C 658 -73 609 -152 609 -252 C 609 -302 624 -340 656 -364 C 687 -388 732 -401 790 -402 C 804 -402 819 -401 835 -400 L 840 -439 C 742 -473 668 -490 619 -490 C 565 -490 522 -474 490 -442 C 457 -410 441 -367 441 -314 C 441 -194 517 -90 671 -1 C 633 21 615 60 615 117 C 615 120 615 130 616 147 C 549 88 492 45 445 18 C 397 -8 364 -22 345 -22 C 259 -22 192 10 143 76 C 93 142 69 224 69 321 C 69 495 121 641 226 760 C 331 879 463 939 623 939 C 685 939 756 926 834 902 C 866 908 904 920 949 938 L 960 930 Z M 751 819 C 701 847 654 861 608 861 C 510 861 427 809 359 707 C 291 603 257 490 257 367 C 257 295 270 234 296 186 C 323 136 360 112 408 112 C 423 112 449 121 487 139 C 524 157 572 187 630 231 L 751 819 Z" unicode="ą" />
<glyph horiz-adv-x="1320" d="M 1255 1051 L 1214 1045 L 1191 1310 C 1124 1329 1051 1339 972 1339 C 785 1339 631 1264 510 1116 C 388 968 328 790 328 582 C 328 426 372 304 462 216 C 551 128 673 84 828 84 C 928 84 1033 103 1142 141 L 1154 100 C 1019 13 871 -30 711 -30 C 531 -30 387 23 279 131 C 171 239 117 382 117 562 C 117 814 202 1020 372 1181 C 542 1342 755 1423 1012 1423 C 1122 1423 1240 1409 1366 1382 L 1371 1374 L 1255 1051 Z M 1231 1636 L 815 1486 L 792 1527 L 1115 1770 L 1231 1651 L 1231 1636 Z M 370 1400 L 370 1400 Z" unicode="Ć" />
<glyph horiz-adv-x="936" d="M 770 182 L 792 148 C 743 96 685 54 617 24 C 549 -5 484 -21 420 -21 C 319 -21 236 13 171 81 C 106 149 74 242 74 360 C 74 524 130 661 243 772 C 356 882 492 938 652 938 C 738 938 821 920 901 885 C 876 791 856 701 840 616 L 801 610 L 725 843 C 697 851 667 855 637 855 C 527 855 437 810 367 720 C 297 630 262 520 262 391 C 262 298 284 226 328 176 C 372 126 435 101 517 101 C 591 101 675 128 770 182 Z M 760 1417 L 967 1417 L 655 1044 L 585 1044 L 760 1417 Z M 121 938 L 121 938 Z" unicode="ć" />
<glyph horiz-adv-x="1320" d="M 1255 1051 L 1214 1045 L 1191 1310 C 1124 1329 1051 1339 972 1339 C 785 1339 631 1264 510 1116 C 388 968 328 790 328 582 C 328 426 372 304 462 216 C 551 128 673 84 828 84 C 928 84 1033 103 1142 141 L 1154 100 C 1019 13 871 -30 711 -30 C 531 -30 387 23 279 131 C 171 239 117 382 117 562 C 117 814 202 1020 372 1181 C 542 1342 755 1423 1012 1423 C 1122 1423 1240 1409 1366 1382 L 1371 1374 L 1255 1051 Z M 1052 1770 L 1315 1531 L 1288 1485 L 996 1620 L 679 1485 L 653 1531 L 962 1770 L 1052 1770 Z M 370 1400 L 370 1400 Z" unicode="Ĉ" />
<glyph horiz-adv-x="936" d="M 770 182 L 792 148 C 743 96 685 54 617 24 C 549 -5 484 -21 420 -21 C 319 -21 236 13 171 81 C 106 149 74 242 74 360 C 74 524 130 661 243 772 C 356 882 492 938 652 938 C 738 938 821 920 901 885 C 876 791 856 701 840 616 L 801 610 L 725 843 C 697 851 667 855 637 855 C 527 855 437 810 367 720 C 297 630 262 520 262 391 C 262 298 284 226 328 176 C 372 126 435 101 517 101 C 591 101 675 128 770 182 Z M 941 1044 L 869 1044 L 693 1273 L 437 1044 L 361 1044 L 644 1417 L 791 1417 L 941 1044 Z M 121 938 L 121 938 Z" unicode="ĉ" />
<glyph horiz-adv-x="1320" d="M 1255 1051 L 1214 1045 L 1191 1310 C 1124 1329 1051 1339 972 1339 C 785 1339 631 1264 510 1116 C 388 968 328 790 328 582 C 328 426 372 304 462 216 C 551 128 673 84 828 84 C 928 84 1033 103 1142 141 L 1154 100 C 1019 13 871 -30 711 -30 C 531 -30 387 23 279 131 C 171 239 117 382 117 562 C 117 814 202 1020 372 1181 C 542 1342 755 1423 1012 1423 C 1122 1423 1240 1409 1366 1382 L 1371 1374 L 1255 1051 Z M 1103 1632 C 1103 1597 1092 1569 1071 1547 C 1049 1525 1023 1515 991 1515 C 959 1515 933 1525 913 1545 C 893 1565 883 1592 883 1624 C 883 1659 893 1687 915 1708 C 936 1728 963 1739 996 1739 C 1028 1739 1053 1729 1073 1710 C 1093 1691 1103 1665 1103 1632 Z M 370 1400 L 370 1400 Z" unicode="Ċ" />
<glyph horiz-adv-x="936" d="M 770 182 L 792 148 C 743 96 685 54 617 24 C 549 -5 484 -21 420 -21 C 319 -21 236 13 171 81 C 106 149 74 242 74 360 C 74 524 130 661 243 772 C 356 882 492 938 652 938 C 738 938 821 920 901 885 C 876 791 856 701 840 616 L 801 610 L 725 843 C 697 851 667 855 637 855 C 527 855 437 810 367 720 C 297 630 262 520 262 391 C 262 298 284 226 328 176 C 372 126 435 101 517 101 C 591 101 675 128 770 182 Z M 806 1298 C 806 1263 795 1235 774 1213 C 752 1191 726 1181 694 1181 C 662 1181 636 1191 616 1211 C 596 1231 586 1258 586 1290 C 586 1325 596 1353 618 1374 C 639 1394 666 1405 699 1405 C 730 1405 756 1395 776 1376 C 796 1357 806 1331 806 1298 Z M 121 938 L 121 938 Z" unicode="ċ" />
<glyph horiz-adv-x="1320" d="M 1255 1051 L 1214 1045 L 1191 1310 C 1124 1329 1051 1339 972 1339 C 785 1339 631 1264 510 1116 C 388 968 328 790 328 582 C 328 426 372 304 462 216 C 551 128 673 84 828 84 C 928 84 1033 103 1142 141 L 1154 100 C 1019 13 871 -30 711 -30 C 531 -30 387 23 279 131 C 171 239 117 382 117 562 C 117 814 202 1020 372 1181 C 542 1342 755 1423 1012 1423 C 1122 1423 1240 1409 1366 1382 L 1371 1374 L 1255 1051 Z M 936 1498 L 673 1737 L 700 1783 L 992 1648 L 1309 1783 L 1335 1737 L 1026 1498 L 936 1498 Z M 370 1400 L 370 1400 Z" unicode="Č" />
<glyph horiz-adv-x="936" d="M 770 182 L 792 148 C 743 96 685 54 617 24 C 549 -5 484 -21 420 -21 C 319 -21 236 13 171 81 C 106 149 74 242 74 360 C 74 524 130 661 243 772 C 356 882 492 938 652 938 C 738 938 821 920 901 885 C 876 791 856 701 840 616 L 801 610 L 725 843 C 697 851 667 855 637 855 C 527 855 437 810 367 720 C 297 630 262 520 262 391 C 262 298 284 226 328 176 C 372 126 435 101 517 101 C 591 101 675 128 770 182 Z M 422 1417 L 494 1417 L 670 1188 L 926 1417 L 1002 1417 L 719 1044 L 572 1044 L 422 1417 Z M 121 938 L 121 938 Z" unicode="č" />
<glyph horiz-adv-x="1537" d="M 259 0 C 178 0 96 -1 14 -3 L 18 40 L 143 77 C 163 82 174 92 177 108 C 182 134 188 164 195 197 C 201 230 209 267 217 307 L 372 1118 C 378 1152 384 1182 389 1210 C 393 1237 397 1262 401 1284 C 404 1300 398 1312 384 1318 L 263 1357 L 269 1400 C 357 1397 441 1396 523 1396 C 562 1396 614 1397 679 1401 C 744 1404 799 1406 844 1406 C 1042 1406 1197 1360 1308 1270 C 1418 1179 1474 1048 1474 877 C 1474 614 1391 401 1227 238 C 1062 75 841 -6 565 -6 C 529 -6 479 -5 414 -3 C 348 -1 297 0 259 0 Z M 368 86 C 430 76 504 72 590 72 C 794 72 958 149 1080 303 C 1202 457 1264 650 1264 882 C 1264 1030 1226 1140 1152 1214 C 1078 1287 964 1324 811 1324 C 751 1324 681 1321 601 1316 L 368 86 Z M 816 1498 L 553 1737 L 580 1783 L 872 1648 L 1189 1783 L 1215 1737 L 906 1498 L 816 1498 Z M 250 1400 L 250 1400 Z" unicode="Ď" />
<glyph horiz-adv-x="1200" d="M 725 1398 L 725 1433 C 841 1455 956 1479 1072 1506 L 1081 1494 C 1069 1444 1054 1379 1037 1301 C 1019 1223 1001 1137 983 1045 L 804 174 C 801 160 800 147 800 135 C 800 106 810 86 831 76 C 852 66 890 61 945 63 L 942 24 C 856 -4 792 -18 751 -18 C 712 -18 681 -6 659 16 C 636 38 625 71 625 115 C 625 121 625 132 626 147 C 557 88 499 45 451 18 C 403 -8 369 -22 349 -22 C 263 -22 194 10 144 76 C 93 142 68 223 68 321 C 68 495 121 641 229 759 C 337 877 472 937 635 937 C 679 937 728 932 782 924 L 875 1372 L 725 1398 Z M 760 822 C 710 846 662 859 614 859 C 514 859 429 808 360 706 C 290 604 256 491 256 367 C 256 295 269 235 296 186 C 323 136 361 112 411 112 C 427 112 454 121 492 139 C 530 157 580 187 640 231 L 760 822 Z M 1122 1034 C 1191 1103 1226 1171 1226 1238 C 1226 1294 1197 1337 1139 1368 C 1141 1402 1152 1428 1174 1447 C 1196 1466 1223 1476 1256 1476 C 1290 1476 1318 1463 1340 1439 C 1362 1415 1373 1382 1373 1342 C 1373 1223 1300 1108 1156 996 L 1122 1034 Z M 1062 938 L 1062 938 Z" unicode="ď" />
<glyph horiz-adv-x="1537" d="M 259 0 C 178 0 96 -1 14 -3 L 18 40 L 143 77 C 163 82 174 92 177 108 C 182 134 188 164 195 197 C 201 230 209 267 217 307 L 290 692 L 139 692 L 156 781 L 307 781 L 372 1118 C 378 1152 384 1182 389 1210 C 393 1237 397 1262 401 1284 C 404 1300 398 1312 384 1318 L 263 1357 L 269 1400 C 357 1397 441 1396 523 1396 C 562 1396 614 1397 679 1401 C 744 1404 799 1406 844 1406 C 1042 1406 1197 1360 1308 1270 C 1418 1179 1474 1048 1474 877 C 1474 614 1391 401 1227 238 C 1062 75 841 -6 565 -6 C 529 -6 479 -5 414 -3 C 348 -1 297 0 259 0 Z M 368 86 C 430 76 504 72 590 72 C 794 72 958 149 1080 303 C 1202 457 1264 650 1264 882 C 1264 1030 1226 1140 1152 1214 C 1078 1287 964 1324 811 1324 C 751 1324 681 1321 601 1316 L 500 781 L 826 781 L 809 692 L 483 692 L 368 86 Z" unicode="Đ" />
<glyph horiz-adv-x="1062" d="M 725 1398 L 725 1433 C 841 1455 956 1479 1072 1506 L 1081 1494 C 1069 1444 1054 1379 1037 1301 C 1028 1263 1019 1224 1011 1184 L 1169 1184 L 1153 1104 L 995 1104 L 804 174 C 801 160 800 147 800 135 C 800 106 810 86 831 76 C 852 66 890 61 945 63 L 942 24 C 856 -4 792 -18 751 -18 C 712 -18 681 -6 659 16 C 636 38 625 71 625 115 C 625 121 625 132 626 147 C 557 88 499 45 451 18 C 403 -8 369 -22 349 -22 C 263 -22 194 10 144 76 C 93 142 68 223 68 321 C 68 495 121 637 227 747 C 333 857 467 913 630 913 C 674 913 723 908 777 900 L 819 1104 L 469 1104 L 485 1184 L 836 1184 L 875 1372 L 725 1398 Z M 755 798 C 705 822 657 835 609 835 C 509 835 425 788 357 694 C 289 600 256 491 256 367 C 256 295 269 235 296 186 C 323 136 361 112 411 112 C 427 112 454 121 492 139 C 530 157 580 187 640 231 L 755 798 Z" unicode="đ" />
<glyph horiz-adv-x="1166" d="M 520 1396 L 740 1396 C 889 1396 1047 1397 1214 1400 L 1219 1392 L 1106 1083 L 1064 1076 L 1045 1309 L 600 1309 L 495 756 L 596 756 C 644 756 710 756 796 757 C 814 758 827 767 835 784 L 897 920 L 951 922 C 930 826 915 755 907 711 C 899 667 887 601 872 511 L 818 507 L 807 645 C 805 662 797 671 782 672 C 723 673 655 674 579 674 L 479 674 L 410 309 C 396 235 382 161 370 88 L 837 88 L 997 344 L 1046 352 L 963 4 L 956 -3 C 784 -1 624 0 478 0 L 259 0 C 178 0 96 -1 14 -3 L 18 40 L 143 77 C 161 81 172 92 177 108 C 182 134 188 164 195 197 C 201 230 209 267 217 307 L 372 1118 C 378 1152 384 1182 389 1210 C 393 1237 397 1262 401 1284 C 404 1301 398 1312 384 1318 L 263 1357 L 269 1400 C 357 1397 440 1396 520 1396 Z M 540 1557 L 561 1663 L 1061 1663 L 1040 1557 L 540 1557 Z M 170 1400 L 170 1400 Z" unicode="Ē" />
<glyph horiz-adv-x="916" d="M 262 436 C 259 412 258 390 258 369 C 258 283 279 216 321 170 C 363 124 422 101 499 101 C 586 101 675 125 767 175 L 789 140 C 743 91 685 52 615 22 C 545 -7 475 -22 406 -22 C 305 -22 224 11 162 79 C 100 147 70 234 70 342 C 70 395 76 447 89 497 C 102 547 120 594 144 638 C 168 682 196 723 229 760 C 262 796 299 828 340 855 C 381 881 425 902 473 917 C 520 931 570 939 622 939 C 704 939 766 921 810 886 C 854 851 876 805 876 749 C 875 647 813 571 689 520 C 565 469 423 441 262 436 Z M 273 509 C 415 518 521 543 593 584 C 664 624 700 677 700 741 C 700 776 689 804 668 824 C 646 844 617 854 581 854 C 513 854 450 823 394 761 C 338 699 297 615 273 509 Z M 377 1190 L 398 1296 L 918 1296 L 897 1190 L 377 1190 Z M 81 938 L 81 938 Z" unicode="ē" />
<glyph horiz-adv-x="1166" d="M 520 1396 L 740 1396 C 889 1396 1047 1397 1214 1400 L 1219 1392 L 1106 1083 L 1064 1076 L 1045 1309 L 600 1309 L 495 756 L 596 756 C 644 756 710 756 796 757 C 814 758 827 767 835 784 L 897 920 L 951 922 C 930 826 915 755 907 711 C 899 667 887 601 872 511 L 818 507 L 807 645 C 805 662 797 671 782 672 C 723 673 655 674 579 674 L 479 674 L 410 309 C 396 235 382 161 370 88 L 837 88 L 997 344 L 1046 352 L 963 4 L 956 -3 C 784 -1 624 0 478 0 L 259 0 C 178 0 96 -1 14 -3 L 18 40 L 143 77 C 161 81 172 92 177 108 C 182 134 188 164 195 197 C 201 230 209 267 217 307 L 372 1118 C 378 1152 384 1182 389 1210 C 393 1237 397 1262 401 1284 C 404 1301 398 1312 384 1318 L 263 1357 L 269 1400 C 357 1397 440 1396 520 1396 Z M 630 1816 C 630 1758 644 1714 672 1684 C 700 1654 743 1639 801 1639 C 856 1639 903 1653 941 1683 C 979 1713 1008 1754 1030 1808 L 1098 1815 C 1084 1725 1051 1652 997 1594 C 943 1536 872 1508 786 1508 C 710 1508 653 1527 615 1566 C 576 1605 557 1662 557 1738 C 557 1759 559 1782 563 1808 L 630 1816 Z M 170 1400 L 170 1400 Z" unicode="Ĕ" />
<glyph horiz-adv-x="916" d="M 262 436 C 259 412 258 390 258 369 C 258 283 279 216 321 170 C 363 124 422 101 499 101 C 586 101 675 125 767 175 L 789 140 C 743 91 685 52 615 22 C 545 -7 475 -22 406 -22 C 305 -22 224 11 162 79 C 100 147 70 234 70 342 C 70 395 76 447 89 497 C 102 547 120 594 144 638 C 168 682 196 723 229 760 C 262 796 299 828 340 855 C 381 881 425 902 473 917 C 520 931 570 939 622 939 C 704 939 766 921 810 886 C 854 851 876 805 876 749 C 875 647 813 571 689 520 C 565 469 423 441 262 436 Z M 273 509 C 415 518 521 543 593 584 C 664 624 700 677 700 741 C 700 776 689 804 668 824 C 646 844 617 854 581 854 C 513 854 450 823 394 761 C 338 699 297 615 273 509 Z M 463 1395 C 463 1329 477 1278 507 1244 C 537 1210 580 1193 637 1193 C 695 1193 743 1209 783 1243 C 822 1277 853 1325 875 1387 L 944 1394 C 930 1296 894 1216 837 1153 C 780 1090 707 1059 617 1059 C 543 1059 486 1080 448 1123 C 409 1166 390 1229 390 1311 C 390 1334 392 1359 396 1387 L 463 1395 Z M 81 938 L 81 938 Z" unicode="ĕ" />
<glyph horiz-adv-x="1166" d="M 520 1396 L 740 1396 C 889 1396 1047 1397 1214 1400 L 1219 1392 L 1106 1083 L 1064 1076 L 1045 1309 L 600 1309 L 495 756 L 596 756 C 644 756 710 756 796 757 C 814 758 827 767 835 784 L 897 920 L 951 922 C 930 826 915 755 907 711 C 899 667 887 601 872 511 L 818 507 L 807 645 C 805 662 797 671 782 672 C 723 673 655 674 579 674 L 479 674 L 410 309 C 396 235 382 161 370 88 L 837 88 L 997 344 L 1046 352 L 963 4 L 956 -3 C 784 -1 624 0 478 0 L 259 0 C 178 0 96 -1 14 -3 L 18 40 L 143 77 C 161 81 172 92 177 108 C 182 134 188 164 195 197 C 201 230 209 267 217 307 L 372 1118 C 378 1152 384 1182 389 1210 C 393 1237 397 1262 401 1284 C 404 1301 398 1312 384 1318 L 263 1357 L 269 1400 C 357 1397 440 1396 520 1396 Z M 903 1632 C 903 1597 892 1569 871 1547 C 849 1525 823 1515 791 1515 C 759 1515 733 1525 713 1545 C 693 1565 683 1592 683 1624 C 683 1659 693 1687 715 1708 C 736 1728 763 1739 796 1739 C 828 1739 853 1729 873 1710 C 893 1691 903 1665 903 1632 Z M 170 1400 L 170 1400 Z" unicode="Ė" />
<glyph horiz-adv-x="916" d="M 262 436 C 259 412 258 390 258 369 C 258 283 279 216 321 170 C 363 124 422 101 499 101 C 586 101 675 125 767 175 L 789 140 C 743 91 685 52 615 22 C 545 -7 475 -22 406 -22 C 305 -22 224 11 162 79 C 100 147 70 234 70 342 C 70 395 76 447 89 497 C 102 547 120 594 144 638 C 168 682 196 723 229 760 C 262 796 299 828 340 855 C 381 881 425 902 473 917 C 520 931 570 939 622 939 C 704 939 766 921 810 886 C 854 851 876 805 876 749 C 875 647 813 571 689 520 C 565 469 423 441 262 436 Z M 273 509 C 415 518 521 543 593 584 C 664 624 700 677 700 741 C 700 776 689 804 668 824 C 646 844 617 854 581 854 C 513 854 450 823 394 761 C 338 699 297 615 273 509 Z M 766 1298 C 766 1263 755 1235 734 1213 C 712 1191 686 1181 654 1181 C 622 1181 596 1191 576 1211 C 556 1231 546 1258 546 1290 C 546 1325 556 1353 578 1374 C 599 1394 626 1405 659 1405 C 690 1405 716 1395 736 1376 C 756 1357 766 1331 766 1298 Z M 81 938 L 81 938 Z" unicode="ė" />
<glyph horiz-adv-x="1166" d="M 520 1396 L 740 1396 C 889 1396 1047 1397 1214 1400 L 1219 1392 L 1106 1083 L 1064 1076 L 1045 1309 L 600 1309 L 495 756 L 596 756 C 644 756 710 756 796 757 C 814 758 827 767 835 784 L 897 920 L 951 922 C 930 826 915 755 907 711 C 899 667 887 601 872 511 L 818 507 L 807 645 C 805 662 797 671 782 672 C 723 673 655 674 579 674 L 479 674 L 410 309 C 396 235 382 161 370 88 L 837 88 L 997 344 L 1046 352 L 963 4 L 956 -3 L 849 0 C 796 -7 748 -34 704 -80 C 660 -126 638 -183 638 -252 C 638 -302 653 -340 685 -364 C 717 -388 761 -401 819 -402 C 835 -402 850 -401 864 -400 L 869 -439 C 771 -473 697 -490 648 -490 C 593 -490 550 -473 518 -441 C 486 -409 470 -366 470 -314 C 470 -193 547 -88 702 0 L 259 0 C 178 0 96 -1 14 -3 L 18 40 L 143 77 C 161 81 172 92 177 108 C 182 134 188 164 195 197 C 201 230 209 267 217 307 L 372 1118 C 378 1152 384 1182 389 1210 C 393 1237 397 1262 401 1284 C 404 1301 398 1312 384 1318 L 263 1357 L 269 1400 C 357 1397 440 1396 520 1396 Z" unicode="Ę" />
<glyph horiz-adv-x="916" d="M 262 436 C 259 412 258 390 258 369 C 258 283 279 216 321 170 C 363 124 422 101 499 101 C 586 101 675 125 767 175 L 789 140 C 749 98 701 63 644 35 C 508 -46 441 -142 441 -252 C 441 -302 456 -340 488 -364 C 520 -388 564 -401 622 -402 C 638 -402 653 -401 667 -400 L 672 -439 C 574 -473 500 -490 451 -490 C 396 -490 353 -473 321 -441 C 289 -409 273 -366 273 -314 C 273 -205 338 -107 468 -20 L 467 -17 C 445 -20 425 -22 406 -22 C 305 -22 224 11 162 79 C 100 147 70 234 70 342 C 70 395 76 447 89 497 C 102 547 120 594 144 638 C 168 682 196 723 229 760 C 262 796 299 828 340 855 C 381 881 425 902 473 917 C 520 931 570 939 622 939 C 704 939 766 921 810 886 C 854 851 876 805 876 749 C 875 647 813 571 689 520 C 565 469 423 441 262 436 Z M 273 509 C 415 518 521 543 593 584 C 664 624 700 677 700 741 C 700 776 689 804 668 824 C 646 844 617 854 581 854 C 513 854 450 823 394 761 C 338 699 297 615 273 509 Z" unicode="ę" />
<glyph horiz-adv-x="1166" d="M 520 1396 L 740 1396 C 889 1396 1047 1397 1214 1400 L 1219 1392 L 1106 1083 L 1064 1076 L 1045 1309 L 600 1309 L 495 756 L 596 756 C 644 756 710 756 796 757 C 814 758 827 767 835 784 L 897 920 L 951 922 C 930 826 915 755 907 711 C 899 667 887 601 872 511 L 818 507 L 807 645 C 805 662 797 671 782 672 C 723 673 655 674 579 674 L 479 674 L 410 309 C 396 235 382 161 370 88 L 837 88 L 997 344 L 1046 352 L 963 4 L 956 -3 C 784 -1 624 0 478 0 L 259 0 C 178 0 96 -1 14 -3 L 18 40 L 143 77 C 161 81 172 92 177 108 C 182 134 188 164 195 197 C 201 230 209 267 217 307 L 372 1118 C 378 1152 384 1182 389 1210 C 393 1237 397 1262 401 1284 C 404 1301 398 1312 384 1318 L 263 1357 L 269 1400 C 357 1397 440 1396 520 1396 Z M 736 1498 L 473 1737 L 500 1783 L 792 1648 L 1109 1783 L 1135 1737 L 826 1498 L 736 1498 Z M 170 1400 L 170 1400 Z" unicode="Ě" />
<glyph horiz-adv-x="916" d="M 262 436 C 259 412 258 390 258 369 C 258 283 279 216 321 170 C 363 124 422 101 499 101 C 586 101 675 125 767 175 L 789 140 C 743 91 685 52 615 22 C 545 -7 475 -22 406 -22 C 305 -22 224 11 162 79 C 100 147 70 234 70 342 C 70 395 76 447 89 497 C 102 547 120 594 144 638 C 168 682 196 723 229 760 C 262 796 299 828 340 855 C 381 881 425 902 473 917 C 520 931 570 939 622 939 C 704 939 766 921 810 886 C 854 851 876 805 876 749 C 875 647 813 571 689 520 C 565 469 423 441 262 436 Z M 273 509 C 415 518 521 543 593 584 C 664 624 700 677 700 741 C 700 776 689 804 668 824 C 646 844 617 854 581 854 C 513 854 450 823 394 761 C 338 699 297 615 273 509 Z M 382 1417 L 454 1417 L 630 1188 L 886 1417 L 962 1417 L 679 1044 L 532 1044 L 382 1417 Z M 81 938 L 81 938 Z" unicode="ě" />
<glyph horiz-adv-x="1387" d="M 1253 1051 L 1212 1045 L 1188 1310 C 1125 1329 1055 1339 978 1339 C 786 1339 629 1265 508 1118 C 386 970 326 793 326 586 C 326 431 367 303 451 202 C 534 101 644 51 780 51 C 827 51 876 56 928 68 L 979 340 C 986 374 992 404 996 431 C 1000 458 1005 483 1010 506 C 1010 522 1004 534 992 540 L 871 579 L 877 622 C 965 619 1048 618 1125 618 C 1205 618 1281 619 1354 622 L 1350 579 L 1240 546 C 1222 541 1211 531 1207 516 C 1201 489 1196 462 1190 434 C 1184 406 1178 376 1172 344 L 1111 27 L 1104 20 C 979 -13 858 -30 741 -30 C 545 -30 392 21 281 124 C 169 226 114 370 114 555 C 114 812 198 1021 366 1182 C 534 1342 751 1423 1018 1423 C 1130 1423 1245 1409 1364 1382 L 1369 1374 L 1253 1051 Z M 1053 1770 L 1316 1531 L 1289 1485 L 997 1620 L 680 1485 L 654 1531 L 963 1770 L 1053 1770 Z M 371 1400 L 371 1400 Z" unicode="Ĝ" />
<glyph horiz-adv-x="1041" d="M 623 142 C 555 88 498 49 451 25 C 404 0 371 -12 351 -12 C 267 -12 200 20 148 84 C 96 148 70 229 70 325 C 70 499 122 644 228 762 C 334 880 468 939 631 939 C 692 939 763 926 843 902 C 859 905 876 910 896 916 C 915 922 936 930 959 938 L 969 930 C 965 914 960 896 955 876 C 949 856 944 833 939 808 C 933 784 923 745 911 691 C 899 637 884 568 867 486 L 809 204 C 783 81 753 -24 719 -112 C 684 -200 644 -272 599 -330 C 553 -387 502 -429 446 -456 C 389 -483 326 -497 256 -497 C 174 -497 78 -480 -31 -446 C -21 -383 -5 -320 15 -256 L 22 -253 C 160 -344 263 -390 331 -390 C 365 -390 395 -381 421 -365 C 447 -349 470 -323 492 -288 C 514 -253 534 -208 552 -152 C 570 -96 588 -29 604 50 L 623 142 Z M 762 819 C 714 847 666 861 617 861 C 517 861 432 810 362 709 C 292 608 258 497 258 375 C 258 301 271 241 298 194 C 324 146 363 123 413 123 C 455 123 532 159 642 231 L 762 819 Z M 940 1044 L 868 1044 L 692 1273 L 436 1044 L 360 1044 L 643 1417 L 790 1417 L 940 1044 Z M 120 938 L 120 938 Z" unicode="ĝ" />
<glyph horiz-adv-x="1387" d="M 1253 1051 L 1212 1045 L 1188 1310 C 1125 1329 1055 1339 978 1339 C 786 1339 629 1265 508 1118 C 386 970 326 793 326 586 C 326 431 367 303 451 202 C 534 101 644 51 780 51 C 827 51 876 56 928 68 L 979 340 C 986 374 992 404 996 431 C 1000 458 1005 483 1010 506 C 1010 522 1004 534 992 540 L 871 579 L 877 622 C 965 619 1048 618 1125 618 C 1205 618 1281 619 1354 622 L 1350 579 L 1240 546 C 1222 541 1211 531 1207 516 C 1201 489 1196 462 1190 434 C 1184 406 1178 376 1172 344 L 1111 27 L 1104 20 C 979 -13 858 -30 741 -30 C 545 -30 392 21 281 124 C 169 226 114 370 114 555 C 114 812 198 1021 366 1182 C 534 1342 751 1423 1018 1423 C 1130 1423 1245 1409 1364 1382 L 1369 1374 L 1253 1051 Z M 831 1816 C 831 1758 845 1714 873 1684 C 901 1654 944 1639 1002 1639 C 1057 1639 1104 1653 1142 1683 C 1180 1713 1209 1754 1231 1808 L 1299 1815 C 1285 1725 1252 1652 1198 1594 C 1144 1536 1073 1508 987 1508 C 911 1508 854 1527 816 1566 C 777 1605 758 1662 758 1738 C 758 1759 760 1782 764 1808 L 831 1816 Z M 371 1400 L 371 1400 Z" unicode="Ğ" />
<glyph horiz-adv-x="1041" d="M 623 142 C 555 88 498 49 451 25 C 404 0 371 -12 351 -12 C 267 -12 200 20 148 84 C 96 148 70 229 70 325 C 70 499 122 644 228 762 C 334 880 468 939 631 939 C 692 939 763 926 843 902 C 859 905 876 910 896 916 C 915 922 936 930 959 938 L 969 930 C 965 914 960 896 955 876 C 949 856 944 833 939 808 C 933 784 923 745 911 691 C 899 637 884 568 867 486 L 809 204 C 783 81 753 -24 719 -112 C 684 -200 644 -272 599 -330 C 553 -387 502 -429 446 -456 C 389 -483 326 -497 256 -497 C 174 -497 78 -480 -31 -446 C -21 -383 -5 -320 15 -256 L 22 -253 C 160 -344 263 -390 331 -390 C 365 -390 395 -381 421 -365 C 447 -349 470 -323 492 -288 C 514 -253 534 -208 552 -152 C 570 -96 588 -29 604 50 L 623 142 Z M 762 819 C 714 847 666 861 617 861 C 517 861 432 810 362 709 C 292 608 258 497 258 375 C 258 301 271 241 298 194 C 324 146 363 123 413 123 C 455 123 532 159 642 231 L 762 819 Z M 502 1395 C 502 1329 516 1278 546 1244 C 576 1210 619 1193 676 1193 C 734 1193 782 1209 822 1243 C 861 1277 892 1325 914 1387 L 983 1394 C 969 1296 933 1216 876 1153 C 819 1090 746 1059 656 1059 C 582 1059 525 1080 487 1123 C 448 1166 429 1229 429 1311 C 429 1334 431 1359 435 1387 L 502 1395 Z M 120 938 L 120 938 Z" unicode="ğ" />
<glyph horiz-adv-x="1387" d="M 1253 1051 L 1212 1045 L 1188 1310 C 1125 1329 1055 1339 978 1339 C 786 1339 629 1265 508 1118 C 386 970 326 793 326 586 C 326 431 367 303 451 202 C 534 101 644 51 780 51 C 827 51 876 56 928 68 L 979 340 C 986 374 992 404 996 431 C 1000 458 1005 483 1010 506 C 1010 522 1004 534 992 540 L 871 579 L 877 622 C 965 619 1048 618 1125 618 C 1205 618 1281 619 1354 622 L 1350 579 L 1240 546 C 1222 541 1211 531 1207 516 C 1201 489 1196 462 1190 434 C 1184 406 1178 376 1172 344 L 1111 27 L 1104 20 C 979 -13 858 -30 741 -30 C 545 -30 392 21 281 124 C 169 226 114 370 114 555 C 114 812 198 1021 366 1182 C 534 1342 751 1423 1018 1423 C 1130 1423 1245 1409 1364 1382 L 1369 1374 L 1253 1051 Z M 1104 1632 C 1104 1597 1093 1569 1072 1547 C 1050 1525 1024 1515 992 1515 C 960 1515 934 1525 914 1545 C 894 1565 884 1592 884 1624 C 884 1659 894 1687 916 1708 C 937 1728 964 1739 997 1739 C 1029 1739 1054 1729 1074 1710 C 1094 1691 1104 1665 1104 1632 Z M 371 1400 L 371 1400 Z" unicode="Ġ" />
<glyph horiz-adv-x="1041" d="M 623 142 C 555 88 498 49 451 25 C 404 0 371 -12 351 -12 C 267 -12 200 20 148 84 C 96 148 70 229 70 325 C 70 499 122 644 228 762 C 334 880 468 939 631 939 C 692 939 763 926 843 902 C 859 905 876 910 896 916 C 915 922 936 930 959 938 L 969 930 C 965 914 960 896 955 876 C 949 856 944 833 939 808 C 933 784 923 745 911 691 C 899 637 884 568 867 486 L 809 204 C 783 81 753 -24 719 -112 C 684 -200 644 -272 599 -330 C 553 -387 502 -429 446 -456 C 389 -483 326 -497 256 -497 C 174 -497 78 -480 -31 -446 C -21 -383 -5 -320 15 -256 L 22 -253 C 160 -344 263 -390 331 -390 C 365 -390 395 -381 421 -365 C 447 -349 470 -323 492 -288 C 514 -253 534 -208 552 -152 C 570 -96 588 -29 604 50 L 623 142 Z M 762 819 C 714 847 666 861 617 861 C 517 861 432 810 362 709 C 292 608 258 497 258 375 C 258 301 271 241 298 194 C 324 146 363 123 413 123 C 455 123 532 159 642 231 L 762 819 Z M 805 1298 C 805 1263 794 1235 773 1213 C 751 1191 725 1181 693 1181 C 661 1181 635 1191 615 1211 C 595 1231 585 1258 585 1290 C 585 1325 595 1353 617 1374 C 638 1394 665 1405 698 1405 C 729 1405 755 1395 775 1376 C 795 1357 805 1331 805 1298 Z M 120 938 L 120 938 Z" unicode="ġ" />
<glyph horiz-adv-x="1387" d="M 1253 1051 L 1212 1045 L 1188 1310 C 1125 1329 1055 1339 978 1339 C 786 1339 629 1265 508 1118 C 386 970 326 793 326 586 C 326 431 367 303 451 202 C 534 101 644 51 780 51 C 827 51 876 56 928 68 L 979 340 C 986 374 992 404 996 431 C 1000 458 1005 483 1010 506 C 1010 522 1004 534 992 540 L 871 579 L 877 622 C 965 619 1048 618 1125 618 C 1205 618 1281 619 1354 622 L 1350 579 L 1240 546 C 1222 541 1211 531 1207 516 C 1201 489 1196 462 1190 434 C 1184 406 1178 376 1172 344 L 1111 27 L 1104 20 C 979 -13 858 -30 741 -30 C 545 -30 392 21 281 124 C 169 226 114 370 114 555 C 114 812 198 1021 366 1182 C 534 1342 751 1423 1018 1423 C 1130 1423 1245 1409 1364 1382 L 1369 1374 L 1253 1051 Z M 546 -448 C 613 -396 647 -344 647 -292 C 647 -248 623 -213 577 -185 C 578 -155 588 -131 607 -113 C 626 -95 650 -87 678 -87 C 709 -87 734 -98 754 -121 C 774 -144 784 -174 784 -210 C 784 -307 716 -399 580 -486 L 546 -448 Z" unicode="Ģ" />
<glyph horiz-adv-x="1041" d="M 623 142 C 555 88 498 49 451 25 C 404 0 371 -12 351 -12 C 267 -12 200 20 148 84 C 96 148 70 229 70 325 C 70 499 122 644 228 762 C 334 880 468 939 631 939 C 692 939 763 926 843 902 C 859 905 876 910 896 916 C 915 922 936 930 959 938 L 969 930 C 965 914 960 896 955 876 C 949 856 944 833 939 808 C 933 784 923 745 911 691 C 899 637 884 568 867 486 L 809 204 C 783 81 753 -24 719 -112 C 684 -200 644 -272 599 -330 C 553 -387 502 -429 446 -456 C 389 -483 326 -497 256 -497 C 174 -497 78 -480 -31 -446 C -21 -383 -5 -320 15 -256 L 22 -253 C 160 -344 263 -390 331 -390 C 365 -390 395 -381 421 -365 C 447 -349 470 -323 492 -288 C 514 -253 534 -208 552 -152 C 570 -96 588 -29 604 50 L 623 142 Z M 762 819 C 714 847 666 861 617 861 C 517 861 432 810 362 709 C 292 608 258 497 258 375 C 258 301 271 241 298 194 C 324 146 363 123 413 123 C 455 123 532 159 642 231 L 762 819 Z M 818 1411 C 750 1359 717 1307 717 1255 C 717 1211 740 1176 787 1148 C 785 1118 775 1094 756 1076 C 737 1058 714 1050 686 1050 C 654 1050 629 1061 609 1084 C 589 1107 580 1137 580 1173 C 580 1270 648 1362 784 1449 L 818 1411 Z M 1000 938 L 1000 938 Z" unicode="ģ" />
<glyph horiz-adv-x="1597" d="M 483 694 L 409 307 C 394 228 382 162 373 109 C 370 91 377 79 393 75 L 500 40 L 494 -3 C 414 -1 335 0 257 0 C 178 0 97 -1 14 -3 L 18 40 L 143 77 C 162 82 173 92 177 108 C 189 162 202 228 217 307 L 372 1118 C 384 1184 394 1240 401 1284 C 404 1301 398 1312 384 1318 L 263 1357 L 269 1400 C 357 1397 439 1396 516 1396 C 596 1396 676 1397 755 1400 L 751 1357 L 631 1322 C 613 1318 603 1307 599 1291 C 588 1243 576 1186 564 1122 L 500 784 L 1213 784 L 1277 1122 C 1289 1186 1300 1243 1308 1291 C 1310 1307 1304 1318 1288 1322 L 1181 1357 L 1187 1400 C 1269 1397 1349 1396 1428 1396 C 1506 1396 1585 1397 1667 1400 L 1663 1357 L 1533 1318 C 1517 1312 1507 1301 1503 1284 C 1493 1240 1481 1184 1469 1118 L 1314 307 C 1300 228 1288 162 1279 108 C 1277 92 1283 82 1299 77 L 1418 40 L 1412 -3 C 1322 -1 1238 0 1161 0 C 1081 0 1003 -1 928 -3 L 932 40 L 1049 75 C 1067 79 1078 91 1082 109 C 1094 162 1107 228 1122 307 L 1196 694 L 483 694 Z M 1057 1770 L 1320 1531 L 1293 1485 L 1001 1620 L 684 1485 L 658 1531 L 967 1770 L 1057 1770 Z M 375 1400 L 375 1400 Z" unicode="Ĥ" />
<glyph horiz-adv-x="1127" d="M 80 -5 L 363 1372 L 213 1398 L 213 1433 C 327 1454 442 1478 559 1506 L 567 1494 C 555 1444 540 1379 524 1301 C 508 1223 490 1137 472 1045 L 423 816 C 553 898 670 939 772 939 C 842 939 896 920 934 883 C 972 845 991 795 991 731 C 991 701 987 670 981 639 L 878 164 C 876 156 875 150 875 144 C 874 138 874 132 874 128 C 874 101 885 83 907 75 C 929 67 966 63 1019 63 L 1016 24 C 930 -4 863 -18 814 -18 C 775 -18 745 -8 725 10 C 704 29 694 59 694 99 C 694 117 697 141 703 169 L 797 602 C 803 630 807 656 807 681 C 807 723 796 755 775 779 C 753 802 718 814 668 814 C 587 814 500 786 407 732 L 257 5 L 80 -5 Z M 546 1823 L 809 1584 L 782 1538 L 490 1673 L 173 1538 L 147 1584 L 456 1823 L 546 1823 Z M -136 1453 L -136 1453 Z" unicode="ĥ" />
<glyph horiz-adv-x="1597" d="M 480 681 L 409 307 C 394 228 382 162 373 109 C 370 91 377 79 393 75 L 500 40 L 494 -3 C 414 -1 335 0 257 0 C 178 0 97 -1 14 -3 L 18 40 L 143 77 C 162 82 173 92 177 108 C 189 162 202 228 217 307 L 350 1004 L 199 1004 L 216 1093 L 367 1093 L 372 1118 C 384 1184 394 1240 401 1284 C 404 1301 398 1312 384 1318 L 263 1357 L 269 1400 C 357 1397 439 1396 516 1396 C 596 1396 676 1397 755 1400 L 751 1357 L 631 1322 C 613 1318 603 1307 599 1291 C 588 1243 576 1186 564 1122 L 558 1093 L 1271 1093 L 1277 1122 C 1289 1186 1300 1243 1308 1291 C 1310 1307 1304 1318 1288 1322 L 1181 1357 L 1187 1400 C 1269 1397 1349 1396 1428 1396 C 1506 1396 1585 1397 1667 1400 L 1663 1357 L 1533 1318 C 1517 1312 1507 1301 1503 1284 C 1493 1240 1481 1184 1469 1118 L 1464 1093 L 1615 1093 L 1598 1004 L 1447 1004 L 1314 307 C 1300 228 1288 162 1279 108 C 1277 92 1283 82 1299 77 L 1418 40 L 1412 -3 C 1322 -1 1238 0 1161 0 C 1081 0 1003 -1 928 -3 L 932 40 L 1049 75 C 1067 79 1078 91 1082 109 C 1094 162 1107 228 1122 307 L 1193 681 L 480 681 Z M 1210 771 L 1254 1004 L 541 1004 L 497 771 L 1210 771 Z" unicode="Ħ" />
<glyph horiz-adv-x="1127" d="M 80 -5 L 308 1104 L 151 1104 L 167 1184 L 325 1184 L 363 1372 L 213 1398 L 213 1433 C 327 1454 442 1478 559 1506 L 567 1494 C 555 1444 540 1379 524 1301 C 516 1263 508 1224 500 1184 L 851 1184 L 835 1104 L 483 1104 L 418 791 C 548 872 664 913 767 913 C 837 913 891 894 929 857 C 967 820 986 770 986 706 C 986 675 982 644 976 614 L 878 164 C 876 156 875 150 875 144 C 874 138 874 132 874 128 C 874 101 885 83 907 75 C 929 67 966 63 1019 63 L 1016 24 C 930 -4 863 -18 814 -18 C 775 -18 745 -8 725 10 C 704 29 694 59 694 99 C 694 117 697 141 703 169 L 792 576 C 798 604 801 630 801 656 C 801 698 790 730 769 754 C 747 777 712 789 663 789 C 582 789 495 761 401 707 L 257 5 L 80 -5 Z" unicode="ħ" />
<glyph horiz-adv-x="692" d="M 409 307 C 401 267 394 230 388 198 C 382 165 377 135 373 109 C 371 92 380 81 401 75 L 513 40 L 506 -3 C 418 -1 336 0 260 0 C 178 0 96 -1 14 -3 L 18 40 L 143 77 C 161 81 172 92 177 108 C 182 134 188 164 195 197 C 201 230 209 267 217 307 L 372 1118 C 378 1152 384 1182 389 1210 C 393 1237 397 1262 401 1284 C 404 1301 398 1312 384 1318 L 263 1357 L 269 1400 C 357 1397 440 1396 519 1396 C 597 1396 678 1397 762 1400 L 757 1357 L 630 1320 C 613 1316 603 1305 599 1289 C 593 1265 587 1240 582 1212 C 576 1184 570 1154 564 1122 L 409 307 Z M 430 1622 C 404 1622 381 1613 360 1597 C 339 1581 316 1558 290 1528 L 243 1565 C 283 1629 321 1677 359 1710 C 396 1743 433 1760 470 1760 C 490 1760 511 1754 533 1744 C 555 1733 578 1721 601 1708 C 621 1696 641 1686 659 1677 C 677 1667 693 1663 707 1663 C 733 1663 756 1671 777 1687 C 797 1703 821 1727 847 1757 L 895 1725 C 854 1657 815 1607 778 1574 C 740 1541 703 1525 667 1525 C 647 1525 625 1530 603 1541 C 580 1551 558 1563 537 1576 C 517 1587 497 1597 479 1607 C 461 1617 444 1622 430 1622 Z M -77 1400 L -77 1400 Z" unicode="Ĩ" />
<glyph horiz-adv-x="557" d="M 302 164 C 298 150 297 138 297 128 C 297 101 308 83 330 75 C 352 67 389 63 442 63 L 439 24 C 352 -4 285 -18 237 -18 C 199 -18 170 -8 149 11 C 128 30 118 59 118 99 C 118 117 120 141 126 169 L 246 752 C 248 763 249 773 251 781 C 253 789 254 797 254 804 C 254 822 246 834 231 842 C 215 849 176 853 113 853 L 116 891 C 206 921 277 937 329 937 C 363 937 389 929 408 913 C 427 897 437 873 437 840 C 437 826 435 812 433 799 L 302 164 Z M 240 1216 C 213 1216 189 1207 167 1190 C 145 1173 121 1149 95 1118 L 46 1156 C 87 1222 127 1273 166 1307 C 204 1341 243 1359 281 1359 C 301 1359 323 1353 347 1342 C 370 1330 393 1318 417 1305 C 438 1293 458 1282 477 1272 C 495 1262 512 1258 527 1258 C 553 1258 577 1266 599 1283 C 621 1300 645 1324 672 1356 L 722 1322 C 680 1252 639 1200 601 1166 C 562 1132 524 1115 486 1115 C 464 1115 442 1120 419 1131 C 395 1142 373 1154 351 1168 C 330 1180 310 1191 291 1201 C 272 1211 255 1216 240 1216 Z M -187 938 L -187 938 Z" unicode="ĩ" />
<glyph horiz-adv-x="692" d="M 409 307 C 401 267 394 230 388 198 C 382 165 377 135 373 109 C 371 92 380 81 401 75 L 513 40 L 506 -3 C 418 -1 336 0 260 0 C 178 0 96 -1 14 -3 L 18 40 L 143 77 C 161 81 172 92 177 108 C 182 134 188 164 195 197 C 201 230 209 267 217 307 L 372 1118 C 378 1152 384 1182 389 1210 C 393 1237 397 1262 401 1284 C 404 1301 398 1312 384 1318 L 263 1357 L 269 1400 C 357 1397 440 1396 519 1396 C 597 1396 678 1397 762 1400 L 757 1357 L 630 1320 C 613 1316 603 1305 599 1289 C 593 1265 587 1240 582 1212 C 576 1184 570 1154 564 1122 L 409 307 Z M 293 1557 L 314 1663 L 814 1663 L 793 1557 L 293 1557 Z M -77 1400 L -77 1400 Z" unicode="Ī" />
<glyph horiz-adv-x="557" d="M 302 164 C 298 150 297 138 297 128 C 297 101 308 83 330 75 C 352 67 389 63 442 63 L 439 24 C 352 -4 285 -18 237 -18 C 199 -18 170 -8 149 11 C 128 30 118 59 118 99 C 118 117 120 141 126 169 L 246 752 C 248 763 249 773 251 781 C 253 789 254 797 254 804 C 254 822 246 834 231 842 C 215 849 176 853 113 853 L 116 891 C 206 921 277 937 329 937 C 363 937 389 929 408 913 C 427 897 437 873 437 840 C 437 826 435 812 433 799 L 302 164 Z M 109 1190 L 130 1296 L 650 1296 L 629 1190 L 109 1190 Z M -187 938 L -187 938 Z" unicode="ī" />
<glyph horiz-adv-x="692" d="M 409 307 C 401 267 394 230 388 198 C 382 165 377 135 373 109 C 371 92 380 81 401 75 L 513 40 L 506 -3 C 418 -1 336 0 260 0 C 178 0 96 -1 14 -3 L 18 40 L 143 77 C 161 81 172 92 177 108 C 182 134 188 164 195 197 C 201 230 209 267 217 307 L 372 1118 C 378 1152 384 1182 389 1210 C 393 1237 397 1262 401 1284 C 404 1301 398 1312 384 1318 L 263 1357 L 269 1400 C 357 1397 440 1396 519 1396 C 597 1396 678 1397 762 1400 L 757 1357 L 630 1320 C 613 1316 603 1305 599 1289 C 593 1265 587 1240 582 1212 C 576 1184 570 1154 564 1122 L 409 307 Z M 383 1816 C 383 1758 397 1714 425 1684 C 453 1654 496 1639 554 1639 C 609 1639 656 1653 694 1683 C 732 1713 761 1754 783 1808 L 851 1815 C 837 1725 804 1652 750 1594 C 696 1536 625 1508 539 1508 C 463 1508 406 1527 368 1566 C 329 1605 310 1662 310 1738 C 310 1759 312 1782 316 1808 L 383 1816 Z M -77 1400 L -77 1400 Z" unicode="Ĭ" />
<glyph horiz-adv-x="557" d="M 302 164 C 298 150 297 138 297 128 C 297 101 308 83 330 75 C 352 67 389 63 442 63 L 439 24 C 352 -4 285 -18 237 -18 C 199 -18 170 -8 149 11 C 128 30 118 59 118 99 C 118 117 120 141 126 169 L 246 752 C 248 763 249 773 251 781 C 253 789 254 797 254 804 C 254 822 246 834 231 842 C 215 849 176 853 113 853 L 116 891 C 206 921 277 937 329 937 C 363 937 389 929 408 913 C 427 897 437 873 437 840 C 437 826 435 812 433 799 L 302 164 Z M 195 1395 C 195 1329 209 1278 239 1244 C 269 1210 312 1193 369 1193 C 427 1193 475 1209 515 1243 C 554 1277 585 1325 607 1387 L 676 1394 C 662 1296 626 1216 569 1153 C 512 1090 439 1059 349 1059 C 275 1059 218 1080 180 1123 C 141 1166 122 1229 122 1311 C 122 1334 124 1359 128 1387 L 195 1395 Z M -187 938 L -187 938 Z" unicode="ĭ" />
<glyph horiz-adv-x="678" d="M 375 307 C 367 267 360 230 354 198 C 348 165 343 135 339 109 C 337 92 346 81 367 75 L 479 40 L 472 -3 C 440 -2 409 -1 379 -1 C 324 -6 274 -32 230 -79 C 185 -125 163 -183 163 -252 C 163 -302 178 -340 210 -364 C 242 -388 286 -401 344 -402 C 359 -402 374 -401 388 -400 L 394 -439 C 296 -473 222 -490 173 -490 C 118 -490 75 -473 43 -441 C 11 -409 -5 -366 -5 -314 C -5 -193 72 -89 227 -2 L 227 0 C 145 0 62 -1 -20 -3 L -16 40 L 109 77 C 127 81 138 92 143 108 C 148 134 154 164 161 197 C 167 230 175 267 183 307 L 338 1118 C 344 1152 350 1182 355 1210 C 359 1237 363 1262 367 1284 C 370 1301 364 1312 350 1318 L 229 1357 L 235 1400 C 323 1397 406 1396 485 1396 C 563 1396 644 1397 728 1400 L 723 1357 L 596 1320 C 579 1316 569 1305 565 1289 C 559 1265 553 1240 548 1212 C 542 1184 536 1154 530 1122 L 375 307 Z" unicode="Į" />
<glyph horiz-adv-x="557" d="M 302 164 C 298 150 297 138 297 128 C 297 101 308 83 330 75 C 352 67 389 63 442 63 L 439 24 C 371 2 316 -10 272 -16 C 174 -74 125 -152 125 -252 C 125 -302 140 -340 172 -364 C 203 -388 248 -401 306 -402 C 320 -402 335 -401 351 -400 L 356 -439 C 258 -473 184 -490 135 -490 C 81 -490 38 -474 6 -442 C -26 -410 -43 -367 -43 -314 C -43 -197 30 -95 177 -8 L 177 -6 C 137 11 118 46 118 99 C 118 117 120 141 126 169 L 246 752 C 248 763 249 773 251 781 C 253 789 254 797 254 804 C 254 822 246 834 231 842 C 215 849 176 853 113 853 L 116 891 C 206 921 277 937 329 937 C 363 937 389 929 408 913 C 427 897 437 873 437 840 C 437 826 435 812 433 799 L 302 164 Z M 524 1298 C 524 1263 513 1235 492 1213 C 470 1191 444 1181 412 1181 C 380 1181 354 1191 334 1211 C 314 1231 304 1258 304 1290 C 304 1325 314 1353 336 1374 C 357 1394 384 1405 417 1405 C 448 1405 474 1395 494 1376 C 514 1357 524 1331 524 1298 Z" unicode="į" />
<glyph horiz-adv-x="692" d="M 409 307 C 401 267 394 230 388 198 C 382 165 377 135 373 109 C 371 92 380 81 401 75 L 513 40 L 506 -3 C 418 -1 336 0 260 0 C 178 0 96 -1 14 -3 L 18 40 L 143 77 C 161 81 172 92 177 108 C 182 134 188 164 195 197 C 201 230 209 267 217 307 L 372 1118 C 378 1152 384 1182 389 1210 C 393 1237 397 1262 401 1284 C 404 1301 398 1312 384 1318 L 263 1357 L 269 1400 C 357 1397 440 1396 519 1396 C 597 1396 678 1397 762 1400 L 757 1357 L 630 1320 C 613 1316 603 1305 599 1289 C 593 1265 587 1240 582 1212 C 576 1184 570 1154 564 1122 L 409 307 Z M 656 1632 C 656 1597 645 1569 624 1547 C 602 1525 576 1515 544 1515 C 512 1515 486 1525 466 1545 C 446 1565 436 1592 436 1624 C 436 1659 446 1687 468 1708 C 489 1728 516 1739 549 1739 C 581 1739 606 1729 626 1710 C 646 1691 656 1665 656 1632 Z M -77 1400 L -77 1400 Z" unicode="İ" />
<glyph horiz-adv-x="557" d="M 302 164 C 298 150 297 138 297 128 C 297 101 308 83 330 75 C 352 67 389 63 442 63 L 439 24 C 352 -4 285 -18 237 -18 C 199 -18 170 -8 149 11 C 128 30 118 59 118 99 C 118 117 120 141 126 169 L 246 752 C 248 763 249 773 251 781 C 253 789 254 797 254 804 C 254 822 246 834 231 842 C 215 849 176 853 113 853 L 116 891 C 206 921 277 937 329 937 C 363 937 389 929 408 913 C 427 897 437 873 437 840 C 437 826 435 812 433 799 L 302 164 Z" unicode="ı" />
<glyph horiz-adv-x="1330" d="M 409 307 C 401 267 394 230 388 198 C 382 165 377 135 373 109 C 371 92 380 81 401 75 L 513 40 L 506 -3 C 418 -1 336 0 260 0 C 178 0 96 -1 14 -3 L 18 40 L 143 77 C 161 81 172 92 177 108 C 182 134 188 164 195 197 C 201 230 209 267 217 307 L 372 1118 C 378 1152 384 1182 389 1210 C 393 1237 397 1262 401 1284 C 404 1301 398 1312 384 1318 L 263 1357 L 269 1400 C 357 1397 440 1396 519 1396 C 597 1396 678 1397 762 1400 L 757 1357 L 630 1320 C 613 1316 603 1305 599 1289 C 593 1265 587 1240 582 1212 C 576 1184 570 1154 564 1122 L 409 307 Z M 947 1400 C 1035 1397 1118 1396 1198 1396 C 1275 1396 1355 1397 1439 1400 L 1435 1357 L 1308 1320 C 1291 1316 1280 1305 1276 1289 C 1270 1265 1265 1240 1259 1212 C 1253 1184 1248 1154 1242 1122 L 1070 216 C 1057 150 1043 91 1027 37 C 1011 -16 994 -64 974 -106 C 954 -148 929 -185 900 -218 C 870 -251 836 -280 796 -306 C 756 -332 710 -354 656 -374 C 602 -393 542 -410 476 -426 L 464 -377 C 538 -347 599 -315 645 -280 C 691 -244 729 -204 758 -159 C 787 -113 810 -62 826 -6 C 842 50 857 114 871 186 L 1050 1118 C 1056 1152 1061 1182 1066 1210 C 1071 1237 1075 1262 1079 1284 C 1081 1301 1075 1312 1061 1318 L 940 1357 L 947 1400 Z" unicode="Ĳ" />
<glyph horiz-adv-x="1094" d="M 302 164 C 298 150 297 138 297 128 C 297 101 308 83 330 75 C 352 67 389 63 442 63 L 439 24 C 352 -4 285 -18 237 -18 C 199 -18 170 -8 149 11 C 128 30 118 59 118 99 C 118 117 120 141 126 169 L 246 752 C 248 763 249 773 251 781 C 253 789 254 797 254 804 C 254 822 246 834 231 842 C 215 849 176 853 113 853 L 116 891 C 206 921 277 937 329 937 C 363 937 389 929 408 913 C 427 897 437 873 437 840 C 437 826 435 812 433 799 L 302 164 Z M 524 1298 C 524 1263 513 1235 492 1213 C 470 1191 444 1181 412 1181 C 380 1181 354 1191 334 1211 C 314 1231 304 1258 304 1290 C 304 1325 314 1353 336 1374 C 357 1394 384 1405 417 1405 C 448 1405 474 1395 494 1376 C 514 1357 524 1331 524 1298 Z M 674 853 L 677 891 C 768 921 839 937 891 937 C 925 937 951 929 970 913 C 989 897 999 873 999 840 C 999 826 997 812 995 799 L 853 114 C 827 -18 783 -126 722 -212 C 661 -298 550 -395 390 -503 L 352 -462 C 487 -330 569 -230 598 -160 C 627 -90 652 -6 672 91 L 808 752 C 810 763 811 773 813 781 C 815 789 816 797 816 804 C 816 822 808 834 793 842 C 777 849 738 853 674 853 Z M 1086 1298 C 1086 1263 1075 1235 1054 1213 C 1032 1191 1006 1181 974 1181 C 942 1181 915 1191 895 1211 C 875 1231 865 1258 865 1290 C 865 1325 875 1353 897 1374 C 918 1394 945 1405 979 1405 C 1010 1405 1036 1395 1056 1376 C 1076 1357 1086 1331 1086 1298 Z" unicode="ĳ" />
<glyph horiz-adv-x="638" d="M 255 1400 C 343 1397 426 1396 506 1396 C 583 1396 663 1397 747 1400 L 743 1357 L 616 1320 C 599 1316 588 1305 584 1289 C 578 1265 573 1240 567 1212 C 561 1184 556 1154 550 1122 L 378 216 C 365 150 351 91 335 37 C 319 -16 302 -64 282 -106 C 262 -148 237 -185 208 -218 C 178 -251 144 -280 104 -306 C 64 -332 18 -354 -35 -374 C -89 -393 -149 -410 -216 -426 L -228 -377 C -153 -347 -92 -315 -46 -280 C 0 -244 37 -204 66 -159 C 95 -113 118 -62 134 -6 C 150 50 165 114 179 186 L 358 1118 C 364 1152 369 1182 374 1210 C 379 1237 383 1262 387 1284 C 389 1301 383 1312 369 1318 L 248 1357 L 255 1400 Z M 591 1770 L 854 1531 L 827 1485 L 535 1620 L 218 1485 L 192 1531 L 501 1770 L 591 1770 Z M -91 1400 L -91 1400 Z" unicode="Ĵ" />
<glyph horiz-adv-x="537" d="M 117 853 L 120 891 C 211 921 282 937 334 937 C 368 937 394 929 413 913 C 432 897 442 873 442 840 C 442 826 440 812 438 799 L 296 114 C 270 -18 226 -126 165 -212 C 104 -298 -6 -395 -167 -503 L -205 -462 C -69 -330 12 -230 41 -160 C 70 -90 95 -6 115 91 L 251 752 C 253 763 254 773 256 781 C 258 789 259 797 259 804 C 259 822 251 834 236 842 C 220 849 181 853 117 853 Z M 625 1044 L 553 1044 L 382 1273 L 121 1044 L 45 1044 L 333 1417 L 480 1417 L 625 1044 Z" unicode="ĵ" />
<glyph horiz-adv-x="1344" d="M 564 1122 L 409 307 C 401 267 394 230 388 198 C 382 165 377 135 373 109 C 371 91 377 80 393 75 L 502 40 L 496 -3 C 414 -1 335 0 259 0 C 178 0 96 -1 14 -3 L 18 40 L 143 77 C 162 82 173 92 177 108 C 182 134 188 164 195 197 C 201 230 209 267 217 307 L 372 1118 C 378 1152 384 1182 389 1210 C 393 1237 397 1262 401 1284 C 404 1301 398 1312 384 1318 L 263 1357 L 269 1400 C 357 1397 440 1396 520 1396 C 597 1396 674 1397 751 1400 L 747 1357 L 631 1322 C 614 1318 603 1307 599 1291 C 594 1267 589 1241 583 1213 C 577 1185 570 1154 564 1122 Z M 513 713 L 986 1157 C 1022 1192 1052 1222 1076 1246 C 1100 1270 1113 1290 1117 1305 C 1119 1318 1112 1327 1096 1332 L 1017 1354 L 1023 1400 C 1090 1397 1166 1396 1251 1396 C 1327 1396 1399 1397 1465 1400 L 1461 1357 L 1358 1325 C 1326 1315 1296 1299 1268 1279 C 1240 1258 1210 1234 1178 1206 L 703 760 L 1034 171 C 1050 143 1066 121 1082 106 C 1097 91 1119 79 1149 70 L 1250 40 L 1244 -3 C 1185 -1 1113 0 1027 0 C 1004 0 982 0 962 0 C 942 0 920 -1 896 -2 C 882 46 837 136 763 269 L 513 713 Z M 466 -448 C 533 -396 567 -344 567 -292 C 567 -248 543 -213 497 -185 C 498 -155 508 -131 527 -113 C 546 -95 570 -87 598 -87 C 629 -87 654 -98 674 -121 C 694 -144 704 -174 704 -210 C 704 -307 636 -399 500 -486 L 466 -448 Z" unicode="Ķ" />
<glyph horiz-adv-x="1048" d="M 85 -5 L 368 1372 L 218 1398 L 218 1433 C 275 1443 332 1455 390 1467 C 447 1479 505 1492 564 1506 L 572 1494 C 560 1444 545 1379 529 1301 C 513 1223 495 1137 477 1045 L 262 5 L 85 -5 Z M 966 -3 C 874 -1 809 0 771 0 C 759 0 745 0 729 0 C 713 0 695 -1 675 -2 C 645 68 607 145 561 229 C 514 313 458 405 393 506 C 606 692 736 828 784 914 C 808 913 829 913 845 913 C 888 913 965 914 1077 916 L 1073 875 C 1037 866 1008 858 984 851 C 960 844 939 837 922 830 C 903 822 885 812 867 802 C 849 791 828 775 805 755 L 575 552 L 807 166 C 832 122 854 92 872 77 C 890 62 923 49 972 38 L 966 -3 Z M 296 -448 C 363 -396 397 -344 397 -292 C 397 -248 373 -213 327 -185 C 328 -155 338 -131 357 -113 C 376 -95 400 -87 428 -87 C 459 -87 484 -98 504 -121 C 524 -144 534 -174 534 -210 C 534 -307 466 -399 330 -486 L 296 -448 Z" unicode="ķ" />
<glyph horiz-adv-x="1058" d="M 976 -3 C 884 -1 819 0 781 0 C 769 0 755 0 739 0 C 723 0 706 -1 686 -2 C 656 68 617 145 571 229 C 525 313 469 405 403 506 C 624 699 758 839 805 925 C 829 924 850 924 866 924 C 909 924 986 925 1098 927 L 1094 886 C 1059 877 1029 869 1005 862 C 981 855 960 848 944 841 C 925 833 907 823 889 813 C 871 802 850 786 826 766 L 586 552 L 818 166 C 843 122 865 92 883 77 C 900 62 933 49 983 38 L 976 -3 Z M 273 5 L 95 -5 L 251 752 C 253 763 254 773 256 781 C 258 789 259 797 259 804 C 259 822 251 834 236 842 C 220 849 181 853 118 853 L 121 891 C 211 921 282 937 334 937 C 368 937 394 929 413 913 C 431 897 441 873 441 840 C 441 826 439 812 437 799 L 273 5 Z" unicode="ĸ" />
<glyph horiz-adv-x="1117" d="M 564 1122 L 410 309 C 396 235 382 161 370 88 L 845 88 L 1015 354 L 1064 362 L 979 4 L 972 -3 C 820 -1 671 0 525 0 L 259 0 C 178 0 96 -1 14 -3 L 18 40 L 143 77 C 161 81 172 92 177 108 C 182 134 188 164 195 197 C 201 230 209 267 217 307 L 372 1118 C 378 1152 384 1182 389 1210 C 393 1237 397 1262 401 1284 C 404 1301 398 1312 384 1318 L 263 1357 L 269 1400 C 357 1397 440 1396 520 1396 C 598 1396 678 1397 762 1400 L 757 1357 L 630 1320 C 613 1316 603 1305 599 1289 C 593 1265 585 1231 577 1187 C 568 1142 564 1120 564 1122 Z M 773 1636 L 357 1486 L 334 1527 L 657 1770 L 773 1651 L 773 1636 Z M -88 1400 L -88 1400 Z" unicode="Ĺ" />
<glyph horiz-adv-x="552" d="M 209 1398 L 209 1433 C 325 1455 441 1479 557 1506 L 565 1494 C 553 1444 538 1379 521 1301 C 504 1223 486 1137 467 1045 L 287 164 C 284 152 283 140 283 128 C 283 101 294 83 317 75 C 339 67 377 63 430 63 L 426 24 C 340 -4 273 -18 223 -18 C 184 -18 154 -8 134 10 C 113 29 103 59 103 99 C 103 108 103 118 104 130 C 105 142 107 155 111 169 L 359 1372 L 209 1398 Z M 725 1689 L 309 1539 L 286 1580 L 609 1823 L 725 1704 L 725 1689 Z M -136 1453 L -136 1453 Z" unicode="ĺ" />
<glyph horiz-adv-x="1117" d="M 564 1122 L 410 309 C 396 235 382 161 370 88 L 845 88 L 1015 354 L 1064 362 L 979 4 L 972 -3 C 820 -1 671 0 525 0 L 259 0 C 178 0 96 -1 14 -3 L 18 40 L 143 77 C 161 81 172 92 177 108 C 182 134 188 164 195 197 C 201 230 209 267 217 307 L 372 1118 C 378 1152 384 1182 389 1210 C 393 1237 397 1262 401 1284 C 404 1301 398 1312 384 1318 L 263 1357 L 269 1400 C 357 1397 440 1396 520 1396 C 598 1396 678 1397 762 1400 L 757 1357 L 630 1320 C 613 1316 603 1305 599 1289 C 593 1265 585 1231 577 1187 C 568 1142 564 1120 564 1122 Z M 356 -448 C 423 -396 457 -344 457 -292 C 457 -248 433 -213 387 -185 C 388 -155 398 -131 417 -113 C 436 -95 460 -87 488 -87 C 519 -87 544 -98 564 -121 C 584 -144 594 -174 594 -210 C 594 -307 526 -399 390 -486 L 356 -448 Z" unicode="Ļ" />
<glyph horiz-adv-x="552" d="M 209 1398 L 209 1433 C 325 1455 441 1479 557 1506 L 565 1494 C 553 1444 538 1379 521 1301 C 504 1223 486 1137 467 1045 L 287 164 C 284 152 283 140 283 128 C 283 101 294 83 317 75 C 339 67 377 63 430 63 L 426 24 C 340 -4 273 -18 223 -18 C 184 -18 154 -8 134 10 C 113 29 103 59 103 99 C 103 108 103 118 104 130 C 105 142 107 155 111 169 L 359 1372 L 209 1398 Z M 56 -448 C 123 -396 157 -344 157 -292 C 157 -248 133 -213 87 -185 C 88 -155 98 -131 117 -113 C 136 -95 160 -87 188 -87 C 219 -87 244 -98 264 -121 C 284 -144 294 -174 294 -210 C 294 -307 226 -399 90 -486 L 56 -448 Z" unicode="ļ" />
<glyph horiz-adv-x="1117" d="M 564 1122 L 410 309 C 396 235 382 161 370 88 L 845 88 L 1015 354 L 1064 362 L 979 4 L 972 -3 C 820 -1 671 0 525 0 L 259 0 C 178 0 96 -1 14 -3 L 18 40 L 143 77 C 161 81 172 92 177 108 C 182 134 188 164 195 197 C 201 230 209 267 217 307 L 372 1118 C 378 1152 384 1182 389 1210 C 393 1237 397 1262 401 1284 C 404 1301 398 1312 384 1318 L 263 1357 L 269 1400 C 357 1397 440 1396 520 1396 C 598 1396 678 1397 762 1400 L 757 1357 L 630 1320 C 613 1316 603 1305 599 1289 C 593 1265 585 1231 577 1187 C 568 1142 564 1120 564 1122 Z M 865 967 C 934 1036 969 1104 969 1171 C 969 1227 940 1270 882 1301 C 884 1335 895 1361 917 1380 C 939 1399 966 1409 999 1409 C 1033 1409 1061 1396 1083 1372 C 1105 1348 1116 1315 1116 1275 C 1116 1156 1043 1041 899 929 L 865 967 Z M 805 871 L 805 871 Z" unicode="Ľ" />
<glyph horiz-adv-x="690" d="M 209 1398 L 209 1433 C 325 1455 441 1479 557 1506 L 565 1494 C 553 1444 538 1379 521 1301 C 504 1223 486 1137 467 1045 L 287 164 C 284 152 283 140 283 128 C 283 101 294 83 317 75 C 339 67 377 63 430 63 L 426 24 C 340 -4 273 -18 223 -18 C 184 -18 154 -8 134 10 C 113 29 103 59 103 99 C 103 108 103 118 104 130 C 105 142 107 155 111 169 L 359 1372 L 209 1398 Z M 612 1034 C 681 1103 716 1171 716 1238 C 716 1294 687 1337 629 1368 C 631 1402 642 1428 664 1447 C 686 1466 713 1476 746 1476 C 780 1476 808 1463 830 1439 C 852 1415 863 1382 863 1342 C 863 1223 790 1108 646 996 L 612 1034 Z" unicode="ľ" />
<glyph horiz-adv-x="1117" d="M 564 1122 L 410 309 C 396 235 382 161 370 88 L 845 88 L 1015 354 L 1064 362 L 979 4 L 972 -3 C 820 -1 671 0 525 0 L 259 0 C 178 0 96 -1 14 -3 L 18 40 L 143 77 C 161 81 172 92 177 108 C 182 134 188 164 195 197 C 201 230 209 267 217 307 L 372 1118 C 378 1152 384 1182 389 1210 C 393 1237 397 1262 401 1284 C 404 1301 398 1312 384 1318 L 263 1357 L 269 1400 C 357 1397 440 1396 520 1396 C 598 1396 678 1397 762 1400 L 757 1357 L 630 1320 C 613 1316 603 1305 599 1289 C 593 1265 585 1231 577 1187 C 568 1142 564 1120 564 1122 Z M 1062 732 C 1062 697 1051 669 1030 647 C 1008 625 982 615 950 615 C 918 615 892 625 872 645 C 852 665 842 692 842 724 C 842 759 852 787 874 808 C 895 828 922 839 955 839 C 986 839 1012 829 1032 810 C 1052 791 1062 765 1062 732 Z M 377 372 L 377 372 Z" unicode="Ŀ" />
<glyph horiz-adv-x="662" d="M 209 1398 L 209 1433 C 325 1455 441 1479 557 1506 L 565 1494 C 553 1444 538 1379 521 1301 C 504 1223 486 1137 467 1045 L 287 164 C 284 152 283 140 283 128 C 283 101 294 83 317 75 C 339 67 377 63 430 63 L 426 24 C 340 -4 273 -18 223 -18 C 184 -18 154 -8 134 10 C 113 29 103 59 103 99 C 103 108 103 118 104 130 C 105 142 107 155 111 169 L 359 1372 L 209 1398 Z M 753 723 C 753 688 742 660 721 638 C 699 616 673 606 641 606 C 609 606 583 616 563 636 C 543 656 533 683 533 715 C 533 750 543 778 565 799 C 586 819 613 830 646 830 C 677 830 703 820 723 801 C 743 782 753 756 753 723 Z M 68 363 L 68 363 Z" unicode="ŀ" />
<glyph horiz-adv-x="1117" d="M 564 1122 L 501 789 L 943 923 L 930 832 L 483 696 L 410 309 C 396 235 382 161 370 88 L 845 88 L 1015 354 L 1064 362 L 979 4 L 972 -3 C 820 -1 671 0 525 0 L 259 0 C 178 0 96 -1 14 -3 L 18 40 L 143 77 C 161 81 172 92 177 108 C 182 134 188 164 195 197 C 201 230 209 267 217 307 L 279 634 L 118 585 L 130 676 L 297 727 L 372 1118 C 378 1152 384 1182 389 1210 C 393 1237 397 1262 401 1284 C 404 1301 398 1312 384 1318 L 263 1357 L 269 1400 C 357 1397 440 1396 520 1396 C 598 1396 678 1397 762 1400 L 757 1357 L 630 1320 C 613 1316 603 1305 599 1289 C 593 1265 585 1231 577 1187 C 568 1142 564 1120 564 1122 Z" unicode="Ł" />
<glyph horiz-adv-x="552" d="M 67 753 L 242 806 L 359 1372 L 209 1398 L 209 1433 C 325 1455 441 1479 557 1506 L 565 1494 C 553 1444 538 1379 521 1301 C 504 1223 486 1137 467 1045 L 429 862 L 608 916 L 595 828 L 411 772 L 287 164 C 284 152 283 140 283 128 C 283 101 294 83 317 75 C 339 67 377 63 430 63 L 426 24 C 340 -4 273 -18 223 -18 C 184 -18 154 -8 134 10 C 113 29 103 59 103 99 C 103 108 103 118 104 130 C 105 142 107 155 111 169 L 223 714 L 54 663 L 67 753 Z" unicode="ł" />
<glyph horiz-adv-x="1487" d="M 457 1143 L 303 307 C 295 267 289 230 283 198 C 277 166 272 137 268 111 C 265 92 271 81 286 77 L 403 42 L 396 -3 C 310 -1 243 0 194 0 C 140 0 72 -1 -10 -3 L -6 40 L 119 77 C 138 82 149 92 153 108 C 159 135 165 165 172 198 C 178 230 185 267 193 307 L 343 1118 C 349 1152 354 1182 359 1210 C 363 1237 367 1262 371 1284 C 374 1302 368 1313 354 1318 L 233 1357 L 239 1400 C 283 1398 322 1397 356 1397 C 390 1396 418 1396 442 1396 C 457 1396 472 1396 488 1397 C 503 1397 518 1398 534 1400 L 1137 322 L 1289 1122 C 1295 1154 1301 1184 1306 1212 C 1311 1240 1316 1265 1320 1289 C 1322 1304 1315 1314 1299 1320 L 1184 1354 L 1190 1400 C 1234 1398 1273 1397 1307 1397 C 1341 1396 1370 1396 1395 1396 C 1421 1396 1451 1396 1485 1397 C 1519 1397 1556 1398 1597 1400 L 1593 1357 L 1463 1318 C 1447 1313 1437 1302 1433 1284 C 1427 1262 1422 1237 1417 1210 C 1411 1182 1405 1152 1399 1118 L 1186 0 L 1105 -8 L 457 1143 Z M 1181 1636 L 765 1486 L 742 1527 L 1065 1770 L 1181 1651 L 1181 1636 Z M 320 1400 L 320 1400 Z" unicode="Ń" />
<glyph horiz-adv-x="1142" d="M 95 -5 L 251 750 C 256 778 259 796 259 804 C 259 822 251 834 236 842 C 220 849 181 853 118 853 L 121 891 C 210 921 281 937 334 937 C 367 937 393 928 412 912 C 431 896 441 873 441 844 C 441 836 440 826 439 816 C 569 898 685 939 787 939 C 857 939 912 920 950 883 C 988 845 1007 795 1007 731 C 1007 701 1003 670 996 639 L 893 164 C 891 156 890 150 890 144 C 889 138 889 132 889 128 C 889 101 900 83 922 75 C 944 67 981 63 1034 63 L 1031 24 C 946 -4 878 -18 828 -18 C 789 -18 759 -8 738 10 C 717 29 707 59 707 99 C 707 117 709 141 715 169 L 813 602 C 819 630 822 657 822 682 C 822 724 811 756 790 779 C 768 802 733 814 683 814 C 603 814 516 786 423 732 L 275 5 L 95 -5 Z M 776 1417 L 983 1417 L 671 1044 L 601 1044 L 776 1417 Z M 137 938 L 137 938 Z" unicode="ń" />
<glyph horiz-adv-x="1487" d="M 457 1143 L 303 307 C 295 267 289 230 283 198 C 277 166 272 137 268 111 C 265 92 271 81 286 77 L 403 42 L 396 -3 C 310 -1 243 0 194 0 C 140 0 72 -1 -10 -3 L -6 40 L 119 77 C 138 82 149 92 153 108 C 159 135 165 165 172 198 C 178 230 185 267 193 307 L 343 1118 C 349 1152 354 1182 359 1210 C 363 1237 367 1262 371 1284 C 374 1302 368 1313 354 1318 L 233 1357 L 239 1400 C 283 1398 322 1397 356 1397 C 390 1396 418 1396 442 1396 C 457 1396 472 1396 488 1397 C 503 1397 518 1398 534 1400 L 1137 322 L 1289 1122 C 1295 1154 1301 1184 1306 1212 C 1311 1240 1316 1265 1320 1289 C 1322 1304 1315 1314 1299 1320 L 1184 1354 L 1190 1400 C 1234 1398 1273 1397 1307 1397 C 1341 1396 1370 1396 1395 1396 C 1421 1396 1451 1396 1485 1397 C 1519 1397 1556 1398 1597 1400 L 1593 1357 L 1463 1318 C 1447 1313 1437 1302 1433 1284 C 1427 1262 1422 1237 1417 1210 C 1411 1182 1405 1152 1399 1118 L 1186 0 L 1105 -8 L 457 1143 Z M 496 -448 C 563 -396 597 -344 597 -292 C 597 -248 573 -213 527 -185 C 528 -155 538 -131 557 -113 C 576 -95 600 -87 628 -87 C 659 -87 684 -98 704 -121 C 724 -144 734 -174 734 -210 C 734 -307 666 -399 530 -486 L 496 -448 Z" unicode="Ņ" />
<glyph horiz-adv-x="1142" d="M 95 -5 L 251 750 C 256 778 259 796 259 804 C 259 822 251 834 236 842 C 220 849 181 853 118 853 L 121 891 C 210 921 281 937 334 937 C 367 937 393 928 412 912 C 431 896 441 873 441 844 C 441 836 440 826 439 816 C 569 898 685 939 787 939 C 857 939 912 920 950 883 C 988 845 1007 795 1007 731 C 1007 701 1003 670 996 639 L 893 164 C 891 156 890 150 890 144 C 889 138 889 132 889 128 C 889 101 900 83 922 75 C 944 67 981 63 1034 63 L 1031 24 C 946 -4 878 -18 828 -18 C 789 -18 759 -8 738 10 C 717 29 707 59 707 99 C 707 117 709 141 715 169 L 813 602 C 819 630 822 657 822 682 C 822 724 811 756 790 779 C 768 802 733 814 683 814 C 603 814 516 786 423 732 L 275 5 L 95 -5 Z M 336 -448 C 403 -396 437 -344 437 -292 C 437 -248 413 -213 367 -185 C 368 -155 378 -131 397 -113 C 416 -95 440 -87 468 -87 C 499 -87 524 -98 544 -121 C 564 -144 574 -174 574 -210 C 574 -307 506 -399 370 -486 L 336 -448 Z" unicode="ņ" />
<glyph horiz-adv-x="1487" d="M 457 1143 L 303 307 C 295 267 289 230 283 198 C 277 166 272 137 268 111 C 265 92 271 81 286 77 L 403 42 L 396 -3 C 310 -1 243 0 194 0 C 140 0 72 -1 -10 -3 L -6 40 L 119 77 C 138 82 149 92 153 108 C 159 135 165 165 172 198 C 178 230 185 267 193 307 L 343 1118 C 349 1152 354 1182 359 1210 C 363 1237 367 1262 371 1284 C 374 1302 368 1313 354 1318 L 233 1357 L 239 1400 C 283 1398 322 1397 356 1397 C 390 1396 418 1396 442 1396 C 457 1396 472 1396 488 1397 C 503 1397 518 1398 534 1400 L 1137 322 L 1289 1122 C 1295 1154 1301 1184 1306 1212 C 1311 1240 1316 1265 1320 1289 C 1322 1304 1315 1314 1299 1320 L 1184 1354 L 1190 1400 C 1234 1398 1273 1397 1307 1397 C 1341 1396 1370 1396 1395 1396 C 1421 1396 1451 1396 1485 1397 C 1519 1397 1556 1398 1597 1400 L 1593 1357 L 1463 1318 C 1447 1313 1437 1302 1433 1284 C 1427 1262 1422 1237 1417 1210 C 1411 1182 1405 1152 1399 1118 L 1186 0 L 1105 -8 L 457 1143 Z M 886 1498 L 623 1737 L 650 1783 L 942 1648 L 1259 1783 L 1285 1737 L 976 1498 L 886 1498 Z M 320 1400 L 320 1400 Z" unicode="Ň" />
<glyph horiz-adv-x="1142" d="M 95 -5 L 251 750 C 256 778 259 796 259 804 C 259 822 251 834 236 842 C 220 849 181 853 118 853 L 121 891 C 210 921 281 937 334 937 C 367 937 393 928 412 912 C 431 896 441 873 441 844 C 441 836 440 826 439 816 C 569 898 685 939 787 939 C 857 939 912 920 950 883 C 988 845 1007 795 1007 731 C 1007 701 1003 670 996 639 L 893 164 C 891 156 890 150 890 144 C 889 138 889 132 889 128 C 889 101 900 83 922 75 C 944 67 981 63 1034 63 L 1031 24 C 946 -4 878 -18 828 -18 C 789 -18 759 -8 738 10 C 717 29 707 59 707 99 C 707 117 709 141 715 169 L 813 602 C 819 630 822 657 822 682 C 822 724 811 756 790 779 C 768 802 733 814 683 814 C 603 814 516 786 423 732 L 275 5 L 95 -5 Z M 446 1417 L 518 1417 L 694 1188 L 950 1417 L 1026 1417 L 743 1044 L 596 1044 L 446 1417 Z M 145 938 L 145 938 Z" unicode="ň" />
</font>
</defs>
</svg>
