<?xml version="1.0" encoding="utf-8" ?><svg version="1.1" xmlns = 'http://www.w3.org/2000/svg'><defs><font id='web' horiz-adv-x="1000">
<font-face font-family="web" descent="-510" cap-height="1406" units-per-em="2048" bbox="-839,-509,2565,2114" x-height="951" ascent="1538" />
<missing-glyph horiz-adv-x="995" d="M 995 1396 L 995 0 L 0 0 L 0 1396 L 995 1396 Z M 898 98 L 898 1299 L 98 1299 L 98 98 L 898 98 Z M 437 455 L 435 488 C 435 576 448 639 476 675 C 503 711 527 739 549 759 C 589 800 615 831 627 853 C 639 874 645 898 645 926 C 645 976 630 1015 600 1044 C 570 1073 536 1088 498 1088 C 456 1088 421 1073 392 1045 C 363 1017 345 970 337 904 L 241 919 C 251 1009 280 1076 328 1120 C 376 1164 434 1186 503 1186 C 572 1186 630 1164 676 1120 C 722 1076 745 1014 745 935 C 745 891 737 852 721 820 C 705 787 672 747 624 700 C 575 656 546 621 538 594 C 530 566 526 522 526 460 L 437 455 Z M 416 291 C 416 310 422 326 436 340 C 449 354 465 361 485 361 C 504 361 520 354 534 340 C 548 326 555 310 555 291 C 555 271 548 254 534 241 C 520 228 504 222 485 222 C 465 222 449 228 436 241 C 422 254 416 271 416 291 Z" /><glyph horiz-adv-x="470" d="" unicode="	" />
<glyph horiz-adv-x="470" d="" unicode=" " />
<glyph horiz-adv-x="624" d="M 269 416 L 348 1356 L 662 1368 L 670 1360 L 348 420 L 269 416 Z M 275 276 C 317 276 353 262 381 234 C 409 206 423 170 423 125 C 423 80 408 43 379 15 C 349 -12 313 -27 271 -27 C 226 -27 190 -12 163 15 C 135 43 122 80 122 125 C 122 170 136 206 165 234 C 193 262 230 276 275 276 Z" unicode="!" />
<glyph horiz-adv-x="742" d="M 253 1487 L 475 1487 L 287 1002 L 213 1002 L 253 1487 Z M 583 1487 L 805 1487 L 617 1002 L 543 1002 L 583 1487 Z" unicode="&#x22;" />
<glyph horiz-adv-x="1130" d="M 980 1294 L 895 912 L 1096 912 L 1086 767 L 863 767 L 808 516 L 1007 516 L 997 371 L 776 371 L 692 -10 L 568 -10 L 652 371 L 377 371 L 293 -10 L 169 -10 L 253 371 L 54 371 L 64 516 L 285 516 L 341 767 L 143 767 L 153 912 L 373 912 L 458 1294 L 582 1294 L 497 912 L 772 912 L 857 1294 L 980 1294 Z M 409 516 L 684 516 L 740 767 L 465 767 L 409 516 Z" unicode="#" />
<glyph horiz-adv-x="901" d="M -26 23 L -30 31 L 55 317 L 115 327 L 144 91 C 197 74 249 65 300 63 L 378 422 L 352 434 C 322 448 292 463 263 479 C 233 495 207 514 184 536 C 160 558 141 584 127 615 C 112 646 105 684 105 728 C 105 816 144 891 222 952 C 300 1013 402 1050 528 1062 L 552 1174 L 643 1182 L 618 1065 C 724 1063 819 1049 903 1023 L 907 1014 L 822 766 L 768 757 L 735 956 C 690 970 645 977 599 979 L 528 648 L 570 628 C 600 613 631 597 661 580 C 691 563 718 543 742 520 C 766 497 785 470 800 439 C 814 407 822 370 822 328 C 822 224 779 141 695 78 C 611 14 502 -20 370 -27 L 343 -151 L 251 -159 L 280 -27 C 184 -23 82 -6 -26 23 Z M 460 386 L 390 66 C 457 72 506 89 538 117 C 569 144 585 178 585 219 C 585 258 573 290 551 316 C 529 341 498 364 460 386 Z M 509 975 C 457 967 415 951 384 927 C 353 902 338 871 338 833 C 338 799 346 771 364 749 C 382 727 409 706 446 686 L 509 975 Z" unicode="$" />
<glyph horiz-adv-x="1682" d="M 485 1419 C 422 1419 370 1354 329 1226 C 288 1098 268 974 268 855 C 268 810 275 774 290 747 C 304 719 326 706 354 706 C 415 706 467 771 510 902 C 552 1032 574 1155 574 1270 C 574 1318 566 1355 552 1381 C 537 1406 515 1419 485 1419 Z M 493 1486 C 580 1486 646 1461 690 1411 C 734 1361 756 1286 756 1186 C 756 1042 718 915 644 805 C 569 694 470 639 348 639 C 262 639 196 663 152 713 C 108 763 86 838 86 940 C 86 1082 123 1209 198 1320 C 273 1430 371 1486 493 1486 Z M 335 8 L 1281 1485 L 1372 1422 L 425 -55 L 335 8 Z M 1414 761 C 1351 761 1299 696 1258 568 C 1217 440 1197 316 1197 197 C 1197 152 1204 116 1219 89 C 1233 61 1255 48 1283 48 C 1344 48 1396 113 1439 244 C 1481 374 1503 497 1503 612 C 1503 660 1495 697 1481 723 C 1466 748 1444 761 1414 761 Z M 1422 828 C 1509 828 1575 803 1619 753 C 1663 703 1685 628 1685 528 C 1685 384 1647 257 1573 147 C 1498 36 1399 -19 1277 -19 C 1191 -19 1125 5 1081 55 C 1037 105 1015 180 1015 282 C 1015 424 1052 551 1127 662 C 1202 772 1300 828 1422 828 Z" unicode="%" />
<glyph horiz-adv-x="1559" d="M 777 724 C 741 730 706 733 673 733 C 573 733 498 705 447 650 C 396 595 371 524 371 437 C 371 337 405 256 473 196 C 541 136 629 106 739 106 C 850 106 944 138 1022 202 C 1099 266 1138 352 1138 460 C 1138 510 1124 554 1097 591 C 1070 627 1035 646 992 646 C 961 646 936 636 918 617 C 899 597 890 573 890 544 C 890 506 909 476 948 453 L 946 445 C 884 420 825 397 767 377 C 746 407 736 439 736 472 C 736 556 777 630 860 696 C 942 761 1036 794 1141 794 C 1178 794 1213 791 1245 786 C 1277 780 1308 775 1336 769 C 1359 763 1380 759 1399 755 C 1418 751 1436 750 1453 750 C 1500 750 1557 782 1623 847 L 1656 825 C 1588 634 1503 539 1401 539 C 1357 539 1298 552 1223 580 L 1221 576 C 1256 519 1274 460 1274 399 C 1274 282 1216 181 1102 95 C 987 9 846 -34 680 -34 C 501 -34 354 3 239 79 C 124 154 67 257 67 387 C 67 486 102 571 174 643 C 246 714 344 758 469 776 L 469 782 C 415 806 374 838 345 880 C 315 921 301 967 301 1019 C 301 1133 347 1223 441 1287 C 534 1351 657 1383 811 1383 C 905 1383 1001 1370 1097 1346 L 1103 1339 L 1002 1045 L 962 1038 L 940 1266 C 896 1280 856 1288 818 1288 C 744 1288 686 1262 644 1211 C 602 1159 581 1091 581 1007 C 581 948 597 902 629 869 C 661 836 716 813 794 799 L 777 724 Z" unicode="&#x26;" />
<glyph horiz-adv-x="412" d="M 245 1487 L 467 1487 L 279 1002 L 205 1002 L 245 1487 Z" unicode="'" />
<glyph horiz-adv-x="787" d="M 456 -379 C 235 -161 125 94 125 389 C 125 860 368 1255 856 1573 L 894 1533 C 523 1197 338 798 338 335 C 338 60 396 -164 510 -339 L 456 -379 Z" unicode="(" />
<glyph horiz-adv-x="791" d="M 380 1573 C 600 1355 711 1099 711 805 C 711 333 467 -61 -20 -379 L -58 -339 C 312 -3 498 395 498 859 C 497 1133 440 1358 326 1533 L 380 1573 Z" unicode=")" />
<glyph horiz-adv-x="902" d="M 959 1038 L 640 1069 L 806 806 L 655 737 L 586 1047 L 389 808 L 273 929 L 550 1091 L 261 1205 L 340 1353 L 579 1140 L 599 1450 L 764 1419 L 636 1126 L 937 1203 L 959 1038 Z" unicode="*" />
<glyph horiz-adv-x="1130" d="M 73 532 L 485 532 L 485 944 L 626 944 L 626 532 L 1037 532 L 1037 391 L 626 391 L 626 -20 L 485 -20 L 485 391 L 73 391 L 73 532 Z" unicode="+" />
<glyph horiz-adv-x="586" d="M -68 -270 C 67 -176 135 -80 135 18 C 135 86 98 141 24 181 C 27 227 44 263 76 291 C 107 319 143 333 185 333 C 231 333 267 317 295 286 C 323 254 337 212 337 158 C 337 -14 216 -176 -24 -329 L -68 -270 Z" unicode="," />
<glyph horiz-adv-x="681" d="M 93 570 L 609 570 L 580 424 L 64 424 L 93 570 Z" unicode="-" />
<glyph horiz-adv-x="586" d="M 232 285 C 276 285 312 270 341 242 C 369 214 384 176 384 130 C 384 84 369 46 341 17 C 312 -12 276 -27 232 -27 C 186 -27 148 -12 120 17 C 92 46 78 84 78 130 C 78 176 92 214 120 242 C 148 270 186 285 232 285 Z" unicode="." />
<glyph horiz-adv-x="825" d="M 60 -226 L 665 1426 L 801 1426 L 200 -226 L 60 -226 Z" unicode="/" />
<glyph horiz-adv-x="1182" d="M 621 859 C 537 859 473 805 427 698 C 381 590 359 461 359 311 C 359 229 373 167 403 127 C 433 86 477 66 536 66 C 618 66 683 117 729 219 C 775 321 798 453 798 615 C 798 697 783 758 753 798 C 723 838 679 859 621 859 Z M 632 950 C 770 950 880 915 963 845 C 1045 775 1087 677 1087 550 C 1087 368 1036 227 935 126 C 834 25 697 -25 525 -25 C 388 -25 278 9 195 79 C 111 148 70 247 70 375 C 70 553 119 694 219 796 C 318 898 456 950 632 950 Z" unicode="0" />
<glyph horiz-adv-x="748" d="M 106 834 L 111 884 C 193 894 276 904 360 915 C 444 926 530 938 616 950 L 624 942 C 594 822 567 702 543 581 L 496 335 C 487 291 480 251 474 216 C 468 181 462 150 457 122 C 453 102 460 90 478 86 L 636 45 L 630 -3 C 569 -1 510 0 454 0 C 397 0 345 0 299 0 C 251 0 202 0 153 0 C 103 0 48 -1 -12 -3 L -7 45 L 150 86 C 168 90 179 101 183 118 C 193 172 205 232 219 298 L 250 458 C 263 526 275 589 285 648 C 295 706 304 762 313 814 L 106 834 Z" unicode="1" />
<glyph horiz-adv-x="993" d="M 854 347 L 913 355 L 827 4 L 819 -3 C 697 -1 554 0 390 0 C 187 0 50 -1 -22 -3 L -6 119 C 44 149 94 178 144 206 C 193 234 240 262 284 290 C 328 318 369 345 407 372 C 444 399 476 427 503 455 C 530 483 551 511 567 541 C 582 570 590 601 590 633 C 590 688 572 731 536 761 C 500 791 453 806 394 806 C 328 806 255 785 175 743 L 141 822 C 271 907 402 950 536 950 C 638 950 720 925 781 875 C 842 825 873 764 873 692 C 873 632 859 581 832 539 C 805 497 766 457 715 421 C 663 385 601 349 527 314 C 453 279 369 240 276 197 L 276 192 L 753 192 L 854 347 Z" unicode="2" />
<glyph horiz-adv-x="935" d="M 141 333 C 268 346 368 376 441 424 C 513 472 550 539 550 627 C 550 683 531 729 494 763 C 456 797 407 815 347 815 C 272 815 192 790 107 740 L 77 819 C 204 906 342 950 492 950 C 598 950 683 925 748 875 C 813 825 846 761 846 683 C 846 600 811 531 742 475 C 672 419 572 375 442 343 L 442 338 C 453 339 461 340 465 340 C 571 340 656 314 720 262 C 784 210 817 142 817 58 C 817 1 805 -50 783 -98 C 761 -146 729 -189 688 -227 C 646 -265 596 -298 538 -327 C 480 -356 415 -380 343 -400 C 271 -420 194 -434 111 -444 C 27 -454 -59 -459 -150 -460 L -141 -372 C -27 -365 71 -351 153 -329 C 235 -307 303 -278 357 -244 C 411 -209 450 -169 476 -123 C 502 -77 515 -26 515 28 C 515 98 491 154 443 195 C 395 236 334 257 260 257 C 219 257 175 252 129 244 L 141 333 Z" unicode="3" />
<glyph horiz-adv-x="1072" d="M 519 144 L 584 493 L 859 508 L 790 144 L 1004 144 L 978 -8 C 906 -6 833 -5 761 -5 L 741 -117 C 733 -157 725 -200 717 -247 C 708 -294 700 -345 692 -400 C 597 -406 506 -415 418 -426 L 410 -418 C 432 -314 451 -219 467 -133 L 490 -5 L 262 -5 C 132 -5 26 -6 -54 -8 L -37 110 C 213 399 472 677 739 943 L 943 950 L 947 938 C 693 718 426 454 148 144 L 519 144 Z" unicode="4" />
<glyph horiz-adv-x="957" d="M -90 -458 L -80 -372 C 16 -368 103 -356 180 -335 C 257 -313 322 -285 376 -251 C 430 -217 471 -177 499 -132 C 527 -86 542 -38 542 14 C 542 205 392 306 92 316 L 87 323 L 256 928 C 340 925 457 924 608 924 C 726 924 832 925 928 928 L 931 920 L 855 686 L 308 700 L 260 537 C 454 523 601 477 700 401 C 799 324 849 224 849 100 C 849 41 838 -13 816 -63 C 794 -113 762 -159 722 -201 C 682 -242 633 -279 577 -311 C 520 -343 457 -370 387 -392 C 317 -414 242 -430 162 -441 C 82 -452 -2 -458 -90 -458 Z" unicode="5" />
<glyph horiz-adv-x="1123" d="M 763 471 C 761 549 745 610 713 654 C 681 697 636 719 578 719 C 505 719 445 684 398 615 C 351 546 328 457 328 349 C 328 263 343 194 374 144 C 405 94 449 69 506 69 C 580 69 641 106 690 180 C 738 254 763 351 763 471 Z M 1051 504 C 1051 345 999 217 896 120 C 792 22 664 -26 510 -26 C 366 -26 254 12 176 90 C 97 167 58 276 58 418 C 58 680 153 903 343 1089 C 533 1275 788 1376 1109 1393 L 1114 1302 C 759 1260 521 1067 399 724 L 403 723 C 485 810 586 854 708 854 C 806 854 887 823 953 762 C 1018 700 1051 614 1051 504 Z" unicode="6" />
<glyph horiz-adv-x="967" d="M 13 -403 L 791 665 L 200 665 L 100 461 L 35 454 L 107 920 L 115 928 C 228 925 375 924 555 924 L 610 924 C 796 924 933 925 1021 928 L 996 775 C 707 382 468 -9 279 -400 L 17 -410 L 13 -403 Z" unicode="7" />
<glyph horiz-adv-x="1095" d="M 376 685 C 274 767 223 865 223 981 C 223 1089 266 1181 354 1257 C 442 1333 555 1372 694 1372 C 814 1372 910 1345 982 1292 C 1054 1238 1090 1170 1090 1087 C 1090 1019 1064 958 1013 905 C 962 851 887 804 788 762 C 872 705 933 649 973 594 C 1012 538 1032 477 1032 410 C 1032 287 978 184 872 100 C 765 16 636 -26 485 -26 C 343 -26 231 5 149 67 C 67 129 27 212 27 315 C 27 396 55 466 113 524 C 170 582 258 636 376 685 Z M 451 628 C 345 572 293 473 293 331 C 293 249 313 185 353 139 C 393 93 447 70 515 70 C 579 70 633 89 677 128 C 720 167 742 219 742 285 C 742 345 721 400 679 449 C 637 498 561 558 451 628 Z M 704 818 C 795 868 841 954 841 1074 C 841 1139 825 1190 793 1226 C 761 1262 717 1280 662 1280 C 606 1280 561 1263 527 1229 C 493 1195 476 1151 476 1095 C 476 1047 494 1001 530 959 C 566 916 624 869 704 818 Z" unicode="8" />
<glyph horiz-adv-x="1119" d="M 349 452 C 349 373 365 312 398 269 C 430 225 475 204 531 204 C 599 204 659 236 709 300 C 759 364 784 456 784 574 C 784 660 768 728 737 778 C 706 828 662 854 606 854 C 532 854 470 816 422 741 C 373 666 349 570 349 452 Z M 61 422 C 61 577 112 704 216 802 C 320 900 448 949 602 949 C 746 949 857 910 936 833 C 1014 756 1054 647 1054 505 C 1054 250 961 28 776 -160 C 590 -348 333 -452 3 -470 L -2 -379 C 351 -337 589 -145 713 199 L 709 200 C 627 112 526 69 404 69 C 308 69 226 99 160 160 C 94 221 61 308 61 422 Z" unicode="9" />
<glyph horiz-adv-x="586" d="M 252 285 C 296 285 332 270 361 242 C 389 214 404 176 404 130 C 404 84 389 46 361 17 C 332 -12 296 -27 252 -27 C 206 -27 168 -12 140 17 C 112 46 98 84 98 130 C 98 176 112 214 140 242 C 168 270 206 285 252 285 Z M 377 938 C 421 938 457 923 486 895 C 514 867 529 829 529 783 C 529 737 514 699 486 670 C 457 640 421 626 377 626 C 331 626 293 640 265 670 C 237 699 223 737 223 783 C 223 829 237 867 265 895 C 293 923 331 938 377 938 Z" unicode=":" />
<glyph horiz-adv-x="524" d="M 377 938 C 421 938 457 923 486 895 C 514 867 529 829 529 783 C 529 737 514 699 486 670 C 457 640 421 626 377 626 C 331 626 293 640 265 670 C 237 699 223 737 223 783 C 223 829 237 867 265 895 C 293 923 331 938 377 938 Z M 17 -270 C 152 -176 220 -80 220 18 C 220 86 183 141 109 181 C 112 227 129 263 161 291 C 192 319 228 333 270 333 C 316 333 352 317 380 286 C 408 254 422 212 422 158 C 422 -14 301 -176 61 -329 L 17 -270 Z" unicode=";" />
<glyph horiz-adv-x="1130" d="M 73 532 L 1037 932 L 1037 785 L 243 461 L 1037 138 L 1037 -9 L 73 391 L 73 532 Z" unicode="&#x3C;" />
<glyph horiz-adv-x="1130" d="M 73 712 L 1037 712 L 1037 571 L 73 571 L 73 712 Z M 73 352 L 1037 352 L 1037 211 L 73 211 L 73 352 Z" unicode="=" />
<glyph horiz-adv-x="1130" d="M 1037 391 L 73 -9 L 73 138 L 869 461 L 73 785 L 73 932 L 1037 532 L 1037 391 Z" unicode="&#x3E;" />
<glyph horiz-adv-x="930" d="M 284 1332 C 416 1371 531 1391 627 1391 C 732 1391 817 1366 881 1318 C 945 1270 978 1206 978 1126 C 978 1082 970 1043 955 1007 C 939 971 918 938 892 908 C 865 878 835 849 801 821 C 767 793 731 766 694 738 C 659 712 628 688 602 668 C 575 648 552 628 534 610 C 516 592 502 574 492 557 C 482 539 478 521 478 502 C 478 476 486 450 503 422 L 452 390 C 411 424 374 465 342 515 C 310 564 294 606 294 640 C 294 662 298 683 308 703 C 318 723 332 743 350 763 C 368 783 390 803 416 824 C 442 844 473 867 507 892 C 539 915 569 936 597 956 C 625 976 650 996 672 1017 C 693 1037 709 1059 721 1083 C 733 1107 739 1135 739 1167 C 739 1206 725 1237 697 1261 C 669 1285 633 1297 591 1297 C 540 1297 490 1288 442 1270 L 340 1041 L 290 1034 L 276 1324 L 284 1332 Z M 375 276 C 417 276 453 262 481 234 C 509 206 523 170 523 125 C 523 80 508 43 479 15 C 449 -12 413 -27 371 -27 C 326 -27 290 -12 263 15 C 235 43 222 80 222 125 C 222 170 236 206 265 234 C 293 262 330 276 375 276 Z" unicode="?" />
<glyph horiz-adv-x="1805" d="M 1131 39 C 1081 39 1039 50 1006 73 C 973 96 953 131 945 178 C 839 88 758 43 704 43 C 667 43 634 50 605 65 C 575 80 550 101 530 127 C 509 153 493 184 482 220 C 470 256 465 295 465 337 C 465 411 477 481 503 547 C 529 613 564 670 609 719 C 654 767 707 806 768 834 C 829 862 895 876 967 876 C 1019 876 1082 865 1156 844 C 1206 848 1260 857 1318 872 L 1330 865 C 1320 831 1309 790 1298 742 C 1286 693 1274 636 1261 571 L 1198 265 C 1194 245 1192 230 1192 218 C 1192 171 1211 148 1249 148 C 1275 148 1303 159 1334 183 C 1364 207 1393 240 1420 284 C 1446 327 1468 379 1486 440 C 1504 500 1513 568 1513 642 C 1513 714 1500 779 1476 839 C 1452 898 1418 949 1375 991 C 1332 1033 1281 1066 1222 1089 C 1162 1112 1098 1124 1028 1124 C 956 1124 889 1114 827 1094 C 765 1074 708 1047 656 1011 C 604 975 557 933 517 885 C 476 836 441 782 413 724 C 385 666 363 604 348 539 C 333 474 326 408 326 340 C 326 254 340 175 368 104 C 396 33 435 -27 486 -77 C 537 -127 598 -166 670 -194 C 741 -222 820 -236 907 -236 C 976 -236 1040 -229 1100 -217 C 1160 -205 1215 -188 1265 -167 C 1315 -145 1361 -120 1403 -92 C 1445 -64 1483 -33 1517 -1 L 1562 -58 C 1508 -107 1455 -150 1403 -187 C 1351 -224 1295 -255 1237 -280 C 1179 -305 1116 -324 1049 -337 C 982 -349 908 -356 826 -356 C 718 -356 620 -340 532 -309 C 443 -277 367 -233 303 -175 C 239 -117 190 -47 155 34 C 119 115 102 206 102 306 C 102 384 112 461 132 537 C 152 612 181 683 219 751 C 257 818 303 880 358 937 C 412 993 474 1042 544 1083 C 614 1124 690 1156 774 1179 C 857 1202 946 1214 1042 1214 C 1104 1214 1164 1207 1222 1193 C 1279 1179 1332 1160 1381 1135 C 1430 1110 1475 1080 1515 1045 C 1555 1010 1590 971 1618 929 C 1646 886 1668 840 1684 792 C 1699 743 1707 692 1707 640 C 1707 551 1690 470 1658 396 C 1625 322 1582 259 1528 206 C 1474 153 1412 112 1343 83 C 1274 53 1203 39 1131 39 Z M 1049 759 C 1018 779 987 790 955 790 C 885 790 830 745 790 657 C 748 567 728 475 728 383 C 728 318 734 268 748 232 C 761 196 783 179 813 179 C 845 179 889 206 947 261 L 1049 759 Z" unicode="@" />
<glyph horiz-adv-x="1367" d="M 324 50 L 315 -3 C 224 -1 141 0 67 0 C -7 0 -78 -1 -146 -3 L -140 48 L -29 79 C 3 90 27 106 45 127 C 63 147 78 169 92 191 L 810 1404 L 920 1421 L 1129 206 C 1133 183 1137 164 1141 148 C 1145 132 1150 120 1156 112 C 1166 94 1183 82 1207 76 L 1313 48 L 1306 -3 C 1197 -1 1094 0 998 0 C 904 0 799 -1 683 -3 L 688 48 L 785 76 C 799 80 810 86 819 94 C 828 101 833 115 833 137 C 833 157 828 197 818 257 L 788 443 L 373 443 L 268 260 C 246 222 229 190 216 164 C 202 138 196 119 196 108 C 196 94 207 84 230 77 L 324 50 Z M 431 546 L 771 546 L 712 914 L 699 1020 L 642 915 L 431 546 Z" unicode="A" />
<glyph horiz-adv-x="1300" d="M 259 1400 C 373 1397 476 1396 568 1396 C 596 1396 638 1397 696 1401 C 754 1404 794 1406 818 1406 C 967 1406 1080 1380 1156 1329 C 1232 1277 1271 1208 1271 1120 C 1271 924 1152 803 916 757 C 1114 702 1214 598 1214 446 C 1214 301 1155 189 1038 111 C 921 33 766 -6 573 -6 C 538 -6 499 -5 455 -3 C 411 -1 358 0 294 0 C 208 0 112 -1 4 -3 L 9 48 L 144 85 C 162 90 173 100 178 116 C 183 142 189 172 196 205 C 202 238 210 275 218 315 L 370 1110 C 376 1144 382 1174 387 1202 C 391 1229 395 1254 399 1276 C 402 1292 396 1304 382 1310 L 251 1349 L 259 1400 Z M 586 695 L 472 99 C 501 89 540 85 589 85 C 686 85 761 114 815 172 C 868 230 895 316 895 428 C 895 515 875 582 837 629 C 798 675 742 699 669 699 C 637 699 610 697 586 695 Z M 604 787 C 626 785 651 785 679 785 C 773 785 845 810 893 861 C 941 912 966 989 966 1093 C 966 1163 949 1216 915 1254 C 881 1292 832 1311 766 1311 C 745 1311 724 1309 702 1306 L 604 787 Z" unicode="B" />
<glyph horiz-adv-x="1356" d="M 1285 1022 L 1229 1013 L 1197 1300 C 1151 1316 1098 1324 1036 1324 C 864 1324 720 1251 606 1107 C 492 962 435 788 435 585 C 435 433 477 314 561 228 C 645 142 759 99 905 99 C 997 99 1092 119 1190 159 L 1211 100 C 1067 13 911 -30 742 -30 C 552 -30 400 23 286 131 C 172 239 116 382 116 562 C 116 814 204 1020 382 1181 C 560 1342 783 1423 1051 1423 C 1167 1423 1284 1409 1403 1382 L 1407 1372 L 1285 1022 Z" unicode="C" />
<glyph horiz-adv-x="1627" d="M 295 0 C 195 0 98 -1 4 -3 L 10 48 L 145 85 C 165 90 176 100 179 116 C 184 142 190 172 197 205 C 203 238 211 275 219 315 L 370 1110 C 376 1144 382 1174 387 1202 C 391 1229 395 1254 399 1276 C 402 1292 396 1304 382 1310 L 251 1349 L 259 1400 C 361 1397 462 1396 563 1396 C 605 1396 658 1397 722 1401 C 785 1404 841 1406 890 1406 C 1104 1406 1270 1360 1390 1270 C 1509 1179 1569 1045 1569 867 C 1569 611 1481 401 1306 238 C 1130 75 902 -6 621 -6 C 569 -6 522 -5 480 -3 C 437 -1 375 0 295 0 Z M 474 99 C 524 91 571 87 617 87 C 814 87 969 158 1083 300 C 1197 442 1254 631 1254 868 C 1254 1018 1223 1129 1161 1201 C 1099 1273 1005 1309 878 1309 C 828 1309 769 1306 703 1301 L 474 99 Z" unicode="D" />
<glyph horiz-adv-x="1223" d="M 567 1396 L 763 1396 C 922 1396 1091 1397 1271 1400 L 1276 1392 L 1161 1059 L 1105 1051 L 1077 1295 L 702 1295 L 601 762 L 644 762 C 692 762 758 762 844 763 C 862 763 875 772 883 790 L 945 927 L 1007 929 C 973 783 946 641 924 503 L 862 499 L 851 637 C 849 654 841 663 826 664 C 767 665 699 666 623 666 L 581 666 L 516 324 C 502 250 488 176 476 103 L 884 103 L 1052 369 L 1115 378 L 1029 4 L 1021 -3 C 842 -1 674 0 518 0 L 295 0 C 195 0 97 -1 3 -3 L 9 48 L 144 85 C 162 89 173 100 178 116 C 183 142 189 172 196 205 C 202 238 210 275 218 315 L 370 1110 C 376 1144 382 1174 387 1202 C 391 1229 395 1254 399 1276 C 402 1293 396 1304 382 1310 L 250 1349 L 258 1400 C 359 1397 462 1396 567 1396 Z" unicode="E" />
<glyph horiz-adv-x="1141" d="M 514 315 C 506 275 499 238 493 206 C 487 173 482 143 478 117 C 476 100 485 89 506 83 L 638 48 L 630 -3 C 510 -1 401 0 304 0 C 198 0 97 -1 3 -3 L 9 48 L 144 85 C 162 89 173 100 178 116 C 183 142 189 172 196 205 C 202 238 210 275 218 315 L 370 1110 C 376 1144 382 1174 387 1202 C 391 1229 395 1254 399 1276 C 402 1293 396 1304 382 1310 L 250 1349 L 258 1400 C 359 1397 462 1396 567 1396 L 765 1396 C 924 1396 1093 1397 1273 1400 L 1278 1392 L 1163 1059 L 1107 1051 L 1079 1295 L 702 1295 L 597 740 L 647 740 C 695 740 761 740 847 741 C 865 741 878 750 886 768 L 948 905 L 1010 907 C 976 761 949 619 927 481 L 865 477 L 854 615 C 852 632 844 641 829 642 C 770 643 702 644 626 644 L 577 644 L 514 315 Z" unicode="F" />
<glyph horiz-adv-x="1489" d="M 1316 1031 L 1258 1023 L 1230 1298 C 1175 1316 1109 1326 1033 1326 C 856 1326 712 1253 600 1108 C 488 963 432 790 432 589 C 432 437 469 312 543 214 C 617 115 714 66 835 66 C 863 66 891 68 920 73 L 970 340 C 977 374 983 404 988 431 C 992 458 997 483 1001 506 C 1003 524 997 535 983 540 L 862 579 L 869 622 C 923 620 976 619 1026 619 C 1076 618 1125 618 1172 618 C 1221 618 1269 618 1315 619 C 1361 619 1407 620 1451 622 L 1447 579 L 1337 546 C 1317 540 1306 530 1304 516 C 1298 489 1292 462 1287 434 C 1281 406 1275 376 1269 344 L 1208 27 L 1200 20 C 1058 -13 923 -30 796 -30 C 582 -30 415 21 295 124 C 174 226 114 370 114 555 C 114 811 203 1020 381 1181 C 559 1342 790 1423 1073 1423 C 1178 1423 1297 1409 1429 1382 L 1434 1373 L 1316 1031 Z" unicode="G" />
<glyph horiz-adv-x="1695" d="M 585 686 L 514 315 C 499 236 488 170 480 117 C 477 99 484 87 500 83 L 617 48 L 608 -3 C 501 -1 404 0 317 0 C 218 0 114 -1 4 -3 L 10 48 L 145 85 C 164 90 175 100 179 116 C 191 169 204 235 219 314 L 370 1109 C 382 1175 392 1231 399 1276 C 402 1293 396 1304 382 1310 L 251 1349 L 260 1400 C 376 1397 482 1396 578 1396 C 668 1396 766 1397 870 1400 L 864 1348 L 734 1313 C 716 1309 706 1298 702 1282 C 691 1234 679 1177 667 1113 L 606 792 L 1208 792 L 1269 1114 C 1281 1178 1292 1235 1300 1283 C 1302 1299 1296 1310 1280 1314 L 1163 1349 L 1172 1400 C 1280 1397 1379 1396 1469 1396 C 1566 1396 1671 1397 1785 1400 L 1779 1349 L 1629 1310 C 1613 1304 1603 1293 1599 1276 C 1589 1232 1577 1176 1565 1110 L 1414 315 C 1400 236 1388 170 1379 116 C 1377 100 1383 90 1399 85 L 1528 48 L 1519 -3 C 1400 -1 1293 0 1198 0 C 1106 0 1011 -1 912 -3 L 918 48 L 1045 83 C 1063 87 1074 99 1078 117 C 1090 170 1103 236 1118 315 L 1188 686 L 585 686 Z" unicode="H" />
<glyph horiz-adv-x="796" d="M 514 315 C 506 275 499 238 493 206 C 487 173 482 143 478 117 C 476 100 485 89 506 83 L 628 48 L 620 -3 C 506 -1 404 0 312 0 C 213 0 111 -1 5 -3 L 9 48 L 144 85 C 162 90 174 100 178 116 C 184 142 190 171 196 205 C 202 238 210 275 218 315 L 371 1110 C 377 1144 383 1174 388 1202 C 392 1229 396 1254 400 1276 C 403 1294 397 1305 383 1310 L 252 1349 L 261 1400 C 317 1398 372 1397 424 1397 C 476 1396 526 1396 574 1396 C 622 1396 671 1396 721 1397 C 771 1397 823 1398 877 1400 L 870 1349 L 733 1312 C 716 1308 706 1297 702 1281 C 696 1257 690 1232 685 1204 C 679 1176 673 1146 667 1114 L 514 315 Z" unicode="I" />
<glyph horiz-adv-x="741" d="M 245 1400 C 301 1398 355 1397 406 1397 C 456 1396 504 1396 549 1396 C 599 1396 650 1396 702 1397 C 753 1397 806 1398 860 1400 L 854 1349 L 717 1312 C 700 1308 689 1297 685 1281 C 679 1257 674 1232 668 1204 C 662 1176 657 1146 651 1114 L 486 241 C 449 47 386 -101 297 -205 C 208 -309 40 -385 -207 -435 L -221 -371 C -84 -310 9 -240 60 -161 C 110 -82 149 28 177 172 L 355 1110 C 361 1144 366 1174 371 1202 C 376 1229 380 1254 384 1276 C 387 1293 381 1304 366 1310 L 235 1349 L 245 1400 Z" unicode="J" />
<glyph horiz-adv-x="1522" d="M 608 701 L 1092 1149 C 1136 1190 1169 1223 1191 1247 C 1212 1271 1223 1290 1223 1303 C 1223 1313 1216 1320 1202 1324 L 1123 1346 L 1131 1400 C 1200 1397 1276 1396 1359 1396 C 1443 1396 1521 1397 1592 1400 L 1586 1349 L 1483 1317 C 1455 1308 1428 1295 1402 1279 C 1376 1263 1343 1236 1303 1198 L 876 797 L 1214 191 C 1234 154 1253 127 1270 109 C 1287 91 1311 78 1342 70 L 1420 48 L 1413 -3 C 1334 -1 1253 0 1170 0 C 1108 0 1045 0 981 -2 C 973 22 959 56 937 101 C 915 145 885 201 848 269 L 608 701 Z M 514 315 C 506 275 499 238 493 206 C 487 173 482 143 478 117 C 476 100 485 89 506 83 L 618 48 L 610 -3 C 502 -1 403 0 312 0 C 213 0 111 -1 5 -3 L 9 48 L 144 85 C 162 89 174 100 178 116 C 184 142 190 171 196 205 C 202 238 210 275 218 315 L 371 1110 C 377 1144 383 1174 388 1202 C 392 1229 396 1254 400 1276 C 402 1294 397 1305 383 1310 L 252 1349 L 261 1400 C 368 1397 472 1396 574 1396 C 675 1396 773 1397 867 1400 L 860 1349 L 733 1312 C 716 1308 706 1297 702 1281 C 696 1257 690 1232 685 1204 C 679 1176 673 1146 667 1114 L 514 315 Z" unicode="K" />
<glyph horiz-adv-x="1176" d="M 666 1114 L 516 323 C 502 249 488 175 476 103 L 877 103 L 1060 390 L 1123 399 L 1032 4 L 1025 -3 C 873 -1 721 0 567 0 L 314 0 C 214 0 111 -1 4 -3 L 10 48 L 145 85 C 163 89 175 100 179 116 C 184 142 190 172 197 205 C 203 238 211 275 219 315 L 370 1110 C 376 1144 382 1174 387 1202 C 391 1229 395 1254 399 1276 C 402 1293 396 1304 382 1310 L 251 1349 L 260 1400 C 374 1397 479 1396 575 1396 C 669 1396 769 1397 876 1400 L 869 1349 L 732 1312 C 715 1308 705 1297 701 1281 C 695 1257 687 1223 679 1179 C 670 1134 666 1112 666 1114 Z" unicode="L" />
<glyph horiz-adv-x="1906" d="M 1511 1400 C 1587 1397 1657 1396 1721 1396 C 1786 1396 1876 1397 1990 1400 L 1984 1349 L 1841 1310 C 1824 1304 1814 1293 1810 1276 C 1800 1232 1788 1176 1776 1110 L 1625 315 C 1610 236 1598 170 1589 116 C 1587 100 1594 90 1610 85 L 1735 48 L 1726 -3 C 1612 -1 1508 0 1412 0 C 1316 0 1221 -1 1129 -3 L 1135 48 L 1255 83 C 1272 87 1283 99 1288 118 C 1299 170 1312 236 1327 315 L 1485 1120 L 809 0 L 715 -8 L 473 1112 L 322 315 C 307 236 295 170 287 118 C 283 99 290 87 306 83 L 421 48 L 413 -3 C 323 -1 251 0 196 0 C 146 0 72 -1 -25 -3 L -19 48 L 120 85 C 139 90 150 100 154 116 C 166 170 179 236 194 315 L 345 1110 C 357 1176 367 1232 374 1276 C 377 1293 371 1304 357 1310 L 230 1349 L 238 1400 C 353 1397 442 1396 505 1396 C 573 1396 639 1397 704 1400 L 893 527 C 901 487 908 448 915 411 C 935 447 956 482 977 517 L 1511 1400 Z" unicode="M" />
<glyph horiz-adv-x="1474" d="M 230 1349 L 237 1400 C 283 1398 324 1397 360 1397 C 395 1396 425 1396 450 1396 C 466 1396 483 1396 499 1397 C 515 1397 531 1398 548 1400 L 1068 549 C 1086 513 1106 476 1128 438 L 1155 585 L 1255 1115 C 1261 1147 1267 1177 1272 1205 C 1277 1233 1281 1258 1285 1282 C 1287 1296 1280 1306 1265 1312 L 1143 1347 L 1151 1400 C 1197 1398 1238 1397 1275 1397 C 1312 1396 1345 1396 1374 1396 C 1404 1396 1437 1396 1474 1397 C 1510 1397 1552 1398 1598 1400 L 1593 1349 L 1449 1310 C 1433 1304 1423 1293 1419 1277 C 1413 1255 1408 1230 1402 1203 C 1396 1175 1390 1145 1384 1111 L 1173 0 L 1065 -11 L 512 893 C 494 923 474 960 452 1004 C 447 978 443 953 439 930 C 435 906 431 884 427 864 L 326 314 C 318 274 312 237 306 205 C 300 173 295 144 291 119 C 287 99 294 88 310 84 L 431 49 L 424 -3 C 334 -1 261 0 205 0 C 147 0 71 -1 -21 -3 L -17 47 L 125 84 C 143 89 153 99 157 115 C 163 142 169 172 176 205 C 182 237 189 274 197 314 L 345 1111 C 351 1145 356 1175 361 1203 C 366 1230 370 1255 374 1277 C 376 1293 370 1304 356 1310 L 230 1349 Z" unicode="N" />
<glyph horiz-adv-x="1679" d="M 764 -35 C 568 -35 411 17 293 121 C 175 225 116 369 116 553 C 116 798 198 1005 364 1174 C 530 1343 735 1428 980 1428 C 1176 1428 1333 1376 1452 1273 C 1570 1169 1630 1025 1630 840 C 1630 592 1547 385 1381 217 C 1215 49 1010 -35 764 -35 Z M 1307 873 C 1307 1017 1275 1129 1211 1211 C 1147 1292 1060 1333 952 1333 C 794 1333 668 1255 576 1101 C 484 947 438 753 438 521 C 438 378 469 265 533 183 C 596 101 683 60 793 60 C 951 60 1076 136 1168 290 C 1260 443 1307 637 1307 873 Z" unicode="O" />
<glyph horiz-adv-x="1262" d="M 585 682 C 609 674 639 670 677 670 C 775 670 852 702 910 766 C 968 830 997 921 997 1039 C 997 1123 976 1188 935 1236 C 893 1283 839 1307 773 1307 C 749 1307 725 1304 703 1299 L 585 682 Z M 10 48 L 145 85 C 164 90 175 100 179 116 C 184 142 190 172 197 205 C 203 238 211 275 219 315 L 370 1110 C 376 1144 382 1174 387 1202 C 391 1229 395 1254 399 1276 C 401 1292 396 1304 382 1310 L 251 1349 L 260 1400 C 310 1398 360 1397 410 1397 C 460 1396 510 1396 561 1396 C 601 1396 644 1397 691 1400 C 737 1402 775 1404 803 1404 C 962 1404 1086 1373 1176 1313 C 1266 1253 1311 1164 1311 1046 C 1311 902 1253 787 1139 703 C 1024 618 881 576 711 576 C 661 576 613 580 567 588 L 515 315 C 507 275 501 238 495 206 C 489 173 484 144 480 119 C 478 103 484 93 500 88 L 644 48 L 635 -3 C 509 -1 400 0 306 0 C 210 0 110 -1 4 -3 L 10 48 Z" unicode="P" />
<glyph horiz-adv-x="1680" d="M 1475 -182 L 1490 -240 C 1324 -383 1197 -455 1109 -455 C 870 -455 725 -313 673 -31 C 513 -17 380 39 274 139 C 168 239 116 377 116 553 C 116 798 198 1005 364 1174 C 530 1343 735 1428 980 1428 C 1176 1428 1333 1376 1452 1273 C 1570 1169 1630 1025 1630 840 C 1630 597 1551 394 1395 232 C 1239 69 1051 -18 833 -32 C 873 -162 1001 -231 1216 -238 C 1308 -238 1395 -219 1475 -182 Z M 1307 873 C 1307 1017 1275 1129 1211 1211 C 1147 1292 1060 1333 952 1333 C 794 1333 668 1255 576 1101 C 484 947 438 753 438 521 C 438 378 469 265 533 183 C 596 101 683 60 793 60 C 951 60 1076 136 1168 290 C 1260 443 1307 637 1307 873 Z" unicode="Q" />
<glyph horiz-adv-x="1407" d="M 259 1400 C 313 1398 367 1397 421 1397 C 475 1396 524 1396 568 1396 C 588 1396 627 1397 684 1400 C 741 1403 783 1405 809 1405 C 969 1405 1089 1378 1170 1326 C 1251 1273 1292 1194 1292 1090 C 1292 898 1170 764 926 688 C 935 670 944 651 954 630 C 964 608 972 589 980 572 C 987 554 994 535 1002 517 C 1010 499 1017 480 1025 462 C 1039 426 1053 391 1067 357 C 1081 323 1096 289 1112 253 C 1124 223 1137 196 1150 172 C 1163 148 1178 128 1195 111 C 1212 93 1233 79 1257 68 C 1281 56 1311 48 1347 44 L 1341 -7 C 1282 -13 1226 -16 1174 -16 C 1126 -16 1084 -13 1048 -9 C 1012 -4 981 4 955 18 C 929 32 906 51 886 76 C 866 100 848 132 832 172 C 819 202 807 232 795 263 C 783 293 771 326 760 360 C 746 396 732 436 717 478 C 702 520 686 561 670 602 C 666 613 660 623 654 632 C 648 640 637 645 622 647 L 578 650 L 514 315 C 506 275 500 239 494 207 C 488 175 483 146 479 120 C 476 99 482 86 498 81 L 612 48 L 605 -3 C 555 -1 505 0 456 0 C 406 0 358 0 311 0 C 261 0 210 0 158 0 C 105 0 54 -1 4 -3 L 9 48 L 144 85 C 161 89 172 100 178 116 C 183 142 189 172 196 205 C 203 238 210 275 218 315 L 371 1110 C 377 1144 383 1174 388 1201 C 392 1228 396 1253 400 1276 C 402 1294 397 1305 383 1310 L 252 1349 L 259 1400 Z M 595 738 C 608 735 622 734 637 734 C 861 734 973 845 973 1068 C 973 1146 954 1206 918 1247 C 881 1288 828 1309 760 1309 C 740 1309 721 1307 703 1304 L 595 738 Z" unicode="R" />
<glyph horiz-adv-x="1118" d="M 941 1306 C 897 1320 849 1327 799 1327 C 705 1327 626 1304 564 1260 C 501 1216 470 1155 472 1079 C 472 1043 480 1012 496 986 C 512 960 532 936 556 915 C 580 894 608 875 638 858 C 668 840 699 823 731 805 C 770 782 808 758 845 734 C 881 710 914 682 942 652 C 970 621 992 586 1009 547 C 1026 508 1035 463 1035 411 C 1035 271 974 162 852 84 C 730 6 579 -33 400 -33 C 284 -33 165 -15 41 21 L 37 30 L 143 393 L 207 403 L 234 94 C 286 75 342 66 402 66 C 500 66 583 89 649 135 C 715 181 748 242 748 320 C 748 356 740 388 725 416 C 709 443 689 467 665 489 C 640 510 612 529 582 546 C 551 563 520 580 490 598 C 456 616 421 637 385 659 C 349 681 317 708 288 739 C 259 769 235 805 217 845 C 199 885 190 933 190 989 C 190 1125 245 1232 356 1308 C 467 1384 615 1423 801 1423 C 915 1423 1028 1408 1138 1378 L 1142 1369 L 1030 1045 L 973 1036 L 941 1306 Z" unicode="S" />
<glyph horiz-adv-x="1266" d="M 352 1294 L 209 1026 L 152 1017 L 193 1392 L 202 1400 C 285 1398 365 1397 442 1397 C 519 1396 595 1396 669 1396 L 945 1396 C 1021 1396 1099 1396 1179 1397 C 1259 1397 1341 1398 1425 1400 L 1429 1392 L 1298 1026 L 1241 1017 L 1228 1294 L 936 1294 L 750 319 C 742 279 735 242 729 210 C 723 177 718 147 714 121 C 712 104 721 93 742 87 L 878 48 L 870 -3 C 746 -1 639 0 547 0 C 448 0 341 -1 225 -3 L 229 48 L 380 89 C 398 93 410 104 414 120 C 420 146 426 175 433 209 C 439 242 446 279 454 319 L 641 1294 L 352 1294 Z" unicode="T" />
<glyph horiz-adv-x="1503" d="M 221 1400 C 277 1398 330 1397 379 1397 C 428 1396 476 1396 522 1396 C 570 1396 618 1396 667 1397 C 716 1397 767 1398 819 1400 L 813 1349 L 689 1312 C 673 1308 664 1297 660 1281 C 655 1257 650 1232 645 1204 C 640 1176 635 1146 629 1114 L 532 597 C 516 514 509 445 509 389 C 509 291 532 215 578 163 C 624 111 692 85 782 85 C 842 85 894 96 937 120 C 979 143 1015 175 1045 215 C 1074 255 1098 302 1116 356 C 1134 410 1150 469 1163 531 L 1273 1114 C 1279 1146 1284 1176 1289 1204 C 1293 1232 1298 1257 1302 1281 C 1304 1297 1297 1308 1282 1312 L 1158 1346 L 1166 1400 C 1214 1398 1256 1397 1294 1397 C 1332 1396 1366 1396 1396 1396 C 1426 1396 1460 1396 1498 1397 C 1535 1397 1577 1398 1623 1400 L 1617 1349 L 1478 1310 C 1461 1305 1451 1294 1447 1276 C 1442 1254 1437 1229 1432 1202 C 1426 1174 1420 1144 1414 1110 L 1317 605 C 1297 503 1272 413 1243 334 C 1214 254 1176 187 1130 133 C 1084 79 1026 37 958 9 C 890 -18 806 -33 708 -33 C 550 -33 428 4 342 78 C 256 152 213 262 213 406 C 213 460 219 517 231 579 L 332 1110 C 338 1144 344 1174 349 1202 C 353 1229 358 1254 362 1276 C 365 1293 359 1304 344 1310 L 213 1349 L 221 1400 Z" unicode="U" />
<glyph horiz-adv-x="1358" d="M 749 396 L 1171 1136 C 1192 1174 1209 1206 1223 1232 C 1236 1258 1243 1276 1243 1288 C 1243 1301 1231 1311 1209 1319 L 1115 1346 L 1124 1399 C 1214 1397 1297 1396 1372 1396 C 1446 1396 1517 1397 1585 1399 L 1579 1348 L 1468 1317 C 1436 1305 1411 1289 1393 1269 C 1375 1248 1360 1227 1347 1205 L 632 -4 L 526 -12 L 317 1190 C 313 1212 308 1231 304 1247 C 300 1263 295 1275 290 1284 C 279 1301 262 1313 239 1320 L 133 1348 L 140 1399 C 248 1397 351 1396 448 1396 C 541 1396 646 1397 762 1399 L 757 1348 L 660 1320 C 646 1315 634 1309 625 1302 C 616 1294 612 1280 612 1259 C 612 1238 617 1198 627 1139 L 749 396 Z" unicode="V" />
<glyph horiz-adv-x="1975" d="M 1729 1399 C 1775 1397 1817 1396 1856 1396 C 1894 1396 1933 1396 1971 1396 C 2009 1396 2046 1396 2084 1396 C 2122 1396 2158 1397 2192 1399 L 2186 1348 L 2075 1317 C 2058 1312 2044 1306 2032 1298 C 2020 1290 2009 1281 2000 1271 C 1991 1261 1983 1250 1976 1239 C 1969 1227 1963 1216 1957 1205 L 1321 -1 L 1199 -12 L 1091 801 L 1079 918 L 1019 801 L 587 -1 L 470 -12 L 311 1190 C 308 1208 305 1225 303 1239 C 301 1253 297 1266 292 1277 C 287 1287 280 1296 271 1303 C 262 1310 250 1316 234 1320 L 128 1348 L 135 1399 C 189 1397 243 1396 296 1396 C 348 1396 399 1396 448 1396 C 540 1396 644 1397 760 1399 L 755 1348 L 658 1320 C 644 1315 632 1309 623 1302 C 614 1294 610 1280 610 1259 C 610 1248 611 1233 613 1213 C 615 1193 617 1168 621 1139 L 691 571 L 703 444 L 768 571 L 1212 1401 L 1314 1410 L 1418 572 L 1431 444 L 1493 572 L 1781 1135 C 1801 1174 1817 1206 1829 1232 C 1841 1258 1848 1276 1848 1288 C 1848 1302 1836 1312 1814 1319 L 1720 1346 L 1729 1399 Z" unicode="W" />
<glyph horiz-adv-x="1371" d="M -87 48 L 20 79 C 47 87 71 100 92 118 C 113 136 135 158 159 186 L 592 683 L 340 1224 C 334 1237 328 1249 322 1260 C 316 1270 310 1280 303 1288 C 296 1296 288 1302 280 1308 C 271 1314 261 1318 249 1322 L 155 1349 L 163 1400 C 208 1398 256 1397 307 1397 C 357 1396 412 1396 470 1396 C 522 1396 573 1396 625 1397 C 676 1397 730 1398 786 1400 L 781 1349 L 695 1324 C 662 1315 646 1298 646 1272 C 646 1250 658 1213 682 1163 L 814 881 L 1072 1183 C 1086 1199 1097 1213 1106 1225 C 1114 1236 1121 1246 1126 1254 C 1130 1262 1133 1268 1135 1274 C 1136 1279 1137 1284 1137 1290 C 1137 1305 1126 1316 1104 1322 L 1021 1346 L 1028 1400 C 1066 1398 1105 1397 1145 1397 C 1185 1396 1226 1396 1268 1396 C 1308 1396 1347 1396 1385 1397 C 1422 1397 1458 1398 1492 1400 L 1487 1349 L 1379 1317 C 1347 1307 1321 1292 1299 1272 C 1277 1251 1254 1226 1230 1198 L 863 777 L 1137 189 C 1145 171 1152 156 1158 144 C 1164 131 1171 120 1178 111 C 1184 102 1192 95 1201 89 C 1210 83 1221 79 1235 75 L 1330 48 L 1322 -3 C 1232 -1 1137 0 1037 0 C 933 0 820 -1 698 -3 L 704 48 L 794 73 C 822 81 837 99 837 128 C 837 147 825 182 801 234 L 640 580 L 326 212 C 312 196 302 183 294 173 C 286 162 279 153 274 145 C 269 137 266 130 264 124 C 262 118 262 113 262 108 C 262 92 274 80 300 73 L 377 50 L 369 -3 C 291 -1 211 0 129 0 C 55 0 -18 -1 -92 -3 L -87 48 Z" unicode="X" />
<glyph horiz-adv-x="1261" d="M 1055 1141 C 1078 1173 1098 1201 1115 1227 C 1132 1253 1141 1273 1141 1287 C 1141 1303 1128 1315 1104 1322 L 1016 1346 L 1023 1400 C 1103 1397 1183 1396 1262 1396 C 1337 1396 1413 1397 1489 1400 L 1484 1349 L 1366 1317 C 1340 1309 1319 1298 1303 1282 C 1287 1266 1271 1246 1253 1223 L 825 640 L 762 315 C 754 275 747 238 741 206 C 735 173 730 143 726 117 C 724 100 733 89 754 83 L 876 48 L 867 -3 C 753 -1 649 0 555 0 C 459 0 359 -1 253 -3 L 258 48 L 393 85 C 411 89 422 100 427 116 C 432 142 438 172 445 205 C 451 238 459 275 467 315 L 526 628 L 304 1195 C 286 1235 272 1265 260 1283 C 248 1301 229 1313 205 1321 L 104 1349 L 109 1400 C 191 1397 293 1396 415 1396 C 512 1396 619 1397 735 1400 L 733 1349 L 633 1323 C 617 1319 606 1314 598 1306 C 590 1298 586 1287 586 1273 C 586 1255 597 1218 619 1163 L 776 753 L 1055 1141 Z" unicode="Y" />
<glyph horiz-adv-x="1228" d="M -22 -3 L -18 47 L 931 1295 L 430 1295 L 321 1052 L 264 1044 L 270 1392 L 278 1400 C 447 1397 606 1396 754 1396 L 1007 1396 C 1115 1396 1218 1397 1315 1400 L 1310 1349 L 362 103 L 896 103 L 1083 395 L 1143 404 L 1049 4 L 1042 -3 C 840 -1 665 0 519 0 L 241 0 C 147 0 60 -1 -22 -3 Z" unicode="Z" />
<glyph horiz-adv-x="728" d="M 239 -248 L 474 -305 L 465 -356 L 38 -356 L 429 1549 L 854 1549 L 846 1498 L 585 1441 L 239 -248 Z" unicode="[" />
<glyph horiz-adv-x="825" d="M 597 -226 L 207 1426 L 347 1426 L 737 -226 L 597 -226 Z" unicode="\" />
<glyph horiz-adv-x="728" d="M 537 1441 L 302 1498 L 310 1549 L 737 1549 L 346 -356 L -79 -356 L -70 -305 L 191 -248 L 537 1441 Z" unicode="]" />
<glyph horiz-adv-x="1130" d="M 666 1396 L 1056 562 L 907 562 L 593 1240 L 280 562 L 135 562 L 525 1396 L 666 1396 Z" unicode="^" />
<glyph horiz-adv-x="1024" d="M 944 -268 L -80 -268 L -80 -178 L 944 -178 L 944 -268 Z" unicode="_" />
<glyph horiz-adv-x="840" d="M 577 1044 L 493 1044 L 295 1422 L 527 1422 L 577 1044 Z M 0 944 L 0 944 Z" unicode="`" />
<glyph horiz-adv-x="1185" d="M 1093 931 C 1068 849 1043 745 1018 619 L 928 174 C 924 158 923 146 923 136 C 923 122 925 110 931 102 C 937 94 946 87 958 82 C 970 77 986 74 1006 73 C 1026 71 1050 71 1079 71 L 1072 24 C 955 -4 867 -18 808 -18 C 758 -18 718 -6 690 15 C 662 37 648 70 648 112 L 648 132 C 527 26 440 -27 387 -27 C 296 -27 221 7 161 77 C 101 147 71 235 71 343 C 71 511 128 654 243 770 C 358 886 503 944 679 944 C 756 944 839 931 929 907 C 978 915 1027 927 1076 942 L 1093 931 Z M 784 827 C 748 843 707 852 661 852 C 573 852 501 802 445 702 C 388 602 360 494 360 380 C 360 312 370 253 391 202 C 412 151 436 126 464 126 C 501 126 567 161 662 233 L 784 827 Z" unicode="a" />
<glyph horiz-adv-x="1178" d="M 656 1506 L 668 1494 C 662 1468 655 1439 648 1407 C 640 1375 632 1339 624 1301 C 616 1263 607 1222 598 1179 C 589 1135 580 1091 570 1045 L 526 833 C 670 905 766 942 812 942 C 894 942 962 908 1016 840 C 1070 772 1097 691 1097 599 C 1097 409 1037 258 917 144 C 797 30 641 -27 450 -27 C 332 -27 210 -5 84 38 C 104 115 129 231 161 386 L 258 862 L 359 1352 L 193 1376 L 194 1419 C 369 1446 523 1475 656 1506 Z M 372 82 C 404 74 434 70 463 70 C 565 70 648 118 711 214 C 774 310 806 421 806 548 C 806 619 796 678 776 724 C 756 770 726 794 684 794 C 634 794 575 775 506 737 L 372 82 Z" unicode="b" />
<glyph horiz-adv-x="1002" d="M 817 200 L 851 150 C 736 32 606 -27 461 -27 C 349 -27 256 7 183 77 C 110 147 74 242 74 362 C 74 526 134 664 256 776 C 377 887 521 943 689 943 C 783 943 872 927 956 897 C 931 800 909 702 891 602 L 841 594 L 764 836 C 746 841 725 844 703 844 C 602 844 521 800 459 713 C 397 626 366 519 366 393 C 366 304 385 235 424 186 C 463 137 516 113 583 113 C 655 113 733 142 817 200 Z" unicode="c" />
<glyph horiz-adv-x="1190" d="M 732 1376 L 733 1419 C 910 1446 1065 1475 1198 1506 L 1210 1494 C 1204 1468 1197 1439 1190 1407 C 1182 1375 1174 1339 1166 1301 C 1158 1263 1149 1222 1140 1179 C 1131 1135 1122 1091 1112 1045 L 996 486 L 933 174 C 929 158 928 146 928 136 C 928 122 930 110 936 102 C 942 94 951 87 963 82 C 975 77 991 74 1011 73 C 1031 71 1055 71 1084 71 L 1077 24 C 960 -4 872 -18 813 -18 C 763 -18 724 -6 696 15 C 668 37 654 70 654 112 L 654 132 C 530 26 441 -27 387 -27 C 296 -27 221 7 161 77 C 101 147 71 235 71 343 C 71 511 128 654 242 770 C 356 886 501 944 676 944 C 718 944 764 940 812 933 L 898 1352 L 732 1376 Z M 790 827 C 750 843 706 852 658 852 C 571 852 500 802 444 702 C 388 602 360 494 360 380 C 360 312 370 253 391 202 C 412 151 436 126 464 126 C 502 126 570 161 668 233 L 790 827 Z" unicode="d" />
<glyph horiz-adv-x="1053" d="M 867 192 L 901 142 C 773 30 632 -25 477 -25 C 355 -25 257 8 183 74 C 108 140 71 230 71 345 C 71 515 131 657 253 772 C 374 886 521 944 694 944 C 790 944 864 926 916 891 C 968 856 994 805 994 739 C 994 655 940 586 834 530 C 727 474 570 442 362 432 C 360 416 360 401 360 387 C 360 297 378 228 415 181 C 451 134 506 111 580 111 C 674 111 770 138 867 192 Z M 370 512 C 600 533 716 607 716 735 C 716 770 707 796 691 814 C 675 832 654 841 629 841 C 574 841 522 810 473 749 C 423 688 389 609 370 512 Z" unicode="e" />
<glyph horiz-adv-x="729" d="M 254 810 L 106 849 L 109 892 L 271 907 C 312 1100 387 1248 495 1352 C 603 1455 731 1507 877 1507 C 945 1507 1011 1497 1076 1478 C 1048 1386 1024 1291 1004 1191 L 948 1182 L 895 1407 C 881 1410 864 1412 843 1412 C 782 1412 729 1383 685 1326 C 640 1269 601 1157 569 989 L 553 908 L 815 908 L 795 803 L 534 803 L 380 65 C 338 -130 279 -272 203 -362 C 126 -451 20 -496 -114 -496 C -166 -496 -226 -489 -295 -475 C -279 -401 -263 -331 -245 -265 L -231 -261 C -155 -348 -98 -392 -62 -392 C -24 -392 6 -365 32 -312 C 44 -285 56 -248 68 -202 C 80 -155 92 -96 105 -26 L 254 810 Z" unicode="f" />
<glyph horiz-adv-x="1170" d="M 1082 942 L 1099 931 C 1074 852 1049 749 1024 623 L 931 172 C 884 -55 812 -224 715 -335 C 617 -445 487 -501 324 -501 C 212 -501 96 -482 -24 -446 C -2 -354 20 -270 46 -194 L 60 -188 C 230 -320 341 -386 392 -386 C 448 -386 494 -352 529 -285 C 564 -217 597 -109 629 40 L 648 134 C 531 33 445 -17 390 -17 C 299 -17 223 17 163 86 C 102 154 72 242 72 349 C 72 516 129 657 244 772 C 358 886 503 944 677 944 C 762 944 848 931 935 907 C 985 916 1034 928 1082 942 Z M 792 827 C 754 843 710 852 659 852 C 573 852 501 802 445 703 C 389 604 361 499 361 387 C 361 322 371 264 392 213 C 413 161 438 136 467 136 C 505 136 572 171 670 243 L 792 827 Z" unicode="g" />
<glyph horiz-adv-x="1252" d="M 81 -5 L 359 1352 L 193 1376 L 194 1419 C 371 1446 526 1475 659 1506 L 671 1494 C 665 1468 658 1439 651 1407 C 643 1375 635 1339 627 1301 C 619 1263 610 1222 601 1179 C 592 1135 583 1091 573 1045 L 528 826 C 658 904 778 943 886 943 C 958 943 1015 923 1055 885 C 1095 847 1116 795 1116 730 C 1116 701 1112 670 1105 638 L 1005 164 C 1003 158 1002 153 1002 148 C 1001 143 1001 138 1001 134 C 1001 120 1004 109 1011 101 C 1017 93 1027 87 1040 83 C 1053 79 1069 77 1089 76 C 1108 75 1130 75 1155 75 L 1151 29 C 1051 -2 959 -18 876 -18 C 824 -18 784 -8 758 11 C 732 30 719 62 719 106 C 719 126 721 150 727 178 L 817 596 C 824 630 828 659 828 683 C 828 723 819 752 801 771 C 783 790 757 800 723 800 C 671 800 599 778 509 736 L 359 5 L 81 -5 Z" unicode="h" />
<glyph horiz-adv-x="661" d="M 109 896 C 228 926 325 942 400 942 C 444 942 479 934 504 918 C 529 902 542 878 542 845 C 542 831 540 817 538 804 L 407 174 C 403 156 402 144 402 136 C 402 109 413 91 435 83 C 457 75 497 71 557 71 L 551 24 C 437 -4 345 -18 275 -18 C 225 -18 187 -8 159 11 C 131 30 118 59 118 99 C 118 117 120 141 126 169 L 246 749 C 251 775 254 793 254 801 C 254 819 246 831 231 839 C 215 846 173 850 103 850 L 109 896 Z M 612 1294 C 612 1248 598 1211 570 1183 C 542 1155 507 1141 465 1141 C 424 1141 390 1154 364 1181 C 337 1207 324 1241 324 1283 C 324 1329 338 1366 366 1393 C 394 1420 429 1434 472 1434 C 512 1434 546 1421 572 1396 C 598 1371 612 1337 612 1294 Z" unicode="i" />
<glyph horiz-adv-x="640" d="M 107 850 L 113 896 C 232 926 329 942 404 942 C 448 942 483 934 508 918 C 533 902 546 878 546 845 C 546 831 544 817 542 804 L 401 123 C 375 -1 324 -109 247 -201 C 170 -292 34 -395 -161 -509 L -208 -454 C -68 -324 15 -224 44 -153 C 73 -81 98 2 118 100 L 250 749 C 255 775 258 793 258 801 C 258 819 250 831 235 839 C 219 846 177 850 107 850 Z M 616 1294 C 616 1248 602 1211 574 1183 C 546 1155 511 1141 469 1141 C 428 1141 394 1154 368 1181 C 341 1207 328 1241 328 1283 C 328 1329 342 1366 370 1393 C 398 1420 433 1434 476 1434 C 516 1434 550 1421 576 1396 C 602 1371 616 1337 616 1294 Z" unicode="j" />
<glyph horiz-adv-x="1182" d="M 198 1376 L 199 1419 C 375 1445 530 1474 664 1506 L 676 1494 C 664 1444 649 1379 633 1301 C 616 1223 598 1137 578 1045 L 364 5 L 85 -5 L 364 1352 L 198 1376 Z M 1115 -3 C 1027 -1 943 0 861 0 C 810 0 764 0 724 -2 C 699 68 667 144 628 224 C 588 304 540 393 484 491 C 598 592 689 677 756 747 C 822 817 868 874 894 919 C 914 918 942 918 976 918 C 1052 918 1130 919 1208 921 L 1203 871 C 1170 865 1140 859 1114 852 C 1087 845 1062 837 1039 828 C 1016 818 994 807 974 793 C 953 779 932 763 910 743 L 737 583 L 957 174 C 970 148 981 129 991 115 C 1001 101 1011 89 1022 81 C 1033 73 1046 66 1062 62 C 1077 57 1098 52 1124 46 L 1115 -3 Z" unicode="k" />
<glyph horiz-adv-x="653" d="M 189 1376 L 190 1419 C 367 1446 522 1475 655 1506 L 667 1494 C 661 1468 654 1439 647 1407 C 639 1375 631 1339 623 1301 C 615 1263 606 1222 597 1179 C 588 1135 579 1091 569 1045 L 390 172 C 387 159 386 146 386 133 C 386 111 394 96 412 86 C 430 76 473 71 543 71 L 537 24 C 421 -4 329 -18 261 -18 C 207 -18 166 -8 140 12 C 114 32 101 62 101 102 C 101 114 104 136 111 169 L 355 1352 L 189 1376 Z" unicode="l" />
<glyph horiz-adv-x="1859" d="M 95 -5 L 250 750 C 255 776 258 794 258 803 C 258 814 254 823 248 829 C 242 835 232 840 220 843 C 207 846 191 848 172 849 C 153 849 131 850 107 850 L 113 896 C 231 926 322 942 386 942 C 432 942 469 933 497 917 C 525 900 540 875 540 843 C 540 841 539 839 539 836 C 539 832 538 828 538 823 C 668 903 786 943 894 943 C 1004 943 1075 899 1107 813 C 1250 899 1379 943 1493 943 C 1565 943 1622 923 1662 885 C 1702 847 1723 795 1723 730 C 1723 701 1719 670 1712 638 L 1612 164 C 1610 158 1609 153 1609 148 C 1608 143 1608 138 1608 134 C 1608 120 1611 109 1618 101 C 1624 93 1634 87 1647 83 C 1660 79 1676 77 1696 76 C 1715 75 1737 75 1762 75 L 1758 29 C 1658 -2 1566 -18 1483 -18 C 1431 -18 1391 -8 1365 11 C 1339 30 1326 62 1326 106 C 1326 126 1328 150 1334 178 L 1424 596 C 1431 630 1435 659 1435 683 C 1435 723 1426 752 1408 771 C 1390 790 1364 800 1330 800 C 1278 800 1208 778 1120 735 C 1120 705 1116 673 1109 638 L 979 5 L 698 -5 L 821 596 C 828 632 832 661 832 683 C 832 723 823 752 806 771 C 789 790 764 800 730 800 C 679 800 610 778 523 736 L 374 5 L 95 -5 Z" unicode="m" />
<glyph horiz-adv-x="1267" d="M 95 -5 L 250 750 C 255 776 258 794 258 803 C 258 815 254 824 248 830 C 242 836 232 840 220 843 C 207 846 191 848 172 849 C 153 849 131 850 107 850 L 113 896 C 233 926 324 942 386 942 C 432 942 469 933 497 917 C 525 900 540 875 540 843 C 540 839 539 833 538 823 C 670 903 791 943 901 943 C 973 943 1030 923 1070 885 C 1110 847 1131 795 1131 730 C 1131 701 1127 670 1120 638 L 1020 164 C 1018 158 1017 153 1017 148 C 1016 143 1016 138 1016 134 C 1016 120 1019 109 1026 101 C 1032 93 1042 87 1055 83 C 1068 79 1084 77 1104 76 C 1123 75 1145 75 1170 75 L 1166 29 C 1066 -2 974 -18 891 -18 C 839 -18 799 -8 773 11 C 747 30 734 62 734 106 C 734 126 736 150 742 178 L 832 596 C 839 630 843 659 843 683 C 843 723 834 752 816 771 C 798 790 772 800 738 800 C 686 800 614 778 523 736 L 374 5 L 95 -5 Z" unicode="n" />
<glyph horiz-adv-x="1201" d="M 639 944 C 783 944 898 906 984 831 C 1070 756 1113 655 1113 529 C 1113 369 1060 236 956 131 C 852 25 717 -27 552 -27 C 406 -27 290 10 205 85 C 120 160 78 259 78 383 C 78 545 129 679 232 785 C 334 891 470 944 639 944 Z M 627 841 C 553 841 491 795 443 704 C 394 613 370 504 371 378 C 371 283 388 209 422 156 C 455 102 502 76 564 76 C 640 76 701 122 748 216 C 794 310 818 418 818 540 C 818 634 801 708 767 761 C 733 814 686 841 627 841 Z" unicode="o" />
<glyph horiz-adv-x="1190" d="M -134 -437 L -14 -403 C 4 -397 15 -386 18 -372 C 24 -347 30 -316 38 -280 C 46 -244 55 -201 65 -151 L 250 750 C 255 776 258 793 258 801 C 258 819 250 831 235 839 C 219 846 176 850 107 850 L 113 896 C 229 926 324 942 398 942 C 442 942 476 934 500 919 C 524 903 537 879 537 845 L 536 833 L 538 833 C 681 905 777 942 826 942 C 906 942 973 908 1027 841 C 1081 774 1109 693 1109 599 C 1109 415 1050 265 933 149 C 816 33 664 -24 477 -24 C 442 -24 404 -21 364 -16 L 322 -224 C 314 -258 308 -286 304 -309 C 300 -331 297 -350 295 -364 C 292 -384 299 -396 315 -400 L 460 -437 L 450 -486 C 318 -484 218 -483 150 -483 C 69 -483 -27 -484 -140 -486 L -134 -437 Z M 383 77 C 411 71 437 69 461 69 C 571 69 658 117 722 213 C 786 309 818 420 818 548 C 818 620 808 679 788 725 C 768 771 737 794 696 794 C 646 794 586 775 518 737 L 383 77 Z" unicode="p" />
<glyph horiz-adv-x="1175" d="M 378 -437 L 510 -403 C 527 -397 538 -387 543 -372 C 559 -292 593 -127 645 125 C 526 23 440 -27 387 -27 C 296 -27 221 7 161 77 C 101 147 71 235 71 343 C 71 511 128 654 242 770 C 356 886 501 944 676 944 C 758 944 844 931 934 907 C 983 915 1032 927 1081 942 L 1098 931 C 1073 849 1048 745 1023 619 L 863 -163 C 840 -273 826 -342 822 -370 C 819 -388 825 -399 839 -404 L 960 -437 L 951 -486 C 841 -484 747 -483 668 -483 C 586 -483 488 -484 372 -486 L 378 -437 Z M 789 827 C 750 843 706 852 658 852 C 571 852 500 802 444 702 C 388 602 360 494 360 380 C 360 312 370 253 391 202 C 412 151 436 126 464 126 C 502 126 570 161 667 233 L 789 827 Z" unicode="q" />
<glyph horiz-adv-x="901" d="M 95 -5 L 250 750 C 255 778 258 796 258 803 C 258 814 254 823 248 829 C 242 835 232 840 220 843 C 207 846 191 848 172 849 C 153 849 131 850 107 850 L 113 896 C 231 926 322 942 386 942 C 432 942 469 933 497 917 C 525 900 539 875 539 843 C 539 837 538 829 538 821 C 660 903 783 944 907 944 L 914 935 C 890 830 867 720 845 605 L 783 595 C 771 667 756 717 739 743 C 721 769 696 783 664 783 C 628 783 581 768 523 739 L 374 5 L 95 -5 Z" unicode="r" />
<glyph horiz-adv-x="932" d="M 702 830 C 662 840 625 846 592 846 C 525 846 474 834 438 811 C 402 788 384 754 384 709 C 384 689 389 672 399 658 C 409 643 423 629 441 617 C 459 605 479 593 502 582 C 524 571 548 560 573 549 C 601 535 630 520 659 504 C 688 488 714 469 737 448 C 759 427 778 403 792 375 C 806 347 814 315 814 278 C 814 180 775 105 698 52 C 620 0 514 -27 379 -27 C 315 -27 251 -21 189 -9 C 126 3 69 19 17 39 C 28 79 39 121 50 165 C 60 209 70 254 80 300 L 130 308 L 195 92 C 243 78 290 71 337 71 C 397 71 445 83 481 109 C 516 134 534 171 534 219 C 534 239 528 257 518 273 C 507 288 493 302 476 315 C 458 327 438 339 416 350 C 393 361 370 372 346 384 C 318 396 291 410 265 426 C 239 441 215 459 194 480 C 173 500 156 524 143 552 C 130 579 124 611 124 648 C 124 741 165 813 247 865 C 329 917 438 943 576 943 C 681 943 782 927 880 896 C 870 862 859 823 849 781 C 839 738 829 692 820 644 L 771 635 L 702 830 Z" unicode="s" />
<glyph horiz-adv-x="848" d="M 446 1154 L 611 1183 L 623 1176 C 592 1050 571 960 560 908 L 841 908 L 821 803 L 536 803 C 516 717 497 631 477 543 C 457 455 439 367 421 279 C 415 249 412 223 412 201 C 412 163 421 136 440 121 C 458 105 485 98 519 98 C 565 98 625 108 701 129 L 711 64 C 587 4 471 -26 362 -26 C 287 -26 229 -10 188 20 C 146 50 126 96 126 157 C 126 177 128 199 132 223 C 144 286 160 366 181 462 C 202 558 229 674 261 812 L 119 849 L 122 892 L 298 908 L 446 1154 Z" unicode="t" />
<glyph horiz-adv-x="1266" d="M 92 850 L 98 896 C 214 926 311 942 389 942 C 433 942 468 934 492 919 C 516 903 529 879 529 845 C 529 829 527 815 525 804 L 425 350 C 419 320 416 293 416 269 C 416 223 425 188 445 163 C 465 138 492 126 526 126 C 586 126 657 164 741 240 L 881 912 L 1162 922 L 1009 180 C 1005 160 1003 145 1003 133 C 1003 119 1005 109 1010 101 C 1015 93 1024 86 1036 82 C 1048 78 1063 75 1083 74 C 1103 72 1127 71 1157 71 L 1151 24 C 1034 -4 947 -18 889 -18 C 839 -18 799 -6 770 16 C 741 39 727 72 727 115 C 727 121 727 127 728 134 C 617 26 508 -28 401 -28 C 322 -28 259 -4 211 42 C 163 89 140 153 140 235 C 140 253 141 271 143 291 C 145 310 149 330 153 351 L 235 749 C 240 775 243 792 243 801 C 243 819 235 831 219 839 C 203 846 160 850 92 850 Z" unicode="u" />
<glyph horiz-adv-x="1044" d="M 449 -9 L 312 -23 C 298 81 276 223 244 405 C 212 586 183 712 158 784 C 154 794 149 804 144 812 C 138 820 130 826 119 832 C 108 838 93 842 73 845 C 53 848 27 850 -6 850 L 0 896 C 118 926 207 942 265 942 C 305 942 336 937 360 927 C 383 917 400 899 412 874 C 418 860 424 840 431 816 C 438 792 445 765 452 735 C 459 705 466 673 473 639 C 479 605 486 573 492 541 C 498 509 503 478 508 450 C 512 421 516 396 519 376 L 532 260 C 594 350 644 446 682 548 C 720 650 739 758 739 874 C 789 885 836 897 881 909 C 926 921 970 934 1012 947 L 1030 936 C 1029 890 1018 840 998 784 C 977 728 950 670 917 610 C 883 550 846 489 804 429 C 762 368 720 310 678 256 C 635 201 593 151 553 105 C 513 59 478 21 449 -9 Z" unicode="v" />
<glyph horiz-adv-x="1554" d="M 968 -9 L 831 -23 C 819 51 808 123 797 193 C 786 263 774 333 762 403 C 648 230 544 93 450 -9 L 313 -23 C 307 19 300 61 294 101 C 288 141 281 181 275 221 C 268 260 261 299 254 339 C 247 378 240 418 234 460 C 230 480 226 504 220 534 C 214 563 207 593 200 624 C 193 654 186 684 178 713 C 170 741 163 765 157 784 C 153 794 148 804 143 812 C 138 820 130 827 119 833 C 107 838 92 842 72 845 C 52 848 26 850 -7 850 L -1 896 C 115 926 204 942 264 942 C 304 942 335 937 359 927 C 382 917 399 899 411 874 C 417 860 423 840 430 816 C 437 792 444 765 451 735 C 458 705 465 673 472 639 C 478 605 485 573 491 541 C 497 509 502 478 507 450 C 511 421 515 396 518 376 L 533 260 C 610 361 676 462 731 564 C 721 616 710 668 698 721 C 686 774 674 829 660 886 C 748 904 828 921 900 938 L 917 932 C 957 787 996 602 1034 376 L 1050 260 C 1110 351 1158 447 1193 548 C 1227 649 1245 758 1245 874 C 1295 885 1342 897 1387 909 C 1432 921 1476 934 1518 947 L 1536 936 C 1535 890 1524 840 1504 784 C 1484 728 1457 670 1425 610 C 1393 550 1356 489 1316 429 C 1275 368 1234 310 1192 255 C 1150 200 1109 150 1070 104 C 1031 58 997 21 968 -9 Z" unicode="w" />
<glyph horiz-adv-x="1107" d="M 96 896 C 209 926 299 942 366 942 C 390 942 411 939 428 934 C 444 929 458 922 470 913 C 482 903 492 892 501 878 C 509 864 518 849 527 832 C 540 803 555 772 571 739 C 587 706 603 672 621 636 C 709 758 780 840 834 882 C 888 924 952 945 1027 945 C 1057 945 1085 943 1112 940 C 1091 869 1065 794 1035 714 L 1026 710 C 985 718 950 722 921 722 C 873 722 833 708 799 681 C 765 654 723 604 672 531 C 688 496 705 461 721 427 C 737 392 753 358 769 326 C 785 293 800 262 814 232 C 828 202 841 175 853 151 C 861 133 870 118 879 108 C 888 98 899 90 912 84 C 925 78 941 75 960 73 C 978 71 1002 70 1030 70 L 1024 24 C 916 -4 833 -18 775 -18 C 751 -18 730 -16 712 -13 C 694 -9 677 -3 663 4 C 649 12 636 24 624 38 C 612 52 602 71 592 93 C 582 113 568 142 550 180 C 532 217 513 258 492 304 C 396 165 320 76 265 37 C 210 -2 145 -22 69 -22 C 37 -22 9 -19 -15 -13 C 3 59 26 134 52 212 L 62 217 C 104 206 141 201 173 201 C 226 201 272 218 311 252 C 350 286 393 340 441 412 C 421 453 401 494 382 534 C 362 574 344 612 328 646 C 312 680 297 709 285 734 C 273 758 264 776 259 786 C 251 800 242 812 232 820 C 222 828 211 835 198 839 C 185 843 170 845 153 846 C 135 847 114 848 90 850 L 96 896 Z" unicode="x" />
<glyph horiz-adv-x="1065" d="M 772 874 C 870 901 960 927 1041 951 L 1063 936 C 1037 864 1010 796 982 733 C 954 669 926 610 898 554 C 870 498 841 445 813 395 C 785 345 757 299 731 255 C 703 209 676 165 652 125 C 628 85 605 46 584 9 C 566 -20 548 -53 530 -90 C 512 -127 494 -165 476 -203 C 458 -241 442 -279 428 -315 C 413 -351 401 -383 391 -410 C 383 -432 373 -449 361 -461 C 349 -473 335 -483 319 -489 C 302 -495 282 -498 259 -500 C 236 -501 209 -502 179 -502 C 95 -502 23 -498 -39 -492 L -44 -441 C -4 -436 32 -429 65 -419 C 98 -409 126 -394 150 -376 C 164 -365 179 -351 196 -335 C 213 -319 233 -297 256 -269 C 279 -241 306 -205 337 -162 C 368 -119 405 -66 447 -2 L 391 11 C 386 47 379 89 369 137 C 359 185 347 235 334 287 C 320 339 306 391 291 444 C 275 497 260 546 245 592 C 229 637 215 677 201 711 C 187 745 175 770 165 786 C 154 802 142 814 130 822 C 117 830 103 836 88 840 C 73 844 57 846 39 847 C 21 848 3 849 -17 850 L -11 896 C 103 926 191 942 255 942 C 291 942 323 936 351 926 C 379 915 399 898 413 874 C 423 856 435 829 450 795 C 464 760 479 720 495 674 C 510 628 525 579 541 526 C 557 472 571 418 583 363 L 602 255 C 654 356 694 458 723 560 C 752 662 768 767 772 874 Z" unicode="y" />
<glyph horiz-adv-x="1041" d="M 0 30 C 128 186 234 318 319 428 C 404 537 506 670 624 827 L 298 827 L 215 618 L 164 611 L 145 912 L 151 922 C 286 919 426 918 571 918 C 721 918 867 919 1008 922 L 1011 890 C 900 754 795 621 696 491 C 596 361 496 228 395 94 L 724 94 L 869 309 L 924 316 L 866 4 L 857 -3 C 736 -1 593 0 428 0 C 260 0 119 -1 5 -3 L 0 30 Z" unicode="z" />
<glyph horiz-adv-x="722" d="M 113 619 C 147 625 176 633 200 642 C 224 651 244 663 261 679 C 277 695 291 715 302 739 C 312 763 322 794 330 832 L 421 1273 C 432 1329 449 1375 472 1412 C 494 1449 523 1478 559 1500 C 594 1522 636 1537 686 1546 C 736 1554 794 1559 860 1559 L 850 1505 C 801 1495 763 1483 735 1469 C 707 1455 685 1439 669 1419 C 653 1399 641 1376 634 1349 C 626 1321 619 1289 611 1251 L 545 926 C 536 884 525 845 513 810 C 501 774 484 743 464 716 C 443 688 417 665 387 645 C 356 625 318 610 274 599 L 272 593 C 300 584 323 574 343 562 C 363 550 379 537 391 522 C 403 506 411 488 417 468 C 422 448 425 425 425 399 C 425 380 423 359 421 337 C 418 315 414 291 409 266 L 343 -57 C 337 -82 333 -105 329 -125 C 325 -145 324 -163 324 -180 C 324 -196 326 -211 331 -225 C 335 -238 343 -250 355 -260 C 367 -270 382 -280 402 -288 C 422 -296 446 -304 476 -311 L 467 -365 C 416 -364 370 -361 329 -357 C 287 -352 252 -343 223 -329 C 194 -315 172 -295 156 -269 C 140 -243 133 -209 133 -167 C 133 -139 136 -109 143 -79 L 234 364 C 240 394 244 422 244 447 C 244 469 240 487 234 501 C 228 515 219 527 207 537 C 195 547 180 555 163 561 C 146 567 127 572 107 577 L 113 619 Z" unicode="{" />
<glyph horiz-adv-x="722" d="M 462 1525 L 462 -508 L 320 -508 L 320 1525 L 462 1525 Z" unicode="|" />
<glyph horiz-adv-x="723" d="M 659 575 C 625 568 596 560 572 551 C 548 542 527 530 511 514 C 494 498 480 478 470 454 C 459 430 450 399 442 362 L 351 -79 C 339 -135 322 -181 300 -218 C 277 -255 248 -284 213 -306 C 177 -328 135 -343 85 -352 C 35 -360 -22 -365 -88 -365 L -78 -311 C -29 -301 9 -289 37 -275 C 65 -261 87 -245 103 -225 C 119 -205 130 -182 138 -155 C 145 -127 153 -95 161 -57 L 227 268 C 235 310 246 348 258 384 C 270 419 287 450 308 478 C 328 505 354 528 385 548 C 415 568 453 583 498 595 L 500 601 C 472 609 448 619 428 631 C 408 643 393 656 381 672 C 369 687 360 705 355 725 C 349 745 347 769 347 795 C 347 813 348 834 351 856 C 353 878 357 902 363 928 L 429 1251 C 434 1276 438 1299 442 1319 C 446 1339 448 1357 448 1374 C 448 1390 445 1405 441 1419 C 436 1432 428 1444 416 1454 C 404 1464 389 1474 369 1482 C 349 1490 325 1498 296 1505 L 305 1559 C 355 1558 401 1555 443 1551 C 484 1546 519 1537 548 1523 C 577 1509 599 1489 615 1463 C 631 1437 639 1403 639 1361 C 639 1333 635 1303 629 1273 L 538 830 C 531 799 528 771 528 747 C 528 725 531 706 537 692 C 543 678 553 666 565 656 C 577 646 591 639 608 633 C 625 627 644 621 665 617 L 659 575 Z" unicode="}" />
<glyph horiz-adv-x="1130" d="M 73 507 C 165 565 251 595 332 595 C 376 595 418 588 459 575 C 500 561 541 547 582 531 C 620 515 657 501 693 489 C 729 476 766 470 805 470 C 870 470 947 499 1037 557 L 1037 416 C 950 360 866 333 786 333 C 742 333 699 339 657 353 C 615 366 574 381 534 397 C 495 411 458 425 422 437 C 386 449 349 455 311 455 C 244 455 165 425 73 366 L 73 507 Z" unicode="~" />
<glyph horiz-adv-x="470" d="" unicode=" " />
<glyph horiz-adv-x="564" d="M 326 512 L 245 -439 L -69 -451 L -77 -443 L 247 508 L 326 512 Z M 320 652 C 277 652 242 665 214 693 C 186 721 172 757 172 803 C 172 847 186 884 216 912 C 245 940 281 955 324 955 C 368 955 404 940 432 912 C 459 884 473 847 473 803 C 473 757 458 721 430 693 C 401 665 364 652 320 652 Z" unicode="¡" />
<glyph horiz-adv-x="929" d="M 742 1085 L 710 939 C 789 935 865 920 939 894 L 869 599 L 819 591 L 747 833 C 728 838 709 841 689 841 L 534 116 C 543 114 554 114 566 114 C 638 114 716 143 800 201 L 834 151 C 736 49 626 -8 504 -22 L 477 -151 L 386 -159 L 414 -25 C 302 -15 215 26 152 98 C 88 170 57 262 57 372 C 57 519 109 646 215 754 C 320 861 455 922 621 938 L 651 1077 L 742 1085 Z M 451 148 L 597 828 C 514 800 451 746 409 668 C 366 589 345 501 345 403 C 345 285 380 200 451 148 Z" unicode="¢" />
<glyph horiz-adv-x="1083" d="M 111 493 L 131 598 L 278 598 L 293 690 C 301 738 316 785 338 830 C 360 875 391 915 430 950 C 469 984 517 1012 574 1033 C 631 1054 698 1065 775 1065 C 864 1065 949 1052 1031 1026 L 1035 1016 L 936 734 L 890 725 L 863 951 C 834 965 801 972 764 972 C 728 972 697 964 673 950 C 648 936 627 917 611 893 C 594 869 580 840 570 808 C 560 776 552 742 546 706 L 527 598 L 768 598 L 748 493 L 508 493 C 486 371 410 267 279 183 L 279 177 L 824 177 L 932 357 L 991 365 L 902 4 L 894 -3 C 748 -1 593 0 427 0 C 224 0 66 -1 -47 -3 L -37 77 C 46 100 109 129 151 163 C 193 197 223 267 241 375 L 260 493 L 111 493 Z" unicode="£" />
<glyph horiz-adv-x="1142" d="M 185 1197 L 338 1043 C 410 1093 494 1118 590 1118 C 688 1118 772 1093 843 1043 L 997 1197 L 1097 1098 L 942 943 C 992 869 1017 786 1017 694 C 1017 602 991 518 940 442 L 1096 286 L 997 186 L 839 344 C 763 295 680 271 590 271 C 495 271 412 295 342 343 L 185 186 L 86 286 L 241 441 C 189 513 164 597 164 694 C 164 790 188 874 238 944 L 85 1098 L 185 1197 Z M 312 694 C 312 606 337 533 388 476 C 439 419 506 391 590 391 C 673 391 740 419 792 477 C 843 534 869 606 869 694 C 869 782 843 855 791 912 C 739 969 672 998 590 998 C 509 998 442 970 390 914 C 338 858 312 785 312 694 Z" unicode="¤" />
<glyph horiz-adv-x="1076" d="M 157 470 L 175 565 L 372 565 L 257 850 C 248 871 240 888 234 902 C 227 915 220 926 213 935 C 206 943 199 950 191 955 C 183 959 174 964 164 968 L 99 995 L 103 1042 C 186 1040 272 1039 361 1039 C 452 1039 552 1040 662 1042 L 660 995 L 568 970 C 553 966 542 960 535 954 C 527 947 524 937 524 923 C 524 914 526 901 530 884 C 534 867 542 846 553 820 L 642 598 L 787 799 C 809 829 827 857 843 881 C 858 905 866 923 866 936 C 866 952 854 963 831 969 L 751 992 L 757 1042 C 833 1040 908 1039 982 1039 C 1046 1039 1107 1040 1165 1042 L 1160 995 L 1079 964 C 1065 958 1053 953 1043 947 C 1033 941 1025 935 1017 929 C 1009 922 1002 914 996 906 C 989 898 981 888 973 876 L 743 565 L 945 565 L 927 470 L 684 470 L 662 358 L 906 358 L 887 263 L 643 263 C 631 203 622 152 616 110 C 614 94 622 84 642 78 L 757 45 L 749 -3 C 641 -1 543 0 455 0 C 365 0 270 -1 172 -3 L 176 45 L 304 80 C 321 85 332 95 336 109 C 341 130 346 153 351 179 C 356 204 362 232 368 263 L 118 263 L 137 358 L 384 358 L 405 470 L 157 470 Z" unicode="¥" />
<glyph horiz-adv-x="742" d="M 320 854 L 320 1525 L 482 1525 L 482 854 L 320 854 Z M 320 -68 L 320 603 L 482 603 L 482 -68 L 320 -68 Z" unicode="¦" />
<glyph horiz-adv-x="1171" d="M 841 98 C 849 68 853 36 853 2 C 853 -104 809 -188 721 -249 C 633 -310 516 -341 369 -341 C 269 -341 153 -326 20 -298 L 15 -291 L 123 82 L 190 92 L 216 -220 C 283 -238 340 -248 386 -248 C 455 -248 510 -233 551 -205 C 592 -176 613 -134 613 -80 C 613 -48 606 -19 592 8 C 578 35 560 62 538 88 C 515 114 489 139 460 165 C 430 190 400 216 369 244 C 339 269 309 295 277 321 C 245 347 216 376 190 407 C 163 437 141 471 124 507 C 106 543 98 584 98 630 C 98 708 158 825 280 983 C 272 1014 269 1046 269 1080 C 269 1187 313 1271 401 1332 C 489 1392 607 1423 753 1423 C 863 1423 979 1410 1102 1385 L 1107 1378 L 993 1045 L 935 1037 L 903 1307 C 845 1322 790 1330 736 1330 C 666 1330 611 1315 570 1287 C 529 1258 509 1216 509 1162 C 509 1130 515 1101 529 1074 C 543 1046 561 1020 584 994 C 606 968 632 942 662 917 C 691 891 721 865 753 838 C 781 812 812 786 844 760 C 876 734 905 705 932 675 C 958 644 980 610 998 574 C 1015 538 1024 497 1024 452 C 1024 374 963 256 841 98 Z M 791 212 C 809 241 818 269 818 296 C 818 324 813 351 804 375 C 794 399 781 423 764 447 C 747 471 725 495 699 521 C 672 546 641 574 605 604 C 543 655 489 701 443 742 C 397 783 359 825 331 869 C 313 841 305 813 305 786 C 305 759 308 735 316 713 C 323 691 335 668 351 644 C 367 620 388 595 415 569 C 442 542 476 512 517 478 C 577 426 631 380 678 339 C 724 297 762 255 791 212 Z" unicode="§" />
<glyph horiz-adv-x="840" d="M 497 1294 C 497 1251 484 1217 458 1191 C 432 1165 398 1153 357 1153 C 318 1153 286 1165 262 1189 C 237 1213 225 1245 225 1285 C 225 1327 238 1361 264 1386 C 290 1411 324 1424 366 1424 C 404 1424 436 1412 460 1389 C 484 1366 497 1334 497 1294 Z M 913 1294 C 913 1251 900 1217 874 1191 C 848 1165 814 1153 773 1153 C 734 1153 702 1165 678 1189 C 653 1213 641 1245 641 1285 C 641 1327 654 1361 680 1386 C 706 1411 740 1424 782 1424 C 820 1424 852 1412 876 1389 C 900 1366 913 1334 913 1294 Z M 0 944 L 0 944 Z" unicode="¨" />
<glyph horiz-adv-x="1631" d="M 851 1386 C 1055 1386 1226 1319 1362 1185 C 1498 1051 1566 881 1566 675 C 1566 477 1498 312 1362 180 C 1226 48 1054 -18 848 -18 C 641 -18 469 48 333 180 C 197 312 129 479 129 680 C 129 885 198 1054 336 1187 C 474 1319 645 1386 851 1386 Z M 849 1291 C 671 1291 526 1234 416 1120 C 305 1006 250 860 250 684 C 250 506 305 361 417 247 C 529 133 674 77 852 77 C 1026 77 1169 133 1280 245 C 1390 357 1446 501 1446 679 C 1446 859 1390 1006 1278 1120 C 1166 1234 1023 1291 849 1291 Z M 1109 781 L 1069 775 L 1013 986 C 985 998 955 1004 924 1004 C 846 1004 786 976 744 922 C 702 868 681 796 681 707 C 681 610 709 534 765 480 C 821 425 896 398 990 398 C 1044 398 1100 412 1160 440 L 1172 396 C 1081 330 980 297 869 297 C 747 297 644 331 561 401 C 477 470 436 563 436 681 C 436 805 481 901 571 971 C 661 1041 777 1076 919 1076 C 995 1076 1073 1066 1153 1046 L 1157 1039 L 1109 781 Z" unicode="©" />
<glyph horiz-adv-x="784" d="M 94 402 L 113 493 L 748 493 L 729 402 L 94 402 Z M 409 746 C 438 746 475 762 519 795 L 588 1135 C 564 1141 543 1144 525 1144 C 475 1144 433 1119 399 1069 C 365 1019 349 956 349 878 C 349 838 354 806 365 782 C 375 758 390 746 409 746 Z M 545 1212 C 593 1212 643 1204 697 1190 L 793 1213 L 815 1198 C 807 1175 800 1148 794 1118 C 788 1088 781 1054 773 1017 L 718 760 C 716 750 715 743 715 739 C 715 725 722 717 736 715 C 750 713 775 711 811 711 L 806 673 C 729 653 667 643 620 643 C 592 643 567 649 546 662 C 524 674 513 696 511 728 C 445 670 387 642 337 642 C 281 642 233 662 193 702 C 153 742 134 795 134 861 C 134 962 171 1046 245 1112 C 319 1178 419 1212 545 1212 Z" unicode="ª" />
<glyph horiz-adv-x="1044" d="M 430 61 C 317 219 204 349 90 451 L 90 488 C 230 592 371 723 514 879 L 567 850 C 508 732 424 606 316 473 C 385 343 441 215 484 89 L 430 61 Z M 850 61 C 737 219 624 349 510 451 L 510 488 C 650 592 791 723 934 879 L 987 850 C 928 732 844 606 736 473 C 805 343 861 215 904 89 L 850 61 Z" unicode="«" />
<glyph horiz-adv-x="1130" d="M 73 532 L 1037 532 L 1037 -10 L 896 -10 L 896 391 L 73 391 L 73 532 Z" unicode="¬" />
<glyph horiz-adv-x="681" d="M 93 570 L 609 570 L 580 424 L 64 424 L 93 570 Z" unicode="­" />
<glyph horiz-adv-x="848" d="M 536 1409 C 643 1409 729 1378 795 1316 C 860 1254 893 1169 893 1063 C 893 954 859 867 793 803 C 727 739 639 707 530 707 C 423 707 337 739 272 803 C 207 867 175 953 175 1060 C 175 1165 209 1249 277 1313 C 345 1377 432 1409 536 1409 Z M 531 1357 C 447 1357 379 1330 327 1278 C 275 1225 249 1153 249 1061 C 249 967 275 894 327 840 C 379 786 447 759 533 759 C 619 759 688 784 740 836 C 792 888 818 963 818 1061 C 818 1151 791 1223 739 1277 C 686 1330 617 1357 531 1357 Z M 490 1021 C 490 1005 490 990 490 977 C 490 963 490 951 491 941 C 491 931 494 925 500 924 L 540 913 L 541 894 C 524 894 508 895 493 895 C 478 895 463 895 448 895 C 430 895 411 895 393 895 C 375 895 357 894 340 894 L 338 913 L 387 927 C 393 929 397 934 398 940 C 398 950 399 963 399 977 C 399 991 399 1006 399 1022 L 399 1124 C 399 1138 399 1151 399 1163 C 399 1174 398 1184 398 1194 C 397 1202 393 1207 386 1209 L 339 1222 L 338 1243 C 355 1242 372 1241 389 1241 C 405 1241 422 1241 439 1241 C 449 1241 464 1241 486 1243 C 508 1244 526 1245 541 1245 C 639 1245 688 1215 688 1157 C 688 1116 661 1086 609 1066 C 628 1037 644 1012 656 990 C 668 968 682 950 698 936 C 706 928 713 922 719 919 C 725 916 735 913 749 911 L 751 893 C 732 889 712 887 691 887 C 672 887 657 888 646 891 C 634 894 624 900 614 908 C 605 915 594 929 581 951 C 568 973 556 994 544 1014 C 536 1028 531 1037 527 1041 C 523 1044 516 1046 507 1046 L 490 1046 L 490 1021 Z M 490 1080 C 496 1079 504 1079 515 1079 C 568 1079 595 1101 595 1145 C 595 1167 589 1184 577 1195 C 565 1205 545 1211 519 1211 C 511 1211 502 1210 490 1209 L 490 1080 Z" unicode="®" />
<glyph horiz-adv-x="840" d="M 277 1184 L 301 1306 L 871 1306 L 847 1184 L 277 1184 Z M 0 944 L 0 944 Z" unicode="¯" />
<glyph horiz-adv-x="702" d="M 205 1095 C 205 1033 223 984 259 948 C 295 912 343 894 401 894 C 455 894 502 912 540 948 C 578 984 597 1033 597 1095 C 597 1155 578 1204 541 1242 C 503 1279 457 1298 401 1298 C 343 1298 295 1279 259 1242 C 223 1204 205 1155 205 1095 Z M 90 1094 C 90 1183 120 1257 180 1317 C 240 1376 313 1406 401 1406 C 492 1406 567 1376 625 1317 C 683 1257 712 1184 712 1096 C 712 1006 682 932 623 874 C 564 815 490 786 401 786 C 313 786 240 815 180 874 C 120 932 90 1006 90 1094 Z" unicode="°" />
<glyph horiz-adv-x="1130" d="M 73 703 L 485 703 L 485 1025 L 626 1025 L 626 703 L 1037 703 L 1037 562 L 626 562 L 626 241 L 485 241 L 485 562 L 73 562 L 73 703 Z M 73 141 L 1037 141 L 1037 0 L 73 0 L 73 141 Z" unicode="±" />
<glyph horiz-adv-x="738" d="M 775 1281 C 775 1233 763 1190 741 1151 C 718 1111 685 1072 643 1034 C 600 996 548 957 486 917 C 424 877 354 832 276 784 L 276 780 L 640 780 L 714 892 L 753 898 L 693 664 L 681 656 C 619 657 520 658 384 658 C 263 658 162 657 82 656 L 96 735 C 129 757 164 780 201 806 C 238 831 274 857 310 885 C 346 913 380 942 412 972 C 444 1002 473 1032 498 1063 C 522 1094 542 1125 556 1157 C 570 1188 578 1219 578 1251 C 578 1296 564 1331 537 1355 C 509 1379 473 1392 429 1392 C 399 1392 370 1387 343 1378 C 316 1369 292 1360 272 1351 L 249 1408 C 293 1431 335 1450 375 1464 C 415 1478 461 1486 511 1486 C 591 1486 655 1467 703 1430 C 751 1393 775 1343 775 1281 Z" unicode="²" />
<glyph horiz-adv-x="738" d="M 279 1119 C 377 1127 449 1145 496 1172 C 542 1199 566 1238 566 1289 C 566 1321 553 1346 527 1366 C 501 1386 467 1396 425 1396 C 376 1396 321 1379 259 1347 L 236 1405 C 278 1431 323 1451 369 1465 C 415 1479 465 1486 521 1486 C 594 1486 653 1470 699 1440 C 744 1410 767 1370 767 1322 C 767 1276 746 1237 705 1205 C 663 1173 605 1147 530 1128 L 530 1124 C 598 1118 651 1100 690 1069 C 729 1038 749 999 749 952 C 749 900 732 855 700 817 C 668 778 623 745 565 719 C 507 692 437 672 357 658 C 276 644 187 638 91 638 L 99 701 C 251 709 363 733 435 773 C 507 813 543 866 543 934 C 543 974 526 1006 493 1030 C 460 1053 418 1065 368 1065 C 341 1065 307 1061 267 1055 L 279 1119 Z" unicode="³" />
<glyph horiz-adv-x="840" d="M 623 1422 L 880 1422 L 552 1044 L 468 1044 L 623 1422 Z M 0 944 L 0 944 Z" unicode="´" />
<glyph horiz-adv-x="1229" d="M 232 898 C 340 912 440 930 532 950 L 540 943 C 517 851 495 754 475 652 L 413 344 C 409 324 407 305 407 289 C 407 250 418 218 440 192 C 462 166 494 154 536 154 C 601 154 663 184 722 244 L 802 636 C 822 732 834 820 840 898 C 948 912 1048 930 1140 950 L 1148 943 C 1125 851 1103 754 1083 652 L 988 188 C 984 170 982 156 982 144 C 982 127 985 114 992 105 C 999 96 1010 89 1024 85 C 1038 81 1055 78 1076 77 C 1096 75 1124 75 1160 75 L 1154 28 C 1045 -6 954 -24 880 -24 C 760 -24 701 26 701 128 C 615 22 544 -30 486 -30 C 420 -30 371 10 338 91 L 328 9 C 304 -146 284 -303 270 -463 C 163 -469 65 -479 -24 -494 L -33 -487 L 194 636 C 214 732 226 820 232 898 Z" unicode="µ" />
<glyph horiz-adv-x="1251" d="M 985 1302 L 896 1305 L 706 473 C 684 471 665 470 648 470 C 490 470 362 513 263 601 C 164 689 115 802 115 942 C 115 1081 166 1193 268 1277 C 370 1361 507 1404 679 1404 C 717 1404 782 1402 874 1400 C 966 1397 1028 1396 1060 1396 C 1160 1396 1246 1397 1316 1400 L 1311 1349 L 1148 1312 C 1136 1309 1126 1305 1119 1301 C 1111 1297 1105 1288 1100 1275 C 1095 1262 1090 1243 1086 1218 C 1082 1192 1076 1157 1069 1111 L 984 571 C 969 477 954 390 939 310 C 923 230 905 157 885 91 C 864 25 839 -33 811 -84 C 783 -134 749 -177 709 -212 C 669 -247 621 -274 567 -292 C 512 -310 448 -319 375 -319 C 318 -319 249 -312 167 -298 C 177 -214 192 -135 211 -61 L 220 -58 C 349 -158 440 -208 493 -208 C 518 -208 540 -203 560 -194 C 580 -185 598 -169 614 -147 C 630 -124 646 -94 661 -56 C 675 -18 691 29 707 87 C 723 144 740 212 758 292 C 776 371 797 463 821 568 L 985 1302 Z" unicode="¶" />
<glyph horiz-adv-x="565" d="M 284 660 C 328 660 364 645 393 617 C 421 589 436 551 436 505 C 436 459 421 421 393 392 C 364 362 328 348 284 348 C 238 348 200 362 172 392 C 144 421 130 459 130 505 C 130 551 144 589 172 617 C 200 645 238 660 284 660 Z" unicode="·" />
<glyph horiz-adv-x="840" d="M 148 -189 L 295 0 L 386 0 L 307 -106 C 374 -139 408 -184 408 -240 C 408 -314 338 -399 198 -494 L 160 -453 C 225 -399 258 -350 258 -305 C 258 -257 222 -221 152 -197 L 148 -189 Z" unicode="¸" />
<glyph horiz-adv-x="738" d="M 311 1400 L 313 1438 C 443 1451 563 1464 671 1478 L 677 1469 C 667 1435 659 1400 651 1365 C 643 1329 636 1294 629 1258 L 548 855 C 542 829 538 806 534 786 C 530 766 526 748 524 733 C 522 723 525 718 531 718 L 665 694 L 659 656 C 591 657 511 658 417 658 C 322 658 242 657 177 656 L 181 695 L 323 719 C 329 720 333 724 335 732 C 339 750 343 767 347 783 C 350 799 354 817 358 837 L 430 1190 C 438 1228 445 1263 451 1295 C 457 1327 462 1358 468 1388 L 311 1400 Z" unicode="¹" />
<glyph horiz-adv-x="791" d="M 72 401 L 90 492 L 743 492 L 725 401 L 72 401 Z M 453 641 C 353 641 276 664 222 710 C 167 756 140 817 140 893 C 140 985 175 1061 245 1121 C 315 1181 404 1212 513 1212 C 611 1212 688 1189 743 1144 C 798 1098 826 1038 826 963 C 826 871 791 794 722 733 C 653 671 563 641 453 641 Z M 466 717 C 504 717 538 740 566 786 C 594 832 609 897 609 979 C 609 1029 599 1067 580 1095 C 560 1123 534 1137 500 1137 C 458 1137 423 1113 397 1065 C 370 1017 357 954 357 877 C 357 825 366 785 386 758 C 405 730 432 717 466 717 Z" unicode="º" />
<glyph horiz-adv-x="1044" d="M 194 879 C 306 721 420 591 534 489 L 534 452 C 394 347 252 217 110 61 L 57 90 C 115 208 199 333 308 467 C 238 596 182 724 140 851 L 194 879 Z M 614 879 C 726 721 840 591 954 489 L 954 452 C 814 347 672 217 530 61 L 477 90 C 535 208 619 333 728 467 C 658 596 602 724 560 851 L 614 879 Z" unicode="»" />
<glyph horiz-adv-x="1687" d="M 271 1400 L 273 1438 C 403 1451 523 1464 631 1478 L 637 1469 C 627 1435 619 1400 611 1365 C 603 1329 596 1294 589 1258 L 508 855 C 502 829 498 806 494 786 C 490 766 486 748 484 733 C 482 723 485 718 491 718 L 625 694 L 619 656 C 551 657 471 658 377 658 C 282 658 202 657 137 656 L 141 695 L 283 719 C 289 720 293 724 295 732 C 299 750 303 767 307 783 C 310 799 314 817 318 837 L 390 1190 C 398 1228 405 1263 411 1295 C 417 1327 422 1358 428 1388 L 271 1400 Z M 390 8 L 1336 1485 L 1427 1422 L 480 -55 L 390 8 Z M 1163 217 C 1099 217 1030 216 958 215 L 970 291 C 1158 501 1333 680 1494 828 L 1623 832 L 1627 820 C 1439 669 1262 500 1098 314 L 1312 314 L 1356 529 L 1546 538 L 1498 314 L 1630 314 L 1612 215 C 1564 216 1520 217 1478 217 L 1454 76 C 1452 68 1454 63 1460 62 L 1569 36 L 1563 -2 C 1492 0 1419 0 1345 0 C 1276 0 1202 0 1123 -2 L 1127 36 L 1253 63 C 1259 64 1263 68 1265 76 L 1292 217 L 1163 217 Z" unicode="¼" />
<glyph horiz-adv-x="1687" d="M 271 1400 L 273 1438 C 403 1451 523 1464 631 1478 L 637 1469 C 627 1435 619 1400 611 1365 C 603 1329 596 1294 589 1258 L 508 855 C 502 829 498 806 494 786 C 490 766 486 748 484 733 C 482 723 485 718 491 718 L 625 694 L 619 656 C 551 657 471 658 377 658 C 282 658 202 657 137 656 L 141 695 L 283 719 C 289 720 293 724 295 732 C 299 750 303 767 307 783 C 310 799 314 817 318 837 L 390 1190 C 398 1228 405 1263 411 1295 C 417 1327 422 1358 428 1388 L 271 1400 Z M 340 8 L 1286 1485 L 1377 1422 L 430 -55 L 340 8 Z M 1664 623 C 1664 575 1652 532 1630 493 C 1607 453 1574 414 1532 376 C 1489 338 1437 299 1375 259 C 1313 219 1243 174 1165 126 L 1165 122 L 1529 122 L 1603 234 L 1642 240 L 1582 6 L 1570 -2 C 1508 0 1409 0 1273 0 C 1152 0 1051 0 971 -2 L 985 77 C 1018 99 1053 122 1090 148 C 1127 173 1163 199 1199 227 C 1235 255 1269 284 1301 314 C 1333 344 1362 374 1387 405 C 1411 436 1431 467 1445 499 C 1459 530 1467 561 1467 593 C 1467 638 1453 673 1426 697 C 1398 721 1362 734 1318 734 C 1288 734 1259 729 1232 720 C 1205 711 1181 702 1161 693 L 1138 750 C 1182 773 1224 792 1264 806 C 1304 820 1350 828 1400 828 C 1480 828 1544 809 1592 772 C 1640 735 1664 685 1664 623 Z" unicode="½" />
<glyph horiz-adv-x="1687" d="M 239 1119 C 337 1127 409 1145 456 1172 C 502 1199 526 1238 526 1289 C 526 1321 513 1346 487 1366 C 461 1386 427 1396 385 1396 C 336 1396 281 1379 219 1347 L 196 1405 C 238 1431 283 1451 329 1465 C 375 1479 425 1486 481 1486 C 554 1486 613 1470 659 1440 C 704 1410 727 1370 727 1322 C 727 1276 706 1237 665 1205 C 623 1173 565 1147 490 1128 L 490 1124 C 558 1118 611 1100 650 1069 C 689 1038 709 999 709 952 C 709 900 692 855 660 817 C 628 778 583 745 525 719 C 467 692 397 672 317 658 C 236 644 147 638 51 638 L 59 701 C 211 709 323 733 395 773 C 467 813 503 866 503 934 C 503 974 486 1006 453 1030 C 420 1053 378 1065 328 1065 C 301 1065 267 1061 227 1055 L 239 1119 Z M 370 8 L 1316 1485 L 1407 1422 L 460 -55 L 370 8 Z M 1163 217 C 1099 217 1030 216 958 215 L 970 291 C 1158 501 1333 680 1494 828 L 1623 832 L 1627 820 C 1439 669 1262 500 1098 314 L 1312 314 L 1356 529 L 1546 538 L 1498 314 L 1630 314 L 1612 215 C 1564 216 1520 217 1478 217 L 1454 76 C 1452 68 1454 63 1460 62 L 1569 36 L 1563 -2 C 1492 0 1419 0 1345 0 C 1276 0 1202 0 1123 -2 L 1127 36 L 1253 63 C 1259 64 1263 68 1265 76 L 1292 217 L 1163 217 Z" unicode="¾" />
<glyph horiz-adv-x="915" d="M 645 -404 C 512 -443 398 -463 302 -463 C 196 -463 111 -438 47 -390 C -16 -342 -49 -278 -49 -198 C -49 -154 -41 -115 -26 -79 C -10 -43 10 -10 37 19 C 63 49 94 78 128 106 C 162 134 197 162 235 190 C 269 216 300 239 327 259 C 353 279 376 299 394 317 C 412 335 426 353 436 371 C 446 388 451 406 451 426 C 451 451 442 478 426 506 L 477 538 C 517 504 554 462 586 413 C 618 363 635 322 635 288 C 635 265 630 244 620 224 C 610 204 597 185 579 165 C 561 145 538 124 512 104 C 486 83 456 60 422 36 C 390 12 359 -8 331 -28 C 303 -48 278 -68 257 -89 C 235 -109 219 -131 207 -155 C 195 -179 190 -207 190 -239 C 190 -278 204 -309 232 -333 C 260 -357 295 -369 338 -369 C 388 -369 438 -360 487 -342 L 589 -113 L 639 -106 L 653 -396 L 645 -404 Z M 554 652 C 511 652 476 665 448 693 C 420 721 406 757 406 803 C 406 847 420 884 450 912 C 479 940 515 955 558 955 C 602 955 638 940 666 912 C 693 884 707 847 707 803 C 707 757 692 721 664 693 C 635 665 598 652 554 652 Z" unicode="¿" />
<glyph horiz-adv-x="1367" d="M 324 50 L 315 -3 C 224 -1 141 0 67 0 C -7 0 -78 -1 -146 -3 L -140 48 L -29 79 C 3 90 27 106 45 127 C 63 147 78 169 92 191 L 810 1404 L 920 1421 L 1129 206 C 1133 183 1137 164 1141 148 C 1145 132 1150 120 1156 112 C 1166 94 1183 82 1207 76 L 1313 48 L 1306 -3 C 1197 -1 1094 0 998 0 C 904 0 799 -1 683 -3 L 688 48 L 785 76 C 799 80 810 86 819 94 C 828 101 833 115 833 137 C 833 157 828 197 818 257 L 788 443 L 373 443 L 268 260 C 246 222 229 190 216 164 C 202 138 196 119 196 108 C 196 94 207 84 230 77 L 324 50 Z M 431 546 L 771 546 L 712 914 L 699 1020 L 642 915 L 431 546 Z M 588 1662 L 744 1800 L 1074 1525 L 1043 1473 L 588 1647 L 588 1662 Z M 260 1400 L 260 1400 Z" unicode="À" />
<glyph horiz-adv-x="1367" d="M 324 50 L 315 -3 C 224 -1 141 0 67 0 C -7 0 -78 -1 -146 -3 L -140 48 L -29 79 C 3 90 27 106 45 127 C 63 147 78 169 92 191 L 810 1404 L 920 1421 L 1129 206 C 1133 183 1137 164 1141 148 C 1145 132 1150 120 1156 112 C 1166 94 1183 82 1207 76 L 1313 48 L 1306 -3 C 1197 -1 1094 0 998 0 C 904 0 799 -1 683 -3 L 688 48 L 785 76 C 799 80 810 86 819 94 C 828 101 833 115 833 137 C 833 157 828 197 818 257 L 788 443 L 373 443 L 268 260 C 246 222 229 190 216 164 C 202 138 196 119 196 108 C 196 94 207 84 230 77 L 324 50 Z M 431 546 L 771 546 L 712 914 L 699 1020 L 642 915 L 431 546 Z M 1148 1647 L 663 1473 L 632 1525 L 992 1800 L 1148 1662 L 1148 1647 Z M 260 1400 L 260 1400 Z" unicode="Á" />
<glyph horiz-adv-x="1367" d="M 324 50 L 315 -3 C 224 -1 141 0 67 0 C -7 0 -78 -1 -146 -3 L -140 48 L -29 79 C 3 90 27 106 45 127 C 63 147 78 169 92 191 L 810 1404 L 920 1421 L 1129 206 C 1133 183 1137 164 1141 148 C 1145 132 1150 120 1156 112 C 1166 94 1183 82 1207 76 L 1313 48 L 1306 -3 C 1197 -1 1094 0 998 0 C 904 0 799 -1 683 -3 L 688 48 L 785 76 C 799 80 810 86 819 94 C 828 101 833 115 833 137 C 833 157 828 197 818 257 L 788 443 L 373 443 L 268 260 C 246 222 229 190 216 164 C 202 138 196 119 196 108 C 196 94 207 84 230 77 L 324 50 Z M 431 546 L 771 546 L 712 914 L 699 1020 L 642 915 L 431 546 Z M 887 1622 L 546 1475 L 519 1527 L 821 1776 L 989 1776 L 1231 1522 L 1194 1475 L 887 1622 Z M 260 1400 L 260 1400 Z" unicode="Â" />
<glyph horiz-adv-x="1367" d="M 324 50 L 315 -3 C 224 -1 141 0 67 0 C -7 0 -78 -1 -146 -3 L -140 48 L -29 79 C 3 90 27 106 45 127 C 63 147 78 169 92 191 L 810 1404 L 920 1421 L 1129 206 C 1133 183 1137 164 1141 148 C 1145 132 1150 120 1156 112 C 1166 94 1183 82 1207 76 L 1313 48 L 1306 -3 C 1197 -1 1094 0 998 0 C 904 0 799 -1 683 -3 L 688 48 L 785 76 C 799 80 810 86 819 94 C 828 101 833 115 833 137 C 833 157 828 197 818 257 L 788 443 L 373 443 L 268 260 C 246 222 229 190 216 164 C 202 138 196 119 196 108 C 196 94 207 84 230 77 L 324 50 Z M 431 546 L 771 546 L 712 914 L 699 1020 L 642 915 L 431 546 Z M 1242 1737 C 1162 1595 1085 1525 1011 1525 C 985 1525 962 1530 941 1540 C 919 1550 896 1562 871 1578 C 859 1585 848 1591 839 1597 C 830 1602 821 1607 813 1611 C 804 1615 796 1617 788 1619 C 780 1621 772 1622 764 1622 C 744 1622 725 1616 709 1606 C 693 1595 665 1568 625 1526 L 575 1568 C 623 1644 663 1697 697 1728 C 731 1759 766 1775 802 1775 C 822 1775 841 1771 859 1765 C 877 1757 902 1744 935 1726 C 949 1718 962 1711 973 1705 C 983 1699 993 1693 1002 1689 C 1010 1685 1019 1682 1027 1680 C 1035 1678 1043 1677 1052 1677 C 1073 1677 1091 1682 1106 1693 C 1121 1703 1149 1730 1189 1774 L 1242 1737 Z M 260 1400 L 260 1400 Z" unicode="Ã" />
<glyph horiz-adv-x="1367" d="M 324 50 L 315 -3 C 224 -1 141 0 67 0 C -7 0 -78 -1 -146 -3 L -140 48 L -29 79 C 3 90 27 106 45 127 C 63 147 78 169 92 191 L 810 1404 L 920 1421 L 1129 206 C 1133 183 1137 164 1141 148 C 1145 132 1150 120 1156 112 C 1166 94 1183 82 1207 76 L 1313 48 L 1306 -3 C 1197 -1 1094 0 998 0 C 904 0 799 -1 683 -3 L 688 48 L 785 76 C 799 80 810 86 819 94 C 828 101 833 115 833 137 C 833 157 828 197 818 257 L 788 443 L 373 443 L 268 260 C 246 222 229 190 216 164 C 202 138 196 119 196 108 C 196 94 207 84 230 77 L 324 50 Z M 431 546 L 771 546 L 712 914 L 699 1020 L 642 915 L 431 546 Z M 816 1655 C 816 1614 804 1581 780 1557 C 756 1533 724 1521 686 1521 C 648 1521 618 1532 595 1555 C 572 1578 561 1608 561 1646 C 561 1686 573 1718 597 1741 C 621 1764 653 1776 693 1776 C 729 1776 759 1765 782 1744 C 804 1723 816 1693 816 1655 Z M 1225 1655 C 1225 1614 1212 1581 1188 1557 C 1164 1533 1132 1521 1094 1521 C 1057 1521 1027 1532 1004 1555 C 981 1578 970 1608 970 1646 C 970 1686 982 1718 1006 1741 C 1030 1764 1061 1776 1101 1776 C 1138 1776 1168 1765 1191 1744 C 1213 1723 1225 1693 1225 1655 Z M 260 1400 L 260 1400 Z" unicode="Ä" />
<glyph horiz-adv-x="1367" d="M 324 50 L 315 -3 C 224 -1 141 0 67 0 C -7 0 -78 -1 -146 -3 L -140 48 L -29 79 C 3 90 27 106 45 127 C 63 147 78 169 92 191 L 810 1404 L 920 1421 L 1129 206 C 1133 183 1137 164 1141 148 C 1145 132 1150 120 1156 112 C 1166 94 1183 82 1207 76 L 1313 48 L 1306 -3 C 1197 -1 1094 0 998 0 C 904 0 799 -1 683 -3 L 688 48 L 785 76 C 799 80 810 86 819 94 C 828 101 833 115 833 137 C 833 157 828 197 818 257 L 788 443 L 373 443 L 268 260 C 246 222 229 190 216 164 C 202 138 196 119 196 108 C 196 94 207 84 230 77 L 324 50 Z M 431 546 L 771 546 L 712 914 L 699 1020 L 642 915 L 431 546 Z M 873 1468 C 811 1468 762 1482 726 1510 C 690 1538 672 1576 672 1624 C 672 1686 697 1736 747 1776 C 797 1816 857 1836 925 1836 C 979 1836 1026 1821 1065 1792 C 1104 1762 1124 1724 1124 1677 C 1124 1614 1100 1563 1052 1525 C 1004 1487 944 1468 873 1468 Z M 884 1534 C 918 1534 946 1546 967 1572 C 988 1597 999 1630 999 1672 C 999 1700 991 1724 977 1742 C 962 1760 941 1770 914 1770 C 878 1770 849 1756 828 1730 C 807 1704 797 1670 797 1630 C 797 1602 804 1579 819 1561 C 834 1543 856 1534 884 1534 Z M 260 1400 L 260 1400 Z" unicode="Å" />
<glyph horiz-adv-x="1900" d="M 1027 1396 L 1440 1396 C 1520 1396 1602 1396 1686 1397 C 1770 1397 1858 1398 1948 1400 L 1953 1392 L 1838 1059 L 1782 1051 L 1754 1295 L 1379 1295 L 1274 743 L 1403 743 C 1436 743 1474 743 1517 744 C 1535 744 1548 753 1556 771 L 1618 907 L 1680 909 C 1663 835 1648 763 1634 693 C 1620 622 1608 552 1597 482 L 1535 478 L 1524 615 C 1523 631 1515 640 1499 642 C 1469 642 1437 643 1404 643 C 1370 643 1334 644 1296 644 L 1254 644 L 1193 324 C 1185 286 1178 249 1172 213 C 1166 176 1159 139 1153 103 L 1561 103 L 1729 369 L 1792 378 L 1706 4 L 1698 -3 C 1518 -1 1351 0 1195 0 L 972 0 C 872 0 774 -1 680 -3 L 686 48 L 821 85 C 839 89 850 100 855 116 C 860 142 866 172 873 205 C 879 238 887 275 895 315 L 958 644 L 548 644 L 285 260 C 259 223 240 191 226 165 C 212 138 205 119 205 108 C 205 94 216 83 239 77 L 333 50 L 324 -3 C 232 -1 149 0 73 0 C 31 0 -9 0 -49 0 C -89 0 -126 -1 -160 -3 L -154 48 L -43 79 C -26 83 -11 90 2 99 C 16 107 29 118 42 131 C 55 143 68 158 81 175 C 93 191 107 210 122 231 L 860 1276 C 863 1280 865 1285 865 1291 C 865 1299 857 1306 843 1310 L 700 1349 L 708 1400 C 762 1398 815 1397 868 1397 C 921 1396 974 1396 1027 1396 Z M 1082 1295 L 996 1295 L 616 743 L 977 743 L 1082 1295 Z" unicode="Æ" />
<glyph horiz-adv-x="1356" d="M 523 -189 L 650 -25 C 486 -7 356 53 260 157 C 164 260 116 395 116 562 C 116 814 204 1020 382 1181 C 560 1342 783 1423 1051 1423 C 1167 1423 1284 1409 1403 1382 L 1407 1372 L 1285 1022 L 1229 1013 L 1197 1300 C 1151 1316 1098 1324 1036 1324 C 864 1324 720 1251 606 1107 C 492 962 435 788 435 585 C 435 433 477 314 561 228 C 645 142 759 99 905 99 C 997 99 1092 119 1190 159 L 1211 100 C 1067 13 911 -30 742 -30 L 738 -30 L 682 -106 C 749 -139 783 -184 783 -240 C 783 -314 713 -399 573 -494 L 535 -453 C 600 -399 633 -350 633 -305 C 633 -257 597 -221 527 -197 L 523 -189 Z" unicode="Ç" />
<glyph horiz-adv-x="1223" d="M 567 1396 L 763 1396 C 922 1396 1091 1397 1271 1400 L 1276 1392 L 1161 1059 L 1105 1051 L 1077 1295 L 702 1295 L 601 762 L 644 762 C 692 762 758 762 844 763 C 862 763 875 772 883 790 L 945 927 L 1007 929 C 973 783 946 641 924 503 L 862 499 L 851 637 C 849 654 841 663 826 664 C 767 665 699 666 623 666 L 581 666 L 516 324 C 502 250 488 176 476 103 L 884 103 L 1052 369 L 1115 378 L 1029 4 L 1021 -3 C 842 -1 674 0 518 0 L 295 0 C 195 0 97 -1 3 -3 L 9 48 L 144 85 C 162 89 173 100 178 116 C 183 142 189 172 196 205 C 202 238 210 275 218 315 L 370 1110 C 376 1144 382 1174 387 1202 C 391 1229 395 1254 399 1276 C 402 1293 396 1304 382 1310 L 250 1349 L 258 1400 C 359 1397 462 1396 567 1396 Z M 528 1662 L 684 1800 L 1014 1525 L 983 1473 L 528 1647 L 528 1662 Z M 200 1400 L 200 1400 Z" unicode="È" />
<glyph horiz-adv-x="1223" d="M 567 1396 L 763 1396 C 922 1396 1091 1397 1271 1400 L 1276 1392 L 1161 1059 L 1105 1051 L 1077 1295 L 702 1295 L 601 762 L 644 762 C 692 762 758 762 844 763 C 862 763 875 772 883 790 L 945 927 L 1007 929 C 973 783 946 641 924 503 L 862 499 L 851 637 C 849 654 841 663 826 664 C 767 665 699 666 623 666 L 581 666 L 516 324 C 502 250 488 176 476 103 L 884 103 L 1052 369 L 1115 378 L 1029 4 L 1021 -3 C 842 -1 674 0 518 0 L 295 0 C 195 0 97 -1 3 -3 L 9 48 L 144 85 C 162 89 173 100 178 116 C 183 142 189 172 196 205 C 202 238 210 275 218 315 L 370 1110 C 376 1144 382 1174 387 1202 C 391 1229 395 1254 399 1276 C 402 1293 396 1304 382 1310 L 250 1349 L 258 1400 C 359 1397 462 1396 567 1396 Z M 1088 1647 L 603 1473 L 572 1525 L 932 1800 L 1088 1662 L 1088 1647 Z M 200 1400 L 200 1400 Z" unicode="É" />
<glyph horiz-adv-x="1223" d="M 567 1396 L 763 1396 C 922 1396 1091 1397 1271 1400 L 1276 1392 L 1161 1059 L 1105 1051 L 1077 1295 L 702 1295 L 601 762 L 644 762 C 692 762 758 762 844 763 C 862 763 875 772 883 790 L 945 927 L 1007 929 C 973 783 946 641 924 503 L 862 499 L 851 637 C 849 654 841 663 826 664 C 767 665 699 666 623 666 L 581 666 L 516 324 C 502 250 488 176 476 103 L 884 103 L 1052 369 L 1115 378 L 1029 4 L 1021 -3 C 842 -1 674 0 518 0 L 295 0 C 195 0 97 -1 3 -3 L 9 48 L 144 85 C 162 89 173 100 178 116 C 183 142 189 172 196 205 C 202 238 210 275 218 315 L 370 1110 C 376 1144 382 1174 387 1202 C 391 1229 395 1254 399 1276 C 402 1293 396 1304 382 1310 L 250 1349 L 258 1400 C 359 1397 462 1396 567 1396 Z M 827 1622 L 486 1475 L 459 1527 L 761 1776 L 929 1776 L 1171 1522 L 1134 1475 L 827 1622 Z M 200 1400 L 200 1400 Z" unicode="Ê" />
<glyph horiz-adv-x="1223" d="M 567 1396 L 763 1396 C 922 1396 1091 1397 1271 1400 L 1276 1392 L 1161 1059 L 1105 1051 L 1077 1295 L 702 1295 L 601 762 L 644 762 C 692 762 758 762 844 763 C 862 763 875 772 883 790 L 945 927 L 1007 929 C 973 783 946 641 924 503 L 862 499 L 851 637 C 849 654 841 663 826 664 C 767 665 699 666 623 666 L 581 666 L 516 324 C 502 250 488 176 476 103 L 884 103 L 1052 369 L 1115 378 L 1029 4 L 1021 -3 C 842 -1 674 0 518 0 L 295 0 C 195 0 97 -1 3 -3 L 9 48 L 144 85 C 162 89 173 100 178 116 C 183 142 189 172 196 205 C 202 238 210 275 218 315 L 370 1110 C 376 1144 382 1174 387 1202 C 391 1229 395 1254 399 1276 C 402 1293 396 1304 382 1310 L 250 1349 L 258 1400 C 359 1397 462 1396 567 1396 Z M 756 1655 C 756 1614 744 1581 720 1557 C 696 1533 664 1521 626 1521 C 588 1521 558 1532 535 1555 C 512 1578 501 1608 501 1646 C 501 1686 513 1718 537 1741 C 561 1764 593 1776 633 1776 C 669 1776 699 1765 722 1744 C 744 1723 756 1693 756 1655 Z M 1165 1655 C 1165 1614 1152 1581 1128 1557 C 1104 1533 1072 1521 1034 1521 C 997 1521 967 1532 944 1555 C 921 1578 910 1608 910 1646 C 910 1686 922 1718 946 1741 C 970 1764 1001 1776 1041 1776 C 1078 1776 1108 1765 1131 1744 C 1153 1723 1165 1693 1165 1655 Z M 200 1400 L 200 1400 Z" unicode="Ë" />
<glyph horiz-adv-x="796" d="M 514 315 C 506 275 499 238 493 206 C 487 173 482 143 478 117 C 476 100 485 89 506 83 L 628 48 L 620 -3 C 506 -1 404 0 312 0 C 213 0 111 -1 5 -3 L 9 48 L 144 85 C 162 90 174 100 178 116 C 184 142 190 171 196 205 C 202 238 210 275 218 315 L 371 1110 C 377 1144 383 1174 388 1202 C 392 1229 396 1254 400 1276 C 403 1294 397 1305 383 1310 L 252 1349 L 261 1400 C 317 1398 372 1397 424 1397 C 476 1396 526 1396 574 1396 C 622 1396 671 1396 721 1397 C 771 1397 823 1398 877 1400 L 870 1349 L 733 1312 C 716 1308 706 1297 702 1281 C 696 1257 690 1232 685 1204 C 679 1176 673 1146 667 1114 L 514 315 Z M 304 1662 L 460 1800 L 790 1525 L 759 1473 L 304 1647 L 304 1662 Z M -24 1400 L -24 1400 Z" unicode="Ì" />
<glyph horiz-adv-x="796" d="M 514 315 C 506 275 499 238 493 206 C 487 173 482 143 478 117 C 476 100 485 89 506 83 L 628 48 L 620 -3 C 506 -1 404 0 312 0 C 213 0 111 -1 5 -3 L 9 48 L 144 85 C 162 90 174 100 178 116 C 184 142 190 171 196 205 C 202 238 210 275 218 315 L 371 1110 C 377 1144 383 1174 388 1202 C 392 1229 396 1254 400 1276 C 403 1294 397 1305 383 1310 L 252 1349 L 261 1400 C 317 1398 372 1397 424 1397 C 476 1396 526 1396 574 1396 C 622 1396 671 1396 721 1397 C 771 1397 823 1398 877 1400 L 870 1349 L 733 1312 C 716 1308 706 1297 702 1281 C 696 1257 690 1232 685 1204 C 679 1176 673 1146 667 1114 L 514 315 Z M 864 1647 L 379 1473 L 348 1525 L 708 1800 L 864 1662 L 864 1647 Z M -24 1400 L -24 1400 Z" unicode="Í" />
<glyph horiz-adv-x="796" d="M 514 315 C 506 275 499 238 493 206 C 487 173 482 143 478 117 C 476 100 485 89 506 83 L 628 48 L 620 -3 C 506 -1 404 0 312 0 C 213 0 111 -1 5 -3 L 9 48 L 144 85 C 162 90 174 100 178 116 C 184 142 190 171 196 205 C 202 238 210 275 218 315 L 371 1110 C 377 1144 383 1174 388 1202 C 392 1229 396 1254 400 1276 C 403 1294 397 1305 383 1310 L 252 1349 L 261 1400 C 317 1398 372 1397 424 1397 C 476 1396 526 1396 574 1396 C 622 1396 671 1396 721 1397 C 771 1397 823 1398 877 1400 L 870 1349 L 733 1312 C 716 1308 706 1297 702 1281 C 696 1257 690 1232 685 1204 C 679 1176 673 1146 667 1114 L 514 315 Z M 603 1622 L 262 1475 L 235 1527 L 537 1776 L 705 1776 L 947 1522 L 910 1475 L 603 1622 Z M -24 1400 L -24 1400 Z" unicode="Î" />
<glyph horiz-adv-x="796" d="M 514 315 C 506 275 499 238 493 206 C 487 173 482 143 478 117 C 476 100 485 89 506 83 L 628 48 L 620 -3 C 506 -1 404 0 312 0 C 213 0 111 -1 5 -3 L 9 48 L 144 85 C 162 90 174 100 178 116 C 184 142 190 171 196 205 C 202 238 210 275 218 315 L 371 1110 C 377 1144 383 1174 388 1202 C 392 1229 396 1254 400 1276 C 403 1294 397 1305 383 1310 L 252 1349 L 261 1400 C 317 1398 372 1397 424 1397 C 476 1396 526 1396 574 1396 C 622 1396 671 1396 721 1397 C 771 1397 823 1398 877 1400 L 870 1349 L 733 1312 C 716 1308 706 1297 702 1281 C 696 1257 690 1232 685 1204 C 679 1176 673 1146 667 1114 L 514 315 Z M 532 1655 C 532 1614 520 1581 496 1557 C 472 1533 440 1521 402 1521 C 364 1521 334 1532 311 1555 C 288 1578 277 1608 277 1646 C 277 1686 289 1718 313 1741 C 337 1764 369 1776 409 1776 C 445 1776 475 1765 498 1744 C 520 1723 532 1693 532 1655 Z M 941 1655 C 941 1614 928 1581 904 1557 C 880 1533 848 1521 810 1521 C 773 1521 743 1532 720 1555 C 697 1578 686 1608 686 1646 C 686 1686 698 1718 722 1741 C 746 1764 777 1776 817 1776 C 854 1776 884 1765 907 1744 C 929 1723 941 1693 941 1655 Z M -24 1400 L -24 1400 Z" unicode="Ï" />
<glyph horiz-adv-x="1627" d="M 295 0 C 195 0 98 -1 4 -3 L 10 48 L 145 85 C 165 90 176 100 179 116 C 184 142 190 172 197 205 C 203 238 211 275 219 315 L 289 685 L 129 685 L 149 791 L 309 791 L 370 1110 C 376 1144 382 1174 387 1202 C 391 1229 395 1254 399 1276 C 402 1292 396 1304 382 1310 L 251 1349 L 259 1400 C 361 1397 462 1396 563 1396 C 605 1396 658 1397 722 1401 C 785 1404 841 1406 890 1406 C 1104 1406 1270 1360 1390 1270 C 1509 1179 1569 1045 1569 867 C 1569 611 1481 401 1306 238 C 1130 75 902 -6 621 -6 C 569 -6 522 -5 480 -3 C 437 -1 375 0 295 0 Z M 474 99 C 524 91 571 87 617 87 C 814 87 969 158 1083 300 C 1197 442 1254 631 1254 868 C 1254 1018 1223 1129 1161 1201 C 1099 1273 1005 1309 878 1309 C 828 1309 769 1306 703 1301 L 605 791 L 879 791 L 859 685 L 585 685 L 474 99 Z" unicode="Ð" />
<glyph horiz-adv-x="1474" d="M 230 1349 L 237 1400 C 283 1398 324 1397 360 1397 C 395 1396 425 1396 450 1396 C 466 1396 483 1396 499 1397 C 515 1397 531 1398 548 1400 L 1068 549 C 1086 513 1106 476 1128 438 L 1155 585 L 1255 1115 C 1261 1147 1267 1177 1272 1205 C 1277 1233 1281 1258 1285 1282 C 1287 1296 1280 1306 1265 1312 L 1143 1347 L 1151 1400 C 1197 1398 1238 1397 1275 1397 C 1312 1396 1345 1396 1374 1396 C 1404 1396 1437 1396 1474 1397 C 1510 1397 1552 1398 1598 1400 L 1593 1349 L 1449 1310 C 1433 1304 1423 1293 1419 1277 C 1413 1255 1408 1230 1402 1203 C 1396 1175 1390 1145 1384 1111 L 1173 0 L 1065 -11 L 512 893 C 494 923 474 960 452 1004 C 447 978 443 953 439 930 C 435 906 431 884 427 864 L 326 314 C 318 274 312 237 306 205 C 300 173 295 144 291 119 C 287 99 294 88 310 84 L 431 49 L 424 -3 C 334 -1 261 0 205 0 C 147 0 71 -1 -21 -3 L -17 47 L 125 84 C 143 89 153 99 157 115 C 163 142 169 172 176 205 C 182 237 189 274 197 314 L 345 1111 C 351 1145 356 1175 361 1203 C 366 1230 370 1255 374 1277 C 376 1293 370 1304 356 1310 L 230 1349 Z M 1302 1737 C 1222 1595 1145 1525 1071 1525 C 1045 1525 1022 1530 1001 1540 C 979 1550 956 1562 931 1578 C 919 1585 908 1591 899 1597 C 890 1602 881 1607 873 1611 C 864 1615 856 1617 848 1619 C 840 1621 832 1622 824 1622 C 804 1622 785 1616 769 1606 C 753 1595 725 1568 685 1526 L 635 1568 C 683 1644 723 1697 757 1728 C 791 1759 826 1775 862 1775 C 882 1775 901 1771 919 1765 C 937 1757 962 1744 995 1726 C 1009 1718 1022 1711 1033 1705 C 1043 1699 1053 1693 1062 1689 C 1070 1685 1079 1682 1087 1680 C 1095 1678 1103 1677 1112 1677 C 1133 1677 1151 1682 1166 1693 C 1181 1703 1209 1730 1249 1774 L 1302 1737 Z M 320 1400 L 320 1400 Z" unicode="Ñ" />
<glyph horiz-adv-x="1679" d="M 764 -35 C 568 -35 411 17 293 121 C 175 225 116 369 116 553 C 116 798 198 1005 364 1174 C 530 1343 735 1428 980 1428 C 1176 1428 1333 1376 1452 1273 C 1570 1169 1630 1025 1630 840 C 1630 592 1547 385 1381 217 C 1215 49 1010 -35 764 -35 Z M 1307 873 C 1307 1017 1275 1129 1211 1211 C 1147 1292 1060 1333 952 1333 C 794 1333 668 1255 576 1101 C 484 947 438 753 438 521 C 438 378 469 265 533 183 C 596 101 683 60 793 60 C 951 60 1076 136 1168 290 C 1260 443 1307 637 1307 873 Z M 713 1662 L 869 1800 L 1199 1525 L 1168 1473 L 713 1647 L 713 1662 Z M 385 1400 L 385 1400 Z" unicode="Ò" />
<glyph horiz-adv-x="1679" d="M 764 -35 C 568 -35 411 17 293 121 C 175 225 116 369 116 553 C 116 798 198 1005 364 1174 C 530 1343 735 1428 980 1428 C 1176 1428 1333 1376 1452 1273 C 1570 1169 1630 1025 1630 840 C 1630 592 1547 385 1381 217 C 1215 49 1010 -35 764 -35 Z M 1307 873 C 1307 1017 1275 1129 1211 1211 C 1147 1292 1060 1333 952 1333 C 794 1333 668 1255 576 1101 C 484 947 438 753 438 521 C 438 378 469 265 533 183 C 596 101 683 60 793 60 C 951 60 1076 136 1168 290 C 1260 443 1307 637 1307 873 Z M 1273 1647 L 788 1473 L 757 1525 L 1117 1800 L 1273 1662 L 1273 1647 Z M 385 1400 L 385 1400 Z" unicode="Ó" />
<glyph horiz-adv-x="1679" d="M 764 -35 C 568 -35 411 17 293 121 C 175 225 116 369 116 553 C 116 798 198 1005 364 1174 C 530 1343 735 1428 980 1428 C 1176 1428 1333 1376 1452 1273 C 1570 1169 1630 1025 1630 840 C 1630 592 1547 385 1381 217 C 1215 49 1010 -35 764 -35 Z M 1307 873 C 1307 1017 1275 1129 1211 1211 C 1147 1292 1060 1333 952 1333 C 794 1333 668 1255 576 1101 C 484 947 438 753 438 521 C 438 378 469 265 533 183 C 596 101 683 60 793 60 C 951 60 1076 136 1168 290 C 1260 443 1307 637 1307 873 Z M 1012 1622 L 671 1475 L 644 1527 L 946 1776 L 1114 1776 L 1356 1522 L 1319 1475 L 1012 1622 Z M 385 1400 L 385 1400 Z" unicode="Ô" />
<glyph horiz-adv-x="1679" d="M 764 -35 C 568 -35 411 17 293 121 C 175 225 116 369 116 553 C 116 798 198 1005 364 1174 C 530 1343 735 1428 980 1428 C 1176 1428 1333 1376 1452 1273 C 1570 1169 1630 1025 1630 840 C 1630 592 1547 385 1381 217 C 1215 49 1010 -35 764 -35 Z M 1307 873 C 1307 1017 1275 1129 1211 1211 C 1147 1292 1060 1333 952 1333 C 794 1333 668 1255 576 1101 C 484 947 438 753 438 521 C 438 378 469 265 533 183 C 596 101 683 60 793 60 C 951 60 1076 136 1168 290 C 1260 443 1307 637 1307 873 Z M 1367 1737 C 1287 1595 1210 1525 1136 1525 C 1110 1525 1087 1530 1066 1540 C 1044 1550 1021 1562 996 1578 C 984 1585 973 1591 964 1597 C 955 1602 946 1607 938 1611 C 929 1615 921 1617 913 1619 C 905 1621 897 1622 889 1622 C 869 1622 850 1616 834 1606 C 818 1595 790 1568 750 1526 L 700 1568 C 748 1644 788 1697 822 1728 C 856 1759 891 1775 927 1775 C 947 1775 966 1771 984 1765 C 1002 1757 1027 1744 1060 1726 C 1074 1718 1087 1711 1098 1705 C 1108 1699 1118 1693 1127 1689 C 1135 1685 1144 1682 1152 1680 C 1160 1678 1168 1677 1177 1677 C 1198 1677 1216 1682 1231 1693 C 1246 1703 1274 1730 1314 1774 L 1367 1737 Z M 385 1400 L 385 1400 Z" unicode="Õ" />
<glyph horiz-adv-x="1679" d="M 764 -35 C 568 -35 411 17 293 121 C 175 225 116 369 116 553 C 116 798 198 1005 364 1174 C 530 1343 735 1428 980 1428 C 1176 1428 1333 1376 1452 1273 C 1570 1169 1630 1025 1630 840 C 1630 592 1547 385 1381 217 C 1215 49 1010 -35 764 -35 Z M 1307 873 C 1307 1017 1275 1129 1211 1211 C 1147 1292 1060 1333 952 1333 C 794 1333 668 1255 576 1101 C 484 947 438 753 438 521 C 438 378 469 265 533 183 C 596 101 683 60 793 60 C 951 60 1076 136 1168 290 C 1260 443 1307 637 1307 873 Z M 941 1655 C 941 1614 929 1581 905 1557 C 881 1533 849 1521 811 1521 C 773 1521 743 1532 720 1555 C 697 1578 686 1608 686 1646 C 686 1686 698 1718 722 1741 C 746 1764 778 1776 818 1776 C 854 1776 884 1765 907 1744 C 929 1723 941 1693 941 1655 Z M 1350 1655 C 1350 1614 1337 1581 1313 1557 C 1289 1533 1257 1521 1219 1521 C 1182 1521 1152 1532 1129 1555 C 1106 1578 1095 1608 1095 1646 C 1095 1686 1107 1718 1131 1741 C 1155 1764 1186 1776 1226 1776 C 1263 1776 1293 1765 1316 1744 C 1338 1723 1350 1693 1350 1655 Z M 385 1400 L 385 1400 Z" unicode="Ö" />
<glyph horiz-adv-x="1130" d="M 189 927 L 555 561 L 921 927 L 1021 828 L 655 461 L 1020 96 L 921 -4 L 555 362 L 189 -4 L 90 96 L 455 461 L 89 828 L 189 927 Z" unicode="×" />
<glyph horiz-adv-x="1679" d="M 764 -35 C 606 -35 473 -1 365 67 L 215 -95 L 136 -27 L 282 131 C 171 233 116 374 116 553 C 116 798 198 1005 364 1174 C 530 1343 735 1428 980 1428 C 1141 1428 1276 1393 1385 1323 L 1534 1484 L 1619 1421 L 1468 1258 C 1576 1156 1630 1016 1630 840 C 1630 592 1547 385 1381 217 C 1215 49 1010 -35 764 -35 Z M 1243 1170 C 1177 1280 1080 1335 952 1335 C 792 1335 666 1257 573 1103 C 479 948 433 754 433 521 C 433 446 441 380 459 322 L 1243 1170 Z M 1288 1063 L 505 218 C 571 111 667 58 793 58 C 952 58 1078 134 1172 288 C 1265 442 1312 637 1312 873 C 1312 944 1304 1007 1288 1063 Z" unicode="Ø" />
<glyph horiz-adv-x="1503" d="M 221 1400 C 277 1398 330 1397 379 1397 C 428 1396 476 1396 522 1396 C 570 1396 618 1396 667 1397 C 716 1397 767 1398 819 1400 L 813 1349 L 689 1312 C 673 1308 664 1297 660 1281 C 655 1257 650 1232 645 1204 C 640 1176 635 1146 629 1114 L 532 597 C 516 514 509 445 509 389 C 509 291 532 215 578 163 C 624 111 692 85 782 85 C 842 85 894 96 937 120 C 979 143 1015 175 1045 215 C 1074 255 1098 302 1116 356 C 1134 410 1150 469 1163 531 L 1273 1114 C 1279 1146 1284 1176 1289 1204 C 1293 1232 1298 1257 1302 1281 C 1304 1297 1297 1308 1282 1312 L 1158 1346 L 1166 1400 C 1214 1398 1256 1397 1294 1397 C 1332 1396 1366 1396 1396 1396 C 1426 1396 1460 1396 1498 1397 C 1535 1397 1577 1398 1623 1400 L 1617 1349 L 1478 1310 C 1461 1305 1451 1294 1447 1276 C 1442 1254 1437 1229 1432 1202 C 1426 1174 1420 1144 1414 1110 L 1317 605 C 1297 503 1272 413 1243 334 C 1214 254 1176 187 1130 133 C 1084 79 1026 37 958 9 C 890 -18 806 -33 708 -33 C 550 -33 428 4 342 78 C 256 152 213 262 213 406 C 213 460 219 517 231 579 L 332 1110 C 338 1144 344 1174 349 1202 C 353 1229 358 1254 362 1276 C 365 1293 359 1304 344 1310 L 213 1349 L 221 1400 Z M 688 1662 L 844 1800 L 1174 1525 L 1143 1473 L 688 1647 L 688 1662 Z M 360 1400 L 360 1400 Z" unicode="Ù" />
<glyph horiz-adv-x="1503" d="M 221 1400 C 277 1398 330 1397 379 1397 C 428 1396 476 1396 522 1396 C 570 1396 618 1396 667 1397 C 716 1397 767 1398 819 1400 L 813 1349 L 689 1312 C 673 1308 664 1297 660 1281 C 655 1257 650 1232 645 1204 C 640 1176 635 1146 629 1114 L 532 597 C 516 514 509 445 509 389 C 509 291 532 215 578 163 C 624 111 692 85 782 85 C 842 85 894 96 937 120 C 979 143 1015 175 1045 215 C 1074 255 1098 302 1116 356 C 1134 410 1150 469 1163 531 L 1273 1114 C 1279 1146 1284 1176 1289 1204 C 1293 1232 1298 1257 1302 1281 C 1304 1297 1297 1308 1282 1312 L 1158 1346 L 1166 1400 C 1214 1398 1256 1397 1294 1397 C 1332 1396 1366 1396 1396 1396 C 1426 1396 1460 1396 1498 1397 C 1535 1397 1577 1398 1623 1400 L 1617 1349 L 1478 1310 C 1461 1305 1451 1294 1447 1276 C 1442 1254 1437 1229 1432 1202 C 1426 1174 1420 1144 1414 1110 L 1317 605 C 1297 503 1272 413 1243 334 C 1214 254 1176 187 1130 133 C 1084 79 1026 37 958 9 C 890 -18 806 -33 708 -33 C 550 -33 428 4 342 78 C 256 152 213 262 213 406 C 213 460 219 517 231 579 L 332 1110 C 338 1144 344 1174 349 1202 C 353 1229 358 1254 362 1276 C 365 1293 359 1304 344 1310 L 213 1349 L 221 1400 Z M 1248 1647 L 763 1473 L 732 1525 L 1092 1800 L 1248 1662 L 1248 1647 Z M 360 1400 L 360 1400 Z" unicode="Ú" />
<glyph horiz-adv-x="1503" d="M 221 1400 C 277 1398 330 1397 379 1397 C 428 1396 476 1396 522 1396 C 570 1396 618 1396 667 1397 C 716 1397 767 1398 819 1400 L 813 1349 L 689 1312 C 673 1308 664 1297 660 1281 C 655 1257 650 1232 645 1204 C 640 1176 635 1146 629 1114 L 532 597 C 516 514 509 445 509 389 C 509 291 532 215 578 163 C 624 111 692 85 782 85 C 842 85 894 96 937 120 C 979 143 1015 175 1045 215 C 1074 255 1098 302 1116 356 C 1134 410 1150 469 1163 531 L 1273 1114 C 1279 1146 1284 1176 1289 1204 C 1293 1232 1298 1257 1302 1281 C 1304 1297 1297 1308 1282 1312 L 1158 1346 L 1166 1400 C 1214 1398 1256 1397 1294 1397 C 1332 1396 1366 1396 1396 1396 C 1426 1396 1460 1396 1498 1397 C 1535 1397 1577 1398 1623 1400 L 1617 1349 L 1478 1310 C 1461 1305 1451 1294 1447 1276 C 1442 1254 1437 1229 1432 1202 C 1426 1174 1420 1144 1414 1110 L 1317 605 C 1297 503 1272 413 1243 334 C 1214 254 1176 187 1130 133 C 1084 79 1026 37 958 9 C 890 -18 806 -33 708 -33 C 550 -33 428 4 342 78 C 256 152 213 262 213 406 C 213 460 219 517 231 579 L 332 1110 C 338 1144 344 1174 349 1202 C 353 1229 358 1254 362 1276 C 365 1293 359 1304 344 1310 L 213 1349 L 221 1400 Z M 987 1622 L 646 1475 L 619 1527 L 921 1776 L 1089 1776 L 1331 1522 L 1294 1475 L 987 1622 Z M 360 1400 L 360 1400 Z" unicode="Û" />
<glyph horiz-adv-x="1503" d="M 221 1400 C 277 1398 330 1397 379 1397 C 428 1396 476 1396 522 1396 C 570 1396 618 1396 667 1397 C 716 1397 767 1398 819 1400 L 813 1349 L 689 1312 C 673 1308 664 1297 660 1281 C 655 1257 650 1232 645 1204 C 640 1176 635 1146 629 1114 L 532 597 C 516 514 509 445 509 389 C 509 291 532 215 578 163 C 624 111 692 85 782 85 C 842 85 894 96 937 120 C 979 143 1015 175 1045 215 C 1074 255 1098 302 1116 356 C 1134 410 1150 469 1163 531 L 1273 1114 C 1279 1146 1284 1176 1289 1204 C 1293 1232 1298 1257 1302 1281 C 1304 1297 1297 1308 1282 1312 L 1158 1346 L 1166 1400 C 1214 1398 1256 1397 1294 1397 C 1332 1396 1366 1396 1396 1396 C 1426 1396 1460 1396 1498 1397 C 1535 1397 1577 1398 1623 1400 L 1617 1349 L 1478 1310 C 1461 1305 1451 1294 1447 1276 C 1442 1254 1437 1229 1432 1202 C 1426 1174 1420 1144 1414 1110 L 1317 605 C 1297 503 1272 413 1243 334 C 1214 254 1176 187 1130 133 C 1084 79 1026 37 958 9 C 890 -18 806 -33 708 -33 C 550 -33 428 4 342 78 C 256 152 213 262 213 406 C 213 460 219 517 231 579 L 332 1110 C 338 1144 344 1174 349 1202 C 353 1229 358 1254 362 1276 C 365 1293 359 1304 344 1310 L 213 1349 L 221 1400 Z M 916 1655 C 916 1614 904 1581 880 1557 C 856 1533 824 1521 786 1521 C 748 1521 718 1532 695 1555 C 672 1578 661 1608 661 1646 C 661 1686 673 1718 697 1741 C 721 1764 753 1776 793 1776 C 829 1776 859 1765 882 1744 C 904 1723 916 1693 916 1655 Z M 1325 1655 C 1325 1614 1312 1581 1288 1557 C 1264 1533 1232 1521 1194 1521 C 1157 1521 1127 1532 1104 1555 C 1081 1578 1070 1608 1070 1646 C 1070 1686 1082 1718 1106 1741 C 1130 1764 1161 1776 1201 1776 C 1238 1776 1268 1765 1291 1744 C 1313 1723 1325 1693 1325 1655 Z M 360 1400 L 360 1400 Z" unicode="Ü" />
<glyph horiz-adv-x="1261" d="M 1055 1141 C 1078 1173 1098 1201 1115 1227 C 1132 1253 1141 1273 1141 1287 C 1141 1303 1128 1315 1104 1322 L 1016 1346 L 1023 1400 C 1103 1397 1183 1396 1262 1396 C 1337 1396 1413 1397 1489 1400 L 1484 1349 L 1366 1317 C 1340 1309 1319 1298 1303 1282 C 1287 1266 1271 1246 1253 1223 L 825 640 L 762 315 C 754 275 747 238 741 206 C 735 173 730 143 726 117 C 724 100 733 89 754 83 L 876 48 L 867 -3 C 753 -1 649 0 555 0 C 459 0 359 -1 253 -3 L 258 48 L 393 85 C 411 89 422 100 427 116 C 432 142 438 172 445 205 C 451 238 459 275 467 315 L 526 628 L 304 1195 C 286 1235 272 1265 260 1283 C 248 1301 229 1313 205 1321 L 104 1349 L 109 1400 C 191 1397 293 1396 415 1396 C 512 1396 619 1397 735 1400 L 733 1349 L 633 1323 C 617 1319 606 1314 598 1306 C 590 1298 586 1287 586 1273 C 586 1255 597 1218 619 1163 L 776 753 L 1055 1141 Z M 1138 1647 L 653 1473 L 622 1525 L 982 1800 L 1138 1662 L 1138 1647 Z M 250 1400 L 250 1400 Z" unicode="Ý" />
<glyph horiz-adv-x="1274" d="M 514 315 C 506 275 499 238 493 206 C 487 173 482 143 478 117 C 476 100 485 89 506 83 L 628 48 L 620 -3 C 506 -1 404 0 312 0 C 213 0 111 -1 5 -3 L 9 48 L 144 85 C 162 90 174 100 178 116 C 184 142 190 171 196 205 C 202 238 210 275 218 315 L 371 1110 C 377 1144 383 1174 388 1202 C 392 1229 396 1254 400 1276 C 403 1294 397 1305 383 1310 L 252 1349 L 261 1400 C 317 1398 372 1397 424 1397 C 476 1396 526 1396 574 1396 C 622 1396 671 1396 721 1397 C 771 1397 823 1398 877 1400 L 870 1349 L 733 1312 C 716 1308 706 1297 702 1281 C 696 1257 690 1232 685 1204 C 681 1187 678 1169 674 1150 C 706 1152 734 1153 756 1153 C 915 1153 1039 1122 1129 1062 C 1219 1002 1264 913 1264 795 C 1264 651 1206 536 1092 452 C 977 367 834 325 664 325 C 614 325 566 329 520 337 L 519 342 L 514 315 Z M 630 419 C 728 419 805 451 863 515 C 921 579 950 670 950 788 C 950 872 929 937 888 985 C 846 1032 792 1056 726 1056 C 702 1056 678 1053 654 1048 L 536 430 C 561 422 592 419 630 419 Z" unicode="Þ" />
<glyph horiz-adv-x="1351" d="M 254 810 L 106 849 L 109 892 L 271 907 C 312 1100 386 1248 494 1352 C 602 1455 733 1507 887 1507 C 1009 1507 1103 1481 1169 1430 C 1235 1379 1268 1304 1268 1205 C 1268 1143 1256 1073 1232 996 C 1129 972 1051 941 999 903 C 947 864 921 819 921 767 C 921 743 925 721 934 701 C 942 681 954 663 969 647 C 983 631 1000 615 1019 601 C 1038 586 1058 571 1078 557 C 1100 540 1123 523 1145 505 C 1167 487 1186 466 1204 444 C 1221 421 1235 395 1246 367 C 1257 339 1263 306 1263 270 C 1263 177 1225 104 1150 52 C 1074 0 970 -27 838 -27 C 719 -27 602 -5 486 39 C 511 129 532 216 549 300 L 599 308 L 664 92 C 707 78 751 71 796 71 C 858 71 905 84 938 112 C 970 139 987 174 987 217 C 987 237 982 255 974 273 C 966 290 955 306 941 322 C 927 337 911 352 893 366 C 875 380 856 394 837 409 C 814 425 791 443 769 461 C 747 479 727 498 709 519 C 691 540 677 563 666 589 C 655 615 650 644 650 676 C 650 812 756 920 970 1000 C 995 1073 1008 1145 1008 1215 C 1008 1277 993 1326 965 1360 C 936 1394 895 1412 843 1412 C 782 1412 729 1383 685 1326 C 640 1269 601 1157 569 989 L 380 65 C 338 -130 279 -272 203 -362 C 126 -451 20 -496 -114 -496 C -166 -496 -226 -489 -295 -475 C -279 -401 -263 -331 -245 -265 L -231 -261 C -155 -348 -98 -392 -62 -392 C -24 -392 6 -365 32 -312 C 44 -285 56 -248 68 -202 C 80 -155 92 -96 105 -26 L 254 810 Z" unicode="ß" />
<glyph horiz-adv-x="1185" d="M 1093 931 C 1068 849 1043 745 1018 619 L 928 174 C 924 158 923 146 923 136 C 923 122 925 110 931 102 C 937 94 946 87 958 82 C 970 77 986 74 1006 73 C 1026 71 1050 71 1079 71 L 1072 24 C 955 -4 867 -18 808 -18 C 758 -18 718 -6 690 15 C 662 37 648 70 648 112 L 648 132 C 527 26 440 -27 387 -27 C 296 -27 221 7 161 77 C 101 147 71 235 71 343 C 71 511 128 654 243 770 C 358 886 503 944 679 944 C 756 944 839 931 929 907 C 978 915 1027 927 1076 942 L 1093 931 Z M 784 827 C 748 843 707 852 661 852 C 573 852 501 802 445 702 C 388 602 360 494 360 380 C 360 312 370 253 391 202 C 412 151 436 126 464 126 C 501 126 567 161 662 233 L 784 827 Z M 760 1044 L 676 1044 L 478 1422 L 710 1422 L 760 1044 Z M 183 944 L 183 944 Z" unicode="à" />
<glyph horiz-adv-x="1185" d="M 1093 931 C 1068 849 1043 745 1018 619 L 928 174 C 924 158 923 146 923 136 C 923 122 925 110 931 102 C 937 94 946 87 958 82 C 970 77 986 74 1006 73 C 1026 71 1050 71 1079 71 L 1072 24 C 955 -4 867 -18 808 -18 C 758 -18 718 -6 690 15 C 662 37 648 70 648 112 L 648 132 C 527 26 440 -27 387 -27 C 296 -27 221 7 161 77 C 101 147 71 235 71 343 C 71 511 128 654 243 770 C 358 886 503 944 679 944 C 756 944 839 931 929 907 C 978 915 1027 927 1076 942 L 1093 931 Z M 784 827 C 748 843 707 852 661 852 C 573 852 501 802 445 702 C 388 602 360 494 360 380 C 360 312 370 253 391 202 C 412 151 436 126 464 126 C 501 126 567 161 662 233 L 784 827 Z M 806 1422 L 1063 1422 L 735 1044 L 651 1044 L 806 1422 Z M 183 944 L 183 944 Z" unicode="á" />
<glyph horiz-adv-x="1185" d="M 1093 931 C 1068 849 1043 745 1018 619 L 928 174 C 924 158 923 146 923 136 C 923 122 925 110 931 102 C 937 94 946 87 958 82 C 970 77 986 74 1006 73 C 1026 71 1050 71 1079 71 L 1072 24 C 955 -4 867 -18 808 -18 C 758 -18 718 -6 690 15 C 662 37 648 70 648 112 L 648 132 C 527 26 440 -27 387 -27 C 296 -27 221 7 161 77 C 101 147 71 235 71 343 C 71 511 128 654 243 770 C 358 886 503 944 679 944 C 756 944 839 931 929 907 C 978 915 1027 927 1076 942 L 1093 931 Z M 784 827 C 748 843 707 852 661 852 C 573 852 501 802 445 702 C 388 602 360 494 360 380 C 360 312 370 253 391 202 C 412 151 436 126 464 126 C 501 126 567 161 662 233 L 784 827 Z M 1017 1044 L 929 1044 L 750 1268 L 501 1044 L 409 1044 L 673 1422 L 873 1422 L 1017 1044 Z M 183 944 L 183 944 Z" unicode="â" />
<glyph horiz-adv-x="1185" d="M 1093 931 C 1068 849 1043 745 1018 619 L 928 174 C 924 158 923 146 923 136 C 923 122 925 110 931 102 C 937 94 946 87 958 82 C 970 77 986 74 1006 73 C 1026 71 1050 71 1079 71 L 1072 24 C 955 -4 867 -18 808 -18 C 758 -18 718 -6 690 15 C 662 37 648 70 648 112 L 648 132 C 527 26 440 -27 387 -27 C 296 -27 221 7 161 77 C 101 147 71 235 71 343 C 71 511 128 654 243 770 C 358 886 503 944 679 944 C 756 944 839 931 929 907 C 978 915 1027 927 1076 942 L 1093 931 Z M 784 827 C 748 843 707 852 661 852 C 573 852 501 802 445 702 C 388 602 360 494 360 380 C 360 312 370 253 391 202 C 412 151 436 126 464 126 C 501 126 567 161 662 233 L 784 827 Z M 1101 1327 C 1018 1180 938 1107 861 1107 C 835 1107 811 1112 789 1122 C 767 1132 742 1146 716 1162 C 703 1169 692 1175 683 1181 C 673 1187 664 1192 655 1196 C 646 1200 638 1203 630 1205 C 622 1207 613 1208 605 1208 C 584 1208 565 1202 548 1191 C 531 1179 502 1152 461 1108 L 409 1152 C 459 1230 501 1286 536 1318 C 571 1350 607 1366 645 1366 C 665 1366 685 1362 704 1356 C 722 1348 748 1335 782 1316 C 797 1307 810 1299 821 1293 C 832 1287 842 1281 852 1277 C 861 1273 870 1270 878 1268 C 886 1266 894 1265 904 1265 C 926 1265 944 1270 960 1281 C 976 1292 1004 1320 1046 1365 L 1101 1327 Z M 183 944 L 183 944 Z" unicode="ã" />
<glyph horiz-adv-x="1185" d="M 1093 931 C 1068 849 1043 745 1018 619 L 928 174 C 924 158 923 146 923 136 C 923 122 925 110 931 102 C 937 94 946 87 958 82 C 970 77 986 74 1006 73 C 1026 71 1050 71 1079 71 L 1072 24 C 955 -4 867 -18 808 -18 C 758 -18 718 -6 690 15 C 662 37 648 70 648 112 L 648 132 C 527 26 440 -27 387 -27 C 296 -27 221 7 161 77 C 101 147 71 235 71 343 C 71 511 128 654 243 770 C 358 886 503 944 679 944 C 756 944 839 931 929 907 C 978 915 1027 927 1076 942 L 1093 931 Z M 784 827 C 748 843 707 852 661 852 C 573 852 501 802 445 702 C 388 602 360 494 360 380 C 360 312 370 253 391 202 C 412 151 436 126 464 126 C 501 126 567 161 662 233 L 784 827 Z M 680 1294 C 680 1251 667 1217 641 1191 C 615 1165 581 1153 540 1153 C 501 1153 469 1165 445 1189 C 420 1213 408 1245 408 1285 C 408 1327 421 1361 447 1386 C 473 1411 507 1424 549 1424 C 587 1424 619 1412 643 1389 C 667 1366 680 1334 680 1294 Z M 1096 1294 C 1096 1251 1083 1217 1057 1191 C 1031 1165 997 1153 956 1153 C 917 1153 885 1165 861 1189 C 836 1213 824 1245 824 1285 C 824 1327 837 1361 863 1386 C 889 1411 923 1424 965 1424 C 1003 1424 1035 1412 1059 1389 C 1083 1366 1096 1334 1096 1294 Z M 183 944 L 183 944 Z" unicode="ä" />
<glyph horiz-adv-x="1185" d="M 1093 931 C 1068 849 1043 745 1018 619 L 928 174 C 924 158 923 146 923 136 C 923 122 925 110 931 102 C 937 94 946 87 958 82 C 970 77 986 74 1006 73 C 1026 71 1050 71 1079 71 L 1072 24 C 955 -4 867 -18 808 -18 C 758 -18 718 -6 690 15 C 662 37 648 70 648 112 L 648 132 C 527 26 440 -27 387 -27 C 296 -27 221 7 161 77 C 101 147 71 235 71 343 C 71 511 128 654 243 770 C 358 886 503 944 679 944 C 756 944 839 931 929 907 C 978 915 1027 927 1076 942 L 1093 931 Z M 784 827 C 748 843 707 852 661 852 C 573 852 501 802 445 702 C 388 602 360 494 360 380 C 360 312 370 253 391 202 C 412 151 436 126 464 126 C 501 126 567 161 662 233 L 784 827 Z M 718 1044 C 654 1044 603 1059 566 1089 C 529 1119 511 1159 511 1210 C 511 1276 537 1330 591 1372 C 645 1414 707 1436 778 1436 C 835 1436 883 1420 923 1389 C 963 1357 983 1317 983 1267 C 983 1200 957 1146 906 1105 C 854 1064 792 1044 718 1044 Z M 732 1114 C 768 1114 797 1127 819 1154 C 841 1181 852 1217 852 1261 C 852 1291 844 1316 829 1336 C 814 1356 792 1366 764 1366 C 726 1366 696 1352 674 1324 C 652 1296 642 1260 642 1217 C 642 1187 649 1163 665 1143 C 681 1123 703 1114 732 1114 Z M 183 944 L 183 944 Z" unicode="å" />
<glyph horiz-adv-x="1663" d="M 1477 192 L 1511 142 C 1383 30 1242 -25 1087 -25 C 909 -25 784 44 712 182 C 555 42 447 -27 387 -27 C 296 -27 221 7 161 77 C 101 147 71 235 71 343 C 71 511 128 654 243 770 C 358 886 503 944 679 944 C 782 944 894 922 1014 879 C 1101 922 1198 944 1304 944 C 1400 944 1474 926 1526 891 C 1578 856 1604 805 1604 739 C 1604 655 1550 586 1444 530 C 1337 474 1180 442 972 432 C 970 416 970 401 970 387 C 970 297 988 228 1025 181 C 1061 134 1116 111 1190 111 C 1284 111 1380 138 1477 192 Z M 661 852 C 573 852 501 802 445 702 C 388 602 360 494 360 380 C 360 312 370 253 391 202 C 412 151 436 126 464 126 C 506 126 581 169 689 256 C 683 284 681 313 681 345 C 681 518 744 663 872 780 C 796 828 725 852 661 852 Z M 980 512 C 1210 533 1326 607 1326 735 C 1326 770 1317 796 1301 814 C 1285 832 1264 841 1239 841 C 1184 841 1132 810 1083 749 C 1033 688 999 609 980 512 Z" unicode="æ" />
<glyph horiz-adv-x="1002" d="M 260 -189 L 390 -22 C 302 -8 227 30 166 96 C 104 161 74 250 74 362 C 74 526 134 664 256 776 C 377 887 521 943 689 943 C 783 943 872 927 956 897 C 931 800 909 702 891 602 L 841 594 L 764 836 C 746 841 725 844 703 844 C 602 844 521 800 459 713 C 397 626 366 519 366 393 C 366 304 385 235 424 186 C 463 137 516 113 583 113 C 655 113 733 142 817 200 L 851 150 C 740 36 616 -22 478 -26 L 419 -106 C 486 -139 520 -184 520 -240 C 520 -314 450 -399 310 -494 L 272 -453 C 337 -399 370 -350 370 -305 C 370 -257 334 -221 264 -197 L 260 -189 Z" unicode="ç" />
<glyph horiz-adv-x="1053" d="M 867 192 L 901 142 C 773 30 632 -25 477 -25 C 355 -25 257 8 183 74 C 108 140 71 230 71 345 C 71 515 131 657 253 772 C 374 886 521 944 694 944 C 790 944 864 926 916 891 C 968 856 994 805 994 739 C 994 655 940 586 834 530 C 727 474 570 442 362 432 C 360 416 360 401 360 387 C 360 297 378 228 415 181 C 451 134 506 111 580 111 C 674 111 770 138 867 192 Z M 370 512 C 600 533 716 607 716 735 C 716 770 707 796 691 814 C 675 832 654 841 629 841 C 574 841 522 810 473 749 C 423 688 389 609 370 512 Z M 717 1044 L 633 1044 L 435 1422 L 667 1422 L 717 1044 Z M 140 944 L 140 944 Z" unicode="è" />
<glyph horiz-adv-x="1053" d="M 867 192 L 901 142 C 773 30 632 -25 477 -25 C 355 -25 257 8 183 74 C 108 140 71 230 71 345 C 71 515 131 657 253 772 C 374 886 521 944 694 944 C 790 944 864 926 916 891 C 968 856 994 805 994 739 C 994 655 940 586 834 530 C 727 474 570 442 362 432 C 360 416 360 401 360 387 C 360 297 378 228 415 181 C 451 134 506 111 580 111 C 674 111 770 138 867 192 Z M 370 512 C 600 533 716 607 716 735 C 716 770 707 796 691 814 C 675 832 654 841 629 841 C 574 841 522 810 473 749 C 423 688 389 609 370 512 Z M 763 1422 L 1020 1422 L 692 1044 L 608 1044 L 763 1422 Z M 140 944 L 140 944 Z" unicode="é" />
<glyph horiz-adv-x="1053" d="M 867 192 L 901 142 C 773 30 632 -25 477 -25 C 355 -25 257 8 183 74 C 108 140 71 230 71 345 C 71 515 131 657 253 772 C 374 886 521 944 694 944 C 790 944 864 926 916 891 C 968 856 994 805 994 739 C 994 655 940 586 834 530 C 727 474 570 442 362 432 C 360 416 360 401 360 387 C 360 297 378 228 415 181 C 451 134 506 111 580 111 C 674 111 770 138 867 192 Z M 370 512 C 600 533 716 607 716 735 C 716 770 707 796 691 814 C 675 832 654 841 629 841 C 574 841 522 810 473 749 C 423 688 389 609 370 512 Z M 974 1044 L 886 1044 L 707 1268 L 458 1044 L 366 1044 L 630 1422 L 830 1422 L 974 1044 Z M 140 944 L 140 944 Z" unicode="ê" />
<glyph horiz-adv-x="1053" d="M 867 192 L 901 142 C 773 30 632 -25 477 -25 C 355 -25 257 8 183 74 C 108 140 71 230 71 345 C 71 515 131 657 253 772 C 374 886 521 944 694 944 C 790 944 864 926 916 891 C 968 856 994 805 994 739 C 994 655 940 586 834 530 C 727 474 570 442 362 432 C 360 416 360 401 360 387 C 360 297 378 228 415 181 C 451 134 506 111 580 111 C 674 111 770 138 867 192 Z M 370 512 C 600 533 716 607 716 735 C 716 770 707 796 691 814 C 675 832 654 841 629 841 C 574 841 522 810 473 749 C 423 688 389 609 370 512 Z M 637 1294 C 637 1251 624 1217 598 1191 C 572 1165 538 1153 497 1153 C 458 1153 426 1165 402 1189 C 377 1213 365 1245 365 1285 C 365 1327 378 1361 404 1386 C 430 1411 464 1424 506 1424 C 544 1424 576 1412 600 1389 C 624 1366 637 1334 637 1294 Z M 1053 1294 C 1053 1251 1040 1217 1014 1191 C 988 1165 954 1153 913 1153 C 874 1153 842 1165 818 1189 C 793 1213 781 1245 781 1285 C 781 1327 794 1361 820 1386 C 846 1411 880 1424 922 1424 C 960 1424 992 1412 1016 1389 C 1040 1366 1053 1334 1053 1294 Z M 140 944 L 140 944 Z" unicode="ë" />
<glyph horiz-adv-x="661" d="M 109 896 C 228 926 325 942 400 942 C 444 942 479 934 504 918 C 529 902 542 878 542 845 C 542 831 540 817 538 804 L 407 174 C 403 156 402 144 402 136 C 402 109 413 91 435 83 C 457 75 497 71 557 71 L 551 24 C 437 -4 345 -18 275 -18 C 225 -18 187 -8 159 11 C 131 30 118 59 118 99 C 118 117 120 141 126 169 L 246 749 C 251 775 254 793 254 801 C 254 819 246 831 231 839 C 215 846 173 850 103 850 L 109 896 Z M 448 1044 L 364 1044 L 166 1422 L 398 1422 L 448 1044 Z M -129 944 L -129 944 Z" unicode="ì" />
<glyph horiz-adv-x="661" d="M 109 896 C 228 926 325 942 400 942 C 444 942 479 934 504 918 C 529 902 542 878 542 845 C 542 831 540 817 538 804 L 407 174 C 403 156 402 144 402 136 C 402 109 413 91 435 83 C 457 75 497 71 557 71 L 551 24 C 437 -4 345 -18 275 -18 C 225 -18 187 -8 159 11 C 131 30 118 59 118 99 C 118 117 120 141 126 169 L 246 749 C 251 775 254 793 254 801 C 254 819 246 831 231 839 C 215 846 173 850 103 850 L 109 896 Z M 494 1422 L 751 1422 L 423 1044 L 339 1044 L 494 1422 Z M -129 944 L -129 944 Z" unicode="í" />
<glyph horiz-adv-x="661" d="M 109 896 C 228 926 325 942 400 942 C 444 942 479 934 504 918 C 529 902 542 878 542 845 C 542 831 540 817 538 804 L 407 174 C 403 156 402 144 402 136 C 402 109 413 91 435 83 C 457 75 497 71 557 71 L 551 24 C 437 -4 345 -18 275 -18 C 225 -18 187 -8 159 11 C 131 30 118 59 118 99 C 118 117 120 141 126 169 L 246 749 C 251 775 254 793 254 801 C 254 819 246 831 231 839 C 215 846 173 850 103 850 L 109 896 Z M 705 1044 L 617 1044 L 438 1268 L 189 1044 L 97 1044 L 361 1422 L 561 1422 L 705 1044 Z M -129 944 L -129 944 Z" unicode="î" />
<glyph horiz-adv-x="661" d="M 109 896 C 228 926 325 942 400 942 C 444 942 479 934 504 918 C 529 902 542 878 542 845 C 542 831 540 817 538 804 L 407 174 C 403 156 402 144 402 136 C 402 109 413 91 435 83 C 457 75 497 71 557 71 L 551 24 C 437 -4 345 -18 275 -18 C 225 -18 187 -8 159 11 C 131 30 118 59 118 99 C 118 117 120 141 126 169 L 246 749 C 251 775 254 793 254 801 C 254 819 246 831 231 839 C 215 846 173 850 103 850 L 109 896 Z M 368 1294 C 368 1251 355 1217 329 1191 C 303 1165 269 1153 228 1153 C 189 1153 157 1165 133 1189 C 108 1213 96 1245 96 1285 C 96 1327 109 1361 135 1386 C 161 1411 195 1424 237 1424 C 275 1424 307 1412 331 1389 C 355 1366 368 1334 368 1294 Z M 784 1294 C 784 1251 771 1217 745 1191 C 719 1165 685 1153 644 1153 C 605 1153 573 1165 549 1189 C 524 1213 512 1245 512 1285 C 512 1327 525 1361 551 1386 C 577 1411 611 1424 653 1424 C 691 1424 723 1412 747 1389 C 771 1366 784 1334 784 1294 Z M -129 944 L -129 944 Z" unicode="ï" />
<glyph horiz-adv-x="1220" d="M 376 1459 L 379 1476 L 712 1476 C 774 1435 828 1392 872 1347 L 1109 1465 L 1157 1385 L 938 1275 C 1070 1109 1136 919 1136 704 C 1136 483 1084 306 981 172 C 877 38 735 -28 553 -28 C 411 -28 297 9 210 84 C 122 159 79 262 79 394 C 79 542 130 666 232 766 C 334 866 458 916 605 916 C 708 916 791 881 853 813 L 857 815 C 839 947 794 1064 721 1166 L 441 1026 L 394 1109 L 661 1242 C 593 1320 498 1393 376 1459 Z M 627 815 C 545 815 482 770 438 680 C 394 590 372 484 372 361 C 372 269 389 198 424 148 C 459 98 506 74 565 74 C 645 74 706 117 750 205 C 793 293 815 400 815 526 C 815 616 798 687 765 738 C 732 789 686 815 627 815 Z" unicode="ð" />
<glyph horiz-adv-x="1267" d="M 95 -5 L 250 750 C 255 776 258 794 258 803 C 258 815 254 824 248 830 C 242 836 232 840 220 843 C 207 846 191 848 172 849 C 153 849 131 850 107 850 L 113 896 C 233 926 324 942 386 942 C 432 942 469 933 497 917 C 525 900 540 875 540 843 C 540 839 539 833 538 823 C 670 903 791 943 901 943 C 973 943 1030 923 1070 885 C 1110 847 1131 795 1131 730 C 1131 701 1127 670 1120 638 L 1020 164 C 1018 158 1017 153 1017 148 C 1016 143 1016 138 1016 134 C 1016 120 1019 109 1026 101 C 1032 93 1042 87 1055 83 C 1068 79 1084 77 1104 76 C 1123 75 1145 75 1170 75 L 1166 29 C 1066 -2 974 -18 891 -18 C 839 -18 799 -8 773 11 C 747 30 734 62 734 106 C 734 126 736 150 742 178 L 832 596 C 839 630 843 659 843 683 C 843 723 834 752 816 771 C 798 790 772 800 738 800 C 686 800 614 778 523 736 L 374 5 L 95 -5 Z M 1118 1327 C 1035 1180 955 1107 878 1107 C 852 1107 828 1112 806 1122 C 784 1132 759 1146 733 1162 C 720 1169 709 1175 700 1181 C 690 1187 681 1192 672 1196 C 663 1200 655 1203 647 1205 C 639 1207 630 1208 622 1208 C 601 1208 582 1202 565 1191 C 548 1179 519 1152 478 1108 L 426 1152 C 476 1230 518 1286 553 1318 C 588 1350 624 1366 662 1366 C 682 1366 702 1362 721 1356 C 739 1348 765 1335 799 1316 C 814 1307 827 1299 838 1293 C 849 1287 859 1281 869 1277 C 878 1273 887 1270 895 1268 C 903 1266 911 1265 921 1265 C 943 1265 961 1270 977 1281 C 993 1292 1021 1320 1063 1365 L 1118 1327 Z M 200 944 L 200 944 Z" unicode="ñ" />
<glyph horiz-adv-x="1201" d="M 639 944 C 783 944 898 906 984 831 C 1070 756 1113 655 1113 529 C 1113 369 1060 236 956 131 C 852 25 717 -27 552 -27 C 406 -27 290 10 205 85 C 120 160 78 259 78 383 C 78 545 129 679 232 785 C 334 891 470 944 639 944 Z M 627 841 C 553 841 491 795 443 704 C 394 613 370 504 371 378 C 371 283 388 209 422 156 C 455 102 502 76 564 76 C 640 76 701 122 748 216 C 794 310 818 418 818 540 C 818 634 801 708 767 761 C 733 814 686 841 627 841 Z M 717 1044 L 633 1044 L 435 1422 L 667 1422 L 717 1044 Z M 140 944 L 140 944 Z" unicode="ò" />
<glyph horiz-adv-x="1201" d="M 639 944 C 783 944 898 906 984 831 C 1070 756 1113 655 1113 529 C 1113 369 1060 236 956 131 C 852 25 717 -27 552 -27 C 406 -27 290 10 205 85 C 120 160 78 259 78 383 C 78 545 129 679 232 785 C 334 891 470 944 639 944 Z M 627 841 C 553 841 491 795 443 704 C 394 613 370 504 371 378 C 371 283 388 209 422 156 C 455 102 502 76 564 76 C 640 76 701 122 748 216 C 794 310 818 418 818 540 C 818 634 801 708 767 761 C 733 814 686 841 627 841 Z M 763 1422 L 1020 1422 L 692 1044 L 608 1044 L 763 1422 Z M 140 944 L 140 944 Z" unicode="ó" />
<glyph horiz-adv-x="1201" d="M 639 944 C 783 944 898 906 984 831 C 1070 756 1113 655 1113 529 C 1113 369 1060 236 956 131 C 852 25 717 -27 552 -27 C 406 -27 290 10 205 85 C 120 160 78 259 78 383 C 78 545 129 679 232 785 C 334 891 470 944 639 944 Z M 627 841 C 553 841 491 795 443 704 C 394 613 370 504 371 378 C 371 283 388 209 422 156 C 455 102 502 76 564 76 C 640 76 701 122 748 216 C 794 310 818 418 818 540 C 818 634 801 708 767 761 C 733 814 686 841 627 841 Z M 974 1044 L 886 1044 L 707 1268 L 458 1044 L 366 1044 L 630 1422 L 830 1422 L 974 1044 Z M 140 944 L 140 944 Z" unicode="ô" />
<glyph horiz-adv-x="1201" d="M 639 944 C 783 944 898 906 984 831 C 1070 756 1113 655 1113 529 C 1113 369 1060 236 956 131 C 852 25 717 -27 552 -27 C 406 -27 290 10 205 85 C 120 160 78 259 78 383 C 78 545 129 679 232 785 C 334 891 470 944 639 944 Z M 627 841 C 553 841 491 795 443 704 C 394 613 370 504 371 378 C 371 283 388 209 422 156 C 455 102 502 76 564 76 C 640 76 701 122 748 216 C 794 310 818 418 818 540 C 818 634 801 708 767 761 C 733 814 686 841 627 841 Z M 1058 1327 C 975 1180 895 1107 818 1107 C 792 1107 768 1112 746 1122 C 724 1132 699 1146 673 1162 C 660 1169 649 1175 640 1181 C 630 1187 621 1192 612 1196 C 603 1200 595 1203 587 1205 C 579 1207 570 1208 562 1208 C 541 1208 522 1202 505 1191 C 488 1179 459 1152 418 1108 L 366 1152 C 416 1230 458 1286 493 1318 C 528 1350 564 1366 602 1366 C 622 1366 642 1362 661 1356 C 679 1348 705 1335 739 1316 C 754 1307 767 1299 778 1293 C 789 1287 799 1281 809 1277 C 818 1273 827 1270 835 1268 C 843 1266 851 1265 861 1265 C 883 1265 901 1270 917 1281 C 933 1292 961 1320 1003 1365 L 1058 1327 Z M 140 944 L 140 944 Z" unicode="õ" />
<glyph horiz-adv-x="1201" d="M 639 944 C 783 944 898 906 984 831 C 1070 756 1113 655 1113 529 C 1113 369 1060 236 956 131 C 852 25 717 -27 552 -27 C 406 -27 290 10 205 85 C 120 160 78 259 78 383 C 78 545 129 679 232 785 C 334 891 470 944 639 944 Z M 627 841 C 553 841 491 795 443 704 C 394 613 370 504 371 378 C 371 283 388 209 422 156 C 455 102 502 76 564 76 C 640 76 701 122 748 216 C 794 310 818 418 818 540 C 818 634 801 708 767 761 C 733 814 686 841 627 841 Z M 637 1294 C 637 1251 624 1217 598 1191 C 572 1165 538 1153 497 1153 C 458 1153 426 1165 402 1189 C 377 1213 365 1245 365 1285 C 365 1327 378 1361 404 1386 C 430 1411 464 1424 506 1424 C 544 1424 576 1412 600 1389 C 624 1366 637 1334 637 1294 Z M 1053 1294 C 1053 1251 1040 1217 1014 1191 C 988 1165 954 1153 913 1153 C 874 1153 842 1165 818 1189 C 793 1213 781 1245 781 1285 C 781 1327 794 1361 820 1386 C 846 1411 880 1424 922 1424 C 960 1424 992 1412 1016 1389 C 1040 1366 1053 1334 1053 1294 Z M 140 944 L 140 944 Z" unicode="ö" />
<glyph horiz-adv-x="1130" d="M 556 916 C 591 916 620 905 643 883 C 665 861 677 832 677 796 C 677 760 665 730 643 708 C 620 686 591 675 556 675 C 519 675 489 686 467 708 C 445 730 434 760 434 796 C 434 832 445 861 467 883 C 489 905 519 916 556 916 Z M 73 532 L 1037 532 L 1037 391 L 73 391 L 73 532 Z M 556 258 C 591 258 620 247 643 225 C 665 203 677 174 677 138 C 677 102 665 72 643 50 C 620 28 591 17 556 17 C 519 17 489 28 467 50 C 445 72 434 102 434 138 C 434 174 445 203 467 225 C 489 247 519 258 556 258 Z" unicode="÷" />
<glyph horiz-adv-x="1201" d="M 639 944 C 735 944 818 927 888 894 L 966 991 L 1036 937 L 964 848 C 970 842 977 837 984 831 C 1070 756 1113 655 1113 529 C 1113 369 1060 236 956 131 C 852 25 717 -27 552 -27 C 454 -27 370 -10 300 23 L 217 -80 L 146 -27 L 224 70 C 217 74 211 79 205 85 C 120 160 78 259 78 383 C 78 545 129 679 232 785 C 334 891 470 944 639 944 Z M 413 163 C 448 103 498 74 564 74 C 641 74 703 121 751 215 C 799 309 823 417 823 540 C 823 584 819 623 812 658 L 413 163 Z M 377 260 L 775 755 C 740 813 691 843 627 843 C 551 843 489 797 439 706 C 389 614 365 505 366 378 C 366 334 369 294 377 260 Z" unicode="ø" />
<glyph horiz-adv-x="1266" d="M 92 850 L 98 896 C 214 926 311 942 389 942 C 433 942 468 934 492 919 C 516 903 529 879 529 845 C 529 829 527 815 525 804 L 425 350 C 419 320 416 293 416 269 C 416 223 425 188 445 163 C 465 138 492 126 526 126 C 586 126 657 164 741 240 L 881 912 L 1162 922 L 1009 180 C 1005 160 1003 145 1003 133 C 1003 119 1005 109 1010 101 C 1015 93 1024 86 1036 82 C 1048 78 1063 75 1083 74 C 1103 72 1127 71 1157 71 L 1151 24 C 1034 -4 947 -18 889 -18 C 839 -18 799 -6 770 16 C 741 39 727 72 727 115 C 727 121 727 127 728 134 C 617 26 508 -28 401 -28 C 322 -28 259 -4 211 42 C 163 89 140 153 140 235 C 140 253 141 271 143 291 C 145 310 149 330 153 351 L 235 749 C 240 775 243 792 243 801 C 243 819 235 831 219 839 C 203 846 160 850 92 850 Z M 752 1044 L 668 1044 L 470 1422 L 702 1422 L 752 1044 Z M 175 944 L 175 944 Z" unicode="ù" />
<glyph horiz-adv-x="1266" d="M 92 850 L 98 896 C 214 926 311 942 389 942 C 433 942 468 934 492 919 C 516 903 529 879 529 845 C 529 829 527 815 525 804 L 425 350 C 419 320 416 293 416 269 C 416 223 425 188 445 163 C 465 138 492 126 526 126 C 586 126 657 164 741 240 L 881 912 L 1162 922 L 1009 180 C 1005 160 1003 145 1003 133 C 1003 119 1005 109 1010 101 C 1015 93 1024 86 1036 82 C 1048 78 1063 75 1083 74 C 1103 72 1127 71 1157 71 L 1151 24 C 1034 -4 947 -18 889 -18 C 839 -18 799 -6 770 16 C 741 39 727 72 727 115 C 727 121 727 127 728 134 C 617 26 508 -28 401 -28 C 322 -28 259 -4 211 42 C 163 89 140 153 140 235 C 140 253 141 271 143 291 C 145 310 149 330 153 351 L 235 749 C 240 775 243 792 243 801 C 243 819 235 831 219 839 C 203 846 160 850 92 850 Z M 798 1422 L 1055 1422 L 727 1044 L 643 1044 L 798 1422 Z M 175 944 L 175 944 Z" unicode="ú" />
<glyph horiz-adv-x="1266" d="M 92 850 L 98 896 C 214 926 311 942 389 942 C 433 942 468 934 492 919 C 516 903 529 879 529 845 C 529 829 527 815 525 804 L 425 350 C 419 320 416 293 416 269 C 416 223 425 188 445 163 C 465 138 492 126 526 126 C 586 126 657 164 741 240 L 881 912 L 1162 922 L 1009 180 C 1005 160 1003 145 1003 133 C 1003 119 1005 109 1010 101 C 1015 93 1024 86 1036 82 C 1048 78 1063 75 1083 74 C 1103 72 1127 71 1157 71 L 1151 24 C 1034 -4 947 -18 889 -18 C 839 -18 799 -6 770 16 C 741 39 727 72 727 115 C 727 121 727 127 728 134 C 617 26 508 -28 401 -28 C 322 -28 259 -4 211 42 C 163 89 140 153 140 235 C 140 253 141 271 143 291 C 145 310 149 330 153 351 L 235 749 C 240 775 243 792 243 801 C 243 819 235 831 219 839 C 203 846 160 850 92 850 Z M 1009 1044 L 921 1044 L 742 1268 L 493 1044 L 401 1044 L 665 1422 L 865 1422 L 1009 1044 Z M 175 944 L 175 944 Z" unicode="û" />
<glyph horiz-adv-x="1266" d="M 92 850 L 98 896 C 214 926 311 942 389 942 C 433 942 468 934 492 919 C 516 903 529 879 529 845 C 529 829 527 815 525 804 L 425 350 C 419 320 416 293 416 269 C 416 223 425 188 445 163 C 465 138 492 126 526 126 C 586 126 657 164 741 240 L 881 912 L 1162 922 L 1009 180 C 1005 160 1003 145 1003 133 C 1003 119 1005 109 1010 101 C 1015 93 1024 86 1036 82 C 1048 78 1063 75 1083 74 C 1103 72 1127 71 1157 71 L 1151 24 C 1034 -4 947 -18 889 -18 C 839 -18 799 -6 770 16 C 741 39 727 72 727 115 C 727 121 727 127 728 134 C 617 26 508 -28 401 -28 C 322 -28 259 -4 211 42 C 163 89 140 153 140 235 C 140 253 141 271 143 291 C 145 310 149 330 153 351 L 235 749 C 240 775 243 792 243 801 C 243 819 235 831 219 839 C 203 846 160 850 92 850 Z M 672 1294 C 672 1251 659 1217 633 1191 C 607 1165 573 1153 532 1153 C 493 1153 461 1165 437 1189 C 412 1213 400 1245 400 1285 C 400 1327 413 1361 439 1386 C 465 1411 499 1424 541 1424 C 579 1424 611 1412 635 1389 C 659 1366 672 1334 672 1294 Z M 1088 1294 C 1088 1251 1075 1217 1049 1191 C 1023 1165 989 1153 948 1153 C 909 1153 877 1165 853 1189 C 828 1213 816 1245 816 1285 C 816 1327 829 1361 855 1386 C 881 1411 915 1424 957 1424 C 995 1424 1027 1412 1051 1389 C 1075 1366 1088 1334 1088 1294 Z M 175 944 L 175 944 Z" unicode="ü" />
<glyph horiz-adv-x="1065" d="M 772 874 C 870 901 960 927 1041 951 L 1063 936 C 1037 864 1010 796 982 733 C 954 669 926 610 898 554 C 870 498 841 445 813 395 C 785 345 757 299 731 255 C 703 209 676 165 652 125 C 628 85 605 46 584 9 C 566 -20 548 -53 530 -90 C 512 -127 494 -165 476 -203 C 458 -241 442 -279 428 -315 C 413 -351 401 -383 391 -410 C 383 -432 373 -449 361 -461 C 349 -473 335 -483 319 -489 C 302 -495 282 -498 259 -500 C 236 -501 209 -502 179 -502 C 95 -502 23 -498 -39 -492 L -44 -441 C -4 -436 32 -429 65 -419 C 98 -409 126 -394 150 -376 C 164 -365 179 -351 196 -335 C 213 -319 233 -297 256 -269 C 279 -241 306 -205 337 -162 C 368 -119 405 -66 447 -2 L 391 11 C 386 47 379 89 369 137 C 359 185 347 235 334 287 C 320 339 306 391 291 444 C 275 497 260 546 245 592 C 229 637 215 677 201 711 C 187 745 175 770 165 786 C 154 802 142 814 130 822 C 117 830 103 836 88 840 C 73 844 57 846 39 847 C 21 848 3 849 -17 850 L -11 896 C 103 926 191 942 255 942 C 291 942 323 936 351 926 C 379 915 399 898 413 874 C 423 856 435 829 450 795 C 464 760 479 720 495 674 C 510 628 525 579 541 526 C 557 472 571 418 583 363 L 602 255 C 654 356 694 458 723 560 C 752 662 768 767 772 874 Z M 703 1422 L 960 1422 L 632 1044 L 548 1044 L 703 1422 Z M 80 944 L 80 944 Z" unicode="ý" />
<glyph horiz-adv-x="1175" d="M 194 1419 C 367 1446 520 1475 653 1506 L 665 1494 C 659 1468 652 1439 645 1407 C 637 1375 629 1339 621 1301 C 613 1263 604 1222 595 1179 C 586 1135 577 1091 567 1045 L 523 833 C 666 905 762 942 811 942 C 891 942 958 908 1012 841 C 1066 774 1094 693 1094 599 C 1094 415 1035 265 918 149 C 801 33 649 -24 462 -24 C 427 -24 389 -21 349 -16 L 307 -224 C 299 -258 293 -286 289 -309 C 285 -331 282 -350 280 -364 C 277 -384 284 -396 300 -400 L 445 -437 L 435 -486 C 303 -484 203 -483 135 -483 C 54 -483 -42 -484 -155 -486 L -149 -437 L -29 -403 C -10 -397 0 -386 3 -372 C 9 -347 15 -316 23 -280 C 31 -244 40 -201 50 -151 L 359 1352 L 193 1376 L 194 1419 Z M 368 77 C 396 71 422 69 446 69 C 556 69 643 117 707 213 C 771 309 803 420 803 548 C 803 620 793 679 773 725 C 753 771 722 794 681 794 C 631 794 571 775 503 737 L 368 77 Z" unicode="þ" />
<glyph horiz-adv-x="1065" d="M 772 874 C 870 901 960 927 1041 951 L 1063 936 C 1037 864 1010 796 982 733 C 954 669 926 610 898 554 C 870 498 841 445 813 395 C 785 345 757 299 731 255 C 703 209 676 165 652 125 C 628 85 605 46 584 9 C 566 -20 548 -53 530 -90 C 512 -127 494 -165 476 -203 C 458 -241 442 -279 428 -315 C 413 -351 401 -383 391 -410 C 383 -432 373 -449 361 -461 C 349 -473 335 -483 319 -489 C 302 -495 282 -498 259 -500 C 236 -501 209 -502 179 -502 C 95 -502 23 -498 -39 -492 L -44 -441 C -4 -436 32 -429 65 -419 C 98 -409 126 -394 150 -376 C 164 -365 179 -351 196 -335 C 213 -319 233 -297 256 -269 C 279 -241 306 -205 337 -162 C 368 -119 405 -66 447 -2 L 391 11 C 386 47 379 89 369 137 C 359 185 347 235 334 287 C 320 339 306 391 291 444 C 275 497 260 546 245 592 C 229 637 215 677 201 711 C 187 745 175 770 165 786 C 154 802 142 814 130 822 C 117 830 103 836 88 840 C 73 844 57 846 39 847 C 21 848 3 849 -17 850 L -11 896 C 103 926 191 942 255 942 C 291 942 323 936 351 926 C 379 915 399 898 413 874 C 423 856 435 829 450 795 C 464 760 479 720 495 674 C 510 628 525 579 541 526 C 557 472 571 418 583 363 L 602 255 C 654 356 694 458 723 560 C 752 662 768 767 772 874 Z M 577 1294 C 577 1251 564 1217 538 1191 C 512 1165 478 1153 437 1153 C 398 1153 366 1165 342 1189 C 317 1213 305 1245 305 1285 C 305 1327 318 1361 344 1386 C 370 1411 404 1424 446 1424 C 484 1424 516 1412 540 1389 C 564 1366 577 1334 577 1294 Z M 993 1294 C 993 1251 980 1217 954 1191 C 928 1165 894 1153 853 1153 C 814 1153 782 1165 758 1189 C 733 1213 721 1245 721 1285 C 721 1327 734 1361 760 1386 C 786 1411 820 1424 862 1424 C 900 1424 932 1412 956 1389 C 980 1366 993 1334 993 1294 Z M 80 944 L 80 944 Z" unicode="ÿ" />
<glyph horiz-adv-x="1367" d="M 324 50 L 315 -3 C 224 -1 141 0 67 0 C -7 0 -78 -1 -146 -3 L -140 48 L -29 79 C 3 90 27 106 45 127 C 63 147 78 169 92 191 L 810 1404 L 920 1421 L 1129 206 C 1133 183 1137 164 1141 148 C 1145 132 1150 120 1156 112 C 1166 94 1183 82 1207 76 L 1313 48 L 1306 -3 C 1197 -1 1094 0 998 0 C 904 0 799 -1 683 -3 L 688 48 L 785 76 C 799 80 810 86 819 94 C 828 101 833 115 833 137 C 833 157 828 197 818 257 L 788 443 L 373 443 L 268 260 C 246 222 229 190 216 164 C 202 138 196 119 196 108 C 196 94 207 84 230 77 L 324 50 Z M 431 546 L 771 546 L 712 914 L 699 1020 L 642 915 L 431 546 Z M 595 1557 L 619 1679 L 1189 1679 L 1165 1557 L 595 1557 Z M 260 1400 L 260 1400 Z" unicode="Ā" />
<glyph horiz-adv-x="1185" d="M 1093 931 C 1068 849 1043 745 1018 619 L 928 174 C 924 158 923 146 923 136 C 923 122 925 110 931 102 C 937 94 946 87 958 82 C 970 77 986 74 1006 73 C 1026 71 1050 71 1079 71 L 1072 24 C 955 -4 867 -18 808 -18 C 758 -18 718 -6 690 15 C 662 37 648 70 648 112 L 648 132 C 527 26 440 -27 387 -27 C 296 -27 221 7 161 77 C 101 147 71 235 71 343 C 71 511 128 654 243 770 C 358 886 503 944 679 944 C 756 944 839 931 929 907 C 978 915 1027 927 1076 942 L 1093 931 Z M 784 827 C 748 843 707 852 661 852 C 573 852 501 802 445 702 C 388 602 360 494 360 380 C 360 312 370 253 391 202 C 412 151 436 126 464 126 C 501 126 567 161 662 233 L 784 827 Z M 460 1184 L 484 1306 L 1054 1306 L 1030 1184 L 460 1184 Z M 183 944 L 183 944 Z" unicode="ā" />
<glyph horiz-adv-x="1367" d="M 324 50 L 315 -3 C 224 -1 141 0 67 0 C -7 0 -78 -1 -146 -3 L -140 48 L -29 79 C 3 90 27 106 45 127 C 63 147 78 169 92 191 L 810 1404 L 920 1421 L 1129 206 C 1133 183 1137 164 1141 148 C 1145 132 1150 120 1156 112 C 1166 94 1183 82 1207 76 L 1313 48 L 1306 -3 C 1197 -1 1094 0 998 0 C 904 0 799 -1 683 -3 L 688 48 L 785 76 C 799 80 810 86 819 94 C 828 101 833 115 833 137 C 833 157 828 197 818 257 L 788 443 L 373 443 L 268 260 C 246 222 229 190 216 164 C 202 138 196 119 196 108 C 196 94 207 84 230 77 L 324 50 Z M 431 546 L 771 546 L 712 914 L 699 1020 L 642 915 L 431 546 Z M 712 1822 C 712 1767 727 1725 757 1697 C 787 1668 833 1654 895 1654 C 951 1654 998 1668 1037 1696 C 1076 1724 1106 1764 1128 1815 L 1200 1822 C 1186 1730 1151 1654 1095 1594 C 1038 1534 965 1505 877 1505 C 797 1505 737 1525 696 1565 C 655 1605 635 1665 635 1743 C 635 1765 637 1789 641 1815 L 712 1822 Z M 260 1400 L 260 1400 Z" unicode="Ă" />
<glyph horiz-adv-x="1185" d="M 1093 931 C 1068 849 1043 745 1018 619 L 928 174 C 924 158 923 146 923 136 C 923 122 925 110 931 102 C 937 94 946 87 958 82 C 970 77 986 74 1006 73 C 1026 71 1050 71 1079 71 L 1072 24 C 955 -4 867 -18 808 -18 C 758 -18 718 -6 690 15 C 662 37 648 70 648 112 L 648 132 C 527 26 440 -27 387 -27 C 296 -27 221 7 161 77 C 101 147 71 235 71 343 C 71 511 128 654 243 770 C 358 886 503 944 679 944 C 756 944 839 931 929 907 C 978 915 1027 927 1076 942 L 1093 931 Z M 784 827 C 748 843 707 852 661 852 C 573 852 501 802 445 702 C 388 602 360 494 360 380 C 360 312 370 253 391 202 C 412 151 436 126 464 126 C 501 126 567 161 662 233 L 784 827 Z M 564 1399 C 564 1337 579 1289 609 1256 C 639 1222 682 1206 740 1206 C 796 1206 843 1222 881 1255 C 919 1287 948 1333 970 1392 L 1046 1399 C 1032 1297 996 1213 939 1147 C 882 1081 808 1049 717 1049 C 641 1049 583 1071 543 1116 C 502 1161 482 1227 482 1313 C 482 1337 484 1363 488 1392 L 564 1399 Z M 183 944 L 183 944 Z" unicode="ă" />
<glyph horiz-adv-x="1368" d="M 432 546 L 772 546 L 713 914 L 700 1020 L 643 915 L 432 546 Z M 1307 -3 C 1206 -1 1088 0 953 0 C 885 0 827 -26 781 -79 C 734 -131 711 -190 711 -256 C 711 -298 723 -331 749 -355 C 775 -379 811 -391 858 -391 C 880 -391 905 -388 935 -382 L 945 -434 C 831 -474 741 -495 674 -495 C 606 -495 552 -479 512 -448 C 472 -417 453 -375 453 -321 C 453 -255 480 -192 534 -132 C 588 -71 670 -8 781 57 C 804 70 818 82 824 92 C 830 102 833 117 833 137 C 833 161 828 199 820 251 L 789 443 L 374 443 L 269 260 C 247 222 230 190 217 164 C 203 138 197 119 197 108 C 197 94 208 83 231 77 L 325 50 L 316 -3 C 224 -1 142 0 68 0 C -7 0 -78 -1 -145 -3 L -139 48 L -28 79 C 4 90 28 106 46 127 C 64 147 79 169 93 191 L 811 1404 L 921 1421 L 1130 206 C 1134 183 1138 164 1142 148 C 1146 132 1151 120 1157 112 C 1167 94 1184 82 1208 76 L 1314 48 L 1307 -3 Z" unicode="Ą" />
<glyph horiz-adv-x="1185" d="M 1093 931 C 1068 849 1043 745 1018 619 L 928 174 C 924 158 923 146 923 136 C 923 122 925 110 931 102 C 937 94 946 87 958 82 C 970 77 986 74 1006 73 C 1026 71 1050 71 1079 71 L 1072 24 C 1004 8 947 -3 899 -10 C 857 -34 822 -69 792 -115 C 762 -161 747 -208 747 -256 C 747 -298 759 -331 785 -355 C 811 -379 847 -391 894 -391 C 916 -391 941 -388 971 -382 L 981 -434 C 867 -474 776 -495 710 -495 C 642 -495 589 -479 549 -448 C 509 -416 489 -374 489 -321 C 489 -207 574 -103 744 -10 C 680 7 648 48 648 112 L 648 132 C 527 26 440 -27 387 -27 C 296 -27 221 7 161 77 C 101 147 71 235 71 343 C 71 511 128 654 243 770 C 358 886 503 944 679 944 C 756 944 839 931 929 907 C 978 915 1027 927 1076 942 L 1093 931 Z M 784 827 C 748 843 707 852 661 852 C 573 852 501 802 445 702 C 388 602 360 494 360 380 C 360 312 370 253 391 202 C 412 151 436 126 464 126 C 501 126 567 161 662 233 L 784 827 Z" unicode="ą" />
<glyph horiz-adv-x="1356" d="M 1285 1022 L 1229 1013 L 1197 1300 C 1151 1316 1098 1324 1036 1324 C 864 1324 720 1251 606 1107 C 492 962 435 788 435 585 C 435 433 477 314 561 228 C 645 142 759 99 905 99 C 997 99 1092 119 1190 159 L 1211 100 C 1067 13 911 -30 742 -30 C 552 -30 400 23 286 131 C 172 239 116 382 116 562 C 116 814 204 1020 382 1181 C 560 1342 783 1423 1051 1423 C 1167 1423 1284 1409 1403 1382 L 1407 1372 L 1285 1022 Z M 1283 1647 L 798 1473 L 767 1525 L 1127 1800 L 1283 1662 L 1283 1647 Z M 395 1400 L 395 1400 Z" unicode="Ć" />
<glyph horiz-adv-x="1002" d="M 817 200 L 851 150 C 736 32 606 -27 461 -27 C 349 -27 256 7 183 77 C 110 147 74 242 74 362 C 74 526 134 664 256 776 C 377 887 521 943 689 943 C 783 943 872 927 956 897 C 931 800 909 702 891 602 L 841 594 L 764 836 C 746 841 725 844 703 844 C 602 844 521 800 459 713 C 397 626 366 519 366 393 C 366 304 385 235 424 186 C 463 137 516 113 583 113 C 655 113 733 142 817 200 Z M 773 1422 L 1030 1422 L 702 1044 L 618 1044 L 773 1422 Z M 150 944 L 150 944 Z" unicode="ć" />
<glyph horiz-adv-x="1356" d="M 1285 1022 L 1229 1013 L 1197 1300 C 1151 1316 1098 1324 1036 1324 C 864 1324 720 1251 606 1107 C 492 962 435 788 435 585 C 435 433 477 314 561 228 C 645 142 759 99 905 99 C 997 99 1092 119 1190 159 L 1211 100 C 1067 13 911 -30 742 -30 C 552 -30 400 23 286 131 C 172 239 116 382 116 562 C 116 814 204 1020 382 1181 C 560 1342 783 1423 1051 1423 C 1167 1423 1284 1409 1403 1382 L 1407 1372 L 1285 1022 Z M 1022 1622 L 681 1475 L 654 1527 L 956 1776 L 1124 1776 L 1366 1522 L 1329 1475 L 1022 1622 Z M 395 1400 L 395 1400 Z" unicode="Ĉ" />
<glyph horiz-adv-x="1002" d="M 817 200 L 851 150 C 736 32 606 -27 461 -27 C 349 -27 256 7 183 77 C 110 147 74 242 74 362 C 74 526 134 664 256 776 C 377 887 521 943 689 943 C 783 943 872 927 956 897 C 931 800 909 702 891 602 L 841 594 L 764 836 C 746 841 725 844 703 844 C 602 844 521 800 459 713 C 397 626 366 519 366 393 C 366 304 385 235 424 186 C 463 137 516 113 583 113 C 655 113 733 142 817 200 Z M 984 1044 L 896 1044 L 717 1268 L 468 1044 L 376 1044 L 640 1422 L 840 1422 L 984 1044 Z M 150 944 L 150 944 Z" unicode="ĉ" />
<glyph horiz-adv-x="1356" d="M 1285 1022 L 1229 1013 L 1197 1300 C 1151 1316 1098 1324 1036 1324 C 864 1324 720 1251 606 1107 C 492 962 435 788 435 585 C 435 433 477 314 561 228 C 645 142 759 99 905 99 C 997 99 1092 119 1190 159 L 1211 100 C 1067 13 911 -30 742 -30 C 552 -30 400 23 286 131 C 172 239 116 382 116 562 C 116 814 204 1020 382 1181 C 560 1342 783 1423 1051 1423 C 1167 1423 1284 1409 1403 1382 L 1407 1372 L 1285 1022 Z M 1174 1661 C 1174 1619 1160 1584 1133 1558 C 1105 1532 1071 1519 1030 1519 C 989 1519 956 1531 930 1556 C 904 1580 891 1612 891 1651 C 891 1694 904 1728 932 1753 C 959 1778 994 1791 1036 1791 C 1076 1791 1109 1779 1135 1756 C 1161 1733 1174 1701 1174 1661 Z M 395 1400 L 395 1400 Z" unicode="Ċ" />
<glyph horiz-adv-x="1002" d="M 817 200 L 851 150 C 736 32 606 -27 461 -27 C 349 -27 256 7 183 77 C 110 147 74 242 74 362 C 74 526 134 664 256 776 C 377 887 521 943 689 943 C 783 943 872 927 956 897 C 931 800 909 702 891 602 L 841 594 L 764 836 C 746 841 725 844 703 844 C 602 844 521 800 459 713 C 397 626 366 519 366 393 C 366 304 385 235 424 186 C 463 137 516 113 583 113 C 655 113 733 142 817 200 Z M 865 1304 C 865 1259 851 1223 823 1195 C 795 1167 761 1153 720 1153 C 679 1153 645 1166 619 1192 C 593 1218 580 1252 580 1294 C 580 1340 593 1376 621 1403 C 649 1429 684 1443 726 1443 C 766 1443 800 1430 826 1406 C 852 1381 865 1347 865 1304 Z M 151 950 L 151 950 Z" unicode="ċ" />
<glyph horiz-adv-x="1356" d="M 1285 1022 L 1229 1013 L 1197 1300 C 1151 1316 1098 1324 1036 1324 C 864 1324 720 1251 606 1107 C 492 962 435 788 435 585 C 435 433 477 314 561 228 C 645 142 759 99 905 99 C 997 99 1092 119 1190 159 L 1211 100 C 1067 13 911 -30 742 -30 C 552 -30 400 23 286 131 C 172 239 116 382 116 562 C 116 814 204 1020 382 1181 C 560 1342 783 1423 1051 1423 C 1167 1423 1284 1409 1403 1382 L 1407 1372 L 1285 1022 Z M 1021 1652 L 1362 1799 L 1389 1747 L 1090 1498 L 922 1498 L 677 1752 L 714 1799 L 1021 1652 Z M 395 1400 L 395 1400 Z" unicode="Č" />
<glyph horiz-adv-x="1002" d="M 817 200 L 851 150 C 736 32 606 -27 461 -27 C 349 -27 256 7 183 77 C 110 147 74 242 74 362 C 74 526 134 664 256 776 C 377 887 521 943 689 943 C 783 943 872 927 956 897 C 931 800 909 702 891 602 L 841 594 L 764 836 C 746 841 725 844 703 844 C 602 844 521 800 459 713 C 397 626 366 519 366 393 C 366 304 385 235 424 186 C 463 137 516 113 583 113 C 655 113 733 142 817 200 Z M 436 1422 L 524 1422 L 703 1198 L 952 1422 L 1044 1422 L 780 1044 L 580 1044 L 436 1422 Z M 150 944 L 150 944 Z" unicode="č" />
<glyph horiz-adv-x="1627" d="M 295 0 C 195 0 98 -1 4 -3 L 10 48 L 145 85 C 165 90 176 100 179 116 C 184 142 190 172 197 205 C 203 238 211 275 219 315 L 370 1110 C 376 1144 382 1174 387 1202 C 391 1229 395 1254 399 1276 C 402 1292 396 1304 382 1310 L 251 1349 L 259 1400 C 361 1397 462 1396 563 1396 C 605 1396 658 1397 722 1401 C 785 1404 841 1406 890 1406 C 1104 1406 1270 1360 1390 1270 C 1509 1179 1569 1045 1569 867 C 1569 611 1481 401 1306 238 C 1130 75 902 -6 621 -6 C 569 -6 522 -5 480 -3 C 437 -1 375 0 295 0 Z M 474 99 C 524 91 571 87 617 87 C 814 87 969 158 1083 300 C 1197 442 1254 631 1254 868 C 1254 1018 1223 1129 1161 1201 C 1099 1273 1005 1309 878 1309 C 828 1309 769 1306 703 1301 L 474 99 Z M 926 1652 L 1267 1799 L 1294 1747 L 995 1498 L 827 1498 L 582 1752 L 619 1799 L 926 1652 Z M 300 1400 L 300 1400 Z" unicode="Ď" />
<glyph horiz-adv-x="1368" d="M 732 1376 L 733 1419 C 910 1446 1065 1475 1198 1506 L 1210 1494 C 1204 1468 1197 1439 1190 1407 C 1182 1375 1174 1339 1166 1301 C 1158 1263 1149 1222 1140 1179 C 1131 1135 1122 1091 1112 1045 L 996 486 L 933 174 C 929 158 928 146 928 136 C 928 122 930 110 936 102 C 942 94 951 87 963 82 C 975 77 991 74 1011 73 C 1031 71 1055 71 1084 71 L 1077 24 C 960 -4 872 -18 813 -18 C 763 -18 724 -6 696 15 C 668 37 654 70 654 112 L 654 132 C 530 26 441 -27 387 -27 C 296 -27 221 7 161 77 C 101 147 71 235 71 343 C 71 511 128 654 242 770 C 356 886 501 944 676 944 C 718 944 764 940 812 933 L 898 1352 L 732 1376 Z M 790 827 C 750 843 706 852 658 852 C 571 852 500 802 444 702 C 388 602 360 494 360 380 C 360 312 370 253 391 202 C 412 151 436 126 464 126 C 502 126 570 161 668 233 L 790 827 Z M 1254 1008 C 1330 1082 1368 1155 1368 1227 C 1368 1285 1337 1331 1275 1365 C 1277 1401 1289 1430 1312 1451 C 1334 1472 1364 1483 1402 1483 C 1439 1483 1469 1469 1493 1443 C 1516 1417 1528 1382 1528 1339 C 1528 1211 1449 1087 1291 967 L 1254 1008 Z" unicode="ď" />
<glyph horiz-adv-x="1627" d="M 295 0 C 195 0 98 -1 4 -3 L 10 48 L 145 85 C 165 90 176 100 179 116 C 184 142 190 172 197 205 C 203 238 211 275 219 315 L 289 685 L 129 685 L 149 791 L 309 791 L 370 1110 C 376 1144 382 1174 387 1202 C 391 1229 395 1254 399 1276 C 402 1292 396 1304 382 1310 L 251 1349 L 259 1400 C 361 1397 462 1396 563 1396 C 605 1396 658 1397 722 1401 C 785 1404 841 1406 890 1406 C 1104 1406 1270 1360 1390 1270 C 1509 1179 1569 1045 1569 867 C 1569 611 1481 401 1306 238 C 1130 75 902 -6 621 -6 C 569 -6 522 -5 480 -3 C 437 -1 375 0 295 0 Z M 474 99 C 524 91 571 87 617 87 C 814 87 969 158 1083 300 C 1197 442 1254 631 1254 868 C 1254 1018 1223 1129 1161 1201 C 1099 1273 1005 1309 878 1309 C 828 1309 769 1306 703 1301 L 605 791 L 879 791 L 859 685 L 585 685 L 474 99 Z" unicode="Đ" />
<glyph horiz-adv-x="1190" d="M 732 1376 L 733 1419 C 910 1446 1065 1475 1198 1506 L 1210 1494 C 1204 1468 1197 1439 1190 1407 C 1182 1375 1175 1341 1167 1305 C 1159 1269 1151 1232 1144 1195 L 1302 1195 L 1283 1100 L 1123 1100 L 996 486 L 933 174 C 929 158 928 146 928 136 C 928 122 930 110 936 102 C 942 94 951 87 963 82 C 975 77 991 74 1011 73 C 1031 71 1055 71 1084 71 L 1077 24 C 960 -4 872 -18 813 -18 C 763 -18 724 -6 696 15 C 668 37 654 70 654 112 L 654 132 C 530 26 441 -27 387 -27 C 296 -27 221 7 161 77 C 101 147 71 235 71 343 C 71 511 127 651 241 763 C 355 875 499 931 674 931 C 716 931 762 927 810 920 L 846 1100 L 487 1100 L 506 1195 L 866 1195 L 898 1352 L 732 1376 Z M 788 814 C 748 830 704 839 656 839 C 569 839 498 791 443 695 C 387 599 360 494 360 380 C 360 312 370 253 391 202 C 412 151 436 126 464 126 C 502 126 570 161 668 233 L 788 814 Z" unicode="đ" />
<glyph horiz-adv-x="1223" d="M 567 1396 L 763 1396 C 922 1396 1091 1397 1271 1400 L 1276 1392 L 1161 1059 L 1105 1051 L 1077 1295 L 702 1295 L 601 762 L 644 762 C 692 762 758 762 844 763 C 862 763 875 772 883 790 L 945 927 L 1007 929 C 973 783 946 641 924 503 L 862 499 L 851 637 C 849 654 841 663 826 664 C 767 665 699 666 623 666 L 581 666 L 516 324 C 502 250 488 176 476 103 L 884 103 L 1052 369 L 1115 378 L 1029 4 L 1021 -3 C 842 -1 674 0 518 0 L 295 0 C 195 0 97 -1 3 -3 L 9 48 L 144 85 C 162 89 173 100 178 116 C 183 142 189 172 196 205 C 202 238 210 275 218 315 L 370 1110 C 376 1144 382 1174 387 1202 C 391 1229 395 1254 399 1276 C 402 1293 396 1304 382 1310 L 250 1349 L 258 1400 C 359 1397 462 1396 567 1396 Z M 535 1557 L 559 1679 L 1129 1679 L 1105 1557 L 535 1557 Z M 200 1400 L 200 1400 Z" unicode="Ē" />
<glyph horiz-adv-x="1053" d="M 867 192 L 901 142 C 773 30 632 -25 477 -25 C 355 -25 257 8 183 74 C 108 140 71 230 71 345 C 71 515 131 657 253 772 C 374 886 521 944 694 944 C 790 944 864 926 916 891 C 968 856 994 805 994 739 C 994 655 940 586 834 530 C 727 474 570 442 362 432 C 360 416 360 401 360 387 C 360 297 378 228 415 181 C 451 134 506 111 580 111 C 674 111 770 138 867 192 Z M 370 512 C 600 533 716 607 716 735 C 716 770 707 796 691 814 C 675 832 654 841 629 841 C 574 841 522 810 473 749 C 423 688 389 609 370 512 Z M 417 1184 L 441 1306 L 1011 1306 L 987 1184 L 417 1184 Z M 140 944 L 140 944 Z" unicode="ē" />
<glyph horiz-adv-x="1223" d="M 567 1396 L 763 1396 C 922 1396 1091 1397 1271 1400 L 1276 1392 L 1161 1059 L 1105 1051 L 1077 1295 L 702 1295 L 601 762 L 644 762 C 692 762 758 762 844 763 C 862 763 875 772 883 790 L 945 927 L 1007 929 C 973 783 946 641 924 503 L 862 499 L 851 637 C 849 654 841 663 826 664 C 767 665 699 666 623 666 L 581 666 L 516 324 C 502 250 488 176 476 103 L 884 103 L 1052 369 L 1115 378 L 1029 4 L 1021 -3 C 842 -1 674 0 518 0 L 295 0 C 195 0 97 -1 3 -3 L 9 48 L 144 85 C 162 89 173 100 178 116 C 183 142 189 172 196 205 C 202 238 210 275 218 315 L 370 1110 C 376 1144 382 1174 387 1202 C 391 1229 395 1254 399 1276 C 402 1293 396 1304 382 1310 L 250 1349 L 258 1400 C 359 1397 462 1396 567 1396 Z M 652 1822 C 652 1767 667 1725 697 1697 C 727 1668 773 1654 835 1654 C 891 1654 938 1668 977 1696 C 1016 1724 1046 1764 1068 1815 L 1140 1822 C 1126 1730 1091 1654 1035 1594 C 978 1534 905 1505 817 1505 C 737 1505 677 1525 636 1565 C 595 1605 575 1665 575 1743 C 575 1765 577 1789 581 1815 L 652 1822 Z M 200 1400 L 200 1400 Z" unicode="Ĕ" />
<glyph horiz-adv-x="1053" d="M 867 192 L 901 142 C 773 30 632 -25 477 -25 C 355 -25 257 8 183 74 C 108 140 71 230 71 345 C 71 515 131 657 253 772 C 374 886 521 944 694 944 C 790 944 864 926 916 891 C 968 856 994 805 994 739 C 994 655 940 586 834 530 C 727 474 570 442 362 432 C 360 416 360 401 360 387 C 360 297 378 228 415 181 C 451 134 506 111 580 111 C 674 111 770 138 867 192 Z M 370 512 C 600 533 716 607 716 735 C 716 770 707 796 691 814 C 675 832 654 841 629 841 C 574 841 522 810 473 749 C 423 688 389 609 370 512 Z M 521 1399 C 521 1337 536 1289 566 1256 C 596 1222 639 1206 697 1206 C 753 1206 800 1222 838 1255 C 876 1287 905 1333 927 1392 L 1003 1399 C 989 1297 953 1213 896 1147 C 839 1081 765 1049 674 1049 C 598 1049 540 1071 500 1116 C 459 1161 439 1227 439 1313 C 439 1337 441 1363 445 1392 L 521 1399 Z M 140 944 L 140 944 Z" unicode="ĕ" />
<glyph horiz-adv-x="1223" d="M 567 1396 L 763 1396 C 922 1396 1091 1397 1271 1400 L 1276 1392 L 1161 1059 L 1105 1051 L 1077 1295 L 702 1295 L 601 762 L 644 762 C 692 762 758 762 844 763 C 862 763 875 772 883 790 L 945 927 L 1007 929 C 973 783 946 641 924 503 L 862 499 L 851 637 C 849 654 841 663 826 664 C 767 665 699 666 623 666 L 581 666 L 516 324 C 502 250 488 176 476 103 L 884 103 L 1052 369 L 1115 378 L 1029 4 L 1021 -3 C 842 -1 674 0 518 0 L 295 0 C 195 0 97 -1 3 -3 L 9 48 L 144 85 C 162 89 173 100 178 116 C 183 142 189 172 196 205 C 202 238 210 275 218 315 L 370 1110 C 376 1144 382 1174 387 1202 C 391 1229 395 1254 399 1276 C 402 1293 396 1304 382 1310 L 250 1349 L 258 1400 C 359 1397 462 1396 567 1396 Z M 979 1661 C 979 1619 965 1584 938 1558 C 910 1532 876 1519 835 1519 C 794 1519 761 1531 735 1556 C 709 1580 696 1612 696 1651 C 696 1694 709 1728 737 1753 C 764 1778 799 1791 841 1791 C 881 1791 914 1779 940 1756 C 966 1733 979 1701 979 1661 Z M 200 1400 L 200 1400 Z" unicode="Ė" />
<glyph horiz-adv-x="1053" d="M 867 192 L 901 142 C 773 30 632 -25 477 -25 C 355 -25 257 8 183 74 C 108 140 71 230 71 345 C 71 515 131 657 253 772 C 374 886 521 944 694 944 C 790 944 864 926 916 891 C 968 856 994 805 994 739 C 994 655 940 586 834 530 C 727 474 570 442 362 432 C 360 416 360 401 360 387 C 360 297 378 228 415 181 C 451 134 506 111 580 111 C 674 111 770 138 867 192 Z M 370 512 C 600 533 716 607 716 735 C 716 770 707 796 691 814 C 675 832 654 841 629 841 C 574 841 522 810 473 749 C 423 688 389 609 370 512 Z M 855 1304 C 855 1259 841 1223 813 1195 C 785 1167 751 1153 710 1153 C 669 1153 635 1166 609 1192 C 583 1218 570 1252 570 1294 C 570 1340 583 1376 611 1403 C 639 1429 674 1443 716 1443 C 756 1443 790 1430 816 1406 C 842 1381 855 1347 855 1304 Z M 141 950 L 141 950 Z" unicode="ė" />
<glyph horiz-adv-x="1223" d="M 567 1396 L 763 1396 C 922 1396 1091 1397 1271 1400 L 1276 1392 L 1161 1059 L 1105 1051 L 1077 1295 L 702 1295 L 601 763 L 644 763 C 692 763 758 763 844 764 C 862 764 875 773 883 791 L 945 927 L 1007 929 C 973 783 946 641 924 503 L 862 499 L 851 637 C 849 654 841 663 826 664 C 767 665 699 666 623 666 L 581 666 L 516 324 C 502 250 488 176 476 103 L 884 103 L 1052 369 L 1115 378 L 1029 4 L 1021 -3 C 977 -1 935 0 893 0 C 842 -22 800 -59 767 -109 C 734 -159 718 -208 718 -256 C 718 -298 730 -331 756 -355 C 782 -379 818 -391 865 -391 C 887 -391 912 -388 942 -382 L 952 -434 C 838 -474 747 -495 681 -495 C 613 -495 560 -479 520 -448 C 480 -416 460 -374 460 -321 C 460 -205 548 -99 725 -4 L 725 0 L 295 0 C 195 0 97 -1 3 -3 L 9 48 L 144 85 C 162 89 173 100 178 116 C 183 142 189 172 196 205 C 202 238 210 275 218 315 L 370 1110 C 376 1144 382 1174 387 1202 C 391 1229 395 1254 399 1276 C 402 1293 396 1304 382 1310 L 250 1349 L 258 1400 C 359 1397 462 1396 567 1396 Z" unicode="Ę" />
<glyph horiz-adv-x="1053" d="M 867 192 L 901 142 C 851 99 800 64 748 38 C 616 -51 551 -149 551 -256 C 551 -298 563 -331 589 -355 C 615 -379 651 -391 698 -391 C 720 -391 745 -388 775 -382 L 785 -434 C 671 -474 580 -495 514 -495 C 446 -495 393 -479 353 -448 C 313 -416 293 -374 293 -321 C 293 -211 372 -112 530 -26 L 529 -23 C 511 -24 494 -25 477 -25 C 355 -25 257 8 183 74 C 108 140 71 230 71 345 C 71 515 131 657 253 772 C 374 886 521 944 694 944 C 790 944 864 926 916 891 C 968 856 994 805 994 739 C 994 655 940 586 834 530 C 727 474 570 442 362 432 C 360 416 360 401 360 387 C 360 297 378 228 415 181 C 451 134 506 111 580 111 C 674 111 770 138 867 192 Z M 370 512 C 600 533 716 607 716 735 C 716 770 707 796 691 814 C 675 832 654 841 629 841 C 574 841 522 810 473 749 C 423 688 389 609 370 512 Z" unicode="ę" />
<glyph horiz-adv-x="1223" d="M 567 1396 L 763 1396 C 922 1396 1091 1397 1271 1400 L 1276 1392 L 1161 1059 L 1105 1051 L 1077 1295 L 702 1295 L 601 762 L 644 762 C 692 762 758 762 844 763 C 862 763 875 772 883 790 L 945 927 L 1007 929 C 973 783 946 641 924 503 L 862 499 L 851 637 C 849 654 841 663 826 664 C 767 665 699 666 623 666 L 581 666 L 516 324 C 502 250 488 176 476 103 L 884 103 L 1052 369 L 1115 378 L 1029 4 L 1021 -3 C 842 -1 674 0 518 0 L 295 0 C 195 0 97 -1 3 -3 L 9 48 L 144 85 C 162 89 173 100 178 116 C 183 142 189 172 196 205 C 202 238 210 275 218 315 L 370 1110 C 376 1144 382 1174 387 1202 C 391 1229 395 1254 399 1276 C 402 1293 396 1304 382 1310 L 250 1349 L 258 1400 C 359 1397 462 1396 567 1396 Z M 826 1652 L 1167 1799 L 1194 1747 L 895 1498 L 727 1498 L 482 1752 L 519 1799 L 826 1652 Z M 200 1400 L 200 1400 Z" unicode="Ě" />
<glyph horiz-adv-x="1053" d="M 867 192 L 901 142 C 773 30 632 -25 477 -25 C 355 -25 257 8 183 74 C 108 140 71 230 71 345 C 71 515 131 657 253 772 C 374 886 521 944 694 944 C 790 944 864 926 916 891 C 968 856 994 805 994 739 C 994 655 940 586 834 530 C 727 474 570 442 362 432 C 360 416 360 401 360 387 C 360 297 378 228 415 181 C 451 134 506 111 580 111 C 674 111 770 138 867 192 Z M 370 512 C 600 533 716 607 716 735 C 716 770 707 796 691 814 C 675 832 654 841 629 841 C 574 841 522 810 473 749 C 423 688 389 609 370 512 Z M 426 1422 L 514 1422 L 693 1198 L 942 1422 L 1034 1422 L 770 1044 L 570 1044 L 426 1422 Z M 140 944 L 140 944 Z" unicode="ě" />
<glyph horiz-adv-x="1489" d="M 1316 1031 L 1258 1023 L 1230 1298 C 1175 1316 1109 1326 1033 1326 C 856 1326 712 1253 600 1108 C 488 963 432 790 432 589 C 432 437 469 312 543 214 C 617 115 714 66 835 66 C 863 66 891 68 920 73 L 970 340 C 977 374 983 404 988 431 C 992 458 997 483 1001 506 C 1003 524 997 535 983 540 L 862 579 L 869 622 C 923 620 976 619 1026 619 C 1076 618 1125 618 1172 618 C 1221 618 1269 618 1315 619 C 1361 619 1407 620 1451 622 L 1447 579 L 1337 546 C 1317 540 1306 530 1304 516 C 1298 489 1292 462 1287 434 C 1281 406 1275 376 1269 344 L 1208 27 L 1200 20 C 1058 -13 923 -30 796 -30 C 582 -30 415 21 295 124 C 174 226 114 370 114 555 C 114 811 203 1020 381 1181 C 559 1342 790 1423 1073 1423 C 1178 1423 1297 1409 1429 1382 L 1434 1373 L 1316 1031 Z M 1057 1622 L 716 1475 L 689 1527 L 991 1776 L 1159 1776 L 1401 1522 L 1364 1475 L 1057 1622 Z M 430 1400 L 430 1400 Z" unicode="Ĝ" />
<glyph horiz-adv-x="1170" d="M 1082 942 L 1099 931 C 1074 852 1049 749 1024 623 L 931 172 C 884 -55 812 -224 715 -335 C 617 -445 487 -501 324 -501 C 212 -501 96 -482 -24 -446 C -2 -354 20 -270 46 -194 L 60 -188 C 230 -320 341 -386 392 -386 C 448 -386 494 -352 529 -285 C 564 -217 597 -109 629 40 L 648 134 C 531 33 445 -17 390 -17 C 299 -17 223 17 163 86 C 102 154 72 242 72 349 C 72 516 129 657 244 772 C 358 886 503 944 677 944 C 762 944 848 931 935 907 C 985 916 1034 928 1082 942 Z M 792 827 C 754 843 710 852 659 852 C 573 852 501 802 445 703 C 389 604 361 499 361 387 C 361 322 371 264 392 213 C 413 161 438 136 467 136 C 505 136 572 171 670 243 L 792 827 Z M 1017 1044 L 929 1044 L 750 1268 L 501 1044 L 409 1044 L 673 1422 L 873 1422 L 1017 1044 Z M 183 944 L 183 944 Z" unicode="ĝ" />
<glyph horiz-adv-x="1489" d="M 1316 1031 L 1258 1023 L 1230 1298 C 1175 1316 1109 1326 1033 1326 C 856 1326 712 1253 600 1108 C 488 963 432 790 432 589 C 432 437 469 312 543 214 C 617 115 714 66 835 66 C 863 66 891 68 920 73 L 970 340 C 977 374 983 404 988 431 C 992 458 997 483 1001 506 C 1003 524 997 535 983 540 L 862 579 L 869 622 C 923 620 976 619 1026 619 C 1076 618 1125 618 1172 618 C 1221 618 1269 618 1315 619 C 1361 619 1407 620 1451 622 L 1447 579 L 1337 546 C 1317 540 1306 530 1304 516 C 1298 489 1292 462 1287 434 C 1281 406 1275 376 1269 344 L 1208 27 L 1200 20 C 1058 -13 923 -30 796 -30 C 582 -30 415 21 295 124 C 174 226 114 370 114 555 C 114 811 203 1020 381 1181 C 559 1342 790 1423 1073 1423 C 1178 1423 1297 1409 1429 1382 L 1434 1373 L 1316 1031 Z M 882 1822 C 882 1767 897 1725 927 1697 C 957 1668 1003 1654 1065 1654 C 1121 1654 1168 1668 1207 1696 C 1246 1724 1276 1764 1298 1815 L 1370 1822 C 1356 1730 1321 1654 1265 1594 C 1208 1534 1135 1505 1047 1505 C 967 1505 907 1525 866 1565 C 825 1605 805 1665 805 1743 C 805 1765 807 1789 811 1815 L 882 1822 Z M 430 1400 L 430 1400 Z" unicode="Ğ" />
<glyph horiz-adv-x="1170" d="M 1082 942 L 1099 931 C 1074 852 1049 749 1024 623 L 931 172 C 884 -55 812 -224 715 -335 C 617 -445 487 -501 324 -501 C 212 -501 96 -482 -24 -446 C -2 -354 20 -270 46 -194 L 60 -188 C 230 -320 341 -386 392 -386 C 448 -386 494 -352 529 -285 C 564 -217 597 -109 629 40 L 648 134 C 531 33 445 -17 390 -17 C 299 -17 223 17 163 86 C 102 154 72 242 72 349 C 72 516 129 657 244 772 C 358 886 503 944 677 944 C 762 944 848 931 935 907 C 985 916 1034 928 1082 942 Z M 792 827 C 754 843 710 852 659 852 C 573 852 501 802 445 703 C 389 604 361 499 361 387 C 361 322 371 264 392 213 C 413 161 438 136 467 136 C 505 136 572 171 670 243 L 792 827 Z M 564 1399 C 564 1337 579 1289 609 1256 C 639 1222 682 1206 740 1206 C 796 1206 843 1222 881 1255 C 919 1287 948 1333 970 1392 L 1046 1399 C 1032 1297 996 1213 939 1147 C 882 1081 808 1049 717 1049 C 641 1049 583 1071 543 1116 C 502 1161 482 1227 482 1313 C 482 1337 484 1363 488 1392 L 564 1399 Z M 183 944 L 183 944 Z" unicode="ğ" />
<glyph horiz-adv-x="1489" d="M 1316 1031 L 1258 1023 L 1230 1298 C 1175 1316 1109 1326 1033 1326 C 856 1326 712 1253 600 1108 C 488 963 432 790 432 589 C 432 437 469 312 543 214 C 617 115 714 66 835 66 C 863 66 891 68 920 73 L 970 340 C 977 374 983 404 988 431 C 992 458 997 483 1001 506 C 1003 524 997 535 983 540 L 862 579 L 869 622 C 923 620 976 619 1026 619 C 1076 618 1125 618 1172 618 C 1221 618 1269 618 1315 619 C 1361 619 1407 620 1451 622 L 1447 579 L 1337 546 C 1317 540 1306 530 1304 516 C 1298 489 1292 462 1287 434 C 1281 406 1275 376 1269 344 L 1208 27 L 1200 20 C 1058 -13 923 -30 796 -30 C 582 -30 415 21 295 124 C 174 226 114 370 114 555 C 114 811 203 1020 381 1181 C 559 1342 790 1423 1073 1423 C 1178 1423 1297 1409 1429 1382 L 1434 1373 L 1316 1031 Z M 1209 1661 C 1209 1619 1195 1584 1168 1558 C 1140 1532 1106 1519 1065 1519 C 1024 1519 991 1531 965 1556 C 939 1580 926 1612 926 1651 C 926 1694 939 1728 967 1753 C 994 1778 1029 1791 1071 1791 C 1111 1791 1144 1779 1170 1756 C 1196 1733 1209 1701 1209 1661 Z M 430 1400 L 430 1400 Z" unicode="Ġ" />
<glyph horiz-adv-x="1170" d="M 1082 942 L 1099 931 C 1074 852 1049 749 1024 623 L 931 172 C 884 -55 812 -224 715 -335 C 617 -445 487 -501 324 -501 C 212 -501 96 -482 -24 -446 C -2 -354 20 -270 46 -194 L 60 -188 C 230 -320 341 -386 392 -386 C 448 -386 494 -352 529 -285 C 564 -217 597 -109 629 40 L 648 134 C 531 33 445 -17 390 -17 C 299 -17 223 17 163 86 C 102 154 72 242 72 349 C 72 516 129 657 244 772 C 358 886 503 944 677 944 C 762 944 848 931 935 907 C 985 916 1034 928 1082 942 Z M 792 827 C 754 843 710 852 659 852 C 573 852 501 802 445 703 C 389 604 361 499 361 387 C 361 322 371 264 392 213 C 413 161 438 136 467 136 C 505 136 572 171 670 243 L 792 827 Z M 898 1304 C 898 1259 884 1223 856 1195 C 828 1167 794 1153 753 1153 C 712 1153 678 1166 652 1192 C 626 1218 613 1252 613 1294 C 613 1340 626 1376 654 1403 C 682 1429 717 1443 759 1443 C 799 1443 833 1430 859 1406 C 885 1381 898 1347 898 1304 Z M 184 950 L 184 950 Z" unicode="ġ" />
<glyph horiz-adv-x="1489" d="M 1316 1031 L 1258 1023 L 1230 1298 C 1175 1316 1109 1326 1033 1326 C 856 1326 712 1253 600 1108 C 488 963 432 790 432 589 C 432 437 469 312 543 214 C 617 115 714 66 835 66 C 863 66 891 68 920 73 L 970 340 C 977 374 983 404 988 431 C 992 458 997 483 1001 506 C 1003 524 997 535 983 540 L 862 579 L 869 622 C 923 620 976 619 1026 619 C 1076 618 1125 618 1172 618 C 1221 618 1269 618 1315 619 C 1361 619 1407 620 1451 622 L 1447 579 L 1337 546 C 1317 540 1306 530 1304 516 C 1298 489 1292 462 1287 434 C 1281 406 1275 376 1269 344 L 1208 27 L 1200 20 C 1058 -13 923 -30 796 -30 C 582 -30 415 21 295 124 C 174 226 114 370 114 555 C 114 811 203 1020 381 1181 C 559 1342 790 1423 1073 1423 C 1178 1423 1297 1409 1429 1382 L 1434 1373 L 1316 1031 Z M 588 -461 C 660 -405 697 -350 697 -296 C 697 -250 672 -215 624 -189 C 624 -155 634 -129 654 -109 C 674 -89 700 -80 732 -80 C 765 -80 792 -92 813 -116 C 833 -140 844 -172 844 -210 C 844 -314 770 -411 624 -501 L 588 -461 Z" unicode="Ģ" />
<glyph horiz-adv-x="1170" d="M 1082 942 L 1099 931 C 1074 852 1049 749 1024 623 L 931 172 C 884 -55 812 -224 715 -335 C 617 -445 487 -501 324 -501 C 212 -501 96 -482 -24 -446 C -2 -354 20 -270 46 -194 L 60 -188 C 230 -320 341 -386 392 -386 C 448 -386 494 -352 529 -285 C 564 -217 597 -109 629 40 L 648 134 C 531 33 445 -17 390 -17 C 299 -17 223 17 163 86 C 102 154 72 242 72 349 C 72 516 129 657 244 772 C 358 886 503 944 677 944 C 762 944 848 931 935 907 C 985 916 1034 928 1082 942 Z M 792 827 C 754 843 710 852 659 852 C 573 852 501 802 445 703 C 389 604 361 499 361 387 C 361 322 371 264 392 213 C 413 161 438 136 467 136 C 505 136 572 171 670 243 L 792 827 Z M 890 1421 C 817 1365 781 1310 781 1256 C 781 1210 805 1175 854 1149 C 854 1115 843 1089 823 1069 C 803 1049 777 1040 746 1040 C 712 1040 685 1052 665 1076 C 644 1100 634 1132 634 1170 C 634 1274 707 1371 854 1461 L 890 1421 Z M 1060 950 L 1060 950 Z" unicode="ģ" />
<glyph horiz-adv-x="1695" d="M 585 686 L 514 315 C 499 236 488 170 480 117 C 477 99 484 87 500 83 L 617 48 L 608 -3 C 501 -1 404 0 317 0 C 218 0 114 -1 4 -3 L 10 48 L 145 85 C 164 90 175 100 179 116 C 191 169 204 235 219 314 L 370 1109 C 382 1175 392 1231 399 1276 C 402 1293 396 1304 382 1310 L 251 1349 L 260 1400 C 376 1397 482 1396 578 1396 C 668 1396 766 1397 870 1400 L 864 1348 L 734 1313 C 716 1309 706 1298 702 1282 C 691 1234 679 1177 667 1113 L 606 792 L 1208 792 L 1269 1114 C 1281 1178 1292 1235 1300 1283 C 1302 1299 1296 1310 1280 1314 L 1163 1349 L 1172 1400 C 1280 1397 1379 1396 1469 1396 C 1566 1396 1671 1397 1785 1400 L 1779 1349 L 1629 1310 C 1613 1304 1603 1293 1599 1276 C 1589 1232 1577 1176 1565 1110 L 1414 315 C 1400 236 1388 170 1379 116 C 1377 100 1383 90 1399 85 L 1528 48 L 1519 -3 C 1400 -1 1293 0 1198 0 C 1106 0 1011 -1 912 -3 L 918 48 L 1045 83 C 1063 87 1074 99 1078 117 C 1090 170 1103 236 1118 315 L 1188 686 L 585 686 Z M 1052 1622 L 711 1475 L 684 1527 L 986 1776 L 1154 1776 L 1396 1522 L 1359 1475 L 1052 1622 Z M 425 1400 L 425 1400 Z" unicode="Ĥ" />
<glyph horiz-adv-x="1252" d="M 81 -5 L 359 1352 L 193 1376 L 194 1419 C 371 1446 526 1475 659 1506 L 671 1494 C 665 1468 658 1439 651 1407 C 643 1375 635 1339 627 1301 C 619 1263 610 1222 601 1179 C 592 1135 583 1091 573 1045 L 528 826 C 658 904 778 943 886 943 C 958 943 1015 923 1055 885 C 1095 847 1116 795 1116 730 C 1116 701 1112 670 1105 638 L 1005 164 C 1003 158 1002 153 1002 148 C 1001 143 1001 138 1001 134 C 1001 120 1004 109 1011 101 C 1017 93 1027 87 1040 83 C 1053 79 1069 77 1089 76 C 1108 75 1130 75 1155 75 L 1151 29 C 1051 -2 959 -18 876 -18 C 824 -18 784 -8 758 11 C 732 30 719 62 719 106 C 719 126 721 150 727 178 L 817 596 C 824 630 828 659 828 683 C 828 723 819 752 801 771 C 783 790 757 800 723 800 C 671 800 599 778 509 736 L 359 5 L 81 -5 Z M 533 1675 L 192 1528 L 165 1580 L 467 1829 L 635 1829 L 877 1575 L 840 1528 L 533 1675 Z" unicode="ĥ" />
<glyph horiz-adv-x="1695" d="M 583 676 L 514 315 C 499 236 488 170 480 117 C 477 99 484 87 500 83 L 617 48 L 608 -3 C 501 -1 404 0 317 0 C 218 0 114 -1 4 -3 L 10 48 L 145 85 C 164 90 175 100 179 116 C 191 169 204 235 219 314 L 348 995 L 171 995 L 191 1099 L 368 1099 L 370 1110 C 382 1176 392 1232 399 1277 C 402 1294 396 1305 382 1311 L 251 1350 L 260 1401 C 376 1398 482 1397 578 1397 C 668 1397 766 1398 870 1401 L 864 1349 L 734 1314 C 716 1310 706 1299 702 1283 C 691 1235 679 1178 667 1114 L 664 1099 L 1266 1099 L 1269 1114 C 1281 1178 1292 1235 1300 1283 C 1302 1299 1296 1310 1280 1314 L 1163 1349 L 1172 1400 C 1280 1397 1379 1396 1469 1396 C 1566 1396 1671 1397 1785 1400 L 1779 1349 L 1629 1310 C 1613 1304 1603 1293 1599 1276 C 1589 1232 1577 1176 1565 1110 L 1563 1099 L 1739 1099 L 1719 995 L 1543 995 L 1414 315 C 1400 236 1388 170 1379 116 C 1377 100 1383 90 1399 85 L 1528 48 L 1519 -3 C 1400 -1 1293 0 1198 0 C 1106 0 1011 -1 912 -3 L 918 48 L 1045 83 C 1063 87 1074 99 1078 117 C 1090 170 1103 236 1118 315 L 1186 676 L 583 676 Z M 1206 782 L 1246 995 L 644 995 L 604 782 L 1206 782 Z" unicode="Ħ" />
<glyph horiz-adv-x="1252" d="M 81 -5 L 307 1100 L 135 1100 L 155 1195 L 327 1195 L 359 1352 L 193 1376 L 194 1419 C 371 1446 526 1475 659 1506 L 671 1494 C 649 1401 627 1301 605 1195 L 956 1195 L 936 1100 L 584 1100 L 524 812 C 654 890 774 929 882 929 C 954 929 1011 909 1051 871 C 1091 833 1112 781 1112 716 C 1112 687 1108 656 1101 624 L 1005 164 C 1003 158 1002 153 1002 148 C 1001 143 1001 138 1001 134 C 1001 120 1004 109 1011 101 C 1017 93 1027 87 1040 83 C 1053 79 1069 77 1089 76 C 1108 75 1130 75 1155 75 L 1151 29 C 1051 -2 959 -18 876 -18 C 824 -18 784 -8 758 11 C 732 30 719 62 719 106 C 719 126 721 150 727 178 L 813 582 C 820 616 824 645 824 669 C 824 709 815 738 797 757 C 779 776 753 786 719 786 C 667 786 595 764 505 722 L 359 5 L 81 -5 Z" unicode="ħ" />
<glyph horiz-adv-x="796" d="M 514 315 C 506 275 499 238 493 206 C 487 173 482 143 478 117 C 476 100 485 89 506 83 L 628 48 L 620 -3 C 506 -1 404 0 312 0 C 213 0 111 -1 5 -3 L 9 48 L 144 85 C 162 90 174 100 178 116 C 184 142 190 171 196 205 C 202 238 210 275 218 315 L 371 1110 C 377 1144 383 1174 388 1202 C 392 1229 396 1254 400 1276 C 403 1294 397 1305 383 1310 L 252 1349 L 261 1400 C 317 1398 372 1397 424 1397 C 476 1396 526 1396 574 1396 C 622 1396 671 1396 721 1397 C 771 1397 823 1398 877 1400 L 870 1349 L 733 1312 C 716 1308 706 1297 702 1281 C 696 1257 690 1232 685 1204 C 679 1176 673 1146 667 1114 L 514 315 Z M 958 1737 C 878 1595 801 1525 727 1525 C 701 1525 678 1530 657 1540 C 635 1550 612 1562 587 1578 C 575 1585 564 1591 555 1597 C 546 1602 537 1607 529 1611 C 520 1615 512 1617 504 1619 C 496 1621 488 1622 480 1622 C 460 1622 441 1616 425 1606 C 409 1595 381 1568 341 1526 L 291 1568 C 339 1644 379 1697 413 1728 C 447 1759 482 1775 518 1775 C 538 1775 557 1771 575 1765 C 593 1757 618 1744 651 1726 C 665 1718 678 1711 689 1705 C 699 1699 709 1693 718 1689 C 726 1685 735 1682 743 1680 C 751 1678 759 1677 768 1677 C 789 1677 807 1682 822 1693 C 837 1703 865 1730 905 1774 L 958 1737 Z M -24 1400 L -24 1400 Z" unicode="Ĩ" />
<glyph horiz-adv-x="661" d="M 109 896 C 228 926 325 942 400 942 C 444 942 479 934 504 918 C 529 902 542 878 542 845 C 542 831 540 817 538 804 L 407 174 C 403 156 402 144 402 136 C 402 109 413 91 435 83 C 457 75 497 71 557 71 L 551 24 C 437 -4 345 -18 275 -18 C 225 -18 187 -8 159 11 C 131 30 118 59 118 99 C 118 117 120 141 126 169 L 246 749 C 251 775 254 793 254 801 C 254 819 246 831 231 839 C 215 846 173 850 103 850 L 109 896 Z M 789 1327 C 706 1180 626 1107 549 1107 C 523 1107 499 1112 477 1122 C 455 1132 430 1146 404 1162 C 391 1169 380 1175 371 1181 C 361 1187 352 1192 343 1196 C 334 1200 326 1203 318 1205 C 310 1207 301 1208 293 1208 C 272 1208 253 1202 236 1191 C 219 1179 190 1152 149 1108 L 97 1152 C 147 1230 189 1286 224 1318 C 259 1350 295 1366 333 1366 C 353 1366 373 1362 392 1356 C 410 1348 436 1335 470 1316 C 485 1307 498 1299 509 1293 C 520 1287 530 1281 540 1277 C 549 1273 558 1270 566 1268 C 574 1266 582 1265 592 1265 C 614 1265 632 1270 648 1281 C 664 1292 692 1320 734 1365 L 789 1327 Z M -129 944 L -129 944 Z" unicode="ĩ" />
<glyph horiz-adv-x="796" d="M 514 315 C 506 275 499 238 493 206 C 487 173 482 143 478 117 C 476 100 485 89 506 83 L 628 48 L 620 -3 C 506 -1 404 0 312 0 C 213 0 111 -1 5 -3 L 9 48 L 144 85 C 162 90 174 100 178 116 C 184 142 190 171 196 205 C 202 238 210 275 218 315 L 371 1110 C 377 1144 383 1174 388 1202 C 392 1229 396 1254 400 1276 C 403 1294 397 1305 383 1310 L 252 1349 L 261 1400 C 317 1398 372 1397 424 1397 C 476 1396 526 1396 574 1396 C 622 1396 671 1396 721 1397 C 771 1397 823 1398 877 1400 L 870 1349 L 733 1312 C 716 1308 706 1297 702 1281 C 696 1257 690 1232 685 1204 C 679 1176 673 1146 667 1114 L 514 315 Z M 311 1557 L 335 1679 L 905 1679 L 881 1557 L 311 1557 Z M -24 1400 L -24 1400 Z" unicode="Ī" />
<glyph horiz-adv-x="661" d="M 109 896 C 228 926 325 942 400 942 C 444 942 479 934 504 918 C 529 902 542 878 542 845 C 542 831 540 817 538 804 L 407 174 C 403 156 402 144 402 136 C 402 109 413 91 435 83 C 457 75 497 71 557 71 L 551 24 C 437 -4 345 -18 275 -18 C 225 -18 187 -8 159 11 C 131 30 118 59 118 99 C 118 117 120 141 126 169 L 246 749 C 251 775 254 793 254 801 C 254 819 246 831 231 839 C 215 846 173 850 103 850 L 109 896 Z M 148 1184 L 172 1306 L 742 1306 L 718 1184 L 148 1184 Z M -129 944 L -129 944 Z" unicode="ī" />
<glyph horiz-adv-x="796" d="M 514 315 C 506 275 499 238 493 206 C 487 173 482 143 478 117 C 476 100 485 89 506 83 L 628 48 L 620 -3 C 506 -1 404 0 312 0 C 213 0 111 -1 5 -3 L 9 48 L 144 85 C 162 90 174 100 178 116 C 184 142 190 171 196 205 C 202 238 210 275 218 315 L 371 1110 C 377 1144 383 1174 388 1202 C 392 1229 396 1254 400 1276 C 403 1294 397 1305 383 1310 L 252 1349 L 261 1400 C 317 1398 372 1397 424 1397 C 476 1396 526 1396 574 1396 C 622 1396 671 1396 721 1397 C 771 1397 823 1398 877 1400 L 870 1349 L 733 1312 C 716 1308 706 1297 702 1281 C 696 1257 690 1232 685 1204 C 679 1176 673 1146 667 1114 L 514 315 Z M 428 1822 C 428 1767 443 1725 473 1697 C 503 1668 549 1654 611 1654 C 667 1654 714 1668 753 1696 C 792 1724 822 1764 844 1815 L 916 1822 C 902 1730 867 1654 811 1594 C 754 1534 681 1505 593 1505 C 513 1505 453 1525 412 1565 C 371 1605 351 1665 351 1743 C 351 1765 353 1789 357 1815 L 428 1822 Z M -24 1400 L -24 1400 Z" unicode="Ĭ" />
<glyph horiz-adv-x="661" d="M 109 896 C 228 926 325 942 400 942 C 444 942 479 934 504 918 C 529 902 542 878 542 845 C 542 831 540 817 538 804 L 407 174 C 403 156 402 144 402 136 C 402 109 413 91 435 83 C 457 75 497 71 557 71 L 551 24 C 437 -4 345 -18 275 -18 C 225 -18 187 -8 159 11 C 131 30 118 59 118 99 C 118 117 120 141 126 169 L 246 749 C 251 775 254 793 254 801 C 254 819 246 831 231 839 C 215 846 173 850 103 850 L 109 896 Z M 252 1399 C 252 1337 267 1289 297 1256 C 327 1222 370 1206 428 1206 C 484 1206 531 1222 569 1255 C 607 1287 636 1333 658 1392 L 734 1399 C 720 1297 684 1213 627 1147 C 570 1081 496 1049 405 1049 C 329 1049 271 1071 231 1116 C 190 1161 170 1227 170 1313 C 170 1337 172 1363 176 1392 L 252 1399 Z M -129 944 L -129 944 Z" unicode="ĭ" />
<glyph horiz-adv-x="796" d="M 514 315 C 506 275 499 238 493 206 C 487 173 482 143 478 117 C 476 100 485 89 506 83 L 628 48 L 620 -3 C 572 -1 524 0 474 0 C 425 -25 385 -61 354 -109 C 321 -159 305 -208 305 -256 C 305 -298 317 -331 343 -355 C 369 -379 405 -391 452 -391 C 474 -391 499 -388 529 -382 L 539 -434 C 425 -474 334 -495 268 -495 C 200 -495 147 -479 107 -448 C 67 -416 47 -374 47 -321 C 47 -205 135 -99 312 -4 L 312 0 C 211 0 109 -1 5 -3 L 9 48 L 144 85 C 162 90 174 100 178 116 C 184 142 190 171 196 205 C 202 238 210 275 218 315 L 371 1110 C 377 1144 383 1174 388 1202 C 392 1229 396 1254 400 1276 C 403 1294 397 1305 383 1310 L 252 1349 L 261 1400 C 317 1398 372 1397 424 1397 C 476 1396 526 1396 574 1396 C 622 1396 671 1396 721 1397 C 771 1397 823 1398 877 1400 L 870 1349 L 733 1312 C 716 1308 706 1297 702 1281 C 696 1257 690 1232 685 1204 C 679 1176 673 1146 667 1114 L 514 315 Z" unicode="Į" />
<glyph horiz-adv-x="661" d="M 109 896 C 228 926 325 942 400 942 C 444 942 479 934 504 918 C 529 902 542 878 542 845 C 542 831 540 817 538 804 L 407 174 C 403 156 402 144 402 136 C 402 109 413 91 435 83 C 457 75 497 71 557 71 L 551 24 C 490 8 436 -2 388 -9 C 345 -33 308 -68 278 -115 C 248 -161 233 -208 233 -256 C 233 -298 245 -331 271 -355 C 297 -379 333 -391 380 -391 C 402 -391 427 -388 457 -382 L 467 -434 C 353 -474 262 -495 196 -495 C 128 -495 75 -479 35 -448 C -5 -416 -25 -374 -25 -321 C -25 -208 58 -106 225 -14 C 153 -2 118 35 118 99 C 118 117 120 141 126 169 L 246 749 C 251 775 254 793 254 801 C 254 819 246 831 231 839 C 215 846 173 850 103 850 L 109 896 Z M 612 1294 C 612 1248 598 1211 570 1183 C 542 1155 507 1141 465 1141 C 424 1141 390 1154 364 1181 C 337 1207 324 1241 324 1283 C 324 1329 338 1366 366 1393 C 394 1420 429 1434 472 1434 C 512 1434 546 1421 572 1396 C 598 1371 612 1337 612 1294 Z" unicode="į" />
<glyph horiz-adv-x="796" d="M 514 315 C 506 275 499 238 493 206 C 487 173 482 143 478 117 C 476 100 485 89 506 83 L 628 48 L 620 -3 C 506 -1 404 0 312 0 C 213 0 111 -1 5 -3 L 9 48 L 144 85 C 162 90 174 100 178 116 C 184 142 190 171 196 205 C 202 238 210 275 218 315 L 371 1110 C 377 1144 383 1174 388 1202 C 392 1229 396 1254 400 1276 C 403 1294 397 1305 383 1310 L 252 1349 L 261 1400 C 317 1398 372 1397 424 1397 C 476 1396 526 1396 574 1396 C 622 1396 671 1396 721 1397 C 771 1397 823 1398 877 1400 L 870 1349 L 733 1312 C 716 1308 706 1297 702 1281 C 696 1257 690 1232 685 1204 C 679 1176 673 1146 667 1114 L 514 315 Z M 755 1661 C 755 1619 741 1584 714 1558 C 686 1532 652 1519 611 1519 C 570 1519 537 1531 511 1556 C 485 1580 472 1612 472 1651 C 472 1694 485 1728 513 1753 C 540 1778 575 1791 617 1791 C 657 1791 690 1779 716 1756 C 742 1733 755 1701 755 1661 Z M -24 1400 L -24 1400 Z" unicode="İ" />
<glyph horiz-adv-x="661" d="M 109 896 C 228 926 325 942 400 942 C 444 942 479 934 504 918 C 529 902 542 878 542 845 C 542 831 540 817 538 804 L 407 174 C 403 156 402 144 402 136 C 402 109 413 91 435 83 C 457 75 497 71 557 71 L 551 24 C 437 -4 345 -18 275 -18 C 225 -18 187 -8 159 11 C 131 30 118 59 118 99 C 118 117 120 141 126 169 L 246 749 C 251 775 254 793 254 801 C 254 819 246 831 231 839 C 215 846 173 850 103 850 L 109 896 Z" unicode="ı" />
<glyph horiz-adv-x="1537" d="M 514 315 C 506 275 499 238 493 206 C 487 173 482 143 478 117 C 476 100 485 89 506 83 L 628 48 L 620 -3 C 506 -1 404 0 312 0 C 213 0 111 -1 5 -3 L 9 48 L 144 85 C 162 90 174 100 178 116 C 184 142 190 171 196 205 C 202 238 210 275 218 315 L 371 1110 C 377 1144 383 1174 388 1202 C 392 1229 396 1254 400 1276 C 403 1294 397 1305 383 1310 L 252 1349 L 261 1400 C 317 1398 372 1397 424 1397 C 476 1396 526 1396 574 1396 C 622 1396 671 1396 721 1397 C 771 1397 823 1398 877 1400 L 870 1349 L 733 1312 C 716 1308 706 1297 702 1281 C 696 1257 690 1232 685 1204 C 679 1176 673 1146 667 1114 L 514 315 Z M 1041 1400 C 1097 1398 1151 1397 1202 1397 C 1252 1396 1300 1396 1345 1396 C 1395 1396 1446 1396 1498 1397 C 1549 1397 1602 1398 1656 1400 L 1650 1349 L 1513 1312 C 1496 1308 1485 1297 1481 1281 C 1475 1257 1470 1232 1464 1204 C 1458 1176 1453 1146 1447 1114 L 1282 241 C 1245 47 1182 -101 1093 -205 C 1004 -309 836 -385 589 -435 L 575 -371 C 711 -310 805 -240 856 -161 C 906 -82 945 28 973 172 L 1151 1110 C 1157 1144 1162 1174 1167 1202 C 1172 1229 1176 1254 1180 1276 C 1183 1293 1177 1304 1162 1310 L 1031 1349 L 1041 1400 Z" unicode="Ĳ" />
<glyph horiz-adv-x="1301" d="M 109 896 C 228 926 325 942 400 942 C 444 942 479 934 504 918 C 529 902 542 878 542 845 C 542 831 540 817 538 804 L 407 174 C 403 156 402 144 402 136 C 402 109 413 91 435 83 C 457 75 497 71 557 71 L 551 24 C 437 -4 345 -18 275 -18 C 225 -18 187 -8 159 11 C 131 30 118 59 118 99 C 118 117 120 141 126 169 L 246 749 C 251 775 254 793 254 801 C 254 819 246 831 231 839 C 215 846 173 850 103 850 L 109 896 Z M 612 1294 C 612 1248 598 1211 570 1183 C 542 1155 507 1141 465 1141 C 424 1141 390 1154 364 1181 C 337 1207 324 1241 324 1283 C 324 1329 338 1366 366 1393 C 394 1420 429 1434 472 1434 C 512 1434 546 1421 572 1396 C 598 1371 612 1337 612 1294 Z M 768 850 L 774 896 C 893 926 990 942 1065 942 C 1109 942 1144 934 1169 918 C 1194 902 1207 878 1207 845 C 1207 831 1205 817 1203 804 L 1062 123 C 1036 -1 985 -109 908 -201 C 831 -292 695 -395 500 -509 L 453 -454 C 592 -324 676 -224 705 -153 C 734 -81 759 2 779 100 L 911 749 C 916 775 919 793 919 801 C 919 819 911 831 896 839 C 880 846 838 850 768 850 Z M 1277 1294 C 1277 1248 1263 1211 1235 1183 C 1207 1155 1172 1141 1130 1141 C 1089 1141 1055 1154 1029 1181 C 1002 1207 989 1241 989 1283 C 989 1329 1003 1366 1031 1393 C 1059 1420 1094 1434 1137 1434 C 1177 1434 1211 1421 1237 1396 C 1263 1371 1277 1337 1277 1294 Z" unicode="ĳ" />
<glyph horiz-adv-x="741" d="M 245 1400 C 301 1398 355 1397 406 1397 C 456 1396 504 1396 549 1396 C 599 1396 650 1396 702 1397 C 753 1397 806 1398 860 1400 L 854 1349 L 717 1312 C 700 1308 689 1297 685 1281 C 679 1257 674 1232 668 1204 C 662 1176 657 1146 651 1114 L 486 241 C 449 47 386 -101 297 -205 C 208 -309 40 -385 -207 -435 L -221 -371 C -84 -310 9 -240 60 -161 C 110 -82 149 28 177 172 L 355 1110 C 361 1144 366 1174 371 1202 C 376 1229 380 1254 384 1276 C 387 1293 381 1304 366 1310 L 235 1349 L 245 1400 Z M 587 1622 L 246 1475 L 219 1527 L 521 1776 L 689 1776 L 931 1522 L 894 1475 L 587 1622 Z M -40 1400 L -40 1400 Z" unicode="Ĵ" />
<glyph horiz-adv-x="640" d="M 708 1044 L 620 1044 L 441 1268 L 192 1044 L 100 1044 L 364 1422 L 564 1422 L 708 1044 Z M 107 850 L 113 896 C 232 926 329 942 404 942 C 448 942 483 934 508 918 C 533 902 546 878 546 845 C 546 831 544 817 542 804 L 401 123 C 375 -1 324 -109 247 -201 C 170 -292 34 -395 -161 -509 L -208 -454 C -68 -324 15 -224 44 -153 C 73 -81 98 2 118 100 L 250 749 C 255 775 258 793 258 801 C 258 819 250 831 235 839 C 219 846 177 850 107 850 Z" unicode="ĵ" />
<glyph horiz-adv-x="1522" d="M 608 701 L 1092 1149 C 1136 1190 1169 1223 1191 1247 C 1212 1271 1223 1290 1223 1303 C 1223 1313 1216 1320 1202 1324 L 1123 1346 L 1131 1400 C 1200 1397 1276 1396 1359 1396 C 1443 1396 1521 1397 1592 1400 L 1586 1349 L 1483 1317 C 1455 1308 1428 1295 1402 1279 C 1376 1263 1343 1236 1303 1198 L 876 797 L 1214 191 C 1234 154 1253 127 1270 109 C 1287 91 1311 78 1342 70 L 1420 48 L 1413 -3 C 1334 -1 1253 0 1170 0 C 1108 0 1045 0 981 -2 C 973 22 959 56 937 101 C 915 145 885 201 848 269 L 608 701 Z M 514 315 C 506 275 499 238 493 206 C 487 173 482 143 478 117 C 476 100 485 89 506 83 L 618 48 L 610 -3 C 502 -1 403 0 312 0 C 213 0 111 -1 5 -3 L 9 48 L 144 85 C 162 89 174 100 178 116 C 184 142 190 171 196 205 C 202 238 210 275 218 315 L 371 1110 C 377 1144 383 1174 388 1202 C 392 1229 396 1254 400 1276 C 402 1294 397 1305 383 1310 L 252 1349 L 261 1400 C 368 1397 472 1396 574 1396 C 675 1396 773 1397 867 1400 L 860 1349 L 733 1312 C 716 1308 706 1297 702 1281 C 696 1257 690 1232 685 1204 C 679 1176 673 1146 667 1114 L 514 315 Z M 548 -461 C 620 -405 657 -350 657 -296 C 657 -250 632 -215 584 -189 C 584 -155 594 -129 614 -109 C 634 -89 660 -80 692 -80 C 725 -80 752 -92 773 -116 C 793 -140 804 -172 804 -210 C 804 -314 730 -411 584 -501 L 548 -461 Z" unicode="Ķ" />
<glyph horiz-adv-x="1182" d="M 198 1376 L 199 1419 C 375 1445 530 1474 664 1506 L 676 1494 C 664 1444 649 1379 633 1301 C 616 1223 598 1137 578 1045 L 364 5 L 85 -5 L 364 1352 L 198 1376 Z M 1115 -3 C 1027 -1 943 0 861 0 C 810 0 764 0 724 -2 C 699 68 667 144 628 224 C 588 304 540 393 484 491 C 598 592 689 677 756 747 C 822 817 868 874 894 919 C 914 918 942 918 976 918 C 1052 918 1130 919 1208 921 L 1203 871 C 1170 865 1140 859 1114 852 C 1087 845 1062 837 1039 828 C 1016 818 994 807 974 793 C 953 779 932 763 910 743 L 737 583 L 957 174 C 970 148 981 129 991 115 C 1001 101 1011 89 1022 81 C 1033 73 1046 66 1062 62 C 1077 57 1098 52 1124 46 L 1115 -3 Z M 358 -461 C 430 -405 467 -350 467 -296 C 467 -250 442 -215 394 -189 C 394 -155 404 -129 424 -109 C 444 -89 470 -80 502 -80 C 535 -80 562 -92 583 -116 C 603 -140 614 -172 614 -210 C 614 -314 540 -411 394 -501 L 358 -461 Z" unicode="ķ" />
<glyph horiz-adv-x="1193" d="M 376 5 L 95 -5 L 251 749 C 256 775 259 793 259 801 C 259 819 250 831 234 839 C 218 846 175 850 105 850 L 111 896 C 230 926 327 942 402 942 C 446 942 481 934 506 918 C 531 902 544 878 544 845 C 544 831 542 817 540 804 L 376 5 Z M 1126 -3 C 1038 -1 954 0 872 0 C 821 0 775 0 735 -2 C 710 68 678 144 639 224 C 599 304 551 393 495 491 C 609 592 700 677 767 747 C 833 817 879 874 905 919 C 925 918 953 918 987 918 C 1063 918 1141 919 1219 921 L 1214 871 C 1181 865 1151 859 1125 852 C 1098 845 1073 837 1050 828 C 1027 818 1005 807 985 793 C 964 779 943 763 921 743 L 748 583 L 968 174 C 981 148 992 129 1002 115 C 1012 101 1022 89 1033 81 C 1044 73 1057 66 1073 62 C 1088 57 1109 52 1135 46 L 1126 -3 Z" unicode="ĸ" />
<glyph horiz-adv-x="1176" d="M 666 1114 L 516 323 C 502 249 488 175 476 103 L 877 103 L 1060 390 L 1123 399 L 1032 4 L 1025 -3 C 873 -1 721 0 567 0 L 314 0 C 214 0 111 -1 4 -3 L 10 48 L 145 85 C 163 89 175 100 179 116 C 184 142 190 172 197 205 C 203 238 211 275 219 315 L 370 1110 C 376 1144 382 1174 387 1202 C 391 1229 395 1254 399 1276 C 402 1293 396 1304 382 1310 L 251 1349 L 260 1400 C 374 1397 479 1396 575 1396 C 669 1396 769 1397 876 1400 L 869 1349 L 732 1312 C 715 1308 705 1297 701 1281 C 695 1257 687 1223 679 1179 C 670 1134 666 1112 666 1114 Z M 864 1647 L 379 1473 L 348 1525 L 708 1800 L 864 1662 L 864 1647 Z M -24 1400 L -24 1400 Z" unicode="Ĺ" />
<glyph horiz-adv-x="653" d="M 189 1376 L 190 1419 C 367 1446 522 1475 655 1506 L 667 1494 C 661 1468 654 1439 647 1407 C 639 1375 631 1339 623 1301 C 615 1263 606 1222 597 1179 C 588 1135 579 1091 569 1045 L 390 172 C 387 159 386 146 386 133 C 386 111 394 96 412 86 C 430 76 473 71 543 71 L 537 24 C 421 -4 329 -18 261 -18 C 207 -18 166 -8 140 12 C 114 32 101 62 101 102 C 101 114 104 136 111 169 L 355 1352 L 189 1376 Z M 794 1700 L 309 1526 L 278 1578 L 638 1853 L 794 1715 L 794 1700 Z M -94 1453 L -94 1453 Z" unicode="ĺ" />
<glyph horiz-adv-x="1176" d="M 666 1114 L 516 323 C 502 249 488 175 476 103 L 877 103 L 1060 390 L 1123 399 L 1032 4 L 1025 -3 C 873 -1 721 0 567 0 L 314 0 C 214 0 111 -1 4 -3 L 10 48 L 145 85 C 163 89 175 100 179 116 C 184 142 190 172 197 205 C 203 238 211 275 219 315 L 370 1110 C 376 1144 382 1174 387 1202 C 391 1229 395 1254 399 1276 C 402 1293 396 1304 382 1310 L 251 1349 L 260 1400 C 374 1397 479 1396 575 1396 C 669 1396 769 1397 876 1400 L 869 1349 L 732 1312 C 715 1308 705 1297 701 1281 C 695 1257 687 1223 679 1179 C 670 1134 666 1112 666 1114 Z M 378 -461 C 450 -405 487 -350 487 -296 C 487 -250 462 -215 414 -189 C 414 -155 424 -129 444 -109 C 464 -89 490 -80 522 -80 C 555 -80 582 -92 603 -116 C 623 -140 634 -172 634 -210 C 634 -314 560 -411 414 -501 L 378 -461 Z" unicode="Ļ" />
<glyph horiz-adv-x="653" d="M 189 1376 L 190 1419 C 367 1446 522 1475 655 1506 L 667 1494 C 661 1468 654 1439 647 1407 C 639 1375 631 1339 623 1301 C 615 1263 606 1222 597 1179 C 588 1135 579 1091 569 1045 L 390 172 C 387 159 386 146 386 133 C 386 111 394 96 412 86 C 430 76 473 71 543 71 L 537 24 C 421 -4 329 -18 261 -18 C 207 -18 166 -8 140 12 C 114 32 101 62 101 102 C 101 114 104 136 111 169 L 355 1352 L 189 1376 Z M 88 -461 C 160 -405 197 -350 197 -296 C 197 -250 172 -215 124 -189 C 124 -155 134 -129 154 -109 C 174 -89 200 -80 232 -80 C 265 -80 292 -92 313 -116 C 333 -140 344 -172 344 -210 C 344 -314 270 -411 124 -501 L 88 -461 Z" unicode="ļ" />
<glyph horiz-adv-x="1176" d="M 666 1114 L 516 323 C 502 249 488 175 476 103 L 877 103 L 1060 390 L 1123 399 L 1032 4 L 1025 -3 C 873 -1 721 0 567 0 L 314 0 C 214 0 111 -1 4 -3 L 10 48 L 145 85 C 163 89 175 100 179 116 C 184 142 190 172 197 205 C 203 238 211 275 219 315 L 370 1110 C 376 1144 382 1174 387 1202 C 391 1229 395 1254 399 1276 C 402 1293 396 1304 382 1310 L 251 1349 L 260 1400 C 374 1397 479 1396 575 1396 C 669 1396 769 1397 876 1400 L 869 1349 L 732 1312 C 715 1308 705 1297 701 1281 C 695 1257 687 1223 679 1179 C 670 1134 666 1112 666 1114 Z M 927 940 C 1003 1014 1041 1087 1041 1159 C 1041 1217 1010 1263 948 1297 C 950 1333 962 1362 985 1383 C 1007 1404 1037 1415 1075 1415 C 1112 1415 1142 1401 1166 1375 C 1189 1349 1201 1314 1201 1271 C 1201 1143 1122 1019 964 899 L 927 940 Z" unicode="Ľ" />
<glyph horiz-adv-x="829" d="M 189 1376 L 190 1419 C 367 1446 522 1475 655 1506 L 667 1494 C 661 1468 654 1439 647 1407 C 639 1375 631 1339 623 1301 C 615 1263 606 1222 597 1179 C 588 1135 579 1091 569 1045 L 390 172 C 387 159 386 146 386 133 C 386 111 394 96 412 86 C 430 76 473 71 543 71 L 537 24 C 421 -4 329 -18 261 -18 C 207 -18 166 -8 140 12 C 114 32 101 62 101 102 C 101 114 104 136 111 169 L 355 1352 L 189 1376 Z M 715 1008 C 791 1082 829 1155 829 1227 C 829 1285 798 1331 736 1365 C 738 1401 750 1430 773 1451 C 795 1472 825 1483 863 1483 C 900 1483 930 1469 954 1443 C 977 1417 989 1382 989 1339 C 989 1211 910 1087 752 967 L 715 1008 Z" unicode="ľ" />
<glyph horiz-adv-x="1176" d="M 666 1114 L 516 323 C 502 249 488 175 476 103 L 877 103 L 1060 390 L 1123 399 L 1032 4 L 1025 -3 C 873 -1 721 0 567 0 L 314 0 C 214 0 111 -1 4 -3 L 10 48 L 145 85 C 163 89 175 100 179 116 C 184 142 190 172 197 205 C 203 238 211 275 219 315 L 370 1110 C 376 1144 382 1174 387 1202 C 391 1229 395 1254 399 1276 C 402 1293 396 1304 382 1310 L 251 1349 L 260 1400 C 374 1397 479 1396 575 1396 C 669 1396 769 1397 876 1400 L 869 1349 L 732 1312 C 715 1308 705 1297 701 1281 C 695 1257 687 1223 679 1179 C 670 1134 666 1112 666 1114 Z M 1178 756 C 1178 711 1164 675 1136 647 C 1108 619 1074 605 1033 605 C 992 605 958 618 932 644 C 906 670 893 704 893 746 C 893 792 906 828 934 855 C 962 881 997 895 1039 895 C 1079 895 1113 882 1139 858 C 1165 833 1178 799 1178 756 Z" unicode="Ŀ" />
<glyph horiz-adv-x="859" d="M 189 1376 L 190 1419 C 367 1446 522 1475 655 1506 L 667 1494 C 661 1468 654 1439 647 1407 C 639 1375 631 1339 623 1301 C 615 1263 606 1222 597 1179 C 588 1135 579 1091 569 1045 L 390 172 C 387 159 386 146 386 133 C 386 111 394 96 412 86 C 430 76 473 71 543 71 L 537 24 C 421 -4 329 -18 261 -18 C 207 -18 166 -8 140 12 C 114 32 101 62 101 102 C 101 114 104 136 111 169 L 355 1352 L 189 1376 Z M 937 743 C 937 698 923 662 895 634 C 867 606 833 592 792 592 C 751 592 717 605 691 631 C 665 657 652 691 652 733 C 652 779 665 815 693 842 C 721 868 756 882 798 882 C 838 882 872 869 898 845 C 924 820 937 786 937 743 Z" unicode="ŀ" />
<glyph horiz-adv-x="1176" d="M 666 1114 L 608 808 L 980 919 L 965 813 L 587 700 L 516 323 C 502 249 488 175 476 103 L 877 103 L 1060 390 L 1123 399 L 1032 4 L 1025 -3 C 873 -1 721 0 567 0 L 314 0 C 214 0 111 -1 4 -3 L 10 48 L 145 85 C 163 89 175 100 179 116 C 184 142 190 172 197 205 C 203 238 211 275 219 315 L 274 607 L 110 558 L 124 664 L 295 715 L 370 1110 C 376 1144 382 1174 387 1202 C 391 1229 395 1254 399 1276 C 402 1293 396 1304 382 1310 L 251 1349 L 260 1400 C 374 1397 479 1396 575 1396 C 669 1396 769 1397 876 1400 L 869 1349 L 732 1312 C 715 1308 705 1297 701 1281 C 695 1257 687 1223 679 1179 C 670 1134 666 1112 666 1114 Z" unicode="Ł" />
<glyph horiz-adv-x="653" d="M 34 720 L 237 779 L 355 1352 L 189 1376 L 190 1419 C 367 1446 522 1475 655 1506 L 667 1494 C 661 1468 654 1439 647 1407 C 639 1375 631 1339 623 1301 C 615 1263 606 1222 597 1179 C 588 1135 579 1091 569 1045 L 532 866 L 730 924 L 716 824 L 511 763 L 390 172 C 387 159 386 146 386 133 C 386 111 394 96 412 86 C 430 76 473 71 543 71 L 537 24 C 421 -4 329 -18 261 -18 C 207 -18 166 -8 140 12 C 114 32 101 62 101 102 C 101 114 104 136 111 169 L 216 675 L 19 617 L 34 720 Z" unicode="ł" />
<glyph horiz-adv-x="1474" d="M 230 1349 L 237 1400 C 283 1398 324 1397 360 1397 C 395 1396 425 1396 450 1396 C 466 1396 483 1396 499 1397 C 515 1397 531 1398 548 1400 L 1068 549 C 1086 513 1106 476 1128 438 L 1155 585 L 1255 1115 C 1261 1147 1267 1177 1272 1205 C 1277 1233 1281 1258 1285 1282 C 1287 1296 1280 1306 1265 1312 L 1143 1347 L 1151 1400 C 1197 1398 1238 1397 1275 1397 C 1312 1396 1345 1396 1374 1396 C 1404 1396 1437 1396 1474 1397 C 1510 1397 1552 1398 1598 1400 L 1593 1349 L 1449 1310 C 1433 1304 1423 1293 1419 1277 C 1413 1255 1408 1230 1402 1203 C 1396 1175 1390 1145 1384 1111 L 1173 0 L 1065 -11 L 512 893 C 494 923 474 960 452 1004 C 447 978 443 953 439 930 C 435 906 431 884 427 864 L 326 314 C 318 274 312 237 306 205 C 300 173 295 144 291 119 C 287 99 294 88 310 84 L 431 49 L 424 -3 C 334 -1 261 0 205 0 C 147 0 71 -1 -21 -3 L -17 47 L 125 84 C 143 89 153 99 157 115 C 163 142 169 172 176 205 C 182 237 189 274 197 314 L 345 1111 C 351 1145 356 1175 361 1203 C 366 1230 370 1255 374 1277 C 376 1293 370 1304 356 1310 L 230 1349 Z M 1208 1647 L 723 1473 L 692 1525 L 1052 1800 L 1208 1662 L 1208 1647 Z M 320 1400 L 320 1400 Z" unicode="Ń" />
<glyph horiz-adv-x="1267" d="M 95 -5 L 250 750 C 255 776 258 794 258 803 C 258 815 254 824 248 830 C 242 836 232 840 220 843 C 207 846 191 848 172 849 C 153 849 131 850 107 850 L 113 896 C 233 926 324 942 386 942 C 432 942 469 933 497 917 C 525 900 540 875 540 843 C 540 839 539 833 538 823 C 670 903 791 943 901 943 C 973 943 1030 923 1070 885 C 1110 847 1131 795 1131 730 C 1131 701 1127 670 1120 638 L 1020 164 C 1018 158 1017 153 1017 148 C 1016 143 1016 138 1016 134 C 1016 120 1019 109 1026 101 C 1032 93 1042 87 1055 83 C 1068 79 1084 77 1104 76 C 1123 75 1145 75 1170 75 L 1166 29 C 1066 -2 974 -18 891 -18 C 839 -18 799 -8 773 11 C 747 30 734 62 734 106 C 734 126 736 150 742 178 L 832 596 C 839 630 843 659 843 683 C 843 723 834 752 816 771 C 798 790 772 800 738 800 C 686 800 614 778 523 736 L 374 5 L 95 -5 Z M 823 1422 L 1080 1422 L 752 1044 L 668 1044 L 823 1422 Z M 200 944 L 200 944 Z" unicode="ń" />
<glyph horiz-adv-x="1474" d="M 230 1349 L 237 1400 C 283 1398 324 1397 360 1397 C 395 1396 425 1396 450 1396 C 466 1396 483 1396 499 1397 C 515 1397 531 1398 548 1400 L 1068 549 C 1086 513 1106 476 1128 438 L 1155 585 L 1255 1115 C 1261 1147 1267 1177 1272 1205 C 1277 1233 1281 1258 1285 1282 C 1287 1296 1280 1306 1265 1312 L 1143 1347 L 1151 1400 C 1197 1398 1238 1397 1275 1397 C 1312 1396 1345 1396 1374 1396 C 1404 1396 1437 1396 1474 1397 C 1510 1397 1552 1398 1598 1400 L 1593 1349 L 1449 1310 C 1433 1304 1423 1293 1419 1277 C 1413 1255 1408 1230 1402 1203 C 1396 1175 1390 1145 1384 1111 L 1173 0 L 1065 -11 L 512 893 C 494 923 474 960 452 1004 C 447 978 443 953 439 930 C 435 906 431 884 427 864 L 326 314 C 318 274 312 237 306 205 C 300 173 295 144 291 119 C 287 99 294 88 310 84 L 431 49 L 424 -3 C 334 -1 261 0 205 0 C 147 0 71 -1 -21 -3 L -17 47 L 125 84 C 143 89 153 99 157 115 C 163 142 169 172 176 205 C 182 237 189 274 197 314 L 345 1111 C 351 1145 356 1175 361 1203 C 366 1230 370 1255 374 1277 C 376 1293 370 1304 356 1310 L 230 1349 Z M 478 -461 C 550 -405 587 -350 587 -296 C 587 -250 562 -215 514 -189 C 514 -155 524 -129 544 -109 C 564 -89 590 -80 622 -80 C 655 -80 682 -92 703 -116 C 723 -140 734 -172 734 -210 C 734 -314 660 -411 514 -501 L 478 -461 Z" unicode="Ņ" />
<glyph horiz-adv-x="1267" d="M 95 -5 L 250 750 C 255 776 258 794 258 803 C 258 815 254 824 248 830 C 242 836 232 840 220 843 C 207 846 191 848 172 849 C 153 849 131 850 107 850 L 113 896 C 233 926 324 942 386 942 C 432 942 469 933 497 917 C 525 900 540 875 540 843 C 540 839 539 833 538 823 C 670 903 791 943 901 943 C 973 943 1030 923 1070 885 C 1110 847 1131 795 1131 730 C 1131 701 1127 670 1120 638 L 1020 164 C 1018 158 1017 153 1017 148 C 1016 143 1016 138 1016 134 C 1016 120 1019 109 1026 101 C 1032 93 1042 87 1055 83 C 1068 79 1084 77 1104 76 C 1123 75 1145 75 1170 75 L 1166 29 C 1066 -2 974 -18 891 -18 C 839 -18 799 -8 773 11 C 747 30 734 62 734 106 C 734 126 736 150 742 178 L 832 596 C 839 630 843 659 843 683 C 843 723 834 752 816 771 C 798 790 772 800 738 800 C 686 800 614 778 523 736 L 374 5 L 95 -5 Z M 383 -461 C 455 -405 492 -350 492 -296 C 492 -250 467 -215 419 -189 C 419 -155 429 -129 449 -109 C 469 -89 495 -80 527 -80 C 560 -80 587 -92 608 -116 C 628 -140 639 -172 639 -210 C 639 -314 565 -411 419 -501 L 383 -461 Z" unicode="ņ" />
<glyph horiz-adv-x="1474" d="M 230 1349 L 237 1400 C 283 1398 324 1397 360 1397 C 395 1396 425 1396 450 1396 C 466 1396 483 1396 499 1397 C 515 1397 531 1398 548 1400 L 1068 549 C 1086 513 1106 476 1128 438 L 1155 585 L 1255 1115 C 1261 1147 1267 1177 1272 1205 C 1277 1233 1281 1258 1285 1282 C 1287 1296 1280 1306 1265 1312 L 1143 1347 L 1151 1400 C 1197 1398 1238 1397 1275 1397 C 1312 1396 1345 1396 1374 1396 C 1404 1396 1437 1396 1474 1397 C 1510 1397 1552 1398 1598 1400 L 1593 1349 L 1449 1310 C 1433 1304 1423 1293 1419 1277 C 1413 1255 1408 1230 1402 1203 C 1396 1175 1390 1145 1384 1111 L 1173 0 L 1065 -11 L 512 893 C 494 923 474 960 452 1004 C 447 978 443 953 439 930 C 435 906 431 884 427 864 L 326 314 C 318 274 312 237 306 205 C 300 173 295 144 291 119 C 287 99 294 88 310 84 L 431 49 L 424 -3 C 334 -1 261 0 205 0 C 147 0 71 -1 -21 -3 L -17 47 L 125 84 C 143 89 153 99 157 115 C 163 142 169 172 176 205 C 182 237 189 274 197 314 L 345 1111 C 351 1145 356 1175 361 1203 C 366 1230 370 1255 374 1277 C 376 1293 370 1304 356 1310 L 230 1349 Z M 946 1652 L 1287 1799 L 1314 1747 L 1015 1498 L 847 1498 L 602 1752 L 639 1799 L 946 1652 Z M 320 1400 L 320 1400 Z" unicode="Ň" />
</font>
</defs>
</svg>
