<?xml version="1.0" encoding="utf-8" ?><svg version="1.1" xmlns = 'http://www.w3.org/2000/svg'><defs><font id='web' horiz-adv-x="1000">
<font-face font-family="web" descent="-424" cap-height="1280" units-per-em="2048" bbox="-461,-586,2753,2076" x-height="952" ascent="1393" />
<missing-glyph horiz-adv-x="1024" d="" /><glyph horiz-adv-x="467" d="" unicode=" " />
<glyph horiz-adv-x="623" d="M 504 143 C 504 87 486 44 450 14 C 414 -16 368 -31 311 -31 C 254 -31 207 -16 171 14 C 135 44 117 87 117 143 C 117 198 135 240 171 270 C 207 300 254 315 311 315 C 368 315 414 300 450 270 C 486 240 504 198 504 143 Z M 195 440 L 127 1335 L 498 1335 L 432 440 L 195 440 Z" unicode="!" />
<glyph horiz-adv-x="1024" d="M 276 815 L 74 815 L 309 1321 L 582 1247 L 276 815 Z M 705 815 L 502 815 L 737 1321 L 1012 1247 L 705 815 Z" unicode="&#x22;" />
<glyph horiz-adv-x="1274" d="M 295 723 L 72 723 L 72 950 L 356 950 L 453 1315 L 688 1315 L 590 950 L 879 950 L 977 1315 L 1210 1315 L 1112 950 L 1247 950 L 1247 723 L 1053 723 L 985 469 L 1206 469 L 1206 242 L 924 242 L 817 -152 L 584 -152 L 690 242 L 399 242 L 295 -152 L 59 -152 L 166 242 L 31 242 L 31 469 L 227 469 L 295 723 Z M 823 735 L 530 735 L 457 457 L 745 457 L 823 735 Z" unicode="#" />
<glyph horiz-adv-x="1024" d="M 557 1307 L 588 1497 L 729 1497 L 696 1290 C 743 1280 787 1268 829 1252 C 870 1236 908 1217 944 1196 L 883 938 C 849 958 812 977 773 994 C 734 1010 695 1024 655 1034 L 612 764 C 702 737 784 695 858 639 C 932 583 969 496 969 379 C 969 259 926 160 842 84 C 757 7 639 -31 487 -31 L 465 -31 L 430 -254 L 291 -254 L 328 -18 C 272 -9 218 4 168 22 C 118 40 73 61 35 86 L 92 346 C 132 322 175 301 222 281 C 269 261 317 246 367 236 L 414 530 C 330 556 249 598 171 654 C 93 710 55 798 55 920 C 55 1036 94 1130 172 1202 C 250 1273 362 1309 506 1309 C 515 1309 524 1308 532 1308 C 540 1308 549 1307 557 1307 Z M 479 805 L 518 1057 C 515 1057 512 1058 509 1058 C 505 1058 502 1059 500 1059 C 444 1059 402 1047 376 1025 C 349 1003 336 973 336 936 C 336 903 349 877 375 857 C 401 837 435 820 479 805 Z M 504 219 C 560 219 605 230 640 252 C 674 274 692 309 692 356 C 692 388 679 413 654 433 C 629 453 593 471 547 489 L 504 219 Z" unicode="$" />
<glyph horiz-adv-x="1704" d="M 756 973 C 756 867 723 780 659 714 C 595 647 507 614 395 614 C 283 614 195 647 132 714 C 68 780 37 867 37 973 C 37 1079 69 1164 134 1230 C 198 1296 286 1329 397 1329 C 509 1329 596 1295 660 1229 C 724 1163 756 1077 756 973 Z M 545 971 C 545 1031 531 1078 504 1113 C 476 1147 440 1165 395 1165 C 350 1165 314 1147 288 1113 C 261 1078 248 1031 248 971 C 248 911 261 865 288 831 C 315 797 351 780 397 780 C 441 780 476 797 504 832 C 531 866 545 913 545 971 Z M 1667 307 C 1667 200 1635 114 1571 48 C 1507 -18 1419 -51 1307 -51 C 1195 -51 1107 -17 1043 48 C 979 114 948 201 948 307 C 948 412 980 498 1045 564 C 1109 630 1197 664 1309 664 C 1421 664 1508 630 1572 564 C 1635 498 1667 412 1667 307 Z M 1456 305 C 1456 364 1442 411 1416 446 C 1389 480 1353 498 1309 498 C 1263 498 1226 480 1199 446 C 1172 411 1159 364 1159 305 C 1159 245 1172 198 1199 164 C 1226 130 1263 113 1309 113 C 1353 113 1389 130 1416 165 C 1442 199 1456 246 1456 305 Z M 1503 1309 L 442 -31 L 205 -31 L 1266 1309 L 1503 1309 Z" unicode="%" />
<glyph horiz-adv-x="1348" d="M 885 205 C 821 126 752 67 677 28 C 601 -11 527 -31 453 -31 C 332 -31 233 1 156 66 C 79 131 41 215 41 319 C 41 407 70 482 130 542 C 190 602 257 641 332 659 C 278 689 232 729 196 779 C 159 829 141 887 141 952 C 141 1038 177 1119 249 1195 C 321 1271 425 1309 561 1309 C 679 1309 776 1280 853 1222 C 930 1164 969 1089 969 997 C 969 925 943 865 893 817 C 843 768 786 734 723 715 C 746 703 774 684 807 658 C 839 632 870 606 899 580 L 1018 799 L 1352 799 L 1059 416 L 1366 33 L 1044 -25 L 885 205 Z M 762 362 C 714 413 665 457 615 495 C 565 533 517 560 473 578 C 431 553 397 524 371 490 C 345 456 332 419 332 381 C 332 327 350 285 386 255 C 422 224 465 209 516 209 C 564 209 609 222 650 250 C 690 278 728 315 762 362 Z M 582 786 C 614 808 642 832 664 859 C 686 885 698 919 698 961 C 698 1003 684 1037 657 1062 C 629 1087 595 1100 553 1100 C 512 1100 479 1086 454 1060 C 428 1033 416 1002 416 967 C 416 923 431 888 462 860 C 492 832 532 808 582 786 Z" unicode="&#x26;" />
<glyph horiz-adv-x="512" d="M 236 815 L 33 815 L 268 1321 L 541 1247 L 236 815 Z" unicode="'" />
<glyph horiz-adv-x="1024" d="M 797 -543 C 653 -466 515 -339 385 -162 C 255 15 190 229 190 481 C 190 731 255 946 385 1124 C 515 1302 653 1429 797 1505 L 963 1290 C 841 1216 732 1109 635 969 C 537 829 489 666 489 481 C 489 295 537 133 635 -6 C 732 -146 841 -253 963 -328 L 797 -543 Z" unicode="(" />
<glyph horiz-adv-x="1024" d="M 225 -543 L 61 -328 C 181 -253 290 -146 388 -6 C 486 133 535 295 535 481 C 535 666 486 829 388 969 C 290 1109 181 1216 61 1290 L 225 1505 C 369 1429 507 1302 638 1124 C 768 946 834 731 834 481 C 834 229 768 15 638 -162 C 507 -339 369 -466 225 -543 Z" unicode=")" />
<glyph horiz-adv-x="1024" d="M 485 831 L 283 573 L 127 786 L 436 901 L 436 920 L 131 1036 L 285 1249 L 485 989 L 502 995 L 524 1323 L 772 1241 L 584 967 L 596 954 L 907 1042 L 907 780 L 596 868 L 586 854 L 768 578 L 518 498 L 504 827 L 485 831 Z" unicode="*" />
<glyph horiz-adv-x="1024" d="M 983 371 L 639 371 L 639 23 L 387 23 L 387 371 L 43 371 L 49 608 L 387 608 L 387 956 L 639 956 L 639 608 L 977 608 L 983 371 Z" unicode="+" />
<glyph horiz-adv-x="512" d="M 20 162 C 26 216 50 261 91 296 C 131 330 181 348 240 348 C 311 348 370 321 416 269 C 462 216 485 155 485 86 C 485 -6 449 -87 378 -156 C 307 -225 227 -284 139 -332 L 0 -209 C 56 -169 104 -131 144 -95 C 184 -59 205 -25 205 8 C 205 35 191 60 165 84 C 139 107 90 133 20 162 Z" unicode="," />
<glyph horiz-adv-x="762" d="M 709 371 L 57 371 L 57 623 L 709 623 L 709 371 Z" unicode="-" />
<glyph horiz-adv-x="512" d="M 451 156 C 451 100 433 55 397 21 C 361 -13 315 -31 258 -31 C 200 -31 153 -13 117 21 C 81 55 63 100 63 156 C 63 212 81 257 117 291 C 153 325 200 342 258 342 C 315 342 361 325 397 291 C 433 257 451 212 451 156 Z" unicode="." />
<glyph horiz-adv-x="586" d="M 653 1438 L 156 -408 L -102 -408 L 395 1438 L 653 1438 Z" unicode="/" />
<glyph horiz-adv-x="1024" d="M 975 633 C 975 423 934 259 853 143 C 772 27 656 -31 506 -31 C 355 -31 241 26 164 141 C 87 256 49 419 49 629 C 49 839 89 1002 170 1118 C 250 1234 366 1292 516 1292 C 666 1292 780 1234 858 1119 C 936 1003 975 841 975 633 Z M 690 627 C 690 797 671 913 635 975 C 599 1036 556 1067 508 1067 C 460 1067 418 1037 384 977 C 349 917 332 802 332 631 C 332 463 350 349 387 289 C 424 229 467 199 516 199 C 564 199 605 228 639 288 C 673 348 690 461 690 627 Z" unicode="0" />
<glyph horiz-adv-x="1024" d="M 436 0 L 436 963 L 147 901 L 139 1161 L 750 1286 L 750 0 L 436 0 Z" unicode="1" />
<glyph horiz-adv-x="1024" d="M 948 0 L 68 0 L 61 219 C 249 397 386 530 473 616 C 560 702 604 788 604 874 C 604 920 588 958 556 989 C 524 1020 483 1036 432 1036 C 382 1036 333 1024 285 1002 C 237 979 193 951 154 918 L 57 1143 C 110 1183 174 1218 250 1248 C 325 1277 403 1292 485 1292 C 623 1292 728 1256 801 1184 C 874 1112 911 1025 911 922 C 911 812 869 708 785 612 C 701 516 576 396 408 254 L 942 254 L 948 0 Z" unicode="2" />
<glyph horiz-adv-x="1024" d="M 584 662 C 705 666 796 638 856 580 C 916 521 946 451 946 369 C 946 245 896 148 798 76 C 700 4 580 -31 438 -31 C 364 -31 296 -22 232 -6 C 168 9 110 29 59 53 L 102 287 C 149 267 202 249 261 233 C 320 217 376 209 428 209 C 493 209 549 222 597 248 C 644 274 668 313 668 367 C 668 410 646 447 604 478 C 562 509 496 524 408 522 C 372 522 336 520 302 516 C 267 512 236 508 209 504 L 209 717 C 334 741 432 767 504 796 C 576 824 612 866 612 922 C 612 956 598 985 572 1009 C 545 1032 503 1044 446 1044 C 396 1044 344 1034 290 1014 C 235 994 188 970 150 942 L 61 1167 C 114 1201 176 1231 247 1255 C 317 1279 394 1292 477 1292 C 600 1292 701 1265 779 1212 C 857 1158 897 1079 897 973 C 897 898 870 834 817 782 C 763 729 686 689 584 662 Z" unicode="3" />
<glyph horiz-adv-x="1024" d="M 999 299 L 848 299 L 848 0 L 582 0 L 582 299 L 51 299 L 37 506 L 494 1274 L 848 1274 L 848 532 L 993 532 L 999 299 Z M 590 522 L 590 1044 L 285 522 L 590 522 Z" unicode="4" />
<glyph horiz-adv-x="1024" d="M 381 770 C 393 772 409 774 430 776 C 450 778 471 780 492 780 C 632 780 741 745 820 677 C 898 608 938 518 938 406 C 938 279 896 174 812 92 C 728 10 606 -31 444 -31 C 386 -31 322 -24 252 -12 C 182 0 120 18 68 43 L 96 299 C 136 275 187 255 249 238 C 311 221 370 213 428 213 C 490 213 542 228 584 259 C 626 289 647 335 647 395 C 647 450 625 494 581 526 C 537 558 477 575 399 575 C 344 575 294 570 248 561 C 202 552 164 541 135 528 L 94 573 L 178 1268 L 911 1268 L 918 1018 L 412 1018 L 381 770 Z" unicode="5" />
<glyph horiz-adv-x="1024" d="M 47 530 C 47 718 111 886 241 1032 C 371 1178 552 1269 784 1305 L 850 1079 C 719 1055 608 1011 516 946 C 424 880 365 800 340 705 L 348 698 C 386 730 430 757 478 781 C 526 805 579 817 637 817 C 733 817 814 782 880 713 C 946 643 979 550 979 432 C 979 304 938 194 858 103 C 778 12 664 -33 516 -33 C 365 -33 249 20 168 128 C 87 236 47 370 47 530 Z M 340 438 C 340 374 355 317 386 268 C 417 219 463 195 524 195 C 574 195 614 213 646 251 C 678 289 694 340 694 406 C 694 464 678 510 648 544 C 617 578 576 596 524 596 C 489 596 455 588 423 572 C 390 556 365 539 348 522 C 345 508 343 494 342 480 C 340 466 340 452 340 438 Z" unicode="6" />
<glyph horiz-adv-x="1024" d="M 668 1016 L 61 1016 L 68 1268 L 958 1268 L 965 1044 L 436 0 L 152 0 L 668 1016 Z" unicode="7" />
<glyph horiz-adv-x="1024" d="M 987 354 C 987 248 947 157 868 82 C 788 6 668 -31 508 -31 C 367 -31 253 0 167 64 C 80 128 37 214 37 324 C 37 393 60 452 107 502 C 154 551 216 588 293 614 C 229 644 173 682 127 729 C 80 776 57 837 57 911 C 57 1020 95 1111 173 1184 C 251 1257 367 1294 522 1294 C 658 1294 766 1262 846 1198 C 926 1134 967 1048 967 940 C 967 874 946 818 904 771 C 862 723 806 687 735 662 C 802 631 861 592 911 544 C 961 496 987 432 987 354 Z M 705 342 C 705 392 682 436 637 473 C 591 510 533 539 461 561 C 415 536 380 506 358 470 C 335 434 324 398 324 360 C 324 310 341 268 375 234 C 409 199 458 182 520 182 C 580 182 625 196 657 224 C 689 252 705 292 705 342 Z M 688 918 C 688 969 672 1011 640 1043 C 608 1075 568 1092 518 1092 C 462 1092 419 1076 390 1045 C 360 1013 346 976 346 932 C 346 885 365 844 403 808 C 441 772 495 744 565 723 C 605 747 636 776 657 810 C 677 844 688 880 688 918 Z" unicode="8" />
<glyph horiz-adv-x="1024" d="M 977 731 C 977 543 912 377 782 231 C 652 85 472 -5 240 -41 L 172 184 C 303 207 414 251 506 317 C 598 382 657 462 684 557 L 676 563 C 637 532 593 504 545 480 C 496 456 443 444 385 444 C 290 444 210 479 144 549 C 78 619 45 712 45 829 C 45 959 85 1069 165 1159 C 245 1249 360 1294 508 1294 C 658 1294 774 1240 855 1133 C 936 1026 977 892 977 731 Z M 684 823 C 684 887 668 944 637 993 C 606 1042 560 1067 500 1067 C 448 1067 407 1048 376 1010 C 345 972 330 922 330 858 C 330 798 345 752 376 718 C 406 684 448 668 500 668 C 534 668 568 675 601 690 C 633 705 658 721 676 739 C 678 753 679 768 681 782 C 683 796 684 809 684 823 Z" unicode="9" />
<glyph horiz-adv-x="512" d="M 451 156 C 451 100 433 55 397 21 C 361 -13 315 -31 258 -31 C 200 -31 153 -13 117 21 C 81 55 63 100 63 156 C 63 212 81 257 117 291 C 153 325 200 342 258 342 C 315 342 361 325 397 291 C 433 257 451 212 451 156 Z M 451 733 C 451 678 433 633 397 599 C 361 564 315 547 258 547 C 200 547 153 564 117 599 C 81 633 63 678 63 733 C 63 788 81 833 117 868 C 153 902 200 920 258 920 C 315 920 361 902 397 868 C 433 833 451 788 451 733 Z" unicode=":" />
<glyph horiz-adv-x="512" d="M 20 162 C 26 216 50 261 91 296 C 131 330 181 348 240 348 C 311 348 370 321 416 269 C 462 216 485 155 485 86 C 485 -6 449 -87 378 -156 C 307 -225 227 -284 139 -332 L 0 -209 C 56 -169 104 -131 144 -95 C 184 -59 205 -25 205 8 C 205 35 191 60 165 84 C 139 107 90 133 20 162 Z M 451 733 C 451 678 433 633 397 599 C 361 564 315 547 258 547 C 200 547 153 564 117 599 C 81 633 63 678 63 733 C 63 788 81 833 117 868 C 153 902 200 920 258 920 C 315 920 361 902 397 868 C 433 833 451 788 451 733 Z" unicode=";" />
<glyph horiz-adv-x="1024" d="M 913 258 L 913 8 L 92 381 L 92 584 L 913 956 L 913 707 L 412 492 L 412 471 L 913 258 Z" unicode="&#x3C;" />
<glyph horiz-adv-x="1024" d="M 946 139 L 78 139 L 88 375 L 936 375 L 946 139 Z M 936 586 L 88 586 L 78 821 L 946 821 L 936 586 Z" unicode="=" />
<glyph horiz-adv-x="1024" d="M 918 381 L 96 8 L 96 258 L 598 471 L 598 492 L 96 707 L 96 956 L 918 584 L 918 381 Z" unicode="&#x3E;" />
<glyph horiz-adv-x="856" d="M 788 922 C 788 840 764 777 718 733 C 672 689 616 656 551 635 C 510 623 477 611 452 601 C 426 590 410 576 403 559 C 403 547 419 527 451 500 C 483 472 504 453 516 442 C 516 442 484 437 422 427 C 360 417 324 412 315 412 C 262 433 220 465 190 509 C 160 553 145 597 145 641 C 145 693 163 736 200 769 C 236 801 286 826 350 844 C 401 858 439 870 465 882 C 491 894 504 913 504 940 C 504 973 485 999 449 1018 C 412 1037 363 1047 301 1047 C 268 1047 231 1043 191 1035 C 150 1027 116 1018 90 1008 L 102 1272 C 130 1283 162 1292 199 1300 C 236 1307 278 1311 326 1311 C 462 1311 573 1273 659 1198 C 745 1122 788 1030 788 922 Z M 561 143 C 561 87 543 44 507 14 C 471 -16 425 -31 367 -31 C 309 -31 263 -16 227 14 C 191 44 174 87 174 143 C 174 198 191 240 227 270 C 263 300 309 315 367 315 C 425 315 471 300 507 270 C 543 240 561 198 561 143 Z" unicode="?" />
<glyph horiz-adv-x="1755" d="M 1223 408 C 1209 341 1212 291 1230 259 C 1248 227 1284 211 1339 211 C 1403 211 1464 247 1520 320 C 1576 392 1604 496 1604 631 C 1604 818 1533 968 1392 1081 C 1251 1194 1094 1251 920 1251 C 716 1251 542 1175 400 1025 C 257 875 186 699 186 498 C 186 306 249 141 375 5 C 501 -130 661 -199 856 -199 C 900 -199 944 -195 988 -187 C 1031 -179 1074 -169 1116 -156 L 1141 -233 C 1093 -249 1045 -262 999 -270 C 953 -278 904 -283 852 -283 C 632 -283 451 -207 308 -56 C 165 94 94 278 94 496 C 94 722 174 918 334 1084 C 494 1250 689 1333 920 1333 C 1125 1333 1306 1269 1463 1143 C 1619 1016 1698 845 1698 631 C 1698 447 1652 309 1562 216 C 1472 122 1369 76 1255 76 C 1187 76 1129 90 1081 119 C 1033 148 1000 190 981 246 C 946 204 907 172 863 152 C 819 131 777 121 735 121 C 655 121 588 151 533 213 C 478 274 451 357 451 461 C 451 597 492 710 574 798 C 656 886 760 930 885 930 C 911 930 938 926 968 918 C 998 910 1026 900 1053 889 L 1327 932 L 1223 408 Z M 963 360 L 1030 690 C 1014 705 996 718 974 730 C 952 742 928 748 901 748 C 841 748 794 720 758 665 C 722 609 705 548 705 481 C 705 428 718 386 744 356 C 770 326 802 311 840 311 C 866 311 888 316 908 326 C 928 336 946 347 963 360 Z" unicode="@" />
<glyph horiz-adv-x="1317" d="M 866 1280 L 1313 0 L 989 0 L 895 272 L 420 272 L 328 0 L 4 0 L 459 1280 L 866 1280 Z M 823 526 L 659 1028 L 489 526 L 823 526 Z" unicode="A" />
<glyph horiz-adv-x="1270" d="M 934 670 C 1015 654 1081 620 1133 568 C 1184 516 1210 451 1210 373 C 1210 271 1174 183 1104 110 C 1033 36 896 0 692 0 L 133 0 L 133 1280 L 688 1280 C 877 1280 1005 1247 1071 1183 C 1137 1119 1171 1040 1171 946 C 1171 874 1149 815 1107 769 C 1065 723 1007 690 934 670 Z M 883 391 C 883 445 862 483 821 505 C 780 527 725 539 657 539 L 449 539 L 449 244 L 668 244 C 741 244 795 256 830 280 C 865 304 883 341 883 391 Z M 846 893 C 846 939 829 975 797 999 C 765 1023 718 1036 657 1036 L 449 1036 L 449 741 L 641 741 C 708 741 759 754 794 781 C 828 807 846 845 846 893 Z" unicode="B" />
<glyph horiz-adv-x="1255" d="M 1194 1214 L 1096 942 C 1048 970 996 993 941 1009 C 885 1025 829 1034 772 1034 C 662 1034 573 998 507 928 C 441 858 408 763 408 643 C 408 521 440 425 504 353 C 568 281 658 246 774 246 C 836 246 895 255 953 274 C 1011 293 1064 318 1112 350 L 1180 61 C 1130 33 1066 11 988 -5 C 910 -22 834 -31 760 -31 C 556 -31 391 26 267 141 C 142 256 80 421 80 635 C 80 841 142 1005 267 1127 C 392 1249 560 1311 770 1311 C 847 1311 922 1302 996 1284 C 1070 1266 1136 1242 1194 1214 Z" unicode="C" />
<glyph horiz-adv-x="1395" d="M 1321 649 C 1321 453 1257 296 1131 178 C 1005 59 825 0 592 0 L 133 0 L 133 1280 L 614 1280 C 838 1280 1012 1222 1136 1106 C 1259 990 1321 838 1321 649 Z M 993 637 C 993 768 959 865 893 927 C 826 989 726 1020 594 1020 L 459 1020 L 459 260 L 610 260 C 727 260 820 291 889 353 C 958 415 993 509 993 637 Z" unicode="D" />
<glyph horiz-adv-x="1157" d="M 1069 0 L 133 0 L 133 1280 L 1069 1280 L 1069 1018 L 453 1018 L 453 772 L 948 772 L 948 512 L 453 512 L 453 262 L 1069 262 L 1069 0 Z" unicode="E" />
<glyph horiz-adv-x="1108" d="M 133 0 L 133 1280 L 1049 1280 L 1049 1012 L 455 1012 L 455 748 L 928 748 L 928 481 L 455 481 L 455 0 L 133 0 Z" unicode="F" />
<glyph horiz-adv-x="1378" d="M 1276 88 C 1206 50 1127 21 1039 0 C 951 -20 860 -31 768 -31 C 564 -31 398 27 271 144 C 143 261 80 425 80 635 C 80 843 142 1008 268 1129 C 394 1250 561 1311 770 1311 C 851 1311 936 1301 1026 1283 C 1115 1264 1190 1236 1251 1200 L 1149 928 C 1089 962 1027 989 965 1007 C 903 1025 841 1034 780 1034 C 666 1034 574 998 506 927 C 437 855 403 761 403 643 C 403 515 434 416 498 344 C 562 272 654 236 776 236 C 812 236 849 239 886 247 C 922 254 954 263 981 274 L 981 463 L 666 463 L 666 721 L 1276 721 L 1276 88 Z" unicode="G" />
<glyph horiz-adv-x="1432" d="M 1298 0 L 973 0 L 973 508 L 459 508 L 459 0 L 133 0 L 133 1280 L 459 1280 L 459 782 L 973 782 L 973 1280 L 1298 1280 L 1298 0 Z" unicode="H" />
<glyph horiz-adv-x="598" d="M 461 0 L 135 0 L 135 1280 L 461 1280 L 461 0 Z" unicode="I" />
<glyph horiz-adv-x="965" d="M 842 451 C 842 299 804 181 730 96 C 655 11 539 -31 383 -31 C 313 -31 246 -22 181 -5 C 116 12 62 33 18 57 L 84 319 C 126 295 168 275 210 261 C 251 247 292 240 332 240 C 398 240 445 258 473 295 C 501 332 516 392 516 475 L 516 1280 L 842 1280 L 842 451 Z" unicode="J" />
<glyph horiz-adv-x="1280" d="M 459 715 L 461 715 L 887 1280 L 1260 1280 L 754 655 L 1272 0 L 883 0 L 461 563 L 459 563 L 459 0 L 133 0 L 133 1280 L 459 1280 L 459 715 Z" unicode="K" />
<glyph horiz-adv-x="1065" d="M 995 0 L 133 0 L 133 1280 L 459 1280 L 459 272 L 995 272 L 995 0 Z" unicode="L" />
<glyph horiz-adv-x="1743" d="M 1329 0 L 1323 987 L 1042 20 L 694 20 L 414 985 L 406 0 L 102 0 L 147 1280 L 608 1280 L 874 319 L 1141 1280 L 1595 1280 L 1638 0 L 1329 0 Z" unicode="M" />
<glyph horiz-adv-x="1456" d="M 1018 449 L 1018 1280 L 1323 1280 L 1323 -12 L 977 -12 L 438 829 L 438 0 L 133 0 L 133 1280 L 485 1280 L 1018 449 Z" unicode="N" />
<glyph horiz-adv-x="1501" d="M 1421 645 C 1421 443 1356 280 1226 156 C 1096 31 937 -31 748 -31 C 559 -31 400 26 272 141 C 144 256 80 421 80 637 C 80 839 144 1001 273 1125 C 402 1249 562 1311 752 1311 C 941 1311 1100 1253 1228 1139 C 1356 1025 1421 860 1421 645 Z M 1094 637 C 1094 759 1063 858 1002 934 C 940 1010 856 1049 748 1049 C 640 1049 556 1011 497 936 C 437 861 408 764 408 645 C 408 523 438 423 499 346 C 559 269 644 231 754 231 C 860 231 944 268 1004 344 C 1064 420 1094 517 1094 637 Z" unicode="O" />
<glyph horiz-adv-x="1217" d="M 1153 836 C 1153 686 1103 572 1005 492 C 906 412 766 373 584 373 L 459 371 L 459 0 L 133 0 L 133 1280 L 606 1280 C 784 1280 920 1238 1013 1156 C 1106 1074 1153 967 1153 836 Z M 829 827 C 829 891 808 940 766 973 C 724 1005 663 1022 582 1022 L 451 1022 L 451 623 L 582 625 C 665 625 727 643 768 678 C 808 713 829 763 829 827 Z" unicode="P" />
<glyph horiz-adv-x="1501" d="M 1118 84 L 1470 -68 L 1341 -332 L 774 -29 C 770 -29 765 -30 761 -30 C 757 -30 752 -31 748 -31 C 559 -31 400 26 272 141 C 144 256 80 421 80 637 C 80 839 144 1001 273 1125 C 402 1249 562 1311 752 1311 C 941 1311 1100 1253 1228 1139 C 1356 1025 1421 860 1421 645 C 1421 519 1393 408 1338 311 C 1283 214 1210 138 1118 84 Z M 1094 637 C 1094 759 1063 858 1002 934 C 940 1010 856 1049 748 1049 C 640 1049 556 1011 497 936 C 437 861 408 764 408 645 C 408 523 438 422 499 344 C 559 266 644 227 754 227 C 862 227 945 264 1005 340 C 1064 416 1094 515 1094 637 Z" unicode="Q" />
<glyph horiz-adv-x="1264" d="M 459 418 L 459 0 L 133 0 L 133 1280 L 647 1280 C 816 1280 945 1243 1033 1169 C 1121 1095 1165 997 1165 874 C 1165 788 1142 714 1098 650 C 1054 586 989 538 903 506 L 1231 0 L 864 0 L 608 430 L 459 418 Z M 453 659 L 616 664 C 685 668 738 686 775 716 C 812 746 831 792 831 854 C 831 910 811 952 771 980 C 731 1008 671 1022 590 1022 L 453 1022 L 453 659 Z" unicode="R" />
<glyph horiz-adv-x="1155" d="M 559 238 C 616 238 663 248 699 269 C 735 289 754 319 754 358 C 754 401 731 433 686 454 C 640 474 576 496 492 520 C 398 545 306 585 216 640 C 125 694 80 785 80 913 C 80 1031 122 1127 207 1200 C 291 1272 413 1309 571 1309 C 671 1309 760 1298 840 1277 C 919 1256 989 1229 1051 1196 L 987 928 C 923 961 854 988 780 1009 C 705 1029 636 1040 573 1040 C 517 1040 475 1030 447 1012 C 419 993 406 966 406 932 C 406 890 431 858 483 836 C 535 814 599 793 676 772 C 774 745 865 704 950 649 C 1034 594 1077 506 1077 385 C 1077 263 1031 164 940 86 C 849 8 720 -31 553 -31 C 458 -31 367 -19 279 2 C 191 24 118 52 59 86 L 121 356 C 184 322 253 294 328 272 C 403 249 480 238 559 238 Z" unicode="S" />
<glyph horiz-adv-x="1233" d="M 1186 1008 L 778 1008 L 778 0 L 453 0 L 453 1008 L 45 1008 L 45 1280 L 1186 1280 L 1186 1008 Z" unicode="T" />
<glyph horiz-adv-x="1376" d="M 1253 522 C 1253 338 1201 199 1099 107 C 996 15 859 -31 688 -31 C 522 -31 386 11 282 97 C 177 182 125 314 125 494 L 125 1280 L 449 1280 L 449 537 C 449 441 469 368 509 318 C 549 268 611 244 696 244 C 772 244 830 266 870 310 C 910 354 930 425 930 524 L 930 1280 L 1253 1280 L 1253 522 Z" unicode="U" />
<glyph horiz-adv-x="1298" d="M 1290 1280 L 850 0 L 442 0 L 10 1280 L 346 1280 L 649 315 L 950 1280 L 1290 1280 Z" unicode="V" />
<glyph horiz-adv-x="1956" d="M 979 911 L 727 0 L 389 0 L 47 1280 L 395 1280 L 567 375 L 797 1280 L 1169 1280 L 1403 375 L 1575 1280 L 1909 1280 L 1567 0 L 1227 0 L 979 911 Z" unicode="W" />
<glyph horiz-adv-x="1321" d="M 655 436 L 379 0 L 23 0 L 463 641 L 35 1280 L 401 1280 L 659 864 L 924 1280 L 1286 1280 L 854 653 L 1298 0 L 928 0 L 655 436 Z" unicode="X" />
<glyph horiz-adv-x="1251" d="M 1231 1280 L 786 485 L 786 0 L 467 0 L 467 487 L 20 1280 L 367 1280 L 631 774 L 887 1280 L 1231 1280 Z" unicode="Y" />
<glyph horiz-adv-x="1188" d="M 1110 0 L 63 0 L 63 215 L 702 1008 L 76 1008 L 76 1280 L 1112 1280 L 1112 1063 L 475 274 L 1110 274 L 1110 0 Z" unicode="Z" />
<glyph horiz-adv-x="1024" d="M 922 -420 L 225 -420 L 225 1417 L 922 1417 L 922 1184 L 506 1184 L 506 -188 L 922 -188 L 922 -420 Z" unicode="[" />
<glyph horiz-adv-x="598" d="M -53 1438 L 205 1438 L 702 -408 L 444 -408 L -53 1438 Z" unicode="\" />
<glyph horiz-adv-x="1024" d="M 100 -420 L 100 -188 L 516 -188 L 516 1184 L 100 1184 L 100 1417 L 799 1417 L 799 -420 L 100 -420 Z" unicode="]" />
<glyph horiz-adv-x="815" d="M 797 1079 L 582 1079 L 412 1298 L 408 1298 L 242 1079 L 23 1079 L 266 1462 L 553 1462 L 797 1079 Z" unicode="^" />
<glyph horiz-adv-x="1112" d="M 1128 -240 L -16 -240 L -16 0 L 1128 0 L 1128 -240 Z" unicode="_" />
<glyph horiz-adv-x="813" d="M 602 1079 L 406 1079 L 59 1458 L 399 1458 L 602 1079 Z" unicode="`" />
<glyph horiz-adv-x="1047" d="M 633 115 L 627 115 C 593 75 555 40 513 12 C 471 -16 417 -31 352 -31 C 270 -31 201 -5 145 46 C 89 97 61 159 61 233 C 61 323 101 400 183 465 C 264 529 411 565 625 571 L 625 590 C 625 640 611 676 584 700 C 557 723 515 735 457 735 C 407 735 355 725 299 707 C 243 689 188 666 133 639 L 68 870 C 117 896 180 922 256 946 C 332 970 416 983 506 983 C 670 983 783 946 847 874 C 911 802 942 699 940 567 L 938 285 C 938 252 942 231 952 223 C 962 215 983 209 1016 207 L 985 -18 C 882 -31 803 -25 748 0 C 692 24 654 63 633 115 Z M 625 242 L 625 424 C 527 412 458 396 418 375 C 378 353 358 322 358 281 C 358 250 369 225 391 206 C 413 187 442 178 477 178 C 509 178 537 184 562 196 C 587 208 608 223 625 242 Z" unicode="a" />
<glyph horiz-adv-x="1161" d="M 1102 487 C 1102 330 1054 205 959 111 C 864 17 753 -29 625 -29 C 593 -29 556 -25 516 -18 C 475 -10 440 -1 410 10 L 113 -31 L 113 1354 L 428 1393 L 428 854 C 457 884 494 913 539 941 C 583 969 636 983 696 983 C 813 983 910 938 987 848 C 1063 758 1102 638 1102 487 Z M 786 471 C 786 552 769 616 735 662 C 701 708 652 731 588 731 C 553 731 523 725 498 713 C 472 701 449 685 428 666 L 428 246 C 446 233 468 223 492 217 C 516 210 543 207 573 207 C 640 207 692 231 730 280 C 767 328 786 392 786 471 Z" unicode="b" />
<glyph horiz-adv-x="991" d="M 928 47 C 888 22 837 3 775 -10 C 713 -24 648 -31 580 -31 C 422 -31 297 12 203 98 C 109 184 63 308 63 469 C 63 625 110 750 206 843 C 301 936 428 983 588 983 C 654 983 717 975 778 961 C 839 947 891 927 934 903 L 872 666 C 834 687 793 704 749 718 C 705 732 662 739 621 739 C 545 739 486 714 446 666 C 405 618 385 555 385 479 C 385 394 407 329 452 283 C 496 237 555 215 629 215 C 677 215 721 221 763 234 C 805 246 844 264 881 287 L 928 47 Z" unicode="c" />
<glyph horiz-adv-x="1167" d="M 737 948 L 737 1354 L 1053 1393 L 1053 0 L 737 0 L 737 98 C 707 67 670 38 626 11 C 582 -15 530 -29 471 -29 C 353 -29 256 15 179 105 C 101 195 63 315 63 465 C 63 621 110 746 206 840 C 302 934 413 981 541 981 C 575 981 609 978 643 972 C 676 966 707 958 737 948 Z M 737 707 C 719 719 698 728 673 736 C 648 744 621 748 592 748 C 526 748 474 723 436 673 C 398 623 379 559 379 481 C 379 401 397 338 434 292 C 471 246 519 223 578 223 C 612 223 642 228 668 240 C 694 252 717 268 737 289 L 737 707 Z" unicode="d" />
<glyph horiz-adv-x="1061" d="M 371 406 L 371 401 C 375 338 399 289 443 254 C 486 218 546 201 623 201 C 675 201 727 209 781 226 C 835 243 886 265 934 293 L 965 49 C 917 24 860 5 794 -8 C 728 -22 662 -29 594 -29 C 432 -29 303 14 206 101 C 109 188 61 311 61 469 C 61 623 109 748 206 842 C 302 936 426 983 578 983 C 712 983 815 946 887 872 C 959 798 995 702 995 584 C 995 558 993 528 989 495 C 985 462 981 436 975 416 L 371 406 Z M 373 563 L 702 565 L 702 584 C 702 640 690 684 666 717 C 642 749 605 766 557 766 C 503 766 460 745 428 705 C 396 664 377 617 373 563 Z" unicode="e" />
<glyph horiz-adv-x="760" d="M 797 1378 C 797 1377 787 1333 767 1247 C 747 1160 737 1117 737 1118 C 713 1127 688 1135 663 1143 C 637 1151 609 1155 578 1155 C 536 1155 507 1143 491 1120 C 475 1096 467 1062 467 1016 L 467 940 L 733 940 L 727 692 L 481 692 L 481 0 L 166 0 L 166 690 L 2 702 L 10 903 L 164 948 L 166 1030 C 170 1167 203 1267 266 1330 C 328 1393 419 1425 539 1425 C 597 1425 648 1419 692 1409 C 736 1399 771 1388 797 1378 Z" unicode="f" />
<glyph horiz-adv-x="1081" d="M 223 -63 C 181 -51 143 -30 109 -1 C 74 28 57 65 57 109 C 57 153 75 195 112 235 C 149 275 196 303 254 319 C 198 345 151 384 115 436 C 79 488 61 547 61 614 C 61 717 101 804 182 876 C 262 947 373 983 514 983 C 570 983 623 975 674 961 C 725 947 769 931 805 915 L 1073 938 L 1087 682 L 903 711 C 911 701 917 686 922 664 C 927 642 930 622 930 606 C 930 510 890 429 812 362 C 734 295 634 262 512 262 C 490 262 470 263 450 266 C 430 268 408 272 385 276 C 371 269 359 260 347 248 C 335 236 330 223 330 207 C 330 185 343 170 370 161 C 397 151 442 147 504 147 L 616 147 C 746 147 852 127 934 88 C 1016 49 1057 -20 1057 -121 C 1057 -239 996 -333 875 -405 C 753 -476 615 -512 461 -512 C 333 -512 224 -491 133 -451 C 41 -410 -4 -348 -4 -264 C -4 -217 15 -174 53 -135 C 91 -96 147 -72 223 -63 Z M 348 -98 C 326 -108 308 -122 294 -140 C 279 -157 272 -178 272 -203 C 272 -239 293 -269 337 -293 C 381 -316 439 -328 512 -328 C 588 -328 652 -316 704 -294 C 756 -271 782 -239 782 -199 C 782 -161 761 -135 721 -123 C 680 -110 619 -104 537 -104 C 507 -104 472 -103 433 -102 C 393 -100 365 -99 348 -98 Z M 362 612 C 362 562 374 521 399 490 C 424 459 462 444 512 444 C 560 444 595 460 617 492 C 639 524 651 567 651 621 C 651 670 639 710 615 741 C 591 772 554 788 506 788 C 461 788 426 772 400 740 C 374 708 362 665 362 612 Z" unicode="g" />
<glyph horiz-adv-x="1157" d="M 1051 0 L 735 0 L 735 563 C 735 620 723 660 699 682 C 675 704 644 715 604 715 C 567 715 534 707 504 693 C 474 678 448 661 428 643 L 428 0 L 113 0 L 113 1354 L 428 1393 L 428 821 C 470 869 518 908 573 938 C 628 968 687 983 750 983 C 843 983 916 953 970 895 C 1024 836 1051 756 1051 655 L 1051 0 Z" unicode="h" />
<glyph horiz-adv-x="541" d="M 457 1255 C 457 1201 440 1159 407 1130 C 373 1101 328 1087 270 1087 C 213 1087 168 1101 134 1130 C 100 1159 84 1201 84 1255 C 84 1310 100 1352 134 1381 C 168 1410 213 1425 270 1425 C 328 1425 373 1410 407 1381 C 440 1352 457 1310 457 1255 Z M 428 0 L 113 0 L 113 936 L 428 975 L 428 0 Z" unicode="i" />
<glyph horiz-adv-x="539" d="M 457 1255 C 457 1201 440 1159 407 1130 C 373 1101 328 1087 270 1087 C 213 1087 168 1101 134 1130 C 100 1159 84 1201 84 1255 C 84 1310 100 1352 134 1381 C 168 1410 213 1425 270 1425 C 328 1425 373 1410 407 1381 C 440 1352 457 1310 457 1255 Z M 125 -496 L -55 -283 C 3 -255 45 -218 72 -174 C 99 -130 113 -57 113 43 L 113 936 L 428 975 L 428 23 C 428 -117 405 -228 360 -312 C 314 -396 236 -457 125 -496 Z" unicode="j" />
<glyph horiz-adv-x="1090" d="M 430 446 L 428 446 L 428 0 L 113 0 L 113 1354 L 428 1393 L 428 543 L 430 543 L 721 952 L 1083 952 L 733 500 L 1085 0 L 727 0 L 430 446 Z" unicode="k" />
<glyph horiz-adv-x="541" d="M 428 0 L 113 0 L 113 1354 L 428 1393 L 428 0 Z" unicode="l" />
<glyph horiz-adv-x="1735" d="M 428 657 L 428 0 L 113 0 L 113 936 L 428 975 L 428 842 C 470 884 515 918 564 944 C 613 970 669 983 731 983 C 790 983 844 968 893 939 C 941 910 977 868 999 813 C 1043 863 1093 904 1149 936 C 1205 967 1265 983 1329 983 C 1421 983 1493 953 1546 894 C 1599 835 1626 755 1626 653 L 1626 0 L 1311 0 L 1311 561 C 1311 618 1299 658 1276 681 C 1252 703 1221 715 1182 715 C 1150 715 1121 708 1095 696 C 1069 684 1046 669 1028 653 L 1028 0 L 713 0 L 713 561 C 713 618 701 658 677 681 C 653 703 621 715 582 715 C 550 715 521 709 495 698 C 469 687 447 673 428 657 Z" unicode="m" />
<glyph horiz-adv-x="1157" d="M 1051 0 L 735 0 L 735 563 C 735 620 723 660 699 682 C 675 704 642 715 600 715 C 565 715 533 707 503 693 C 473 678 448 661 428 643 L 428 0 L 113 0 L 113 936 L 428 975 L 428 819 C 470 867 518 906 573 937 C 628 967 686 983 748 983 C 842 983 916 953 970 895 C 1024 836 1051 756 1051 655 L 1051 0 Z" unicode="n" />
<glyph horiz-adv-x="1145" d="M 1083 479 C 1083 320 1032 195 931 105 C 830 14 709 -31 567 -31 C 424 -31 304 12 207 100 C 109 188 61 312 61 473 C 61 634 111 759 212 849 C 313 938 436 983 580 983 C 722 983 842 938 938 850 C 1034 762 1083 638 1083 479 Z M 770 477 C 770 556 753 620 719 669 C 685 718 635 743 571 743 C 507 743 458 718 425 670 C 391 621 375 556 375 475 C 375 394 392 330 426 282 C 460 234 509 211 573 211 C 637 211 686 235 720 283 C 753 331 770 395 770 477 Z" unicode="o" />
<glyph horiz-adv-x="1167" d="M 428 854 C 457 884 494 913 538 941 C 582 969 634 983 694 983 C 811 983 908 938 986 848 C 1063 758 1102 638 1102 487 C 1102 330 1054 205 959 111 C 864 17 753 -29 625 -29 C 593 -29 559 -26 524 -20 C 489 -14 457 -7 428 2 L 428 -424 L 113 -424 L 113 936 L 428 975 L 428 854 Z M 428 666 L 428 246 C 446 233 468 223 492 217 C 516 210 543 207 573 207 C 640 207 692 231 730 280 C 767 328 786 392 786 471 C 786 552 769 616 735 662 C 701 708 652 731 588 731 C 553 731 523 725 498 713 C 472 701 449 685 428 666 Z" unicode="p" />
<glyph horiz-adv-x="1167" d="M 1053 -424 L 737 -424 L 737 98 C 707 67 670 38 626 11 C 582 -15 530 -29 471 -29 C 353 -29 256 15 179 105 C 101 195 63 315 63 465 C 63 621 110 746 206 840 C 302 934 413 981 541 981 C 578 981 619 976 663 967 C 707 958 742 948 770 936 L 1053 975 L 1053 -424 Z M 737 707 C 719 719 698 728 673 736 C 648 744 621 748 592 748 C 526 748 474 723 436 673 C 398 623 379 559 379 481 C 379 401 397 337 434 291 C 471 244 519 221 578 221 C 612 221 642 227 668 239 C 694 251 717 268 737 289 L 737 707 Z" unicode="q" />
<glyph horiz-adv-x="821" d="M 428 555 L 428 0 L 113 0 L 113 936 L 428 975 L 428 836 C 455 883 488 919 526 945 C 564 970 607 983 657 983 C 683 983 709 979 736 973 C 763 967 789 957 815 944 L 752 666 C 733 674 713 681 693 686 C 673 691 653 694 633 694 C 594 694 557 683 523 662 C 488 640 456 605 428 555 Z" unicode="r" />
<glyph horiz-adv-x="942" d="M 885 283 C 885 197 847 123 773 61 C 699 0 592 -31 453 -31 C 387 -31 316 -23 239 -8 C 162 6 99 27 49 53 L 111 281 C 165 252 223 230 284 214 C 345 198 403 190 459 190 C 500 190 532 197 554 211 C 576 225 588 244 588 268 C 588 294 574 314 547 328 C 520 341 480 354 426 367 C 316 388 228 422 162 469 C 96 515 63 585 63 678 C 63 766 100 839 174 897 C 248 954 351 983 483 983 C 546 983 615 975 689 959 C 763 943 823 923 870 901 L 807 676 C 753 702 696 723 636 739 C 576 754 523 762 479 762 C 441 762 412 755 392 743 C 372 731 362 713 362 690 C 362 664 376 645 405 632 C 433 619 474 607 526 596 C 638 571 725 536 789 492 C 853 447 885 377 885 283 Z" unicode="s" />
<glyph horiz-adv-x="772" d="M 727 4 C 690 -7 654 -16 619 -22 C 584 -28 543 -31 496 -31 C 378 -31 289 -4 228 49 C 166 102 139 191 145 315 L 160 678 L 16 702 L 23 903 L 166 950 L 170 1167 L 475 1167 L 473 940 L 711 940 L 705 692 L 451 692 L 440 350 C 438 306 448 274 472 254 C 495 234 526 225 565 225 C 584 225 604 227 626 232 C 647 236 668 242 690 250 L 727 4 Z" unicode="t" />
<glyph horiz-adv-x="1143" d="M 106 952 L 422 952 L 422 389 C 422 332 433 292 457 270 C 480 247 512 236 553 236 C 586 236 616 242 644 254 C 672 266 695 281 715 299 L 715 952 L 1030 952 L 1030 14 L 715 -25 L 715 117 C 678 77 633 42 579 13 C 525 -16 468 -31 406 -31 C 312 -31 239 -1 186 57 C 132 116 106 196 106 297 L 106 952 Z" unicode="u" />
<glyph horiz-adv-x="1053" d="M 1061 952 L 700 -2 L 344 -2 L -8 952 L 330 952 L 526 299 L 721 952 L 1061 952 Z" unicode="v" />
<glyph horiz-adv-x="1579" d="M 610 -4 L 291 -4 L 23 952 L 342 952 L 471 319 L 633 952 L 963 952 L 1126 330 L 1237 952 L 1565 952 L 1294 -4 L 975 -4 L 793 623 L 610 -4 Z" unicode="w" />
<glyph horiz-adv-x="1018" d="M 1026 0 L 692 0 L 510 305 L 330 0 L -10 0 L 317 485 L -2 952 L 332 952 L 508 678 L 678 952 L 1014 952 L 698 489 L 1026 0 Z" unicode="x" />
<glyph horiz-adv-x="1040" d="M 1049 952 L 705 45 L 657 -80 C 608 -218 551 -313 486 -365 C 421 -416 339 -442 240 -442 C 188 -442 139 -436 93 -426 C 46 -416 1 -401 -43 -381 L 51 -141 C 81 -154 107 -164 129 -172 C 151 -180 174 -184 199 -184 C 232 -184 258 -176 277 -160 C 296 -144 315 -113 334 -68 L 360 6 L -12 952 L 326 952 L 528 326 L 713 952 L 1049 952 Z" unicode="y" />
<glyph horiz-adv-x="940" d="M 897 0 L 37 0 L 37 188 L 483 692 L 55 692 L 55 952 L 897 952 L 897 764 L 453 258 L 897 258 L 897 0 Z" unicode="z" />
<glyph horiz-adv-x="1024" d="M 891 -434 C 713 -430 570 -411 462 -378 C 353 -344 299 -272 299 -160 C 299 -76 310 -4 333 54 C 355 112 367 168 367 221 C 367 270 346 306 306 329 C 265 352 202 367 117 375 L 111 508 L 117 639 C 202 645 265 658 306 680 C 346 701 367 736 367 786 C 367 839 355 896 333 957 C 310 1017 299 1090 299 1174 C 299 1286 353 1358 462 1392 C 570 1426 713 1446 891 1452 L 891 1260 C 781 1251 705 1236 663 1216 C 621 1195 600 1164 600 1122 C 600 1078 609 1029 627 974 C 645 919 655 850 655 768 C 655 700 627 642 572 596 C 516 549 444 523 356 518 L 356 498 C 444 491 516 464 572 417 C 627 369 655 312 655 244 C 655 162 645 95 627 44 C 609 -6 600 -55 600 -102 C 600 -147 621 -180 663 -202 C 705 -224 781 -238 891 -246 L 891 -434 Z" unicode="{" />
<glyph horiz-adv-x="512" d="M 119 -410 L 119 1436 L 391 1436 L 391 -410 L 119 -410 Z" unicode="|" />
<glyph horiz-adv-x="1024" d="M 913 508 L 907 375 C 821 367 758 352 718 329 C 677 306 657 270 657 221 C 657 168 668 112 690 54 C 712 -4 723 -76 723 -160 C 723 -272 669 -344 561 -378 C 453 -411 310 -430 133 -434 L 133 -246 C 241 -238 316 -224 359 -202 C 402 -180 424 -147 424 -102 C 424 -55 414 -6 396 44 C 378 95 369 162 369 244 C 369 312 396 369 451 417 C 505 464 578 491 668 498 L 668 518 C 578 523 505 549 451 596 C 396 642 369 700 369 768 C 369 850 378 919 396 974 C 414 1029 424 1078 424 1122 C 424 1164 402 1195 359 1216 C 316 1236 241 1251 133 1260 L 133 1452 C 310 1446 453 1426 561 1392 C 669 1358 723 1286 723 1174 C 723 1090 712 1017 690 957 C 668 896 657 839 657 786 C 657 736 677 701 718 680 C 758 658 821 645 907 639 L 913 508 Z" unicode="}" />
<glyph horiz-adv-x="1024" d="M 905 692 C 893 570 867 487 828 444 C 789 400 740 379 680 379 C 616 379 557 398 501 437 C 445 476 402 496 371 496 C 353 496 339 489 329 475 C 318 461 310 433 305 393 L 119 393 C 131 514 156 596 194 640 C 232 683 282 705 342 705 C 406 705 465 685 521 646 C 576 607 620 588 653 588 C 670 588 684 595 694 609 C 704 623 711 651 717 692 L 905 692 Z" unicode="~" />
<glyph horiz-adv-x="324" d="" unicode=" " />
<glyph horiz-adv-x="623" d="M 118 1135 C 118 1191 135 1234 171 1264 C 207 1293 253 1308 311 1308 C 367 1308 414 1293 450 1264 C 486 1234 505 1191 505 1135 C 505 1079 486 1037 450 1007 C 414 977 367 963 311 963 C 253 963 207 977 171 1007 C 135 1037 118 1079 118 1135 Z M 427 838 L 495 -56 L 124 -56 L 190 838 L 427 838 Z" unicode="¡" />
<glyph horiz-adv-x="1024" d="M 791 965 C 823 957 853 948 882 938 C 910 928 936 916 958 903 L 899 668 C 876 681 852 693 827 704 C 802 714 777 723 752 731 C 752 731 737 644 707 470 C 677 296 662 209 662 209 C 708 209 752 217 793 231 C 833 245 871 263 907 285 L 952 47 C 914 24 866 6 808 -8 C 749 -22 687 -29 623 -31 L 580 -279 L 438 -279 L 483 -20 C 364 1 269 53 198 136 C 127 219 92 330 92 469 C 92 625 139 750 233 843 C 327 936 454 983 612 983 C 619 983 626 983 633 983 C 640 983 647 982 653 981 L 688 1182 L 827 1182 L 791 965 Z M 612 743 C 542 736 489 708 452 659 C 415 610 397 550 397 479 C 397 421 408 371 431 329 C 453 287 485 256 526 236 L 612 743 Z" unicode="¢" />
<glyph horiz-adv-x="1024" d="M 182 702 C 179 730 177 758 175 786 C 173 814 172 840 172 866 C 172 1004 211 1113 290 1192 C 368 1271 474 1311 606 1311 C 662 1311 721 1304 784 1290 C 847 1276 904 1255 954 1229 L 895 983 C 855 1006 811 1025 763 1039 C 715 1053 670 1061 629 1061 C 567 1061 520 1041 489 1002 C 457 963 442 913 442 852 C 442 831 443 808 446 784 C 448 759 451 732 453 702 L 778 702 L 770 561 L 465 561 C 467 541 468 521 469 501 C 470 481 471 461 471 442 C 471 418 469 395 467 373 C 465 351 461 329 457 309 C 487 285 522 265 560 250 C 598 234 635 227 670 227 C 707 227 740 238 769 260 C 797 282 817 331 827 408 L 1028 367 C 1020 225 983 123 917 61 C 851 0 774 -31 688 -31 C 622 -31 563 -13 510 21 C 457 56 412 93 375 133 C 341 93 299 59 250 31 C 200 2 139 -20 66 -37 C 66 -37 55 2 35 80 C 14 158 4 197 4 195 C 76 213 130 238 165 270 C 199 302 217 347 217 403 C 217 427 215 453 213 480 C 210 506 207 533 205 561 L 29 561 L 20 702 L 182 702 Z" unicode="£" />
<glyph horiz-adv-x="993" d="M 942 1026 L 813 897 C 823 873 831 847 839 817 C 846 787 850 759 850 735 C 850 705 847 676 841 648 C 835 620 827 593 815 569 L 952 432 L 801 281 L 666 416 C 642 403 615 394 587 388 C 559 382 529 379 498 379 C 466 379 435 381 405 387 C 375 393 350 401 328 412 L 205 289 L 55 438 L 178 561 C 164 587 155 615 150 644 C 145 673 143 703 143 735 C 143 769 145 800 149 826 C 153 852 162 878 178 905 L 49 1032 L 201 1184 L 330 1055 C 353 1067 379 1076 407 1082 C 435 1088 466 1092 498 1092 C 528 1092 558 1088 588 1081 C 618 1074 645 1065 670 1053 L 793 1176 L 942 1026 Z M 651 735 C 651 779 637 816 610 848 C 582 879 545 895 498 895 C 448 895 410 879 383 848 C 355 816 342 779 342 735 C 342 692 355 655 383 623 C 410 591 448 575 498 575 C 545 575 582 591 610 623 C 637 655 651 692 651 735 Z" unicode="¤" />
<glyph horiz-adv-x="1024" d="M 358 551 L 70 551 L 59 692 L 311 692 L -39 1280 L 305 1280 L 514 825 L 719 1280 L 1061 1280 L 713 692 L 963 692 L 954 551 L 664 551 L 664 416 L 954 416 L 963 274 L 670 274 L 670 0 L 352 0 L 352 274 L 59 274 L 70 416 L 358 416 L 358 551 Z" unicode="¥" />
<glyph horiz-adv-x="512" d="M 119 -285 L 119 401 L 391 401 L 391 -285 L 119 -285 Z M 119 629 L 119 1315 L 391 1315 L 391 629 L 119 629 Z" unicode="¦" />
<glyph horiz-adv-x="1024" d="M 997 612 C 997 557 981 509 950 467 C 919 425 875 393 817 371 C 849 348 875 321 895 290 C 915 259 926 222 926 178 C 926 92 889 19 817 -42 C 745 -104 642 -135 510 -135 C 448 -135 380 -127 306 -112 C 231 -97 169 -76 121 -49 L 180 174 C 232 145 287 123 347 107 C 406 91 462 84 514 84 C 556 84 587 91 609 105 C 630 119 641 138 641 164 C 641 193 617 216 570 234 C 522 251 468 267 406 283 C 321 304 238 334 156 372 C 74 410 33 478 33 578 C 33 636 50 686 86 728 C 121 770 168 801 227 821 C 199 843 176 870 158 901 C 140 932 131 969 131 1012 C 131 1100 166 1173 237 1231 C 308 1288 406 1317 532 1317 C 588 1317 653 1310 726 1296 C 798 1282 858 1261 905 1235 L 846 1012 C 794 1038 739 1058 681 1074 C 623 1090 573 1098 530 1098 C 492 1098 464 1091 445 1079 C 425 1067 416 1049 416 1026 C 416 994 439 971 487 956 C 534 940 588 923 649 905 C 730 881 808 849 884 807 C 959 765 997 700 997 612 Z M 762 545 C 762 603 714 643 620 667 C 525 691 432 723 340 764 C 321 748 304 730 290 708 C 275 686 268 663 268 641 C 268 587 315 547 411 523 C 506 498 600 466 694 428 C 711 440 727 456 741 478 C 755 500 762 522 762 545 Z" unicode="§" />
<glyph horiz-adv-x="815" d="M 334 1245 C 334 1194 318 1155 288 1128 C 257 1100 218 1087 170 1087 C 122 1087 82 1100 52 1128 C 21 1155 6 1194 6 1245 C 6 1296 21 1335 52 1362 C 82 1389 122 1403 170 1403 C 218 1403 257 1389 288 1362 C 318 1335 334 1296 334 1245 Z M 809 1245 C 809 1194 794 1155 765 1128 C 735 1100 696 1087 647 1087 C 599 1087 560 1100 530 1128 C 500 1155 485 1194 485 1245 C 485 1296 500 1335 530 1362 C 560 1389 599 1403 647 1403 C 696 1403 735 1389 765 1362 C 794 1335 809 1296 809 1245 Z" unicode="¨" />
<glyph horiz-adv-x="1636" d="M 1128 993 L 1053 786 C 1028 800 999 812 966 822 C 932 831 900 836 870 836 C 814 836 769 818 737 783 C 704 747 688 701 688 643 C 688 581 703 532 734 496 C 764 460 810 442 870 442 C 906 442 939 447 971 457 C 1003 467 1034 480 1065 498 L 1118 285 C 1089 270 1050 258 1001 248 C 951 238 904 233 858 233 C 730 233 627 267 551 335 C 474 403 436 503 436 637 C 436 761 474 860 550 935 C 626 1009 732 1047 868 1047 C 917 1047 963 1041 1007 1031 C 1051 1020 1091 1007 1128 993 Z M 817 -121 C 608 -121 429 -46 281 102 C 133 250 59 429 59 637 C 59 845 133 1024 281 1174 C 429 1324 608 1399 817 1399 C 1025 1399 1204 1324 1353 1174 C 1502 1024 1577 845 1577 637 C 1577 429 1502 250 1353 102 C 1204 -46 1025 -121 817 -121 Z M 1507 637 C 1507 826 1439 989 1304 1127 C 1168 1264 1006 1333 817 1333 C 627 1333 465 1264 331 1127 C 196 989 129 826 129 637 C 129 447 196 284 331 148 C 465 11 627 -57 817 -57 C 1006 -57 1168 11 1304 148 C 1439 284 1507 447 1507 637 Z" unicode="©" />
<glyph horiz-adv-x="813" d="M 809 553 L 551 500 C 537 515 525 532 513 551 C 501 569 491 593 483 621 L 475 621 C 451 590 421 562 384 538 C 346 514 304 502 256 502 C 192 502 139 521 99 561 C 59 601 39 651 39 713 C 39 787 72 849 139 900 C 206 950 318 979 475 987 L 475 1014 C 475 1044 464 1069 444 1088 C 424 1106 394 1116 356 1116 C 316 1116 274 1107 230 1090 C 186 1073 146 1052 111 1028 L 41 1204 C 81 1236 134 1262 200 1282 C 265 1302 329 1313 393 1313 C 498 1313 580 1288 639 1239 C 697 1189 727 1116 727 1018 L 727 768 C 727 721 736 680 754 644 C 772 608 790 577 809 553 Z M 475 717 L 475 874 C 401 867 348 853 316 833 C 284 812 268 786 268 756 C 268 729 276 708 293 694 C 310 679 332 672 358 672 C 378 672 400 676 423 685 C 445 693 463 704 475 717 Z" unicode="ª" />
<glyph horiz-adv-x="1239" d="M 600 240 L 545 45 L 35 356 L 35 602 L 545 911 L 600 717 L 319 479 L 319 475 L 600 240 Z M 1196 223 L 1145 25 L 618 350 L 618 606 L 1145 934 L 1196 733 L 909 479 L 909 475 L 1196 223 Z" unicode="«" />
<glyph horiz-adv-x="1024" d="M 993 698 L 993 186 L 756 186 L 756 461 L 72 461 L 78 698 L 993 698 Z" unicode="¬" />
<glyph horiz-adv-x="762" d="M 709 371 L 57 371 L 57 623 L 709 623 L 709 371 Z" unicode="­" />
<glyph horiz-adv-x="1636" d="M 731 506 L 731 264 L 487 264 L 487 1030 L 858 1030 C 965 1030 1046 1007 1102 962 C 1158 916 1186 855 1186 778 C 1186 732 1174 689 1150 650 C 1126 611 1089 581 1040 561 L 1217 264 L 954 264 L 821 512 L 731 506 Z M 817 -121 C 608 -121 429 -46 281 102 C 133 250 59 429 59 637 C 59 845 133 1024 281 1174 C 429 1324 608 1399 817 1399 C 1025 1399 1204 1324 1353 1174 C 1502 1024 1577 845 1577 637 C 1577 429 1502 250 1353 102 C 1204 -46 1025 -121 817 -121 Z M 1507 637 C 1507 826 1439 989 1304 1127 C 1168 1264 1006 1333 817 1333 C 627 1333 465 1264 331 1127 C 196 989 129 826 129 637 C 129 447 196 284 331 148 C 465 11 627 -57 817 -57 C 1006 -57 1168 11 1304 148 C 1439 284 1507 447 1507 637 Z M 729 655 L 813 657 C 853 658 883 667 905 685 C 927 703 938 729 938 764 C 938 795 927 819 907 836 C 886 853 853 862 809 862 L 729 862 L 729 655 Z" unicode="®" />
<glyph horiz-adv-x="815" d="M 782 1124 L 37 1124 L 59 1303 L 760 1303 L 782 1124 Z" unicode="¯" />
<glyph horiz-adv-x="1024" d="M 850 971 C 850 880 819 801 759 735 C 698 668 616 635 512 635 C 408 635 325 668 265 735 C 204 801 174 880 174 971 C 174 1062 204 1141 265 1209 C 325 1277 408 1311 512 1311 C 616 1311 698 1277 759 1209 C 819 1141 850 1062 850 971 Z M 739 971 C 739 1036 719 1091 679 1137 C 639 1183 583 1206 512 1206 C 440 1206 384 1183 344 1137 C 303 1091 283 1036 283 971 C 283 909 303 855 344 809 C 384 763 440 740 512 740 C 583 740 639 763 679 809 C 719 855 739 909 739 971 Z" unicode="°" />
<glyph horiz-adv-x="1024" d="M 983 559 L 639 559 L 639 272 L 387 272 L 387 559 L 43 559 L 49 797 L 387 797 L 387 1083 L 639 1083 L 639 797 L 977 797 L 983 559 Z M 983 0 L 43 0 L 49 238 L 977 238 L 983 0 Z" unicode="±" />
<glyph horiz-adv-x="676" d="M 604 559 L 35 559 L 31 709 C 155 813 240 889 288 935 C 336 981 360 1025 360 1067 C 360 1090 352 1109 337 1124 C 322 1139 300 1147 270 1147 C 240 1147 211 1139 182 1125 C 152 1111 126 1092 104 1069 C 101 1069 86 1096 59 1150 C 31 1204 19 1231 23 1231 C 58 1263 101 1289 153 1307 C 204 1325 259 1335 317 1335 C 414 1335 486 1310 533 1261 C 580 1211 604 1153 604 1087 C 604 1030 580 978 533 930 C 486 882 412 819 311 743 L 600 743 L 604 559 Z" unicode="²" />
<glyph horiz-adv-x="676" d="M 389 954 C 466 958 525 942 565 906 C 605 870 625 826 625 774 C 625 700 593 642 529 602 C 465 561 384 541 285 541 C 235 541 189 545 147 555 C 105 565 68 576 37 590 L 72 756 C 103 744 136 735 171 727 C 206 719 238 715 268 715 C 308 715 340 720 365 731 C 390 742 403 760 403 786 C 403 806 393 824 374 838 C 354 852 319 860 268 860 C 246 860 224 858 202 855 C 180 852 162 850 147 848 L 147 999 C 220 1010 274 1022 309 1036 C 344 1050 362 1071 362 1100 C 362 1115 356 1128 346 1140 C 335 1151 313 1157 279 1157 C 248 1157 217 1151 185 1140 C 153 1128 126 1115 104 1100 L 35 1264 C 67 1283 108 1300 157 1314 C 205 1328 257 1335 311 1335 C 395 1335 462 1319 514 1287 C 566 1255 592 1206 592 1139 C 592 1095 575 1057 541 1026 C 507 994 456 970 389 954 Z" unicode="³" />
<glyph horiz-adv-x="813" d="M 758 1458 L 412 1079 L 215 1079 L 418 1458 L 758 1458 Z" unicode="´" />
<glyph horiz-adv-x="1149" d="M 428 952 L 428 410 C 428 336 442 289 471 268 C 499 246 533 236 573 236 C 607 236 641 248 673 273 C 705 297 721 346 721 420 L 721 952 L 1036 952 L 1036 0 L 723 0 L 723 92 C 709 59 689 31 662 9 C 634 -13 605 -25 575 -25 C 545 -25 517 -19 493 -7 C 468 4 446 25 428 57 L 428 -477 L 113 -477 L 113 952 L 428 952 Z" unicode="µ" />
<glyph horiz-adv-x="1024" d="M 664 410 C 656 408 646 406 634 405 C 622 403 612 403 604 403 C 420 403 283 442 191 520 C 99 598 53 707 53 846 C 53 981 102 1087 202 1164 C 302 1241 443 1280 627 1280 L 938 1280 L 938 -145 L 664 -145 L 664 410 Z" unicode="¶" />
<glyph horiz-adv-x="512" d="M 455 524 C 455 469 437 424 401 390 C 365 355 319 338 262 338 C 204 338 157 355 121 390 C 85 424 68 469 68 524 C 68 580 85 625 121 659 C 157 693 204 711 262 711 C 319 711 365 693 401 659 C 437 625 455 580 455 524 Z" unicode="·" />
<glyph horiz-adv-x="815" d="M 401 -104 C 470 -107 531 -126 583 -160 C 635 -194 662 -243 662 -307 C 662 -375 629 -434 565 -482 C 500 -530 396 -562 254 -580 L 238 -434 C 325 -430 387 -418 423 -400 C 459 -381 477 -357 477 -328 C 477 -290 457 -264 417 -250 C 377 -236 318 -233 240 -240 L 219 -135 L 451 80 L 606 80 C 606 80 577 54 520 2 C 463 -49 423 -84 401 -104 Z" unicode="¸" />
<glyph horiz-adv-x="676" d="M 262 559 L 262 1102 L 82 1071 L 74 1262 L 520 1335 L 520 559 L 262 559 Z" unicode="¹" />
<glyph horiz-adv-x="926" d="M 870 905 C 870 779 830 680 750 608 C 670 536 573 500 459 500 C 343 500 247 536 170 608 C 93 680 55 779 55 905 C 55 1031 94 1131 174 1203 C 253 1275 351 1311 467 1311 C 583 1311 679 1275 755 1203 C 831 1131 870 1031 870 905 Z M 618 903 C 618 969 604 1023 577 1065 C 549 1107 511 1128 461 1128 C 411 1128 373 1107 347 1067 C 320 1027 307 973 307 907 C 307 841 320 787 348 746 C 376 704 415 684 465 684 C 513 684 551 704 578 744 C 604 784 618 837 618 903 Z" unicode="º" />
<glyph horiz-adv-x="1249" d="M 631 350 L 106 25 L 55 223 L 342 475 L 342 479 L 55 733 L 106 934 L 631 606 L 631 350 Z M 1217 356 L 705 45 L 651 240 L 930 475 L 930 479 L 651 717 L 705 911 L 1217 602 L 1217 356 Z" unicode="»" />
<glyph horiz-adv-x="1464" d="M 1448 -119 L 1358 -119 L 1358 -293 L 1143 -293 L 1143 -119 L 811 -119 L 803 35 L 1061 473 L 1358 473 L 1358 41 L 1444 41 L 1448 -119 Z M 262 559 L 262 1102 L 82 1071 L 74 1262 L 520 1335 L 520 559 L 262 559 Z M 1466 1280 L 319 -238 L 82 -238 L 1229 1280 L 1466 1280 Z M 1151 39 L 1151 326 L 991 39 L 1151 39 Z" unicode="¼" />
<glyph horiz-adv-x="1464" d="M 1393 -293 L 823 -293 L 819 -143 C 943 -38 1029 37 1077 83 C 1125 129 1149 173 1149 215 C 1149 238 1141 257 1126 272 C 1110 287 1088 295 1059 295 C 1029 295 999 287 970 273 C 941 259 915 240 893 217 C 889 217 874 244 847 298 C 819 352 807 379 811 379 C 847 411 890 437 942 455 C 993 473 1048 483 1106 483 C 1202 483 1274 458 1322 409 C 1369 359 1393 302 1393 236 C 1393 178 1369 126 1322 78 C 1274 30 1200 -32 1100 -109 L 1389 -109 L 1393 -293 Z M 262 559 L 262 1102 L 82 1071 L 74 1262 L 520 1335 L 520 559 L 262 559 Z M 1436 1280 L 289 -238 L 51 -238 L 1198 1280 L 1436 1280 Z" unicode="½" />
<glyph horiz-adv-x="1464" d="M 389 954 C 466 958 525 942 565 906 C 605 870 625 826 625 774 C 625 700 593 642 529 602 C 465 561 384 541 285 541 C 235 541 189 545 147 555 C 105 565 68 576 37 590 L 72 756 C 103 744 136 735 171 727 C 206 719 238 715 268 715 C 308 715 340 720 365 731 C 390 742 403 760 403 786 C 403 806 393 824 374 838 C 354 852 319 860 268 860 C 246 860 224 858 202 855 C 180 852 162 850 147 848 L 147 999 C 220 1010 274 1022 309 1036 C 344 1050 362 1071 362 1100 C 362 1115 356 1128 346 1140 C 335 1151 313 1157 279 1157 C 248 1157 217 1151 185 1140 C 153 1128 126 1115 104 1100 L 35 1264 C 67 1283 108 1300 157 1314 C 205 1328 257 1335 311 1335 C 395 1335 462 1319 514 1287 C 566 1255 592 1206 592 1139 C 592 1095 575 1057 541 1026 C 507 994 456 970 389 954 Z M 1448 -119 L 1358 -119 L 1358 -293 L 1143 -293 L 1143 -119 L 811 -119 L 803 35 L 1061 473 L 1358 473 L 1358 41 L 1444 41 L 1448 -119 Z M 1466 1280 L 319 -238 L 82 -238 L 1229 1280 L 1466 1280 Z M 1151 39 L 1151 326 L 991 39 L 1151 39 Z" unicode="¾" />
<glyph horiz-adv-x="856" d="M 67 359 C 67 441 90 504 136 548 C 182 592 238 624 304 646 C 344 658 377 669 403 680 C 428 690 444 704 452 722 C 452 734 436 753 404 781 C 372 808 350 827 339 839 C 339 839 370 844 432 854 C 494 864 530 869 540 869 C 592 847 634 815 664 771 C 694 727 710 684 710 640 C 710 587 691 544 655 512 C 618 479 568 454 505 437 C 453 423 415 410 389 398 C 363 386 351 367 351 341 C 351 307 369 281 406 262 C 442 243 492 234 554 234 C 586 234 623 238 664 246 C 704 254 738 263 765 273 L 753 9 C 725 -2 692 -11 655 -18 C 618 -26 576 -29 529 -29 C 393 -29 282 7 196 83 C 110 158 67 250 67 359 Z M 294 1138 C 294 1194 311 1237 347 1267 C 383 1296 430 1311 488 1311 C 545 1311 591 1296 627 1267 C 663 1237 681 1194 681 1138 C 681 1082 663 1040 627 1010 C 591 980 545 966 488 966 C 430 966 383 980 347 1010 C 311 1040 294 1082 294 1138 Z" unicode="¿" />
<glyph horiz-adv-x="1317" d="M 866 1280 L 1313 0 L 989 0 L 895 272 L 420 272 L 328 0 L 4 0 L 459 1280 L 866 1280 Z M 823 526 L 659 1028 L 489 526 L 823 526 Z M 767 1367 L 571 1367 L 224 1746 L 564 1746 L 767 1367 Z" unicode="À" />
<glyph horiz-adv-x="1317" d="M 866 1280 L 1313 0 L 989 0 L 895 272 L 420 272 L 328 0 L 4 0 L 459 1280 L 866 1280 Z M 823 526 L 659 1028 L 489 526 L 823 526 Z M 1093 1746 L 747 1367 L 550 1367 L 753 1746 L 1093 1746 Z" unicode="Á" />
<glyph horiz-adv-x="1317" d="M 866 1280 L 1313 0 L 989 0 L 895 272 L 420 272 L 328 0 L 4 0 L 459 1280 L 866 1280 Z M 823 526 L 659 1028 L 489 526 L 823 526 Z M 1046 1367 L 831 1367 L 661 1586 L 657 1586 L 491 1367 L 272 1367 L 515 1750 L 802 1750 L 1046 1367 Z" unicode="Â" />
<glyph horiz-adv-x="1317" d="M 866 1280 L 1313 0 L 989 0 L 895 272 L 420 272 L 328 0 L 4 0 L 459 1280 L 866 1280 Z M 823 526 L 659 1028 L 489 526 L 823 526 Z M 1052 1687 C 1039 1564 1013 1481 975 1438 C 936 1394 886 1373 826 1373 C 763 1373 704 1392 648 1431 C 592 1470 549 1490 517 1490 C 499 1490 485 1483 475 1469 C 464 1455 456 1428 452 1388 L 265 1388 C 277 1509 303 1591 341 1634 C 379 1677 428 1699 489 1699 C 553 1699 612 1679 668 1640 C 723 1601 767 1582 800 1582 C 817 1582 831 1589 841 1604 C 851 1618 858 1646 863 1687 L 1052 1687 Z" unicode="Ã" />
<glyph horiz-adv-x="1317" d="M 866 1280 L 1313 0 L 989 0 L 895 272 L 420 272 L 328 0 L 4 0 L 459 1280 L 866 1280 Z M 823 526 L 659 1028 L 489 526 L 823 526 Z M 577 1533 C 577 1482 561 1443 531 1416 C 500 1388 461 1375 413 1375 C 365 1375 325 1388 295 1416 C 264 1443 249 1482 249 1533 C 249 1584 264 1623 295 1650 C 325 1677 365 1691 413 1691 C 461 1691 500 1677 531 1650 C 561 1623 577 1584 577 1533 Z M 1052 1533 C 1052 1482 1037 1443 1008 1416 C 978 1388 939 1375 890 1375 C 842 1375 803 1388 773 1416 C 743 1443 728 1482 728 1533 C 728 1584 743 1623 773 1650 C 803 1677 842 1691 890 1691 C 939 1691 978 1677 1008 1650 C 1037 1623 1052 1584 1052 1533 Z" unicode="Ä" />
<glyph horiz-adv-x="1317" d="M 449 1249 C 424 1269 405 1294 392 1322 C 379 1350 373 1381 373 1415 C 373 1482 398 1539 450 1586 C 502 1633 571 1657 659 1657 C 748 1657 818 1633 870 1587 C 922 1541 948 1483 948 1415 C 948 1382 941 1352 928 1324 C 915 1296 896 1271 872 1251 L 1313 0 L 989 0 L 895 272 L 420 272 L 328 0 L 4 0 L 449 1249 Z M 829 1417 C 829 1458 813 1491 783 1517 C 752 1543 711 1556 659 1556 C 609 1556 569 1543 539 1517 C 509 1491 494 1458 494 1417 C 494 1376 509 1342 539 1315 C 569 1287 609 1274 659 1274 C 711 1274 752 1287 783 1315 C 813 1342 829 1376 829 1417 Z M 823 526 L 659 1028 L 489 526 L 823 526 Z" unicode="Å" />
<glyph horiz-adv-x="1837" d="M 461 272 L 334 0 L -14 0 L 608 1280 L 1759 1280 L 1759 1018 L 1143 1018 L 1143 772 L 1653 772 L 1653 512 L 1143 512 L 1143 262 L 1759 262 L 1759 0 L 825 0 L 825 272 L 461 272 Z M 575 532 L 825 532 L 825 1071 L 575 532 Z" unicode="Æ" />
<glyph horiz-adv-x="1255" d="M 637 -23 C 467 -1 332 66 231 179 C 130 291 80 443 80 635 C 80 841 142 1005 267 1127 C 392 1249 560 1311 770 1311 C 847 1311 922 1302 996 1284 C 1070 1266 1136 1242 1194 1214 L 1096 942 C 1048 970 996 993 941 1009 C 885 1025 829 1034 772 1034 C 662 1034 573 998 507 928 C 441 858 408 763 408 643 C 408 521 440 425 504 353 C 568 281 658 246 774 246 C 836 246 895 255 953 274 C 1011 293 1064 318 1112 350 L 1180 61 C 1132 35 1071 13 998 -3 C 925 -19 853 -29 782 -31 C 764 -46 748 -60 733 -74 C 718 -87 706 -97 698 -104 C 767 -107 828 -126 880 -160 C 932 -194 958 -243 958 -307 C 958 -375 925 -434 861 -482 C 797 -530 693 -562 551 -580 L 535 -434 C 622 -430 684 -418 720 -400 C 756 -381 774 -357 774 -328 C 774 -290 754 -264 714 -250 C 674 -236 615 -233 537 -240 L 516 -135 L 637 -23 Z" unicode="Ç" />
<glyph horiz-adv-x="1157" d="M 1069 0 L 133 0 L 133 1280 L 1069 1280 L 1069 1018 L 453 1018 L 453 772 L 948 772 L 948 512 L 453 512 L 453 262 L 1069 262 L 1069 0 Z M 720 1367 L 524 1367 L 177 1746 L 517 1746 L 720 1367 Z" unicode="È" />
<glyph horiz-adv-x="1157" d="M 1069 0 L 133 0 L 133 1280 L 1069 1280 L 1069 1018 L 453 1018 L 453 772 L 948 772 L 948 512 L 453 512 L 453 262 L 1069 262 L 1069 0 Z M 1032 1746 L 686 1367 L 489 1367 L 692 1746 L 1032 1746 Z" unicode="É" />
<glyph horiz-adv-x="1157" d="M 1069 0 L 133 0 L 133 1280 L 1069 1280 L 1069 1018 L 453 1018 L 453 772 L 948 772 L 948 512 L 453 512 L 453 262 L 1069 262 L 1069 0 Z M 991 1367 L 776 1367 L 606 1586 L 602 1586 L 436 1367 L 217 1367 L 460 1750 L 747 1750 L 991 1367 Z" unicode="Ê" />
<glyph horiz-adv-x="1157" d="M 1069 0 L 133 0 L 133 1280 L 1069 1280 L 1069 1018 L 453 1018 L 453 772 L 948 772 L 948 512 L 453 512 L 453 262 L 1069 262 L 1069 0 Z M 530 1533 C 530 1482 514 1443 484 1416 C 453 1388 414 1375 366 1375 C 318 1375 278 1388 248 1416 C 217 1443 202 1482 202 1533 C 202 1584 217 1623 248 1650 C 278 1677 318 1691 366 1691 C 414 1691 453 1677 484 1650 C 514 1623 530 1584 530 1533 Z M 1005 1533 C 1005 1482 990 1443 961 1416 C 931 1388 892 1375 843 1375 C 795 1375 756 1388 726 1416 C 696 1443 681 1482 681 1533 C 681 1584 696 1623 726 1650 C 756 1677 795 1691 843 1691 C 892 1691 931 1677 961 1650 C 990 1623 1005 1584 1005 1533 Z" unicode="Ë" />
<glyph horiz-adv-x="598" d="M 461 0 L 135 0 L 135 1280 L 461 1280 L 461 0 Z M 409 1367 L 213 1367 L -134 1746 L 206 1746 L 409 1367 Z" unicode="Ì" />
<glyph horiz-adv-x="598" d="M 461 0 L 135 0 L 135 1280 L 461 1280 L 461 0 Z M 725 1746 L 379 1367 L 182 1367 L 385 1746 L 725 1746 Z" unicode="Í" />
<glyph horiz-adv-x="598" d="M 461 0 L 135 0 L 135 1280 L 461 1280 L 461 0 Z M 688 1367 L 473 1367 L 303 1586 L 299 1586 L 133 1367 L -86 1367 L 157 1750 L 444 1750 L 688 1367 Z" unicode="Î" />
<glyph horiz-adv-x="598" d="M 461 0 L 135 0 L 135 1280 L 461 1280 L 461 0 Z M 225 1533 C 225 1482 209 1443 179 1416 C 148 1388 109 1375 61 1375 C 13 1375 -26 1388 -57 1416 C -87 1443 -103 1482 -103 1533 C -103 1584 -87 1623 -57 1650 C -26 1677 13 1691 61 1691 C 109 1691 148 1677 179 1650 C 209 1623 225 1584 225 1533 Z M 700 1533 C 700 1482 685 1443 656 1416 C 626 1388 587 1375 538 1375 C 490 1375 451 1388 421 1416 C 391 1443 376 1482 376 1533 C 376 1584 391 1623 421 1650 C 451 1677 490 1691 538 1691 C 587 1691 626 1677 656 1650 C 685 1623 700 1584 700 1533 Z" unicode="Ï" />
<glyph horiz-adv-x="1466" d="M 201 522 L 31 522 L 31 772 L 201 772 L 201 1280 L 682 1280 C 906 1280 1079 1222 1203 1106 C 1327 990 1389 838 1389 649 C 1389 453 1325 296 1199 178 C 1073 59 894 0 662 0 L 201 0 L 201 522 Z M 526 772 L 786 772 L 786 522 L 526 522 L 526 260 L 651 260 C 768 260 866 291 944 353 C 1022 415 1061 509 1061 637 C 1061 768 1023 865 947 927 C 871 989 767 1020 635 1020 L 526 1020 L 526 772 Z" unicode="Ð" />
<glyph horiz-adv-x="1456" d="M 1018 449 L 1018 1280 L 1323 1280 L 1323 -12 L 977 -12 L 438 829 L 438 0 L 133 0 L 133 1280 L 485 1280 L 1018 449 Z M 1122 1687 C 1109 1564 1083 1481 1045 1438 C 1006 1394 956 1373 896 1373 C 833 1373 774 1392 718 1431 C 662 1470 619 1490 587 1490 C 569 1490 555 1483 545 1469 C 534 1455 526 1428 522 1388 L 335 1388 C 347 1509 373 1591 411 1634 C 449 1677 498 1699 559 1699 C 623 1699 682 1679 738 1640 C 793 1601 837 1582 870 1582 C 887 1582 901 1589 911 1604 C 921 1618 928 1646 933 1687 L 1122 1687 Z" unicode="Ñ" />
<glyph horiz-adv-x="1501" d="M 1421 645 C 1421 443 1356 280 1226 156 C 1096 31 937 -31 748 -31 C 559 -31 400 26 272 141 C 144 256 80 421 80 637 C 80 839 144 1001 273 1125 C 402 1249 562 1311 752 1311 C 941 1311 1100 1253 1228 1139 C 1356 1025 1421 860 1421 645 Z M 1094 637 C 1094 759 1063 858 1002 934 C 940 1010 856 1049 748 1049 C 640 1049 556 1011 497 936 C 437 861 408 764 408 645 C 408 523 438 423 499 346 C 559 269 644 231 754 231 C 860 231 944 268 1004 344 C 1064 420 1094 517 1094 637 Z M 860 1380 L 664 1380 L 317 1759 L 657 1759 L 860 1380 Z" unicode="Ò" />
<glyph horiz-adv-x="1501" d="M 1421 645 C 1421 443 1356 280 1226 156 C 1096 31 937 -31 748 -31 C 559 -31 400 26 272 141 C 144 256 80 421 80 637 C 80 839 144 1001 273 1125 C 402 1249 562 1311 752 1311 C 941 1311 1100 1253 1228 1139 C 1356 1025 1421 860 1421 645 Z M 1094 637 C 1094 759 1063 858 1002 934 C 940 1010 856 1049 748 1049 C 640 1049 556 1011 497 936 C 437 861 408 764 408 645 C 408 523 438 423 499 346 C 559 269 644 231 754 231 C 860 231 944 268 1004 344 C 1064 420 1094 517 1094 637 Z M 1183 1759 L 837 1380 L 640 1380 L 843 1759 L 1183 1759 Z" unicode="Ó" />
<glyph horiz-adv-x="1501" d="M 1421 645 C 1421 443 1356 280 1226 156 C 1096 31 937 -31 748 -31 C 559 -31 400 26 272 141 C 144 256 80 421 80 637 C 80 839 144 1001 273 1125 C 402 1249 562 1311 752 1311 C 941 1311 1100 1253 1228 1139 C 1356 1025 1421 860 1421 645 Z M 1094 637 C 1094 759 1063 858 1002 934 C 940 1010 856 1049 748 1049 C 640 1049 556 1011 497 936 C 437 861 408 764 408 645 C 408 523 438 423 499 346 C 559 269 644 231 754 231 C 860 231 944 268 1004 344 C 1064 420 1094 517 1094 637 Z M 1139 1367 L 924 1367 L 754 1586 L 750 1586 L 584 1367 L 365 1367 L 608 1750 L 895 1750 L 1139 1367 Z" unicode="Ô" />
<glyph horiz-adv-x="1501" d="M 1421 645 C 1421 443 1356 280 1226 156 C 1096 31 937 -31 748 -31 C 559 -31 400 26 272 141 C 144 256 80 421 80 637 C 80 839 144 1001 273 1125 C 402 1249 562 1311 752 1311 C 941 1311 1100 1253 1228 1139 C 1356 1025 1421 860 1421 645 Z M 1094 637 C 1094 759 1063 858 1002 934 C 940 1010 856 1049 748 1049 C 640 1049 556 1011 497 936 C 437 861 408 764 408 645 C 408 523 438 423 499 346 C 559 269 644 231 754 231 C 860 231 944 268 1004 344 C 1064 420 1094 517 1094 637 Z M 1145 1687 C 1132 1564 1106 1481 1068 1438 C 1029 1394 979 1373 919 1373 C 856 1373 797 1392 741 1431 C 685 1470 642 1490 610 1490 C 592 1490 578 1483 568 1469 C 557 1455 549 1428 545 1388 L 358 1388 C 370 1509 396 1591 434 1634 C 472 1677 521 1699 582 1699 C 646 1699 705 1679 761 1640 C 816 1601 860 1582 893 1582 C 910 1582 924 1589 934 1604 C 944 1618 951 1646 956 1687 L 1145 1687 Z" unicode="Õ" />
<glyph horiz-adv-x="1501" d="M 1421 645 C 1421 443 1356 280 1226 156 C 1096 31 937 -31 748 -31 C 559 -31 400 26 272 141 C 144 256 80 421 80 637 C 80 839 144 1001 273 1125 C 402 1249 562 1311 752 1311 C 941 1311 1100 1253 1228 1139 C 1356 1025 1421 860 1421 645 Z M 1094 637 C 1094 759 1063 858 1002 934 C 940 1010 856 1049 748 1049 C 640 1049 556 1011 497 936 C 437 861 408 764 408 645 C 408 523 438 423 499 346 C 559 269 644 231 754 231 C 860 231 944 268 1004 344 C 1064 420 1094 517 1094 637 Z M 676 1533 C 676 1482 660 1443 630 1416 C 599 1388 560 1375 512 1375 C 464 1375 424 1388 394 1416 C 363 1443 348 1482 348 1533 C 348 1584 363 1623 394 1650 C 424 1677 464 1691 512 1691 C 560 1691 599 1677 630 1650 C 660 1623 676 1584 676 1533 Z M 1151 1533 C 1151 1482 1136 1443 1107 1416 C 1077 1388 1038 1375 989 1375 C 941 1375 902 1388 872 1416 C 842 1443 827 1482 827 1533 C 827 1584 842 1623 872 1650 C 902 1677 941 1691 989 1691 C 1038 1691 1077 1677 1107 1650 C 1136 1623 1151 1584 1151 1533 Z" unicode="Ö" />
<glyph horiz-adv-x="1024" d="M 981 186 L 815 20 L 512 326 L 211 20 L 45 186 L 350 487 L 43 791 L 209 956 L 512 649 L 817 956 L 983 791 L 674 489 L 981 186 Z" unicode="×" />
<glyph horiz-adv-x="1501" d="M 1423 645 C 1423 443 1358 280 1228 156 C 1098 31 939 -31 750 -31 C 698 -31 647 -26 598 -17 C 548 -7 502 5 459 23 L 365 -137 L 217 -137 L 346 82 C 265 136 201 210 153 304 C 105 397 82 508 82 637 C 82 839 146 1001 275 1125 C 404 1249 564 1311 754 1311 C 804 1311 853 1306 901 1298 C 948 1290 992 1278 1034 1262 C 1035 1262 1051 1287 1081 1339 C 1111 1391 1126 1417 1126 1417 L 1274 1417 L 1149 1204 C 1232 1150 1298 1076 1348 982 C 1398 888 1423 775 1423 645 Z M 991 948 L 598 268 C 620 256 645 246 671 240 C 697 234 726 231 756 231 C 862 231 946 268 1006 344 C 1066 420 1096 517 1096 637 C 1096 702 1087 761 1069 815 C 1051 868 1025 912 991 948 Z M 897 1018 C 874 1028 850 1035 826 1041 C 801 1046 776 1049 750 1049 C 642 1049 558 1011 498 936 C 438 861 408 764 408 645 C 408 581 416 524 433 473 C 450 421 475 378 508 342 L 897 1018 Z" unicode="Ø" />
<glyph horiz-adv-x="1376" d="M 1253 522 C 1253 338 1201 199 1099 107 C 996 15 859 -31 688 -31 C 522 -31 386 11 282 97 C 177 182 125 314 125 494 L 125 1280 L 449 1280 L 449 537 C 449 441 469 368 509 318 C 549 268 611 244 696 244 C 772 244 830 266 870 310 C 910 354 930 425 930 524 L 930 1280 L 1253 1280 L 1253 522 Z M 817 1367 L 621 1367 L 274 1746 L 614 1746 L 817 1367 Z" unicode="Ù" />
<glyph horiz-adv-x="1376" d="M 1253 522 C 1253 338 1201 199 1099 107 C 996 15 859 -31 688 -31 C 522 -31 386 11 282 97 C 177 182 125 314 125 494 L 125 1280 L 449 1280 L 449 537 C 449 441 469 368 509 318 C 549 268 611 244 696 244 C 772 244 830 266 870 310 C 910 354 930 425 930 524 L 930 1280 L 1253 1280 L 1253 522 Z M 1104 1746 L 758 1367 L 561 1367 L 764 1746 L 1104 1746 Z" unicode="Ú" />
<glyph horiz-adv-x="1376" d="M 1253 522 C 1253 338 1201 199 1099 107 C 996 15 859 -31 688 -31 C 522 -31 386 11 282 97 C 177 182 125 314 125 494 L 125 1280 L 449 1280 L 449 537 C 449 441 469 368 509 318 C 549 268 611 244 696 244 C 772 244 830 266 870 310 C 910 354 930 425 930 524 L 930 1280 L 1253 1280 L 1253 522 Z M 1077 1367 L 862 1367 L 692 1586 L 688 1586 L 522 1367 L 303 1367 L 546 1750 L 833 1750 L 1077 1367 Z" unicode="Û" />
<glyph horiz-adv-x="1376" d="M 1253 522 C 1253 338 1201 199 1099 107 C 996 15 859 -31 688 -31 C 522 -31 386 11 282 97 C 177 182 125 314 125 494 L 125 1280 L 449 1280 L 449 537 C 449 441 469 368 509 318 C 549 268 611 244 696 244 C 772 244 830 266 870 310 C 910 354 930 425 930 524 L 930 1280 L 1253 1280 L 1253 522 Z M 614 1533 C 614 1482 598 1443 568 1416 C 537 1388 498 1375 450 1375 C 402 1375 362 1388 332 1416 C 301 1443 286 1482 286 1533 C 286 1584 301 1623 332 1650 C 362 1677 402 1691 450 1691 C 498 1691 537 1677 568 1650 C 598 1623 614 1584 614 1533 Z M 1089 1533 C 1089 1482 1074 1443 1045 1416 C 1015 1388 976 1375 927 1375 C 879 1375 840 1388 810 1416 C 780 1443 765 1482 765 1533 C 765 1584 780 1623 810 1650 C 840 1677 879 1691 927 1691 C 976 1691 1015 1677 1045 1650 C 1074 1623 1089 1584 1089 1533 Z" unicode="Ü" />
<glyph horiz-adv-x="1251" d="M 1231 1280 L 786 485 L 786 0 L 467 0 L 467 487 L 20 1280 L 367 1280 L 631 774 L 887 1280 L 1231 1280 Z M 1054 1746 L 708 1367 L 511 1367 L 714 1746 L 1054 1746 Z" unicode="Ý" />
<glyph horiz-adv-x="1212" d="M 1153 657 C 1153 507 1103 393 1005 313 C 906 233 766 193 584 193 L 459 193 L 459 0 L 133 0 L 133 1280 L 459 1280 L 459 1102 L 606 1102 C 784 1102 920 1060 1013 977 C 1106 894 1153 787 1153 657 Z M 829 649 C 829 712 808 760 766 794 C 724 827 663 844 582 844 L 451 844 L 451 442 L 580 444 C 663 446 725 464 767 499 C 808 533 829 583 829 649 Z" unicode="Þ" />
<glyph horiz-adv-x="1321" d="M 166 0 L 166 690 L 2 702 L 10 903 L 164 948 C 164 948 164 961 165 988 C 165 1015 166 1028 166 1026 C 170 1172 219 1276 313 1336 C 407 1396 521 1427 655 1427 C 797 1427 908 1394 988 1329 C 1068 1263 1108 1177 1108 1069 C 1108 978 1078 917 1019 885 C 959 853 930 816 930 776 C 930 722 989 672 1107 628 C 1225 584 1284 484 1284 330 C 1284 222 1249 134 1181 67 C 1113 0 1015 -33 887 -33 C 825 -33 766 -25 711 -11 C 656 2 607 20 563 41 L 606 283 C 638 262 674 244 713 230 C 751 216 787 209 821 209 C 863 209 895 218 917 236 C 939 254 950 280 950 315 C 950 401 900 458 800 488 C 700 518 651 590 651 705 C 651 786 674 846 722 885 C 769 923 793 975 793 1040 C 793 1081 778 1117 750 1148 C 722 1178 687 1194 645 1194 C 591 1194 549 1179 520 1149 C 491 1119 477 1076 477 1018 L 477 0 L 166 0 Z" unicode="ß" />
<glyph horiz-adv-x="1047" d="M 633 115 L 627 115 C 593 75 555 40 513 12 C 471 -16 417 -31 352 -31 C 270 -31 201 -5 145 46 C 89 97 61 159 61 233 C 61 323 101 400 183 465 C 264 529 411 565 625 571 L 625 590 C 625 640 611 676 584 700 C 557 723 515 735 457 735 C 407 735 355 725 299 707 C 243 689 188 666 133 639 L 68 870 C 117 896 180 922 256 946 C 332 970 416 983 506 983 C 670 983 783 946 847 874 C 911 802 942 699 940 567 L 938 285 C 938 252 942 231 952 223 C 962 215 983 209 1016 207 L 985 -18 C 882 -31 803 -25 748 0 C 692 24 654 63 633 115 Z M 625 242 L 625 424 C 527 412 458 396 418 375 C 378 353 358 322 358 281 C 358 250 369 225 391 206 C 413 187 442 178 477 178 C 509 178 537 184 562 196 C 587 208 608 223 625 242 Z M 610 1079 L 414 1079 L 67 1458 L 407 1458 L 610 1079 Z" unicode="à" />
<glyph horiz-adv-x="1047" d="M 633 115 L 627 115 C 593 75 555 40 513 12 C 471 -16 417 -31 352 -31 C 270 -31 201 -5 145 46 C 89 97 61 159 61 233 C 61 323 101 400 183 465 C 264 529 411 565 625 571 L 625 590 C 625 640 611 676 584 700 C 557 723 515 735 457 735 C 407 735 355 725 299 707 C 243 689 188 666 133 639 L 68 870 C 117 896 180 922 256 946 C 332 970 416 983 506 983 C 670 983 783 946 847 874 C 911 802 942 699 940 567 L 938 285 C 938 252 942 231 952 223 C 962 215 983 209 1016 207 L 985 -18 C 882 -31 803 -25 748 0 C 692 24 654 63 633 115 Z M 625 242 L 625 424 C 527 412 458 396 418 375 C 378 353 358 322 358 281 C 358 250 369 225 391 206 C 413 187 442 178 477 178 C 509 178 537 184 562 196 C 587 208 608 223 625 242 Z M 905 1458 L 559 1079 L 362 1079 L 565 1458 L 905 1458 Z" unicode="á" />
<glyph horiz-adv-x="1047" d="M 633 115 L 627 115 C 593 75 555 40 513 12 C 471 -16 417 -31 352 -31 C 270 -31 201 -5 145 46 C 89 97 61 159 61 233 C 61 323 101 400 183 465 C 264 529 411 565 625 571 L 625 590 C 625 640 611 676 584 700 C 557 723 515 735 457 735 C 407 735 355 725 299 707 C 243 689 188 666 133 639 L 68 870 C 117 896 180 922 256 946 C 332 970 416 983 506 983 C 670 983 783 946 847 874 C 911 802 942 699 940 567 L 938 285 C 938 252 942 231 952 223 C 962 215 983 209 1016 207 L 985 -18 C 882 -31 803 -25 748 0 C 692 24 654 63 633 115 Z M 625 242 L 625 424 C 527 412 458 396 418 375 C 378 353 358 322 358 281 C 358 250 369 225 391 206 C 413 187 442 178 477 178 C 509 178 537 184 562 196 C 587 208 608 223 625 242 Z M 883 1079 L 668 1079 L 498 1298 L 494 1298 L 328 1079 L 109 1079 L 352 1462 L 639 1462 L 883 1079 Z" unicode="â" />
<glyph horiz-adv-x="1047" d="M 633 115 L 627 115 C 593 75 555 40 513 12 C 471 -16 417 -31 352 -31 C 270 -31 201 -5 145 46 C 89 97 61 159 61 233 C 61 323 101 400 183 465 C 264 529 411 565 625 571 L 625 590 C 625 640 611 676 584 700 C 557 723 515 735 457 735 C 407 735 355 725 299 707 C 243 689 188 666 133 639 L 68 870 C 117 896 180 922 256 946 C 332 970 416 983 506 983 C 670 983 783 946 847 874 C 911 802 942 699 940 567 L 938 285 C 938 252 942 231 952 223 C 962 215 983 209 1016 207 L 985 -18 C 882 -31 803 -25 748 0 C 692 24 654 63 633 115 Z M 625 242 L 625 424 C 527 412 458 396 418 375 C 378 353 358 322 358 281 C 358 250 369 225 391 206 C 413 187 442 178 477 178 C 509 178 537 184 562 196 C 587 208 608 223 625 242 Z M 901 1399 C 888 1276 862 1193 824 1150 C 785 1106 735 1085 675 1085 C 612 1085 553 1104 497 1143 C 441 1182 398 1202 366 1202 C 348 1202 334 1195 324 1181 C 313 1167 305 1140 301 1100 L 114 1100 C 126 1221 152 1303 190 1346 C 228 1389 277 1411 338 1411 C 402 1411 461 1391 517 1352 C 572 1313 616 1294 649 1294 C 666 1294 680 1301 690 1316 C 700 1330 707 1358 712 1399 L 901 1399 Z" unicode="ã" />
<glyph horiz-adv-x="1047" d="M 633 115 L 627 115 C 593 75 555 40 513 12 C 471 -16 417 -31 352 -31 C 270 -31 201 -5 145 46 C 89 97 61 159 61 233 C 61 323 101 400 183 465 C 264 529 411 565 625 571 L 625 590 C 625 640 611 676 584 700 C 557 723 515 735 457 735 C 407 735 355 725 299 707 C 243 689 188 666 133 639 L 68 870 C 117 896 180 922 256 946 C 332 970 416 983 506 983 C 670 983 783 946 847 874 C 911 802 942 699 940 567 L 938 285 C 938 252 942 231 952 223 C 962 215 983 209 1016 207 L 985 -18 C 882 -31 803 -25 748 0 C 692 24 654 63 633 115 Z M 625 242 L 625 424 C 527 412 458 396 418 375 C 378 353 358 322 358 281 C 358 250 369 225 391 206 C 413 187 442 178 477 178 C 509 178 537 184 562 196 C 587 208 608 223 625 242 Z M 434 1232 C 434 1181 418 1142 388 1115 C 357 1087 318 1074 270 1074 C 222 1074 182 1087 152 1115 C 121 1142 106 1181 106 1232 C 106 1283 121 1322 152 1349 C 182 1376 222 1390 270 1390 C 318 1390 357 1376 388 1349 C 418 1322 434 1283 434 1232 Z M 909 1232 C 909 1181 894 1142 865 1115 C 835 1087 796 1074 747 1074 C 699 1074 660 1087 630 1115 C 600 1142 585 1181 585 1232 C 585 1283 600 1322 630 1349 C 660 1376 699 1390 747 1390 C 796 1390 835 1376 865 1349 C 894 1322 909 1283 909 1232 Z" unicode="ä" />
<glyph horiz-adv-x="1047" d="M 633 115 L 627 115 C 593 75 555 40 513 12 C 471 -16 417 -31 352 -31 C 270 -31 201 -5 145 46 C 89 97 61 159 61 233 C 61 323 101 400 183 465 C 264 529 411 565 625 571 L 625 590 C 625 640 611 676 584 700 C 557 723 515 735 457 735 C 407 735 355 725 299 707 C 243 689 188 666 133 639 L 68 870 C 117 896 180 922 256 946 C 332 970 416 983 506 983 C 670 983 783 946 847 874 C 911 802 942 699 940 567 L 938 285 C 938 252 942 231 952 223 C 962 215 983 209 1016 207 L 985 -18 C 882 -31 803 -25 748 0 C 692 24 654 63 633 115 Z M 625 242 L 625 424 C 527 412 458 396 418 375 C 378 353 358 322 358 281 C 358 250 369 225 391 206 C 413 187 442 178 477 178 C 509 178 537 184 562 196 C 587 208 608 223 625 242 Z M 771 1311 C 772 1243 746 1186 694 1139 C 642 1092 571 1069 483 1069 C 394 1069 324 1092 272 1139 C 220 1186 194 1243 194 1311 C 194 1378 220 1435 272 1482 C 324 1528 394 1552 483 1552 C 571 1552 641 1528 693 1482 C 745 1436 771 1379 771 1311 Z M 651 1313 C 651 1353 636 1387 606 1413 C 576 1439 535 1452 483 1452 C 433 1452 392 1439 362 1413 C 332 1387 317 1353 317 1313 C 317 1272 332 1238 362 1210 C 392 1182 433 1169 483 1169 C 535 1169 576 1182 606 1210 C 636 1238 651 1272 651 1313 Z" unicode="å" />
<glyph horiz-adv-x="1610" d="M 711 168 C 667 114 615 67 556 28 C 496 -11 428 -31 352 -31 C 270 -31 201 -5 145 46 C 89 97 61 159 61 233 C 61 323 103 400 187 466 C 271 532 421 567 637 571 L 637 588 C 637 640 621 678 590 701 C 559 723 515 735 457 735 C 407 735 355 725 299 707 C 243 689 188 666 133 639 L 68 870 C 117 896 180 921 258 945 C 336 969 420 981 510 981 C 589 981 655 972 708 954 C 760 936 803 912 836 881 C 875 912 919 937 968 955 C 1017 973 1073 983 1137 983 C 1270 983 1371 944 1439 868 C 1507 791 1542 696 1542 584 C 1542 558 1540 528 1536 495 C 1532 462 1528 436 1522 416 L 915 406 L 915 401 C 921 338 946 289 990 254 C 1033 218 1093 201 1169 201 C 1220 201 1273 209 1327 226 C 1381 243 1431 265 1479 293 L 1509 49 C 1461 24 1405 5 1340 -8 C 1275 -22 1209 -29 1141 -29 C 1043 -29 957 -11 884 23 C 811 58 753 106 711 168 Z M 635 424 C 537 416 466 400 423 378 C 379 356 358 323 358 281 C 358 250 369 225 392 206 C 414 187 443 178 479 178 C 511 178 543 185 575 201 C 607 217 636 238 662 266 C 655 286 649 312 644 343 C 638 373 635 400 635 424 Z M 920 563 L 1247 565 C 1248 567 1249 570 1249 574 C 1249 578 1249 582 1249 584 C 1249 640 1237 684 1213 717 C 1189 749 1152 766 1102 766 C 1048 766 1006 745 974 705 C 942 664 924 617 920 563 Z" unicode="æ" />
<glyph horiz-adv-x="993" d="M 485 -25 C 355 -8 253 42 177 126 C 101 210 63 324 63 469 C 63 625 110 750 206 843 C 301 936 428 983 588 983 C 654 983 717 975 778 961 C 839 947 891 927 934 903 L 872 666 C 834 687 793 704 749 718 C 705 732 662 739 621 739 C 545 739 486 714 446 666 C 405 618 385 555 385 479 C 385 394 407 329 452 283 C 496 237 555 215 629 215 C 677 215 721 221 763 234 C 805 246 844 264 881 287 L 928 47 C 893 25 850 8 798 -4 C 746 -17 691 -25 633 -29 C 615 -45 599 -59 584 -73 C 568 -87 557 -97 549 -104 C 618 -107 679 -126 731 -160 C 783 -194 809 -243 809 -307 C 809 -375 776 -434 712 -482 C 647 -530 543 -562 401 -580 L 385 -434 C 472 -430 534 -418 570 -400 C 606 -381 625 -357 625 -328 C 625 -290 605 -264 565 -250 C 525 -236 465 -233 387 -240 L 367 -135 L 485 -25 Z" unicode="ç" />
<glyph horiz-adv-x="1059" d="M 371 406 L 371 401 C 375 338 399 289 443 254 C 486 218 546 201 623 201 C 675 201 727 209 781 226 C 835 243 886 265 934 293 L 965 49 C 917 24 860 5 794 -8 C 728 -22 662 -29 594 -29 C 432 -29 303 14 206 101 C 109 188 61 311 61 469 C 61 623 109 748 206 842 C 302 936 426 983 578 983 C 712 983 815 946 887 872 C 959 798 995 702 995 584 C 995 558 993 528 989 495 C 985 462 981 436 975 416 L 371 406 Z M 373 563 L 702 565 L 702 584 C 702 640 690 684 666 717 C 642 749 605 766 557 766 C 503 766 460 745 428 705 C 396 664 377 617 373 563 Z M 669 1079 L 473 1079 L 126 1458 L 466 1458 L 669 1079 Z" unicode="è" />
<glyph horiz-adv-x="1059" d="M 371 406 L 371 401 C 375 338 399 289 443 254 C 486 218 546 201 623 201 C 675 201 727 209 781 226 C 835 243 886 265 934 293 L 965 49 C 917 24 860 5 794 -8 C 728 -22 662 -29 594 -29 C 432 -29 303 14 206 101 C 109 188 61 311 61 469 C 61 623 109 748 206 842 C 302 936 426 983 578 983 C 712 983 815 946 887 872 C 959 798 995 702 995 584 C 995 558 993 528 989 495 C 985 462 981 436 975 416 L 371 406 Z M 373 563 L 702 565 L 702 584 C 702 640 690 684 666 717 C 642 749 605 766 557 766 C 503 766 460 745 428 705 C 396 664 377 617 373 563 Z M 968 1458 L 622 1079 L 425 1079 L 628 1458 L 968 1458 Z" unicode="é" />
<glyph horiz-adv-x="1059" d="M 371 406 L 371 401 C 375 338 399 289 443 254 C 486 218 546 201 623 201 C 675 201 727 209 781 226 C 835 243 886 265 934 293 L 965 49 C 917 24 860 5 794 -8 C 728 -22 662 -29 594 -29 C 432 -29 303 14 206 101 C 109 188 61 311 61 469 C 61 623 109 748 206 842 C 302 936 426 983 578 983 C 712 983 815 946 887 872 C 959 798 995 702 995 584 C 995 558 993 528 989 495 C 985 462 981 436 975 416 L 371 406 Z M 373 563 L 702 565 L 702 584 C 702 640 690 684 666 717 C 642 749 605 766 557 766 C 503 766 460 745 428 705 C 396 664 377 617 373 563 Z M 917 1079 L 702 1079 L 532 1298 L 528 1298 L 362 1079 L 143 1079 L 386 1462 L 673 1462 L 917 1079 Z" unicode="ê" />
<glyph horiz-adv-x="1059" d="M 371 406 L 371 401 C 375 338 399 289 443 254 C 486 218 546 201 623 201 C 675 201 727 209 781 226 C 835 243 886 265 934 293 L 965 49 C 917 24 860 5 794 -8 C 728 -22 662 -29 594 -29 C 432 -29 303 14 206 101 C 109 188 61 311 61 469 C 61 623 109 748 206 842 C 302 936 426 983 578 983 C 712 983 815 946 887 872 C 959 798 995 702 995 584 C 995 558 993 528 989 495 C 985 462 981 436 975 416 L 371 406 Z M 373 563 L 702 565 L 702 584 C 702 640 690 684 666 717 C 642 749 605 766 557 766 C 503 766 460 745 428 705 C 396 664 377 617 373 563 Z M 471 1232 C 471 1181 455 1142 425 1115 C 394 1087 355 1074 307 1074 C 259 1074 219 1087 189 1115 C 158 1142 143 1181 143 1232 C 143 1283 158 1322 189 1349 C 219 1376 259 1390 307 1390 C 355 1390 394 1376 425 1349 C 455 1322 471 1283 471 1232 Z M 946 1232 C 946 1181 931 1142 902 1115 C 872 1087 833 1074 784 1074 C 736 1074 697 1087 667 1115 C 637 1142 622 1181 622 1232 C 622 1283 637 1322 667 1349 C 697 1376 736 1390 784 1390 C 833 1390 872 1376 902 1349 C 931 1322 946 1283 946 1232 Z" unicode="ë" />
<glyph horiz-adv-x="541" d="M 436 0 L 121 0 L 121 942 L 436 969 L 436 0 Z M 403 1079 L 207 1079 L -140 1458 L 200 1458 L 403 1079 Z" unicode="ì" />
<glyph horiz-adv-x="541" d="M 436 0 L 121 0 L 121 942 L 436 969 L 436 0 Z M 694 1458 L 348 1079 L 151 1079 L 354 1458 L 694 1458 Z" unicode="í" />
<glyph horiz-adv-x="541" d="M 436 0 L 121 0 L 121 942 L 436 969 L 436 0 Z M 669 1079 L 454 1079 L 284 1298 L 280 1298 L 114 1079 L -105 1079 L 138 1462 L 425 1462 L 669 1079 Z" unicode="î" />
<glyph horiz-adv-x="541" d="M 436 0 L 121 0 L 121 942 L 436 969 L 436 0 Z M 206 1232 C 206 1181 190 1142 160 1115 C 129 1087 90 1074 42 1074 C -6 1074 -45 1087 -76 1115 C -106 1142 -122 1181 -122 1232 C -122 1283 -106 1322 -76 1349 C -45 1376 -6 1390 42 1390 C 90 1390 129 1376 160 1349 C 190 1322 206 1283 206 1232 Z M 681 1232 C 681 1181 666 1142 637 1115 C 607 1087 568 1074 519 1074 C 471 1074 432 1087 402 1115 C 372 1142 357 1181 357 1232 C 357 1283 372 1322 402 1349 C 432 1376 471 1390 519 1390 C 568 1390 607 1376 637 1349 C 666 1322 681 1283 681 1232 Z" unicode="ï" />
<glyph horiz-adv-x="1178" d="M 1108 543 C 1108 383 1060 247 966 136 C 871 24 739 -31 571 -31 C 426 -31 306 13 212 101 C 117 189 70 308 70 457 C 70 613 115 731 207 809 C 298 887 390 926 483 926 C 531 926 573 918 609 902 C 645 886 679 866 709 840 L 713 842 C 691 878 662 919 625 964 C 588 1009 550 1052 512 1092 C 513 1092 472 1081 388 1059 C 304 1037 262 1026 262 1026 L 221 1192 L 371 1231 C 343 1253 316 1274 291 1296 C 265 1317 241 1336 219 1354 L 567 1421 C 588 1405 609 1388 630 1371 C 650 1353 670 1336 690 1319 L 940 1384 L 983 1217 L 827 1178 C 907 1088 973 989 1027 881 C 1081 773 1108 661 1108 543 Z M 782 469 C 782 501 779 532 774 561 C 768 590 762 617 754 643 C 737 660 713 675 682 687 C 651 699 617 705 580 705 C 524 705 478 683 442 639 C 405 595 387 535 387 459 C 387 378 407 318 447 278 C 487 238 534 219 588 219 C 644 219 690 241 727 285 C 763 329 782 390 782 469 Z" unicode="ð" />
<glyph horiz-adv-x="1157" d="M 1051 0 L 735 0 L 735 563 C 735 620 723 660 699 682 C 675 704 642 715 600 715 C 565 715 533 707 503 693 C 473 678 448 661 428 643 L 428 0 L 113 0 L 113 936 L 428 975 L 428 819 C 470 867 518 906 573 937 C 628 967 686 983 748 983 C 842 983 916 953 970 895 C 1024 836 1051 756 1051 655 L 1051 0 Z M 973 1399 C 960 1276 934 1193 896 1150 C 857 1106 807 1085 747 1085 C 684 1085 625 1104 569 1143 C 513 1182 470 1202 438 1202 C 420 1202 406 1195 396 1181 C 385 1167 377 1140 373 1100 L 186 1100 C 198 1221 224 1303 262 1346 C 300 1389 349 1411 410 1411 C 474 1411 533 1391 589 1352 C 644 1313 688 1294 721 1294 C 738 1294 752 1301 762 1316 C 772 1330 779 1358 784 1399 L 973 1399 Z" unicode="ñ" />
<glyph horiz-adv-x="1145" d="M 1083 479 C 1083 320 1032 195 931 105 C 830 14 709 -31 567 -31 C 424 -31 304 12 207 100 C 109 188 61 312 61 473 C 61 634 111 759 212 849 C 313 938 436 983 580 983 C 722 983 842 938 938 850 C 1034 762 1083 638 1083 479 Z M 770 477 C 770 556 753 620 719 669 C 685 718 635 743 571 743 C 507 743 458 718 425 670 C 391 621 375 556 375 475 C 375 394 392 330 426 282 C 460 234 509 211 573 211 C 637 211 686 235 720 283 C 753 331 770 395 770 477 Z M 722 1079 L 526 1079 L 179 1458 L 519 1458 L 722 1079 Z" unicode="ò" />
<glyph horiz-adv-x="1145" d="M 1083 479 C 1083 320 1032 195 931 105 C 830 14 709 -31 567 -31 C 424 -31 304 12 207 100 C 109 188 61 312 61 473 C 61 634 111 759 212 849 C 313 938 436 983 580 983 C 722 983 842 938 938 850 C 1034 762 1083 638 1083 479 Z M 770 477 C 770 556 753 620 719 669 C 685 718 635 743 571 743 C 507 743 458 718 425 670 C 391 621 375 556 375 475 C 375 394 392 330 426 282 C 460 234 509 211 573 211 C 637 211 686 235 720 283 C 753 331 770 395 770 477 Z M 981 1458 L 635 1079 L 438 1079 L 641 1458 L 981 1458 Z" unicode="ó" />
<glyph horiz-adv-x="1145" d="M 1083 479 C 1083 320 1032 195 931 105 C 830 14 709 -31 567 -31 C 424 -31 304 12 207 100 C 109 188 61 312 61 473 C 61 634 111 759 212 849 C 313 938 436 983 580 983 C 722 983 842 938 938 850 C 1034 762 1083 638 1083 479 Z M 770 477 C 770 556 753 620 719 669 C 685 718 635 743 571 743 C 507 743 458 718 425 670 C 391 621 375 556 375 475 C 375 394 392 330 426 282 C 460 234 509 211 573 211 C 637 211 686 235 720 283 C 753 331 770 395 770 477 Z M 969 1079 L 754 1079 L 584 1298 L 580 1298 L 414 1079 L 195 1079 L 438 1462 L 725 1462 L 969 1079 Z" unicode="ô" />
<glyph horiz-adv-x="1145" d="M 1083 479 C 1083 320 1032 195 931 105 C 830 14 709 -31 567 -31 C 424 -31 304 12 207 100 C 109 188 61 312 61 473 C 61 634 111 759 212 849 C 313 938 436 983 580 983 C 722 983 842 938 938 850 C 1034 762 1083 638 1083 479 Z M 770 477 C 770 556 753 620 719 669 C 685 718 635 743 571 743 C 507 743 458 718 425 670 C 391 621 375 556 375 475 C 375 394 392 330 426 282 C 460 234 509 211 573 211 C 637 211 686 235 720 283 C 753 331 770 395 770 477 Z M 973 1399 C 960 1276 934 1193 896 1150 C 857 1106 807 1085 747 1085 C 684 1085 625 1104 569 1143 C 513 1182 470 1202 438 1202 C 420 1202 406 1195 396 1181 C 385 1167 377 1140 373 1100 L 186 1100 C 198 1221 224 1303 262 1346 C 300 1389 349 1411 410 1411 C 474 1411 533 1391 589 1352 C 644 1313 688 1294 721 1294 C 738 1294 752 1301 762 1316 C 772 1330 779 1358 784 1399 L 973 1399 Z" unicode="õ" />
<glyph horiz-adv-x="1145" d="M 1083 479 C 1083 320 1032 195 931 105 C 830 14 709 -31 567 -31 C 424 -31 304 12 207 100 C 109 188 61 312 61 473 C 61 634 111 759 212 849 C 313 938 436 983 580 983 C 722 983 842 938 938 850 C 1034 762 1083 638 1083 479 Z M 770 477 C 770 556 753 620 719 669 C 685 718 635 743 571 743 C 507 743 458 718 425 670 C 391 621 375 556 375 475 C 375 394 392 330 426 282 C 460 234 509 211 573 211 C 637 211 686 235 720 283 C 753 331 770 395 770 477 Z M 506 1232 C 506 1181 490 1142 460 1115 C 429 1087 390 1074 342 1074 C 294 1074 254 1087 224 1115 C 193 1142 178 1181 178 1232 C 178 1283 193 1322 224 1349 C 254 1376 294 1390 342 1390 C 390 1390 429 1376 460 1349 C 490 1322 506 1283 506 1232 Z M 981 1232 C 981 1181 966 1142 937 1115 C 907 1087 868 1074 819 1074 C 771 1074 732 1087 702 1115 C 672 1142 657 1181 657 1232 C 657 1283 672 1322 702 1349 C 732 1376 771 1390 819 1390 C 868 1390 907 1376 937 1349 C 966 1322 981 1283 981 1232 Z" unicode="ö" />
<glyph horiz-adv-x="1024" d="M 680 111 C 680 63 664 25 633 -4 C 602 -34 562 -49 514 -49 C 465 -49 425 -34 394 -4 C 363 25 348 63 348 111 C 348 157 363 195 394 225 C 425 255 465 270 514 270 C 562 270 602 255 633 225 C 664 195 680 157 680 111 Z M 680 868 C 680 821 664 783 633 753 C 602 723 562 709 512 709 C 463 709 423 723 393 753 C 363 783 348 821 348 868 C 348 915 363 953 393 983 C 423 1013 463 1028 512 1028 C 562 1028 602 1013 633 983 C 664 953 680 915 680 868 Z M 983 371 L 43 371 L 49 608 L 977 608 L 983 371 Z" unicode="÷" />
<glyph horiz-adv-x="1145" d="M 1092 475 C 1092 318 1042 194 942 104 C 842 14 721 -31 578 -31 C 543 -31 509 -28 476 -22 C 443 -16 411 -8 381 2 L 301 -137 L 152 -137 L 266 61 C 206 104 158 161 124 231 C 89 301 72 382 72 475 C 72 633 121 757 220 847 C 319 937 442 983 588 983 C 623 983 657 980 691 974 C 725 968 756 959 786 948 L 864 1077 L 1012 1077 L 901 887 C 959 845 1005 788 1040 718 C 1074 648 1092 567 1092 475 Z M 674 745 C 658 755 643 763 627 767 C 611 771 593 774 575 774 C 511 774 461 747 426 695 C 390 642 373 571 373 483 C 373 448 376 416 382 386 C 388 356 399 326 414 297 L 674 745 Z M 791 473 C 791 504 787 534 781 564 C 775 594 766 623 754 653 L 498 205 C 513 199 528 194 542 190 C 556 186 571 184 588 184 C 652 184 701 210 737 263 C 773 315 791 385 791 473 Z" unicode="ø" />
<glyph horiz-adv-x="1143" d="M 106 952 L 422 952 L 422 389 C 422 332 433 292 457 270 C 480 247 512 236 553 236 C 586 236 616 242 644 254 C 672 266 695 281 715 299 L 715 952 L 1030 952 L 1030 14 L 715 -25 L 715 117 C 678 77 633 42 579 13 C 525 -16 468 -31 406 -31 C 312 -31 239 -1 186 57 C 132 116 106 196 106 297 L 106 952 Z M 683 1079 L 487 1079 L 140 1458 L 480 1458 L 683 1079 Z" unicode="ù" />
<glyph horiz-adv-x="1143" d="M 106 952 L 422 952 L 422 389 C 422 332 433 292 457 270 C 480 247 512 236 553 236 C 586 236 616 242 644 254 C 672 266 695 281 715 299 L 715 952 L 1030 952 L 1030 14 L 715 -25 L 715 117 C 678 77 633 42 579 13 C 525 -16 468 -31 406 -31 C 312 -31 239 -1 186 57 C 132 116 106 196 106 297 L 106 952 Z M 1001 1458 L 655 1079 L 458 1079 L 661 1458 L 1001 1458 Z" unicode="ú" />
<glyph horiz-adv-x="1143" d="M 106 952 L 422 952 L 422 389 C 422 332 433 292 457 270 C 480 247 512 236 553 236 C 586 236 616 242 644 254 C 672 266 695 281 715 299 L 715 952 L 1030 952 L 1030 14 L 715 -25 L 715 117 C 678 77 633 42 579 13 C 525 -16 468 -31 406 -31 C 312 -31 239 -1 186 57 C 132 116 106 196 106 297 L 106 952 Z M 958 1079 L 743 1079 L 573 1298 L 569 1298 L 403 1079 L 184 1079 L 427 1462 L 714 1462 L 958 1079 Z" unicode="û" />
<glyph horiz-adv-x="1143" d="M 106 952 L 422 952 L 422 389 C 422 332 433 292 457 270 C 480 247 512 236 553 236 C 586 236 616 242 644 254 C 672 266 695 281 715 299 L 715 952 L 1030 952 L 1030 14 L 715 -25 L 715 117 C 678 77 633 42 579 13 C 525 -16 468 -31 406 -31 C 312 -31 239 -1 186 57 C 132 116 106 196 106 297 L 106 952 Z M 495 1232 C 495 1181 479 1142 449 1115 C 418 1087 379 1074 331 1074 C 283 1074 243 1087 213 1115 C 182 1142 167 1181 167 1232 C 167 1283 182 1322 213 1349 C 243 1376 283 1390 331 1390 C 379 1390 418 1376 449 1349 C 479 1322 495 1283 495 1232 Z M 970 1232 C 970 1181 955 1142 926 1115 C 896 1087 857 1074 808 1074 C 760 1074 721 1087 691 1115 C 661 1142 646 1181 646 1232 C 646 1283 661 1322 691 1349 C 721 1376 760 1390 808 1390 C 857 1390 896 1376 926 1349 C 955 1322 970 1283 970 1232 Z" unicode="ü" />
<glyph horiz-adv-x="1040" d="M 1049 952 L 705 45 L 657 -80 C 608 -218 551 -313 486 -365 C 421 -416 339 -442 240 -442 C 188 -442 139 -436 93 -426 C 46 -416 1 -401 -43 -381 L 51 -141 C 81 -154 107 -164 129 -172 C 151 -180 174 -184 199 -184 C 232 -184 258 -176 277 -160 C 296 -144 315 -113 334 -68 L 360 6 L -12 952 L 326 952 L 528 326 L 713 952 L 1049 952 Z M 936 1458 L 590 1079 L 393 1079 L 596 1458 L 936 1458 Z" unicode="ý" />
<glyph horiz-adv-x="1167" d="M 428 2 L 428 -432 L 113 -432 L 113 1354 L 428 1393 L 428 858 C 457 886 493 914 537 942 C 581 969 632 983 690 983 C 809 983 907 938 985 848 C 1063 758 1102 638 1102 487 C 1102 330 1054 205 959 111 C 864 17 753 -29 625 -29 C 593 -29 559 -26 524 -20 C 489 -14 457 -7 428 2 Z M 428 666 L 428 246 C 446 233 468 223 492 217 C 516 210 543 207 573 207 C 640 207 692 231 730 280 C 767 328 786 392 786 471 C 786 552 769 616 735 662 C 701 708 652 731 588 731 C 553 731 523 725 498 713 C 472 701 449 685 428 666 Z" unicode="þ" />
<glyph horiz-adv-x="1040" d="M 1049 952 L 705 45 L 657 -80 C 608 -218 551 -313 486 -365 C 421 -416 339 -442 240 -442 C 188 -442 139 -436 93 -426 C 46 -416 1 -401 -43 -381 L 51 -141 C 81 -154 107 -164 129 -172 C 151 -180 174 -184 199 -184 C 232 -184 258 -176 277 -160 C 296 -144 315 -113 334 -68 L 360 6 L -12 952 L 326 952 L 528 326 L 713 952 L 1049 952 Z M 442 1245 C 442 1194 426 1155 396 1128 C 365 1100 326 1087 278 1087 C 230 1087 190 1100 160 1128 C 129 1155 114 1194 114 1245 C 114 1296 129 1335 160 1362 C 190 1389 230 1403 278 1403 C 326 1403 365 1389 396 1362 C 426 1335 442 1296 442 1245 Z M 917 1245 C 917 1194 902 1155 873 1128 C 843 1100 804 1087 755 1087 C 707 1087 668 1100 638 1128 C 608 1155 593 1194 593 1245 C 593 1296 608 1335 638 1362 C 668 1389 707 1403 755 1403 C 804 1403 843 1389 873 1362 C 902 1335 917 1296 917 1245 Z" unicode="ÿ" />
<glyph horiz-adv-x="1317" d="M 866 1280 L 1313 0 L 989 0 L 895 272 L 420 272 L 328 0 L 4 0 L 459 1280 L 866 1280 Z M 823 526 L 659 1028 L 489 526 L 823 526 Z M 1029 1451 L 284 1451 L 306 1630 L 1007 1630 L 1029 1451 Z" unicode="Ā" />
<glyph horiz-adv-x="1047" d="M 633 115 L 627 115 C 593 75 555 40 513 12 C 471 -16 417 -31 352 -31 C 270 -31 201 -5 145 46 C 89 97 61 159 61 233 C 61 323 101 400 183 465 C 264 529 411 565 625 571 L 625 590 C 625 640 611 676 584 700 C 557 723 515 735 457 735 C 407 735 355 725 299 707 C 243 689 188 666 133 639 L 68 870 C 117 896 180 922 256 946 C 332 970 416 983 506 983 C 670 983 783 946 847 874 C 911 802 942 699 940 567 L 938 285 C 938 252 942 231 952 223 C 962 215 983 209 1016 207 L 985 -18 C 882 -31 803 -25 748 0 C 692 24 654 63 633 115 Z M 625 242 L 625 424 C 527 412 458 396 418 375 C 378 353 358 322 358 281 C 358 250 369 225 391 206 C 413 187 442 178 477 178 C 509 178 537 184 562 196 C 587 208 608 223 625 242 Z M 878 1124 L 133 1124 L 155 1303 L 856 1303 L 878 1124 Z" unicode="ā" />
<glyph horiz-adv-x="1317" d="M 866 1280 L 1313 0 L 989 0 L 895 272 L 420 272 L 328 0 L 4 0 L 459 1280 L 866 1280 Z M 823 526 L 659 1028 L 489 526 L 823 526 Z M 1029 1782 C 1018 1647 976 1548 903 1486 C 829 1424 747 1393 657 1393 C 568 1393 486 1424 412 1486 C 338 1548 295 1647 284 1782 L 474 1780 C 485 1718 505 1668 535 1630 C 565 1592 605 1573 657 1573 C 709 1573 749 1592 779 1630 C 809 1668 829 1718 839 1780 L 1029 1782 Z" unicode="Ă" />
<glyph horiz-adv-x="1047" d="M 633 115 L 627 115 C 593 75 555 40 513 12 C 471 -16 417 -31 352 -31 C 270 -31 201 -5 145 46 C 89 97 61 159 61 233 C 61 323 101 400 183 465 C 264 529 411 565 625 571 L 625 590 C 625 640 611 676 584 700 C 557 723 515 735 457 735 C 407 735 355 725 299 707 C 243 689 188 666 133 639 L 68 870 C 117 896 180 922 256 946 C 332 970 416 983 506 983 C 670 983 783 946 847 874 C 911 802 942 699 940 567 L 938 285 C 938 252 942 231 952 223 C 962 215 983 209 1016 207 L 985 -18 C 882 -31 803 -25 748 0 C 692 24 654 63 633 115 Z M 625 242 L 625 424 C 527 412 458 396 418 375 C 378 353 358 322 358 281 C 358 250 369 225 391 206 C 413 187 442 178 477 178 C 509 178 537 184 562 196 C 587 208 608 223 625 242 Z M 878 1455 C 867 1320 825 1221 752 1159 C 678 1097 596 1066 506 1066 C 417 1066 335 1097 261 1159 C 187 1221 144 1320 133 1455 L 323 1453 C 334 1391 354 1341 384 1303 C 414 1265 454 1246 506 1246 C 558 1246 598 1265 628 1303 C 658 1341 678 1391 688 1453 L 878 1455 Z" unicode="ă" />
<glyph horiz-adv-x="1317" d="M 866 1280 L 1313 0 C 1229 -5 1161 -23 1108 -55 C 1054 -86 1028 -124 1028 -170 C 1028 -200 1035 -222 1051 -238 C 1067 -254 1088 -262 1116 -262 C 1134 -262 1152 -259 1171 -255 C 1190 -250 1207 -244 1221 -236 L 1264 -395 C 1238 -411 1207 -425 1173 -435 C 1139 -445 1098 -451 1051 -451 C 977 -451 917 -432 871 -394 C 825 -356 803 -306 803 -242 C 803 -186 821 -136 857 -94 C 893 -52 936 -20 987 0 L 895 272 L 420 272 L 328 0 L 4 0 L 459 1280 L 866 1280 Z M 823 526 L 659 1028 L 489 526 L 823 526 Z" unicode="Ą" />
<glyph horiz-adv-x="1047" d="M 633 115 L 627 115 C 592 75 554 40 513 12 C 471 -16 418 -31 352 -31 C 270 -31 201 -5 145 46 C 89 97 61 159 61 233 C 61 323 101 401 183 466 C 264 530 411 565 625 571 L 625 590 C 625 640 611 677 585 700 C 558 723 515 735 457 735 C 407 735 355 725 299 707 C 243 689 187 666 133 639 L 68 870 C 118 896 181 921 257 946 C 333 970 416 983 506 983 C 670 983 783 946 847 874 C 910 802 941 699 940 567 L 938 285 C 938 252 942 231 952 223 C 962 215 983 209 1016 207 L 985 -18 C 923 -24 869 -40 821 -66 C 773 -92 750 -127 750 -170 C 750 -200 757 -222 773 -238 C 789 -254 811 -262 840 -262 C 857 -262 875 -259 895 -255 C 914 -250 930 -244 944 -236 L 987 -395 C 961 -411 931 -425 897 -435 C 863 -445 821 -451 772 -451 C 698 -451 639 -432 594 -394 C 548 -356 526 -306 526 -242 C 526 -183 544 -132 581 -88 C 618 -44 664 -11 719 12 C 698 24 681 39 667 56 C 653 73 642 93 633 115 Z M 625 242 L 625 424 C 527 413 458 397 418 376 C 378 354 358 323 358 281 C 358 251 369 226 392 207 C 414 187 443 178 477 178 C 508 178 536 184 562 196 C 587 208 608 224 625 242 Z" unicode="ą" />
<glyph horiz-adv-x="1255" d="M 1036 1785 L 690 1406 L 493 1406 L 696 1785 L 1036 1785 Z M 1194 1214 L 1096 942 C 1048 970 996 993 941 1009 C 885 1025 829 1034 772 1034 C 662 1034 573 998 507 928 C 441 858 408 763 408 643 C 408 521 440 425 504 353 C 568 281 658 246 774 246 C 836 246 895 255 953 274 C 1011 293 1064 318 1112 350 L 1180 61 C 1130 33 1066 11 988 -5 C 910 -22 834 -31 760 -31 C 556 -31 391 26 267 141 C 142 256 80 421 80 635 C 80 841 142 1005 267 1127 C 392 1249 560 1311 770 1311 C 847 1311 922 1302 996 1284 C 1070 1266 1136 1242 1194 1214 Z" unicode="Ć" />
<glyph horiz-adv-x="991" d="M 909 1458 L 563 1079 L 366 1079 L 569 1458 L 909 1458 Z M 928 47 C 888 22 837 3 775 -10 C 713 -24 648 -31 580 -31 C 422 -31 297 12 203 98 C 109 184 63 308 63 469 C 63 625 110 750 206 843 C 301 936 428 983 588 983 C 654 983 717 975 778 961 C 839 947 891 927 934 903 L 872 666 C 834 687 793 704 749 718 C 705 732 662 739 621 739 C 545 739 486 714 446 666 C 405 618 385 555 385 479 C 385 394 407 329 452 283 C 496 237 555 215 629 215 C 677 215 721 221 763 234 C 805 246 844 264 881 287 L 928 47 Z" unicode="ć" />
<glyph horiz-adv-x="1255" d="M 1096 1406 L 881 1406 L 711 1625 L 707 1625 L 541 1406 L 322 1406 L 565 1789 L 852 1789 L 1096 1406 Z M 1194 1214 L 1096 942 C 1048 970 996 993 941 1009 C 885 1025 829 1034 772 1034 C 662 1034 573 998 507 928 C 441 858 408 763 408 643 C 408 521 440 425 504 353 C 568 281 658 246 774 246 C 836 246 895 255 953 274 C 1011 293 1064 318 1112 350 L 1180 61 C 1130 33 1066 11 988 -5 C 910 -22 834 -31 760 -31 C 556 -31 391 26 267 141 C 142 256 80 421 80 635 C 80 841 142 1005 267 1127 C 392 1249 560 1311 770 1311 C 847 1311 922 1302 996 1284 C 1070 1266 1136 1242 1194 1214 Z" unicode="Ĉ" />
<glyph horiz-adv-x="991" d="M 936 1079 L 721 1079 L 551 1298 L 547 1298 L 381 1079 L 162 1079 L 405 1462 L 692 1462 L 936 1079 Z M 928 47 C 888 22 837 3 775 -10 C 713 -24 648 -31 580 -31 C 422 -31 297 12 203 98 C 109 184 63 308 63 469 C 63 625 110 750 206 843 C 301 936 428 983 588 983 C 654 983 717 975 778 961 C 839 947 891 927 934 903 L 872 666 C 834 687 793 704 749 718 C 705 732 662 739 621 739 C 545 739 486 714 446 666 C 405 618 385 555 385 479 C 385 394 407 329 452 283 C 496 237 555 215 629 215 C 677 215 721 221 763 234 C 805 246 844 264 881 287 L 928 47 Z" unicode="ĉ" />
<glyph horiz-adv-x="1255" d="M 1194 1214 L 1096 942 C 1048 970 996 993 941 1009 C 885 1025 829 1034 772 1034 C 662 1034 573 998 507 928 C 441 858 408 763 408 643 C 408 521 440 425 504 353 C 568 281 658 246 774 246 C 836 246 895 255 953 274 C 1011 293 1064 318 1112 350 L 1180 61 C 1130 33 1066 11 988 -5 C 910 -22 834 -31 760 -31 C 556 -31 391 26 267 141 C 142 256 80 421 80 635 C 80 841 142 1005 267 1127 C 392 1249 560 1311 770 1311 C 847 1311 922 1302 996 1284 C 1070 1266 1136 1242 1194 1214 Z M 885 1560 C 885 1510 869 1468 838 1434 C 807 1399 765 1382 713 1382 C 661 1382 620 1399 588 1434 C 556 1468 541 1510 541 1560 C 541 1606 556 1648 588 1684 C 620 1720 661 1738 713 1738 C 765 1738 807 1720 838 1684 C 869 1648 885 1606 885 1560 Z" unicode="Ċ" />
<glyph horiz-adv-x="991" d="M 928 47 C 888 22 837 3 775 -10 C 713 -24 648 -31 580 -31 C 422 -31 297 12 203 98 C 109 184 63 308 63 469 C 63 625 110 750 206 843 C 301 936 428 983 588 983 C 654 983 717 975 778 961 C 839 947 891 927 934 903 L 872 666 C 834 687 793 704 749 718 C 705 732 662 739 621 739 C 545 739 486 714 446 666 C 405 618 385 555 385 479 C 385 394 407 329 452 283 C 496 237 555 215 629 215 C 677 215 721 221 763 234 C 805 246 844 264 881 287 L 928 47 Z M 754 1229 C 754 1179 738 1137 707 1103 C 676 1068 634 1051 582 1051 C 530 1051 489 1068 457 1103 C 425 1137 410 1179 410 1229 C 410 1275 425 1317 457 1353 C 489 1389 530 1407 582 1407 C 634 1407 676 1389 707 1353 C 738 1317 754 1275 754 1229 Z" unicode="ċ" />
<glyph horiz-adv-x="1255" d="M 1110 1789 L 866 1406 L 579 1406 L 336 1789 L 551 1789 L 721 1568 L 725 1568 L 891 1789 L 1110 1789 Z M 1194 1214 L 1096 942 C 1048 970 996 993 941 1009 C 885 1025 829 1034 772 1034 C 662 1034 573 998 507 928 C 441 858 408 763 408 643 C 408 521 440 425 504 353 C 568 281 658 246 774 246 C 836 246 895 255 953 274 C 1011 293 1064 318 1112 350 L 1180 61 C 1130 33 1066 11 988 -5 C 910 -22 834 -31 760 -31 C 556 -31 391 26 267 141 C 142 256 80 421 80 635 C 80 841 142 1005 267 1127 C 392 1249 560 1311 770 1311 C 847 1311 922 1302 996 1284 C 1070 1266 1136 1242 1194 1214 Z" unicode="Č" />
<glyph horiz-adv-x="991" d="M 928 1462 L 684 1079 L 397 1079 L 154 1462 L 369 1462 L 539 1241 L 543 1241 L 709 1462 L 928 1462 Z M 928 47 C 888 22 837 3 775 -10 C 713 -24 648 -31 580 -31 C 422 -31 297 12 203 98 C 109 184 63 308 63 469 C 63 625 110 750 206 843 C 301 936 428 983 588 983 C 654 983 717 975 778 961 C 839 947 891 927 934 903 L 872 666 C 834 687 793 704 749 718 C 705 732 662 739 621 739 C 545 739 486 714 446 666 C 405 618 385 555 385 479 C 385 394 407 329 452 283 C 496 237 555 215 629 215 C 677 215 721 221 763 234 C 805 246 844 264 881 287 L 928 47 Z" unicode="č" />
<glyph horiz-adv-x="1395" d="M 987 1789 L 743 1406 L 456 1406 L 213 1789 L 428 1789 L 598 1568 L 602 1568 L 768 1789 L 987 1789 Z M 1321 649 C 1321 453 1257 296 1131 178 C 1005 59 825 0 592 0 L 133 0 L 133 1280 L 614 1280 C 838 1280 1012 1222 1136 1106 C 1259 990 1321 838 1321 649 Z M 993 637 C 993 768 959 865 893 927 C 826 989 726 1020 594 1020 L 459 1020 L 459 260 L 610 260 C 727 260 820 291 889 353 C 958 415 993 509 993 637 Z" unicode="Ď" />
<glyph horiz-adv-x="1673" d="M 1193 1229 C 1199 1283 1222 1328 1263 1362 C 1304 1396 1354 1413 1412 1413 C 1483 1413 1542 1387 1588 1335 C 1634 1283 1658 1222 1658 1153 C 1658 1059 1622 977 1551 909 C 1480 841 1400 783 1312 735 L 1173 858 C 1229 896 1277 933 1317 969 C 1357 1005 1377 1039 1377 1073 C 1377 1100 1364 1125 1338 1149 C 1312 1172 1263 1199 1193 1229 Z M 737 948 L 737 1354 L 1053 1393 L 1053 0 L 737 0 L 737 98 C 707 67 670 38 626 11 C 582 -15 530 -29 471 -29 C 353 -29 256 15 179 105 C 101 195 63 315 63 465 C 63 621 110 746 206 840 C 302 934 413 981 541 981 C 575 981 609 978 643 972 C 676 966 707 958 737 948 Z M 737 707 C 719 719 698 728 673 736 C 648 744 621 748 592 748 C 526 748 474 723 436 673 C 398 623 379 559 379 481 C 379 401 397 338 434 292 C 471 246 519 223 578 223 C 612 223 642 228 668 240 C 694 252 717 268 737 289 L 737 707 Z" unicode="ď" />
<glyph horiz-adv-x="1466" d="M 201 522 L 31 522 L 31 772 L 201 772 L 201 1280 L 682 1280 C 906 1280 1079 1222 1203 1106 C 1327 990 1389 838 1389 649 C 1389 453 1325 296 1199 178 C 1073 59 894 0 662 0 L 201 0 L 201 522 Z M 526 772 L 786 772 L 786 522 L 526 522 L 526 260 L 651 260 C 768 260 866 291 944 353 C 1022 415 1061 509 1061 637 C 1061 768 1023 865 947 927 C 871 989 767 1020 635 1020 L 526 1020 L 526 772 Z" unicode="Đ" />
<glyph horiz-adv-x="1167" d="M 737 948 L 737 1044 L 479 1044 L 502 1221 L 737 1221 L 737 1354 L 1053 1393 L 1053 1221 L 1157 1221 L 1178 1044 L 1053 1040 L 1053 0 L 737 0 L 737 98 C 707 67 670 38 626 11 C 582 -15 530 -29 471 -29 C 353 -29 256 15 179 105 C 101 195 63 315 63 465 C 63 621 110 746 206 840 C 302 934 413 981 541 981 C 575 981 609 978 643 972 C 676 966 707 958 737 948 Z M 737 707 C 719 719 698 728 673 736 C 648 744 621 748 592 748 C 526 748 474 723 436 673 C 398 623 379 559 379 481 C 379 401 397 338 434 292 C 471 246 519 223 578 223 C 612 223 642 228 668 240 C 694 252 717 268 737 289 L 737 707 Z" unicode="đ" />
<glyph horiz-adv-x="1157" d="M 1069 0 L 133 0 L 133 1280 L 1069 1280 L 1069 1018 L 453 1018 L 453 772 L 948 772 L 948 512 L 453 512 L 453 262 L 1069 262 L 1069 0 Z M 970 1453 L 225 1453 L 247 1632 L 948 1632 L 970 1453 Z" unicode="Ē" />
<glyph horiz-adv-x="1061" d="M 371 406 L 371 401 C 375 338 399 289 443 254 C 486 218 546 201 623 201 C 675 201 727 209 781 226 C 835 243 886 265 934 293 L 965 49 C 917 24 860 5 794 -8 C 728 -22 662 -29 594 -29 C 432 -29 303 14 206 101 C 109 188 61 311 61 469 C 61 623 109 748 206 842 C 302 936 426 983 578 983 C 712 983 815 946 887 872 C 959 798 995 702 995 584 C 995 558 993 528 989 495 C 985 462 981 436 975 416 L 371 406 Z M 373 563 L 702 565 L 702 584 C 702 640 690 684 666 717 C 642 749 605 766 557 766 C 503 766 460 745 428 705 C 396 664 377 617 373 563 Z M 911 1124 L 166 1124 L 188 1303 L 889 1303 L 911 1124 Z" unicode="ē" />
<glyph horiz-adv-x="1157" d="M 1069 0 L 133 0 L 133 1280 L 1069 1280 L 1069 1018 L 453 1018 L 453 772 L 948 772 L 948 512 L 453 512 L 453 262 L 1069 262 L 1069 0 Z M 997 1782 C 986 1647 944 1548 871 1486 C 797 1424 715 1393 625 1393 C 536 1393 454 1424 380 1486 C 306 1548 263 1647 252 1782 L 442 1780 C 453 1718 473 1668 503 1630 C 533 1592 573 1573 625 1573 C 677 1573 717 1592 747 1630 C 777 1668 797 1718 807 1780 L 997 1782 Z" unicode="Ĕ" />
<glyph horiz-adv-x="1061" d="M 371 406 L 371 401 C 375 338 399 289 443 254 C 486 218 546 201 623 201 C 675 201 727 209 781 226 C 835 243 886 265 934 293 L 965 49 C 917 24 860 5 794 -8 C 728 -22 662 -29 594 -29 C 432 -29 303 14 206 101 C 109 188 61 311 61 469 C 61 623 109 748 206 842 C 302 936 426 983 578 983 C 712 983 815 946 887 872 C 959 798 995 702 995 584 C 995 558 993 528 989 495 C 985 462 981 436 975 416 L 371 406 Z M 373 563 L 702 565 L 702 584 C 702 640 690 684 666 717 C 642 749 605 766 557 766 C 503 766 460 745 428 705 C 396 664 377 617 373 563 Z M 908 1455 C 897 1320 855 1221 782 1159 C 708 1097 626 1066 536 1066 C 447 1066 365 1097 291 1159 C 217 1221 174 1320 163 1455 L 353 1453 C 364 1391 384 1341 414 1303 C 444 1265 484 1246 536 1246 C 588 1246 628 1265 658 1303 C 688 1341 708 1391 718 1453 L 908 1455 Z" unicode="ĕ" />
<glyph horiz-adv-x="1157" d="M 1069 0 L 133 0 L 133 1280 L 1069 1280 L 1069 1018 L 453 1018 L 453 772 L 948 772 L 948 512 L 453 512 L 453 262 L 1069 262 L 1069 0 Z M 778 1556 C 778 1506 762 1464 731 1430 C 700 1395 658 1378 606 1378 C 554 1378 513 1395 481 1430 C 449 1464 434 1506 434 1556 C 434 1602 449 1644 481 1680 C 513 1716 554 1734 606 1734 C 658 1734 700 1716 731 1680 C 762 1644 778 1602 778 1556 Z" unicode="Ė" />
<glyph horiz-adv-x="1061" d="M 371 406 L 371 401 C 375 338 399 289 443 254 C 486 218 546 201 623 201 C 675 201 727 209 781 226 C 835 243 886 265 934 293 L 965 49 C 917 24 860 5 794 -8 C 728 -22 662 -29 594 -29 C 432 -29 303 14 206 101 C 109 188 61 311 61 469 C 61 623 109 748 206 842 C 302 936 426 983 578 983 C 712 983 815 946 887 872 C 959 798 995 702 995 584 C 995 558 993 528 989 495 C 985 462 981 436 975 416 L 371 406 Z M 373 563 L 702 565 L 702 584 C 702 640 690 684 666 717 C 642 749 605 766 557 766 C 503 766 460 745 428 705 C 396 664 377 617 373 563 Z M 711 1229 C 711 1179 695 1137 664 1103 C 633 1068 591 1051 539 1051 C 487 1051 446 1068 414 1103 C 382 1137 367 1179 367 1229 C 367 1275 382 1317 414 1353 C 446 1389 487 1407 539 1407 C 591 1407 633 1389 664 1353 C 695 1317 711 1275 711 1229 Z" unicode="ė" />
<glyph horiz-adv-x="1157" d="M 1069 0 L 944 0 C 908 -24 881 -51 861 -80 C 841 -108 831 -138 831 -170 C 831 -199 838 -222 854 -238 C 870 -254 892 -262 920 -262 C 938 -262 956 -259 975 -255 C 994 -250 1010 -244 1024 -236 L 1067 -395 C 1041 -411 1011 -425 977 -435 C 943 -445 902 -451 854 -451 C 779 -451 719 -432 674 -394 C 628 -356 606 -306 606 -242 C 606 -188 621 -141 653 -100 C 685 -58 724 -25 770 0 L 133 0 L 133 1280 L 1069 1280 L 1069 1018 L 453 1018 L 453 772 L 948 772 L 948 512 L 453 512 L 453 262 L 1069 262 L 1069 0 Z" unicode="Ę" />
<glyph horiz-adv-x="1061" d="M 371 406 L 371 401 C 376 338 400 289 443 254 C 486 218 546 201 623 201 C 674 201 727 209 781 226 C 835 243 886 265 934 293 L 965 49 C 910 34 857 7 805 -31 C 753 -70 727 -116 727 -170 C 727 -200 734 -222 750 -238 C 766 -254 787 -262 815 -262 C 833 -262 851 -259 870 -255 C 889 -250 906 -244 920 -236 L 963 -395 C 937 -411 906 -425 872 -435 C 838 -445 797 -451 750 -451 C 676 -451 616 -432 570 -394 C 524 -356 502 -306 502 -242 C 502 -198 513 -158 535 -122 C 557 -86 586 -55 621 -29 L 594 -29 C 432 -29 303 14 206 101 C 109 187 61 310 61 469 C 61 623 109 747 206 841 C 303 935 427 983 578 983 C 712 983 815 946 887 872 C 959 798 995 702 995 584 C 995 558 993 528 989 495 C 985 462 980 436 975 416 L 371 406 Z M 373 563 L 702 565 L 702 584 C 702 640 690 684 666 717 C 642 749 606 766 557 766 C 502 766 459 745 428 705 C 396 665 378 617 373 563 Z" unicode="ę" />
<glyph horiz-adv-x="1157" d="M 997 1789 L 753 1406 L 466 1406 L 223 1789 L 438 1789 L 608 1568 L 612 1568 L 778 1789 L 997 1789 Z M 1069 0 L 133 0 L 133 1280 L 1069 1280 L 1069 1018 L 453 1018 L 453 772 L 948 772 L 948 512 L 453 512 L 453 262 L 1069 262 L 1069 0 Z" unicode="Ě" />
<glyph horiz-adv-x="1061" d="M 923 1462 L 679 1079 L 392 1079 L 149 1462 L 364 1462 L 534 1241 L 538 1241 L 704 1462 L 923 1462 Z M 371 406 L 371 401 C 375 338 399 289 443 254 C 486 218 546 201 623 201 C 675 201 727 209 781 226 C 835 243 886 265 934 293 L 965 49 C 917 24 860 5 794 -8 C 728 -22 662 -29 594 -29 C 432 -29 303 14 206 101 C 109 188 61 311 61 469 C 61 623 109 748 206 842 C 302 936 426 983 578 983 C 712 983 815 946 887 872 C 959 798 995 702 995 584 C 995 558 993 528 989 495 C 985 462 981 436 975 416 L 371 406 Z M 373 563 L 702 565 L 702 584 C 702 640 690 684 666 717 C 642 749 605 766 557 766 C 503 766 460 745 428 705 C 396 664 377 617 373 563 Z" unicode="ě" />
<glyph horiz-adv-x="1378" d="M 1108 1406 L 893 1406 L 723 1625 L 719 1625 L 553 1406 L 334 1406 L 577 1789 L 864 1789 L 1108 1406 Z M 1276 88 C 1206 50 1127 21 1039 0 C 951 -20 860 -31 768 -31 C 564 -31 398 27 271 144 C 143 261 80 425 80 635 C 80 843 142 1008 268 1129 C 394 1250 561 1311 770 1311 C 851 1311 936 1301 1026 1283 C 1115 1264 1190 1236 1251 1200 L 1149 928 C 1089 962 1027 989 965 1007 C 903 1025 841 1034 780 1034 C 666 1034 574 998 506 927 C 437 855 403 761 403 643 C 403 515 434 416 498 344 C 562 272 654 236 776 236 C 812 236 849 239 886 247 C 922 254 954 263 981 274 L 981 463 L 666 463 L 666 721 L 1276 721 L 1276 88 Z" unicode="Ĝ" />
<glyph horiz-adv-x="1081" d="M 897 1079 L 682 1079 L 512 1298 L 508 1298 L 342 1079 L 123 1079 L 366 1462 L 653 1462 L 897 1079 Z M 223 -63 C 181 -51 143 -30 109 -1 C 74 28 57 65 57 109 C 57 153 75 195 112 235 C 149 275 196 303 254 319 C 198 345 151 384 115 436 C 79 488 61 547 61 614 C 61 717 101 804 182 876 C 262 947 373 983 514 983 C 570 983 623 975 674 961 C 725 947 769 931 805 915 L 1073 938 L 1087 682 L 903 711 C 911 701 917 686 922 664 C 927 642 930 622 930 606 C 930 510 890 429 812 362 C 734 295 634 262 512 262 C 490 262 470 263 450 266 C 430 268 408 272 385 276 C 371 269 359 260 347 248 C 335 236 330 223 330 207 C 330 185 343 170 370 161 C 397 151 442 147 504 147 L 616 147 C 746 147 852 127 934 88 C 1016 49 1057 -20 1057 -121 C 1057 -239 996 -333 875 -405 C 753 -476 615 -512 461 -512 C 333 -512 224 -491 133 -451 C 41 -410 -4 -348 -4 -264 C -4 -217 15 -174 53 -135 C 91 -96 147 -72 223 -63 Z M 348 -98 C 326 -108 308 -122 294 -140 C 279 -157 272 -178 272 -203 C 272 -239 293 -269 337 -293 C 381 -316 439 -328 512 -328 C 588 -328 652 -316 704 -294 C 756 -271 782 -239 782 -199 C 782 -161 761 -135 721 -123 C 680 -110 619 -104 537 -104 C 507 -104 472 -103 433 -102 C 393 -100 365 -99 348 -98 Z M 362 612 C 362 562 374 521 399 490 C 424 459 462 444 512 444 C 560 444 595 460 617 492 C 639 524 651 567 651 621 C 651 670 639 710 615 741 C 591 772 554 788 506 788 C 461 788 426 772 400 740 C 374 708 362 665 362 612 Z" unicode="ĝ" />
<glyph horiz-adv-x="1378" d="M 1276 88 C 1206 50 1127 21 1039 0 C 951 -20 860 -31 768 -31 C 564 -31 398 27 271 144 C 143 261 80 425 80 635 C 80 843 142 1008 268 1129 C 394 1250 561 1311 770 1311 C 851 1311 936 1301 1026 1283 C 1115 1264 1190 1236 1251 1200 L 1149 928 C 1089 962 1027 989 965 1007 C 903 1025 841 1034 780 1034 C 666 1034 574 998 506 927 C 437 855 403 761 403 643 C 403 515 434 416 498 344 C 562 272 654 236 776 236 C 812 236 849 239 886 247 C 922 254 954 263 981 274 L 981 463 L 666 463 L 666 721 L 1276 721 L 1276 88 Z M 1095 1782 C 1084 1647 1042 1548 969 1486 C 895 1424 813 1393 723 1393 C 634 1393 552 1424 478 1486 C 404 1548 361 1647 350 1782 L 540 1780 C 551 1718 571 1668 601 1630 C 631 1592 671 1573 723 1573 C 775 1573 815 1592 845 1630 C 875 1668 895 1718 905 1780 L 1095 1782 Z" unicode="Ğ" />
<glyph horiz-adv-x="1081" d="M 223 -63 C 181 -51 143 -30 109 -1 C 74 28 57 65 57 109 C 57 153 75 195 112 235 C 149 275 196 303 254 319 C 198 345 151 384 115 436 C 79 488 61 547 61 614 C 61 717 101 804 182 876 C 262 947 373 983 514 983 C 570 983 623 975 674 961 C 725 947 769 931 805 915 L 1073 938 L 1087 682 L 903 711 C 911 701 917 686 922 664 C 927 642 930 622 930 606 C 930 510 890 429 812 362 C 734 295 634 262 512 262 C 490 262 470 263 450 266 C 430 268 408 272 385 276 C 371 269 359 260 347 248 C 335 236 330 223 330 207 C 330 185 343 170 370 161 C 397 151 442 147 504 147 L 616 147 C 746 147 852 127 934 88 C 1016 49 1057 -20 1057 -121 C 1057 -239 996 -333 875 -405 C 753 -476 615 -512 461 -512 C 333 -512 224 -491 133 -451 C 41 -410 -4 -348 -4 -264 C -4 -217 15 -174 53 -135 C 91 -96 147 -72 223 -63 Z M 348 -98 C 326 -108 308 -122 294 -140 C 279 -157 272 -178 272 -203 C 272 -239 293 -269 337 -293 C 381 -316 439 -328 512 -328 C 588 -328 652 -316 704 -294 C 756 -271 782 -239 782 -199 C 782 -161 761 -135 721 -123 C 680 -110 619 -104 537 -104 C 507 -104 472 -103 433 -102 C 393 -100 365 -99 348 -98 Z M 362 612 C 362 562 374 521 399 490 C 424 459 462 444 512 444 C 560 444 595 460 617 492 C 639 524 651 567 651 621 C 651 670 639 710 615 741 C 591 772 554 788 506 788 C 461 788 426 772 400 740 C 374 708 362 665 362 612 Z M 900 1455 C 889 1320 847 1221 774 1159 C 700 1097 618 1066 528 1066 C 439 1066 357 1097 283 1159 C 209 1221 166 1320 155 1455 L 345 1453 C 356 1391 376 1341 406 1303 C 436 1265 476 1246 528 1246 C 580 1246 620 1265 650 1303 C 680 1341 700 1391 710 1453 L 900 1455 Z" unicode="ğ" />
<glyph horiz-adv-x="1378" d="M 1276 88 C 1206 50 1127 21 1039 0 C 951 -20 860 -31 768 -31 C 564 -31 398 27 271 144 C 143 261 80 425 80 635 C 80 843 142 1008 268 1129 C 394 1250 561 1311 770 1311 C 851 1311 936 1301 1026 1283 C 1115 1264 1190 1236 1251 1200 L 1149 928 C 1089 962 1027 989 965 1007 C 903 1025 841 1034 780 1034 C 666 1034 574 998 506 927 C 437 855 403 761 403 643 C 403 515 434 416 498 344 C 562 272 654 236 776 236 C 812 236 849 239 886 247 C 922 254 954 263 981 274 L 981 463 L 666 463 L 666 721 L 1276 721 L 1276 88 Z M 928 1556 C 928 1506 912 1464 881 1430 C 850 1395 808 1378 756 1378 C 704 1378 663 1395 631 1430 C 599 1464 584 1506 584 1556 C 584 1602 599 1644 631 1680 C 663 1716 704 1734 756 1734 C 808 1734 850 1716 881 1680 C 912 1644 928 1602 928 1556 Z" unicode="Ġ" />
<glyph horiz-adv-x="1081" d="M 223 -63 C 181 -51 143 -30 109 -1 C 74 28 57 65 57 109 C 57 153 75 195 112 235 C 149 275 196 303 254 319 C 198 345 151 384 115 436 C 79 488 61 547 61 614 C 61 717 101 804 182 876 C 262 947 373 983 514 983 C 570 983 623 975 674 961 C 725 947 769 931 805 915 L 1073 938 L 1087 682 L 903 711 C 911 701 917 686 922 664 C 927 642 930 622 930 606 C 930 510 890 429 812 362 C 734 295 634 262 512 262 C 490 262 470 263 450 266 C 430 268 408 272 385 276 C 371 269 359 260 347 248 C 335 236 330 223 330 207 C 330 185 343 170 370 161 C 397 151 442 147 504 147 L 616 147 C 746 147 852 127 934 88 C 1016 49 1057 -20 1057 -121 C 1057 -239 996 -333 875 -405 C 753 -476 615 -512 461 -512 C 333 -512 224 -491 133 -451 C 41 -410 -4 -348 -4 -264 C -4 -217 15 -174 53 -135 C 91 -96 147 -72 223 -63 Z M 348 -98 C 326 -108 308 -122 294 -140 C 279 -157 272 -178 272 -203 C 272 -239 293 -269 337 -293 C 381 -316 439 -328 512 -328 C 588 -328 652 -316 704 -294 C 756 -271 782 -239 782 -199 C 782 -161 761 -135 721 -123 C 680 -110 619 -104 537 -104 C 507 -104 472 -103 433 -102 C 393 -100 365 -99 348 -98 Z M 362 612 C 362 562 374 521 399 490 C 424 459 462 444 512 444 C 560 444 595 460 617 492 C 639 524 651 567 651 621 C 651 670 639 710 615 741 C 591 772 554 788 506 788 C 461 788 426 772 400 740 C 374 708 362 665 362 612 Z M 694 1229 C 694 1179 678 1137 647 1103 C 616 1068 574 1051 522 1051 C 470 1051 429 1068 397 1103 C 365 1137 350 1179 350 1229 C 350 1275 365 1317 397 1353 C 429 1389 470 1407 522 1407 C 574 1407 616 1389 647 1353 C 678 1317 694 1275 694 1229 Z" unicode="ġ" />
<glyph horiz-adv-x="1378" d="M 591 -250 C 592 -211 607 -177 637 -148 C 667 -118 705 -104 751 -104 C 805 -104 849 -121 884 -156 C 919 -190 937 -235 937 -289 C 937 -355 911 -414 861 -466 C 811 -518 743 -558 657 -586 L 587 -512 C 633 -485 667 -459 689 -434 C 711 -409 722 -386 722 -365 C 722 -343 714 -322 698 -304 C 682 -285 647 -267 591 -250 Z M 1276 88 C 1206 50 1127 21 1039 0 C 951 -20 860 -31 768 -31 C 564 -31 398 27 271 144 C 143 261 80 425 80 635 C 80 843 142 1008 268 1129 C 394 1250 561 1311 770 1311 C 851 1311 936 1301 1026 1283 C 1115 1264 1190 1236 1251 1200 L 1149 928 C 1089 962 1027 989 965 1007 C 903 1025 841 1034 780 1034 C 666 1034 574 998 506 927 C 437 855 403 761 403 643 C 403 515 434 416 498 344 C 562 272 654 236 776 236 C 812 236 849 239 886 247 C 922 254 954 263 981 274 L 981 463 L 666 463 L 666 721 L 1276 721 L 1276 88 Z" unicode="Ģ" />
<glyph horiz-adv-x="1081" d="M 704 1221 C 702 1183 687 1149 657 1119 C 627 1090 590 1075 544 1075 C 490 1075 445 1093 410 1127 C 375 1162 358 1206 358 1260 C 358 1326 383 1385 433 1437 C 483 1489 552 1529 638 1557 L 708 1483 C 661 1457 627 1431 605 1406 C 583 1381 573 1358 573 1336 C 573 1314 580 1294 596 1275 C 612 1257 648 1239 704 1221 Z M 223 -63 C 181 -51 143 -30 109 -1 C 74 28 57 65 57 109 C 57 153 75 195 112 235 C 149 275 196 303 254 319 C 198 345 151 384 115 436 C 79 488 61 547 61 614 C 61 717 101 804 182 876 C 262 947 373 983 514 983 C 570 983 623 975 674 961 C 725 947 769 931 805 915 L 1073 938 L 1087 682 L 903 711 C 911 701 917 686 922 664 C 927 642 930 622 930 606 C 930 510 890 429 812 362 C 734 295 634 262 512 262 C 490 262 470 263 450 266 C 430 268 408 272 385 276 C 371 269 359 260 347 248 C 335 236 330 223 330 207 C 330 185 343 170 370 161 C 397 151 442 147 504 147 L 616 147 C 746 147 852 127 934 88 C 1016 49 1057 -20 1057 -121 C 1057 -239 996 -333 875 -405 C 753 -476 615 -512 461 -512 C 333 -512 224 -491 133 -451 C 41 -410 -4 -348 -4 -264 C -4 -217 15 -174 53 -135 C 91 -96 147 -72 223 -63 Z M 348 -98 C 326 -108 308 -122 294 -140 C 279 -157 272 -178 272 -203 C 272 -239 293 -269 337 -293 C 381 -316 439 -328 512 -328 C 588 -328 652 -316 704 -294 C 756 -271 782 -239 782 -199 C 782 -161 761 -135 721 -123 C 680 -110 619 -104 537 -104 C 507 -104 472 -103 433 -102 C 393 -100 365 -99 348 -98 Z M 362 612 C 362 562 374 521 399 490 C 424 459 462 444 512 444 C 560 444 595 460 617 492 C 639 524 651 567 651 621 C 651 670 639 710 615 741 C 591 772 554 788 506 788 C 461 788 426 772 400 740 C 374 708 362 665 362 612 Z" unicode="ģ" />
<glyph horiz-adv-x="1432" d="M 1104 1406 L 889 1406 L 719 1625 L 715 1625 L 549 1406 L 330 1406 L 573 1789 L 860 1789 L 1104 1406 Z M 1298 0 L 973 0 L 973 508 L 459 508 L 459 0 L 133 0 L 133 1280 L 459 1280 L 459 782 L 973 782 L 973 1280 L 1298 1280 L 1298 0 Z" unicode="Ĥ" />
<glyph horiz-adv-x="1157" d="M 686 1406 L 471 1406 L 301 1625 L 297 1625 L 131 1406 L -88 1406 L 155 1789 L 442 1789 L 686 1406 Z M 1051 0 L 735 0 L 735 563 C 735 620 723 660 699 682 C 675 704 644 715 604 715 C 567 715 534 707 504 693 C 474 678 448 661 428 643 L 428 0 L 113 0 L 113 1354 L 428 1393 L 428 821 C 470 869 518 908 573 938 C 628 968 687 983 750 983 C 843 983 916 953 970 895 C 1024 836 1051 756 1051 655 L 1051 0 Z" unicode="ĥ" />
<glyph horiz-adv-x="1432" d="M 1298 0 L 973 0 L 973 508 L 459 508 L 459 0 L 133 0 L 133 928 L -20 928 L 2 1104 L 133 1104 L 133 1280 L 459 1280 L 459 1104 L 973 1104 L 973 1280 L 1298 1280 L 1298 1104 L 1421 1104 L 1444 928 L 1298 928 L 1298 0 Z M 459 782 L 973 782 L 973 928 L 459 928 L 459 782 Z" unicode="Ħ" />
<glyph horiz-adv-x="1157" d="M 1051 0 L 735 0 L 735 563 C 735 620 723 660 699 682 C 675 704 644 715 604 715 C 567 715 534 707 504 693 C 474 678 448 661 428 643 L 428 0 L 113 0 L 113 1044 L -12 1044 L 8 1221 L 113 1221 L 113 1354 L 428 1393 L 428 1221 L 664 1221 L 686 1044 L 428 1044 L 428 821 C 470 869 518 908 573 938 C 628 968 687 983 750 983 C 843 983 916 953 970 895 C 1024 836 1051 756 1051 655 L 1051 0 Z" unicode="ħ" />
<glyph horiz-adv-x="598" d="M 461 0 L 135 0 L 135 1280 L 461 1280 L 461 0 Z M 613 1449 L -14 1449 L 3 1634 L 595 1634 L 613 1449 Z" unicode="Ī" />
<glyph horiz-adv-x="541" d="M 436 0 L 121 0 L 121 942 L 436 969 L 436 0 Z M 588 1134 L -21 1134 L -3 1303 L 570 1303 L 588 1134 Z" unicode="ī" />
<glyph horiz-adv-x="598" d="M 461 0 L 135 0 L 135 1280 L 461 1280 L 461 0 Z M 675 1782 C 664 1647 622 1548 549 1486 C 475 1424 393 1393 303 1393 C 214 1393 132 1424 58 1486 C -15 1548 -58 1647 -70 1782 L 120 1780 C 131 1718 151 1668 181 1630 C 211 1592 251 1573 303 1573 C 355 1573 395 1592 425 1630 C 455 1668 475 1718 485 1780 L 675 1782 Z" unicode="Ĭ" />
<glyph horiz-adv-x="541" d="M 436 0 L 121 0 L 121 942 L 436 969 L 436 0 Z M 646 1455 C 635 1320 593 1221 520 1159 C 446 1097 364 1066 274 1066 C 185 1066 103 1097 29 1159 C -44 1221 -87 1320 -99 1455 L 91 1453 C 102 1391 122 1341 152 1303 C 182 1265 222 1246 274 1246 C 326 1246 366 1265 396 1303 C 426 1341 446 1391 456 1453 L 646 1455 Z" unicode="ĭ" />
<glyph horiz-adv-x="598" d="M 287 -451 C 213 -451 154 -432 109 -394 C 63 -356 41 -306 41 -242 C 41 -188 56 -141 87 -100 C 118 -58 157 -25 205 0 L 135 0 L 135 1280 L 461 1280 L 461 0 C 409 -10 364 -32 324 -68 C 284 -103 264 -137 264 -170 C 264 -199 271 -222 287 -238 C 303 -254 324 -262 352 -262 C 370 -262 389 -259 408 -255 C 427 -250 443 -244 457 -236 L 502 -395 C 475 -411 444 -425 410 -435 C 376 -445 335 -451 287 -451 Z" unicode="Į" />
<glyph horiz-adv-x="541" d="M 250 -451 C 175 -451 115 -432 70 -394 C 24 -356 2 -306 2 -242 C 2 -188 17 -141 49 -100 C 80 -58 119 -25 166 0 L 113 0 L 113 936 L 428 975 L 428 0 C 368 -10 320 -29 283 -59 C 245 -88 227 -125 227 -170 C 227 -199 234 -222 250 -238 C 266 -254 287 -262 315 -262 C 333 -262 352 -259 371 -255 C 390 -250 406 -244 420 -236 L 463 -395 C 437 -411 407 -425 373 -435 C 339 -445 298 -451 250 -451 Z M 457 1255 C 457 1201 440 1159 407 1130 C 373 1101 328 1087 270 1087 C 213 1087 168 1101 135 1130 C 102 1159 86 1201 86 1255 C 86 1310 102 1352 135 1381 C 168 1410 213 1425 270 1425 C 328 1425 373 1410 407 1381 C 440 1352 457 1310 457 1255 Z" unicode="į" />
<glyph horiz-adv-x="598" d="M 461 0 L 135 0 L 135 1280 L 461 1280 L 461 0 Z M 475 1556 C 475 1506 459 1464 428 1430 C 397 1395 355 1378 303 1378 C 251 1378 210 1395 178 1430 C 146 1464 131 1506 131 1556 C 131 1602 146 1644 178 1680 C 210 1716 251 1734 303 1734 C 355 1734 397 1716 428 1680 C 459 1644 475 1602 475 1556 Z" unicode="İ" />
<glyph horiz-adv-x="541" d="M 436 0 L 121 0 L 121 942 L 436 969 L 436 0 Z" unicode="ı" />
<glyph horiz-adv-x="965" d="M 1063 1406 L 848 1406 L 678 1625 L 674 1625 L 508 1406 L 289 1406 L 532 1789 L 819 1789 L 1063 1406 Z M 842 451 C 842 299 804 181 730 96 C 655 11 539 -31 383 -31 C 313 -31 246 -22 181 -5 C 116 12 62 33 18 57 L 84 319 C 126 295 168 275 210 261 C 251 247 292 240 332 240 C 398 240 445 258 473 295 C 501 332 516 392 516 475 L 516 1280 L 842 1280 L 842 451 Z" unicode="Ĵ" />
<glyph horiz-adv-x="539" d="M 125 -496 L -55 -283 C 3 -255 45 -218 72 -174 C 99 -130 113 -57 113 43 L 113 936 L 428 975 L 428 23 C 428 -117 405 -228 360 -312 C 314 -396 236 -457 125 -496 Z M 661 1079 L 446 1079 L 276 1298 L 272 1298 L 106 1079 L -113 1079 L 130 1462 L 417 1462 L 661 1079 Z" unicode="ĵ" />
<glyph horiz-adv-x="1280" d="M 495 -250 C 496 -211 511 -177 541 -148 C 571 -118 609 -104 655 -104 C 709 -104 753 -121 788 -156 C 823 -190 841 -235 841 -289 C 841 -355 815 -414 765 -466 C 715 -518 647 -558 561 -586 L 491 -512 C 537 -485 571 -459 593 -434 C 615 -409 626 -386 626 -365 C 626 -343 618 -322 602 -304 C 586 -285 551 -267 495 -250 Z M 459 715 L 461 715 L 887 1280 L 1260 1280 L 754 655 L 1272 0 L 883 0 L 461 563 L 459 563 L 459 0 L 133 0 L 133 1280 L 459 1280 L 459 715 Z" unicode="Ķ" />
<glyph horiz-adv-x="1090" d="M 397 -250 C 398 -211 413 -177 443 -148 C 473 -118 511 -104 557 -104 C 611 -104 655 -121 690 -156 C 725 -190 743 -235 743 -289 C 743 -355 717 -414 667 -466 C 617 -518 549 -558 463 -586 L 393 -512 C 439 -485 473 -459 495 -434 C 517 -409 528 -386 528 -365 C 528 -343 520 -322 504 -304 C 488 -285 453 -267 397 -250 Z M 430 446 L 428 446 L 428 0 L 113 0 L 113 1354 L 428 1393 L 428 543 L 430 543 L 721 952 L 1083 952 L 733 500 L 1085 0 L 727 0 L 430 446 Z" unicode="ķ" />
<glyph horiz-adv-x="1065" d="M 696 1785 L 350 1406 L 153 1406 L 356 1785 L 696 1785 Z M 995 0 L 133 0 L 133 1280 L 459 1280 L 459 272 L 995 272 L 995 0 Z" unicode="Ĺ" />
<glyph horiz-adv-x="541" d="M 667 1806 L 321 1427 L 124 1427 L 327 1806 L 667 1806 Z M 428 0 L 113 0 L 113 1354 L 428 1393 L 428 0 Z" unicode="ĺ" />
<glyph horiz-adv-x="1065" d="M 382 -250 C 383 -211 398 -177 428 -148 C 458 -118 496 -104 542 -104 C 596 -104 640 -121 675 -156 C 710 -190 728 -235 728 -289 C 728 -355 702 -414 652 -466 C 602 -518 534 -558 448 -586 L 378 -512 C 424 -485 458 -459 480 -434 C 502 -409 513 -386 513 -365 C 513 -343 505 -322 489 -304 C 473 -285 438 -267 382 -250 Z M 995 0 L 133 0 L 133 1280 L 459 1280 L 459 272 L 995 272 L 995 0 Z" unicode="Ļ" />
<glyph horiz-adv-x="541" d="M 98 -250 C 99 -211 114 -177 144 -148 C 174 -118 212 -104 258 -104 C 312 -104 356 -121 391 -156 C 426 -190 444 -235 444 -289 C 444 -355 418 -414 368 -466 C 318 -518 250 -558 164 -586 L 94 -512 C 140 -485 174 -459 196 -434 C 218 -409 229 -386 229 -365 C 229 -343 221 -322 205 -304 C 189 -285 154 -267 98 -250 Z M 428 0 L 113 0 L 113 1354 L 428 1393 L 428 0 Z" unicode="ļ" />
<glyph horiz-adv-x="1341" d="M 962 1124 C 968 1178 991 1223 1032 1257 C 1073 1291 1123 1308 1181 1308 C 1252 1308 1311 1282 1357 1230 C 1403 1178 1427 1117 1427 1048 C 1427 954 1391 872 1320 804 C 1249 736 1169 678 1081 630 L 942 753 C 998 791 1046 828 1086 864 C 1126 900 1146 934 1146 968 C 1146 995 1133 1020 1107 1044 C 1081 1067 1032 1094 962 1124 Z M 995 0 L 133 0 L 133 1280 L 459 1280 L 459 272 L 995 272 L 995 0 Z" unicode="Ľ" />
<glyph horiz-adv-x="1098" d="M 616 1233 C 622 1287 645 1332 686 1366 C 727 1400 777 1417 835 1417 C 906 1417 965 1391 1011 1339 C 1057 1287 1081 1226 1081 1157 C 1081 1063 1045 981 974 913 C 903 845 823 787 735 739 L 596 862 C 652 900 700 937 740 973 C 780 1009 800 1043 800 1077 C 800 1104 787 1129 761 1153 C 735 1176 686 1203 616 1233 Z M 428 0 L 113 0 L 113 1354 L 428 1393 L 428 0 Z" unicode="ľ" />
<glyph horiz-adv-x="1274" d="M 995 0 L 133 0 L 133 1280 L 459 1280 L 459 272 L 995 272 L 995 0 Z M 1410 636 C 1410 581 1392 536 1356 502 C 1320 467 1274 450 1218 450 C 1160 450 1113 467 1077 502 C 1041 536 1023 581 1023 636 C 1023 692 1041 737 1077 771 C 1113 805 1160 823 1218 823 C 1274 823 1320 805 1356 771 C 1392 737 1410 692 1410 636 Z" unicode="Ŀ" />
<glyph horiz-adv-x="1010" d="M 428 0 L 113 0 L 113 1354 L 428 1393 L 428 0 Z M 1017 636 C 1017 581 999 536 963 502 C 927 467 881 450 825 450 C 767 450 720 467 684 502 C 648 536 630 581 630 636 C 630 692 648 737 684 771 C 720 805 767 823 825 823 C 881 823 927 805 963 771 C 999 737 1017 692 1017 636 Z" unicode="ŀ" />
<glyph horiz-adv-x="1130" d="M 528 541 L 528 274 L 1065 274 L 1065 0 L 203 0 L 203 453 L 35 408 L 35 655 L 203 700 L 203 1280 L 528 1280 L 528 788 L 817 866 L 817 618 L 528 541 Z" unicode="Ł" />
<glyph horiz-adv-x="676" d="M 498 537 L 498 0 L 182 0 L 182 453 L 41 414 L 41 664 L 182 702 L 182 1354 L 498 1393 L 498 786 L 641 825 L 641 575 L 498 537 Z" unicode="ł" />
<glyph horiz-adv-x="1456" d="M 1132 1785 L 786 1406 L 589 1406 L 792 1785 L 1132 1785 Z M 1018 449 L 1018 1280 L 1323 1280 L 1323 -12 L 977 -12 L 438 829 L 438 0 L 133 0 L 133 1280 L 485 1280 L 1018 449 Z" unicode="Ń" />
<glyph horiz-adv-x="1157" d="M 915 1458 L 569 1079 L 372 1079 L 575 1458 L 915 1458 Z M 1051 0 L 735 0 L 735 563 C 735 620 723 660 699 682 C 675 704 642 715 600 715 C 565 715 533 707 503 693 C 473 678 448 661 428 643 L 428 0 L 113 0 L 113 936 L 428 975 L 428 819 C 470 867 518 906 573 937 C 628 967 686 983 748 983 C 842 983 916 953 970 895 C 1024 836 1051 756 1051 655 L 1051 0 Z" unicode="ń" />
<glyph horiz-adv-x="1456" d="M 573 -250 C 574 -211 589 -177 619 -148 C 649 -118 687 -104 733 -104 C 787 -104 831 -121 866 -156 C 901 -190 919 -235 919 -289 C 919 -355 893 -414 843 -466 C 793 -518 725 -558 639 -586 L 569 -512 C 615 -485 649 -459 671 -434 C 693 -409 704 -386 704 -365 C 704 -343 696 -322 680 -304 C 664 -285 629 -267 573 -250 Z M 1018 449 L 1018 1280 L 1323 1280 L 1323 -12 L 977 -12 L 438 829 L 438 0 L 133 0 L 133 1280 L 485 1280 L 1018 449 Z" unicode="Ņ" />
<glyph horiz-adv-x="1157" d="M 411 -250 C 412 -211 427 -177 457 -148 C 487 -118 525 -104 571 -104 C 625 -104 669 -121 704 -156 C 739 -190 757 -235 757 -289 C 757 -355 731 -414 681 -466 C 631 -518 563 -558 477 -586 L 407 -512 C 453 -485 487 -459 509 -434 C 531 -409 542 -386 542 -365 C 542 -343 534 -322 518 -304 C 502 -285 467 -267 411 -250 Z M 1051 0 L 735 0 L 735 563 C 735 620 723 660 699 682 C 675 704 642 715 600 715 C 565 715 533 707 503 693 C 473 678 448 661 428 643 L 428 0 L 113 0 L 113 936 L 428 975 L 428 819 C 470 867 518 906 573 937 C 628 967 686 983 748 983 C 842 983 916 953 970 895 C 1024 836 1051 756 1051 655 L 1051 0 Z" unicode="ņ" />
<glyph horiz-adv-x="1456" d="M 1132 1789 L 888 1406 L 601 1406 L 358 1789 L 573 1789 L 743 1568 L 747 1568 L 913 1789 L 1132 1789 Z M 1018 449 L 1018 1280 L 1323 1280 L 1323 -12 L 977 -12 L 438 829 L 438 0 L 133 0 L 133 1280 L 485 1280 L 1018 449 Z" unicode="Ň" />
<glyph horiz-adv-x="1157" d="M 952 1462 L 708 1079 L 421 1079 L 178 1462 L 393 1462 L 563 1241 L 567 1241 L 733 1462 L 952 1462 Z M 1051 0 L 735 0 L 735 563 C 735 620 723 660 699 682 C 675 704 642 715 600 715 C 565 715 533 707 503 693 C 473 678 448 661 428 643 L 428 0 L 113 0 L 113 936 L 428 975 L 428 819 C 470 867 518 906 573 937 C 628 967 686 983 748 983 C 842 983 916 953 970 895 C 1024 836 1051 756 1051 655 L 1051 0 Z" unicode="ň" />
<glyph horiz-adv-x="1501" d="M 1119 1451 L 374 1451 L 396 1630 L 1097 1630 L 1119 1451 Z M 1421 645 C 1421 443 1356 280 1226 156 C 1096 31 937 -31 748 -31 C 559 -31 400 26 272 141 C 144 256 80 421 80 637 C 80 839 144 1001 273 1125 C 402 1249 562 1311 752 1311 C 941 1311 1100 1253 1228 1139 C 1356 1025 1421 860 1421 645 Z M 1094 637 C 1094 759 1063 858 1002 934 C 940 1010 856 1049 748 1049 C 640 1049 556 1011 497 936 C 437 861 408 764 408 645 C 408 523 438 423 499 346 C 559 269 644 231 754 231 C 860 231 944 268 1004 344 C 1064 420 1094 517 1094 637 Z" unicode="Ō" />
<glyph horiz-adv-x="1145" d="M 941 1124 L 196 1124 L 218 1303 L 919 1303 L 941 1124 Z M 1083 479 C 1083 320 1032 195 931 105 C 830 14 709 -31 567 -31 C 424 -31 304 12 207 100 C 109 188 61 312 61 473 C 61 634 111 759 212 849 C 313 938 436 983 580 983 C 722 983 842 938 938 850 C 1034 762 1083 638 1083 479 Z M 770 477 C 770 556 753 620 719 669 C 685 718 635 743 571 743 C 507 743 458 718 425 670 C 391 621 375 556 375 475 C 375 394 392 330 426 282 C 460 234 509 211 573 211 C 637 211 686 235 720 283 C 753 331 770 395 770 477 Z" unicode="ō" />
<glyph horiz-adv-x="1501" d="M 1421 645 C 1421 443 1356 280 1226 156 C 1096 31 937 -31 748 -31 C 559 -31 400 26 272 141 C 144 256 80 421 80 637 C 80 839 144 1001 273 1125 C 402 1249 562 1311 752 1311 C 941 1311 1100 1253 1228 1139 C 1356 1025 1421 860 1421 645 Z M 1094 637 C 1094 759 1063 858 1002 934 C 940 1010 856 1049 748 1049 C 640 1049 556 1011 497 936 C 437 861 408 764 408 645 C 408 523 438 423 499 346 C 559 269 644 231 754 231 C 860 231 944 268 1004 344 C 1064 420 1094 517 1094 637 Z M 1113 1782 C 1102 1647 1060 1548 987 1486 C 913 1424 831 1393 741 1393 C 652 1393 570 1424 496 1486 C 422 1548 379 1647 368 1782 L 558 1780 C 569 1718 589 1668 619 1630 C 649 1592 689 1573 741 1573 C 793 1573 833 1592 863 1630 C 893 1668 913 1718 923 1780 L 1113 1782 Z" unicode="Ŏ" />
<glyph horiz-adv-x="1145" d="M 1083 479 C 1083 320 1032 195 931 105 C 830 14 709 -31 567 -31 C 424 -31 304 12 207 100 C 109 188 61 312 61 473 C 61 634 111 759 212 849 C 313 938 436 983 580 983 C 722 983 842 938 938 850 C 1034 762 1083 638 1083 479 Z M 770 477 C 770 556 753 620 719 669 C 685 718 635 743 571 743 C 507 743 458 718 425 670 C 391 621 375 556 375 475 C 375 394 392 330 426 282 C 460 234 509 211 573 211 C 637 211 686 235 720 283 C 753 331 770 395 770 477 Z M 925 1455 C 914 1320 872 1221 799 1159 C 725 1097 643 1066 553 1066 C 464 1066 382 1097 308 1159 C 234 1221 191 1320 180 1455 L 370 1453 C 381 1391 401 1341 431 1303 C 461 1265 501 1246 553 1246 C 605 1246 645 1265 675 1303 C 705 1341 725 1391 735 1453 L 925 1455 Z" unicode="ŏ" />
<glyph horiz-adv-x="1501" d="M 905 1767 L 573 1392 L 362 1392 L 614 1767 L 905 1767 Z M 1355 1767 L 976 1392 L 772 1392 L 1064 1767 L 1355 1767 Z M 1421 645 C 1421 443 1356 280 1226 156 C 1096 31 937 -31 748 -31 C 559 -31 400 26 272 141 C 144 256 80 421 80 637 C 80 839 144 1001 273 1125 C 402 1249 562 1311 752 1311 C 941 1311 1100 1253 1228 1139 C 1356 1025 1421 860 1421 645 Z M 1094 637 C 1094 759 1063 858 1002 934 C 940 1010 856 1049 748 1049 C 640 1049 556 1011 497 936 C 437 861 408 764 408 645 C 408 523 438 423 499 346 C 559 269 644 231 754 231 C 860 231 944 268 1004 344 C 1064 420 1094 517 1094 637 Z" unicode="Ő" />
<glyph horiz-adv-x="1145" d="M 712 1454 L 380 1079 L 169 1079 L 421 1454 L 712 1454 Z M 1162 1454 L 783 1079 L 579 1079 L 871 1454 L 1162 1454 Z M 1083 479 C 1083 320 1032 195 931 105 C 830 14 709 -31 567 -31 C 424 -31 304 12 207 100 C 109 188 61 312 61 473 C 61 634 111 759 212 849 C 313 938 436 983 580 983 C 722 983 842 938 938 850 C 1034 762 1083 638 1083 479 Z M 770 477 C 770 556 753 620 719 669 C 685 718 635 743 571 743 C 507 743 458 718 425 670 C 391 621 375 556 375 475 C 375 394 392 330 426 282 C 460 234 509 211 573 211 C 637 211 686 235 720 283 C 753 331 770 395 770 477 Z" unicode="ő" />
<glyph horiz-adv-x="1964" d="M 1886 1280 L 1886 1018 L 1276 1018 L 1276 772 L 1780 772 L 1780 512 L 1276 512 L 1276 262 L 1886 262 L 1886 0 L 788 0 C 563 0 389 57 266 173 C 143 289 82 441 82 631 C 82 826 142 983 264 1102 C 386 1220 563 1280 797 1280 L 1886 1280 Z M 408 643 C 408 511 441 415 509 353 C 576 291 676 260 809 260 L 950 260 L 950 1020 L 793 1020 C 674 1020 580 989 511 927 C 442 865 408 770 408 643 Z" unicode="Œ" />
<glyph horiz-adv-x="1726" d="M 905 98 C 862 56 812 24 754 2 C 696 -19 633 -31 567 -31 C 424 -31 304 12 207 100 C 109 188 61 312 61 473 C 61 634 111 759 212 849 C 313 938 436 983 580 983 C 646 983 707 972 763 950 C 819 928 868 898 909 858 C 951 896 1000 927 1058 949 C 1115 971 1177 983 1245 983 C 1380 983 1483 946 1554 872 C 1625 798 1661 702 1661 584 C 1661 558 1659 528 1655 495 C 1651 462 1646 436 1640 416 L 1036 406 L 1036 401 C 1042 338 1066 289 1109 254 C 1152 218 1212 201 1288 201 C 1340 201 1393 209 1447 226 C 1501 243 1551 265 1599 293 L 1630 49 C 1582 24 1525 5 1460 -8 C 1395 -22 1328 -29 1260 -29 C 1180 -29 1112 -18 1056 4 C 1000 26 949 57 905 98 Z M 375 475 C 375 394 392 330 426 282 C 460 234 509 211 573 211 C 637 211 686 235 720 283 C 753 331 770 395 770 477 C 770 556 753 620 719 669 C 685 718 635 743 571 743 C 507 743 458 718 425 670 C 391 621 375 556 375 475 Z M 1038 563 L 1368 565 L 1368 584 C 1368 640 1356 684 1333 717 C 1309 749 1273 766 1223 766 C 1169 766 1126 745 1094 705 C 1062 664 1043 617 1038 563 Z" unicode="œ" />
<glyph horiz-adv-x="1264" d="M 925 1785 L 579 1406 L 382 1406 L 585 1785 L 925 1785 Z M 459 418 L 459 0 L 133 0 L 133 1280 L 647 1280 C 816 1280 945 1243 1033 1169 C 1121 1095 1165 997 1165 874 C 1165 788 1142 714 1098 650 C 1054 586 989 538 903 506 L 1231 0 L 864 0 L 608 430 L 459 418 Z M 453 659 L 616 664 C 685 668 738 686 775 716 C 812 746 831 792 831 854 C 831 910 811 952 771 980 C 731 1008 671 1022 590 1022 L 453 1022 L 453 659 Z" unicode="Ŕ" />
<glyph horiz-adv-x="821" d="M 841 1458 L 495 1079 L 298 1079 L 501 1458 L 841 1458 Z M 428 555 L 428 0 L 113 0 L 113 936 L 428 975 L 428 836 C 455 883 488 919 526 945 C 564 970 607 983 657 983 C 683 983 709 979 736 973 C 763 967 789 957 815 944 L 752 666 C 733 674 713 681 693 686 C 673 691 653 694 633 694 C 594 694 557 683 523 662 C 488 640 456 605 428 555 Z" unicode="ŕ" />
<glyph horiz-adv-x="1264" d="M 446 -250 C 447 -211 462 -177 492 -148 C 522 -118 560 -104 606 -104 C 660 -104 704 -121 739 -156 C 774 -190 792 -235 792 -289 C 792 -355 766 -414 716 -466 C 666 -518 598 -558 512 -586 L 442 -512 C 488 -485 522 -459 544 -434 C 566 -409 577 -386 577 -365 C 577 -343 569 -322 553 -304 C 537 -285 502 -267 446 -250 Z M 459 418 L 459 0 L 133 0 L 133 1280 L 647 1280 C 816 1280 945 1243 1033 1169 C 1121 1095 1165 997 1165 874 C 1165 788 1142 714 1098 650 C 1054 586 989 538 903 506 L 1231 0 L 864 0 L 608 430 L 459 418 Z M 453 659 L 616 664 C 685 668 738 686 775 716 C 812 746 831 792 831 854 C 831 910 811 952 771 980 C 731 1008 671 1022 590 1022 L 453 1022 L 453 659 Z" unicode="Ŗ" />
<glyph horiz-adv-x="821" d="M 108 -250 C 109 -211 124 -177 154 -148 C 184 -118 222 -104 268 -104 C 322 -104 366 -121 401 -156 C 436 -190 454 -235 454 -289 C 454 -355 428 -414 378 -466 C 328 -518 260 -558 174 -586 L 104 -512 C 150 -485 184 -459 206 -434 C 228 -409 239 -386 239 -365 C 239 -343 231 -322 215 -304 C 199 -285 164 -267 108 -250 Z M 428 555 L 428 0 L 113 0 L 113 936 L 428 975 L 428 836 C 455 883 488 919 526 945 C 564 970 607 983 657 983 C 683 983 709 979 736 973 C 763 967 789 957 815 944 L 752 666 C 733 674 713 681 693 686 C 673 691 653 694 633 694 C 594 694 557 683 523 662 C 488 640 456 605 428 555 Z" unicode="ŗ" />
<glyph horiz-adv-x="1264" d="M 962 1789 L 718 1406 L 431 1406 L 188 1789 L 403 1789 L 573 1568 L 577 1568 L 743 1789 L 962 1789 Z M 459 418 L 459 0 L 133 0 L 133 1280 L 647 1280 C 816 1280 945 1243 1033 1169 C 1121 1095 1165 997 1165 874 C 1165 788 1142 714 1098 650 C 1054 586 989 538 903 506 L 1231 0 L 864 0 L 608 430 L 459 418 Z M 453 659 L 616 664 C 685 668 738 686 775 716 C 812 746 831 792 831 854 C 831 910 811 952 771 980 C 731 1008 671 1022 590 1022 L 453 1022 L 453 659 Z" unicode="Ř" />
<glyph horiz-adv-x="821" d="M 833 1462 L 589 1079 L 302 1079 L 59 1462 L 274 1462 L 444 1241 L 448 1241 L 614 1462 L 833 1462 Z M 428 555 L 428 0 L 113 0 L 113 936 L 428 975 L 428 836 C 455 883 488 919 526 945 C 564 970 607 983 657 983 C 683 983 709 979 736 973 C 763 967 789 957 815 944 L 752 666 C 733 674 713 681 693 686 C 673 691 653 694 633 694 C 594 694 557 683 523 662 C 488 640 456 605 428 555 Z" unicode="ř" />
<glyph horiz-adv-x="1155" d="M 936 1785 L 590 1406 L 393 1406 L 596 1785 L 936 1785 Z M 559 238 C 616 238 663 248 699 269 C 735 289 754 319 754 358 C 754 401 731 433 686 454 C 640 474 576 496 492 520 C 398 545 306 585 216 640 C 125 694 80 785 80 913 C 80 1031 122 1127 207 1200 C 291 1272 413 1309 571 1309 C 671 1309 760 1298 840 1277 C 919 1256 989 1229 1051 1196 L 987 928 C 923 961 854 988 780 1009 C 705 1029 636 1040 573 1040 C 517 1040 475 1030 447 1012 C 419 993 406 966 406 932 C 406 890 431 858 483 836 C 535 814 599 793 676 772 C 774 745 865 704 950 649 C 1034 594 1077 506 1077 385 C 1077 263 1031 164 940 86 C 849 8 720 -31 553 -31 C 458 -31 367 -19 279 2 C 191 24 118 52 59 86 L 121 356 C 184 322 253 294 328 272 C 403 249 480 238 559 238 Z" unicode="Ś" />
<glyph horiz-adv-x="942" d="M 868 1458 L 522 1079 L 325 1079 L 528 1458 L 868 1458 Z M 885 283 C 885 197 847 123 773 61 C 699 0 592 -31 453 -31 C 387 -31 316 -23 239 -8 C 162 6 99 27 49 53 L 111 281 C 165 252 223 230 284 214 C 345 198 403 190 459 190 C 500 190 532 197 554 211 C 576 225 588 244 588 268 C 588 294 574 314 547 328 C 520 341 480 354 426 367 C 316 388 228 422 162 469 C 96 515 63 585 63 678 C 63 766 100 839 174 897 C 248 954 351 983 483 983 C 546 983 615 975 689 959 C 763 943 823 923 870 901 L 807 676 C 753 702 696 723 636 739 C 576 754 523 762 479 762 C 441 762 412 755 392 743 C 372 731 362 713 362 690 C 362 664 376 645 405 632 C 433 619 474 607 526 596 C 638 571 725 536 789 492 C 853 447 885 377 885 283 Z" unicode="ś" />
<glyph horiz-adv-x="1155" d="M 979 1406 L 764 1406 L 594 1625 L 590 1625 L 424 1406 L 205 1406 L 448 1789 L 735 1789 L 979 1406 Z M 559 238 C 616 238 663 248 699 269 C 735 289 754 319 754 358 C 754 401 731 433 686 454 C 640 474 576 496 492 520 C 398 545 306 585 216 640 C 125 694 80 785 80 913 C 80 1031 122 1127 207 1200 C 291 1272 413 1309 571 1309 C 671 1309 760 1298 840 1277 C 919 1256 989 1229 1051 1196 L 987 928 C 923 961 854 988 780 1009 C 705 1029 636 1040 573 1040 C 517 1040 475 1030 447 1012 C 419 993 406 966 406 932 C 406 890 431 858 483 836 C 535 814 599 793 676 772 C 774 745 865 704 950 649 C 1034 594 1077 506 1077 385 C 1077 263 1031 164 940 86 C 849 8 720 -31 553 -31 C 458 -31 367 -19 279 2 C 191 24 118 52 59 86 L 121 356 C 184 322 253 294 328 272 C 403 249 480 238 559 238 Z" unicode="Ŝ" />
<glyph horiz-adv-x="942" d="M 876 1079 L 661 1079 L 491 1298 L 487 1298 L 321 1079 L 102 1079 L 345 1462 L 632 1462 L 876 1079 Z M 885 283 C 885 197 847 123 773 61 C 699 0 592 -31 453 -31 C 387 -31 316 -23 239 -8 C 162 6 99 27 49 53 L 111 281 C 165 252 223 230 284 214 C 345 198 403 190 459 190 C 500 190 532 197 554 211 C 576 225 588 244 588 268 C 588 294 574 314 547 328 C 520 341 480 354 426 367 C 316 388 228 422 162 469 C 96 515 63 585 63 678 C 63 766 100 839 174 897 C 248 954 351 983 483 983 C 546 983 615 975 689 959 C 763 943 823 923 870 901 L 807 676 C 753 702 696 723 636 739 C 576 754 523 762 479 762 C 441 762 412 755 392 743 C 372 731 362 713 362 690 C 362 664 376 645 405 632 C 433 619 474 607 526 596 C 638 571 725 536 789 492 C 853 447 885 377 885 283 Z" unicode="ŝ" />
<glyph horiz-adv-x="1155" d="M 555 -104 C 624 -107 685 -126 737 -160 C 789 -194 815 -243 815 -307 C 815 -375 782 -434 718 -482 C 654 -530 550 -562 408 -580 L 391 -434 C 479 -430 541 -418 577 -400 C 613 -381 631 -357 631 -328 C 631 -290 611 -264 571 -250 C 531 -236 471 -233 393 -240 L 373 -135 L 487 -29 C 403 -23 324 -10 249 10 C 174 31 111 56 59 86 L 121 356 C 184 322 253 294 328 272 C 403 249 480 238 559 238 C 616 238 663 248 699 269 C 735 289 754 319 754 358 C 754 401 731 433 686 454 C 640 474 576 496 492 520 C 398 545 306 585 216 640 C 125 694 80 785 80 913 C 80 1031 122 1127 207 1200 C 291 1272 413 1309 571 1309 C 671 1309 760 1298 840 1277 C 919 1256 989 1229 1051 1196 L 987 928 C 923 961 854 988 780 1009 C 705 1029 636 1040 573 1040 C 517 1040 475 1030 447 1012 C 419 993 406 966 406 932 C 406 890 431 858 483 836 C 535 814 599 793 676 772 C 774 745 865 704 950 649 C 1034 594 1077 506 1077 385 C 1077 275 1039 182 964 107 C 888 32 781 -12 643 -27 C 625 -43 607 -57 591 -71 C 575 -85 563 -96 555 -104 Z" unicode="Ş" />
<glyph horiz-adv-x="942" d="M 446 -104 C 515 -107 576 -126 628 -160 C 680 -194 707 -243 707 -307 C 707 -375 674 -434 610 -482 C 545 -530 441 -562 299 -580 L 283 -434 C 370 -430 432 -418 468 -400 C 504 -381 522 -357 522 -328 C 522 -290 502 -264 462 -250 C 422 -236 363 -233 285 -240 L 264 -135 L 379 -27 C 321 -23 261 -14 201 0 C 140 13 89 31 49 53 L 111 281 C 165 252 223 230 284 214 C 345 198 403 190 459 190 C 500 190 532 197 554 211 C 576 225 588 244 588 268 C 588 294 574 314 547 328 C 520 341 480 354 426 367 C 316 388 228 422 162 469 C 96 515 63 585 63 678 C 63 766 100 839 174 897 C 248 954 351 983 483 983 C 546 983 615 975 689 959 C 763 943 823 923 870 901 L 807 676 C 753 702 696 723 636 739 C 576 754 523 762 479 762 C 441 762 412 755 392 743 C 372 731 362 713 362 690 C 362 664 376 645 405 632 C 433 619 474 607 526 596 C 638 571 725 536 789 492 C 853 447 885 377 885 283 C 885 205 854 137 794 79 C 734 21 646 -14 532 -27 C 514 -43 497 -57 482 -71 C 466 -85 454 -96 446 -104 Z" unicode="ş" />
<glyph horiz-adv-x="1155" d="M 559 238 C 616 238 663 248 699 269 C 735 289 754 319 754 358 C 754 401 731 433 686 454 C 640 474 576 496 492 520 C 398 545 306 585 216 640 C 125 694 80 785 80 913 C 80 1031 122 1127 207 1200 C 291 1272 413 1309 571 1309 C 671 1309 760 1298 840 1277 C 919 1256 989 1229 1051 1196 L 987 928 C 923 961 854 988 780 1009 C 705 1029 636 1040 573 1040 C 517 1040 475 1030 447 1012 C 419 993 406 966 406 932 C 406 890 431 858 483 836 C 535 814 599 793 676 772 C 774 745 865 704 950 649 C 1034 594 1077 506 1077 385 C 1077 263 1031 164 940 86 C 849 8 720 -31 553 -31 C 458 -31 367 -19 279 2 C 191 24 118 52 59 86 L 121 356 C 184 322 253 294 328 272 C 403 249 480 238 559 238 Z M 966 1763 L 722 1380 L 435 1380 L 192 1763 L 407 1763 L 577 1542 L 581 1542 L 747 1763 L 966 1763 Z" unicode="Š" />
<glyph horiz-adv-x="942" d="M 885 283 C 885 197 847 123 773 61 C 699 0 592 -31 453 -31 C 387 -31 316 -23 239 -8 C 162 6 99 27 49 53 L 111 281 C 165 252 223 230 284 214 C 345 198 403 190 459 190 C 500 190 532 197 554 211 C 576 225 588 244 588 268 C 588 294 574 314 547 328 C 520 341 480 354 426 367 C 316 388 228 422 162 469 C 96 515 63 585 63 678 C 63 766 100 839 174 897 C 248 954 351 983 483 983 C 546 983 615 975 689 959 C 763 943 823 923 870 901 L 807 676 C 753 702 696 723 636 739 C 576 754 523 762 479 762 C 441 762 412 755 392 743 C 372 731 362 713 362 690 C 362 664 376 645 405 632 C 433 619 474 607 526 596 C 638 571 725 536 789 492 C 853 447 885 377 885 283 Z M 860 1462 L 616 1079 L 329 1079 L 86 1462 L 301 1462 L 471 1241 L 475 1241 L 641 1462 L 860 1462 Z" unicode="š" />
<glyph horiz-adv-x="1233" d="M 440 -250 C 441 -211 456 -177 486 -148 C 516 -118 554 -104 600 -104 C 654 -104 698 -121 733 -156 C 768 -190 786 -235 786 -289 C 786 -355 760 -414 710 -466 C 660 -518 592 -558 506 -586 L 436 -512 C 482 -485 516 -459 538 -434 C 560 -409 571 -386 571 -365 C 571 -343 563 -322 547 -304 C 531 -285 496 -267 440 -250 Z M 1186 1008 L 778 1008 L 778 0 L 453 0 L 453 1008 L 45 1008 L 45 1280 L 1186 1280 L 1186 1008 Z" unicode="Ţ" />
<glyph horiz-adv-x="772" d="M 272 -250 C 273 -211 288 -177 318 -148 C 348 -118 386 -104 432 -104 C 486 -104 530 -121 565 -156 C 600 -190 618 -235 618 -289 C 618 -355 592 -414 542 -466 C 492 -518 424 -558 338 -586 L 268 -512 C 314 -485 348 -459 370 -434 C 392 -409 403 -386 403 -365 C 403 -343 395 -322 379 -304 C 363 -285 328 -267 272 -250 Z M 727 4 C 690 -7 654 -16 619 -22 C 584 -28 543 -31 496 -31 C 378 -31 289 -4 228 49 C 166 102 139 191 145 315 L 160 678 L 16 702 L 23 903 L 166 950 L 170 1167 L 475 1167 L 473 940 L 711 940 L 705 692 L 451 692 L 440 350 C 438 306 448 274 472 254 C 495 234 526 225 565 225 C 584 225 604 227 626 232 C 647 236 668 242 690 250 L 727 4 Z" unicode="ţ" />
<glyph horiz-adv-x="1233" d="M 1003 1789 L 759 1406 L 472 1406 L 229 1789 L 444 1789 L 614 1568 L 618 1568 L 784 1789 L 1003 1789 Z M 1186 1008 L 778 1008 L 778 0 L 453 0 L 453 1008 L 45 1008 L 45 1280 L 1186 1280 L 1186 1008 Z" unicode="Ť" />
<glyph horiz-adv-x="772" d="M 528 1474 C 534 1528 557 1573 598 1607 C 639 1641 689 1658 747 1658 C 818 1658 877 1632 923 1580 C 969 1528 993 1467 993 1398 C 993 1304 957 1222 886 1154 C 815 1086 735 1028 647 980 L 508 1103 C 564 1141 612 1178 652 1214 C 692 1250 712 1284 712 1318 C 712 1345 699 1370 673 1394 C 647 1417 598 1444 528 1474 Z M 727 4 C 690 -7 654 -16 619 -22 C 584 -28 543 -31 496 -31 C 378 -31 289 -4 228 49 C 166 102 139 191 145 315 L 160 678 L 16 702 L 23 903 L 166 950 L 170 1167 L 475 1167 L 473 940 L 711 940 L 705 692 L 451 692 L 440 350 C 438 306 448 274 472 254 C 495 234 526 225 565 225 C 584 225 604 227 626 232 C 647 236 668 242 690 250 L 727 4 Z" unicode="ť" />
<glyph horiz-adv-x="1376" d="M 1253 522 C 1253 338 1201 199 1099 107 C 996 15 859 -31 688 -31 C 522 -31 386 11 282 97 C 177 182 125 314 125 494 L 125 1280 L 449 1280 L 449 537 C 449 441 469 368 509 318 C 549 268 611 244 696 244 C 772 244 830 266 870 310 C 910 354 930 425 930 524 L 930 1280 L 1253 1280 L 1253 522 Z M 1062 1451 L 317 1451 L 339 1630 L 1040 1630 L 1062 1451 Z" unicode="Ū" />
<glyph horiz-adv-x="1143" d="M 106 952 L 422 952 L 422 389 C 422 332 433 292 457 270 C 480 247 512 236 553 236 C 586 236 616 242 644 254 C 672 266 695 281 715 299 L 715 952 L 1030 952 L 1030 14 L 715 -25 L 715 117 C 678 77 633 42 579 13 C 525 -16 468 -31 406 -31 C 312 -31 239 -1 186 57 C 132 116 106 196 106 297 L 106 952 Z M 941 1124 L 196 1124 L 218 1303 L 919 1303 L 941 1124 Z" unicode="ū" />
<glyph horiz-adv-x="1376" d="M 1253 522 C 1253 338 1201 199 1099 107 C 996 15 859 -31 688 -31 C 522 -31 386 11 282 97 C 177 182 125 314 125 494 L 125 1280 L 449 1280 L 449 537 C 449 441 469 368 509 318 C 549 268 611 244 696 244 C 772 244 830 266 870 310 C 910 354 930 425 930 524 L 930 1280 L 1253 1280 L 1253 522 Z M 1062 1782 C 1051 1647 1009 1548 936 1486 C 862 1424 780 1393 690 1393 C 601 1393 519 1424 445 1486 C 371 1548 328 1647 317 1782 L 507 1780 C 518 1718 538 1668 568 1630 C 598 1592 638 1573 690 1573 C 742 1573 782 1592 812 1630 C 842 1668 862 1718 872 1780 L 1062 1782 Z" unicode="Ŭ" />
<glyph horiz-adv-x="1143" d="M 106 952 L 422 952 L 422 389 C 422 332 433 292 457 270 C 480 247 512 236 553 236 C 586 236 616 242 644 254 C 672 266 695 281 715 299 L 715 952 L 1030 952 L 1030 14 L 715 -25 L 715 117 C 678 77 633 42 579 13 C 525 -16 468 -31 406 -31 C 312 -31 239 -1 186 57 C 132 116 106 196 106 297 L 106 952 Z M 935 1455 C 924 1320 882 1221 809 1159 C 735 1097 653 1066 563 1066 C 474 1066 392 1097 318 1159 C 244 1221 201 1320 190 1455 L 380 1453 C 391 1391 411 1341 441 1303 C 471 1265 511 1246 563 1246 C 615 1246 655 1265 685 1303 C 715 1341 735 1391 745 1453 L 935 1455 Z" unicode="ŭ" />
<glyph horiz-adv-x="1376" d="M 978 1624 C 979 1556 953 1499 901 1452 C 849 1405 778 1382 690 1382 C 601 1382 531 1405 479 1452 C 427 1499 401 1556 401 1624 C 401 1691 427 1748 479 1795 C 531 1841 601 1865 690 1865 C 778 1865 848 1841 900 1795 C 952 1749 978 1692 978 1624 Z M 858 1626 C 858 1666 843 1700 813 1726 C 783 1752 742 1765 690 1765 C 640 1765 599 1752 569 1726 C 539 1700 524 1666 524 1626 C 524 1585 539 1551 569 1523 C 599 1495 640 1482 690 1482 C 742 1482 783 1495 813 1523 C 843 1551 858 1585 858 1626 Z M 1253 522 C 1253 338 1201 199 1099 107 C 996 15 859 -31 688 -31 C 522 -31 386 11 282 97 C 177 182 125 314 125 494 L 125 1280 L 449 1280 L 449 537 C 449 441 469 368 509 318 C 549 268 611 244 696 244 C 772 244 830 266 870 310 C 910 354 930 425 930 524 L 930 1280 L 1253 1280 L 1253 522 Z" unicode="Ů" />
<glyph horiz-adv-x="1143" d="M 847 1311 C 848 1243 822 1186 770 1139 C 718 1092 647 1069 559 1069 C 470 1069 400 1092 348 1139 C 296 1186 270 1243 270 1311 C 270 1378 296 1435 348 1482 C 400 1528 470 1552 559 1552 C 647 1552 717 1528 769 1482 C 821 1436 847 1379 847 1311 Z M 727 1313 C 727 1353 712 1387 682 1413 C 652 1439 611 1452 559 1452 C 509 1452 468 1439 438 1413 C 408 1387 393 1353 393 1313 C 393 1272 408 1238 438 1210 C 468 1182 509 1169 559 1169 C 611 1169 652 1182 682 1210 C 712 1238 727 1272 727 1313 Z M 106 952 L 422 952 L 422 389 C 422 332 433 292 457 270 C 480 247 512 236 553 236 C 586 236 616 242 644 254 C 672 266 695 281 715 299 L 715 952 L 1030 952 L 1030 14 L 715 -25 L 715 117 C 678 77 633 42 579 13 C 525 -16 468 -31 406 -31 C 312 -31 239 -1 186 57 C 132 116 106 196 106 297 L 106 952 Z" unicode="ů" />
<glyph horiz-adv-x="1376" d="M 1253 522 C 1253 338 1201 199 1099 107 C 996 15 859 -31 688 -31 C 522 -31 386 11 282 97 C 177 182 125 314 125 494 L 125 1280 L 449 1280 L 449 537 C 449 441 469 368 509 318 C 549 268 611 244 696 244 C 772 244 830 266 870 310 C 910 354 930 425 930 524 L 930 1280 L 1253 1280 L 1253 522 Z M 899 1781 L 567 1406 L 356 1406 L 608 1781 L 899 1781 Z M 1349 1781 L 970 1406 L 766 1406 L 1058 1781 L 1349 1781 Z" unicode="Ű" />
<glyph horiz-adv-x="1143" d="M 106 952 L 422 952 L 422 389 C 422 332 433 292 457 270 C 480 247 512 236 553 236 C 586 236 616 242 644 254 C 672 266 695 281 715 299 L 715 952 L 1030 952 L 1030 14 L 715 -25 L 715 117 C 678 77 633 42 579 13 C 525 -16 468 -31 406 -31 C 312 -31 239 -1 186 57 C 132 116 106 196 106 297 L 106 952 Z M 712 1454 L 380 1079 L 169 1079 L 421 1454 L 712 1454 Z M 1162 1454 L 783 1079 L 579 1079 L 871 1454 L 1162 1454 Z" unicode="ű" />
<glyph horiz-adv-x="1376" d="M 1253 522 C 1253 394 1229 290 1181 209 C 1133 128 1066 65 981 20 C 934 -4 896 -32 868 -65 C 839 -98 825 -133 825 -170 C 825 -199 832 -222 848 -238 C 864 -254 885 -262 913 -262 C 931 -262 950 -259 969 -255 C 988 -250 1004 -244 1018 -236 L 1061 -395 C 1035 -411 1005 -425 971 -435 C 937 -445 896 -451 848 -451 C 773 -451 713 -432 668 -394 C 622 -356 600 -306 600 -242 C 600 -198 610 -157 632 -121 C 654 -85 683 -55 719 -31 L 688 -31 C 522 -31 386 11 282 97 C 177 183 125 315 125 494 L 125 1280 L 449 1280 L 449 537 C 449 441 469 368 509 318 C 549 268 611 244 696 244 C 772 244 830 266 870 310 C 910 354 930 425 930 524 L 930 1280 L 1253 1280 L 1253 522 Z" unicode="Ų" />
<glyph horiz-adv-x="1143" d="M 106 952 L 422 952 L 422 389 C 422 332 433 292 457 270 C 480 247 512 236 553 236 C 586 236 616 242 644 254 C 672 266 695 281 715 299 L 715 952 L 1030 952 L 1030 8 C 964 0 905 -21 851 -56 C 797 -91 770 -129 770 -170 C 770 -199 777 -222 793 -238 C 809 -254 830 -262 858 -262 C 876 -262 895 -259 914 -255 C 933 -250 949 -244 963 -236 L 1006 -395 C 980 -411 949 -425 915 -435 C 881 -445 840 -451 793 -451 C 718 -451 658 -432 613 -394 C 567 -356 545 -306 545 -242 C 545 -188 561 -140 595 -98 C 629 -56 669 -23 715 0 L 715 117 C 678 77 633 42 579 13 C 525 -16 468 -31 406 -31 C 312 -31 239 -1 186 57 C 132 116 106 196 106 297 L 106 952 Z" unicode="ų" />
<glyph horiz-adv-x="1956" d="M 1370 1406 L 1155 1406 L 985 1625 L 981 1625 L 815 1406 L 596 1406 L 839 1789 L 1126 1789 L 1370 1406 Z M 979 911 L 727 0 L 389 0 L 47 1280 L 395 1280 L 567 375 L 797 1280 L 1169 1280 L 1403 375 L 1575 1280 L 1909 1280 L 1567 0 L 1227 0 L 979 911 Z" unicode="Ŵ" />
<glyph horiz-adv-x="1579" d="M 1177 1079 L 962 1079 L 792 1298 L 788 1298 L 622 1079 L 403 1079 L 646 1462 L 933 1462 L 1177 1079 Z M 610 -4 L 291 -4 L 23 952 L 342 952 L 471 319 L 633 952 L 963 952 L 1126 330 L 1237 952 L 1565 952 L 1294 -4 L 975 -4 L 793 623 L 610 -4 Z" unicode="ŵ" />
<glyph horiz-adv-x="1251" d="M 1231 1280 L 786 485 L 786 0 L 467 0 L 467 487 L 20 1280 L 367 1280 L 631 774 L 887 1280 L 1231 1280 Z M 1016 1406 L 801 1406 L 631 1625 L 627 1625 L 461 1406 L 242 1406 L 485 1789 L 772 1789 L 1016 1406 Z" unicode="Ŷ" />
<glyph horiz-adv-x="1040" d="M 1049 952 L 705 45 L 657 -80 C 608 -218 551 -313 486 -365 C 421 -416 339 -442 240 -442 C 188 -442 139 -436 93 -426 C 46 -416 1 -401 -43 -381 L 51 -141 C 81 -154 107 -164 129 -172 C 151 -180 174 -184 199 -184 C 232 -184 258 -176 277 -160 C 296 -144 315 -113 334 -68 L 360 6 L -12 952 L 326 952 L 528 326 L 713 952 L 1049 952 Z M 905 1079 L 690 1079 L 520 1298 L 516 1298 L 350 1079 L 131 1079 L 374 1462 L 661 1462 L 905 1079 Z" unicode="ŷ" />
<glyph horiz-adv-x="1251" d="M 1231 1280 L 786 485 L 786 0 L 467 0 L 467 487 L 20 1280 L 367 1280 L 631 774 L 887 1280 L 1231 1280 Z M 551 1533 C 551 1482 535 1443 505 1416 C 474 1388 435 1375 387 1375 C 339 1375 299 1388 269 1416 C 238 1443 223 1482 223 1533 C 223 1584 238 1623 269 1650 C 299 1677 339 1691 387 1691 C 435 1691 474 1677 505 1650 C 535 1623 551 1584 551 1533 Z M 1026 1533 C 1026 1482 1011 1443 982 1416 C 952 1388 913 1375 864 1375 C 816 1375 777 1388 747 1416 C 717 1443 702 1482 702 1533 C 702 1584 717 1623 747 1650 C 777 1677 816 1691 864 1691 C 913 1691 952 1677 982 1650 C 1011 1623 1026 1584 1026 1533 Z" unicode="Ÿ" />
<glyph horiz-adv-x="1188" d="M 991 1785 L 645 1406 L 448 1406 L 651 1785 L 991 1785 Z M 1110 0 L 63 0 L 63 215 L 702 1008 L 76 1008 L 76 1280 L 1112 1280 L 1112 1063 L 475 274 L 1110 274 L 1110 0 Z" unicode="Ź" />
<glyph horiz-adv-x="940" d="M 856 1458 L 510 1079 L 313 1079 L 516 1458 L 856 1458 Z M 897 0 L 37 0 L 37 188 L 483 692 L 55 692 L 55 952 L 897 952 L 897 764 L 453 258 L 897 258 L 897 0 Z" unicode="ź" />
<glyph horiz-adv-x="1188" d="M 1110 0 L 63 0 L 63 215 L 702 1008 L 76 1008 L 76 1280 L 1112 1280 L 1112 1063 L 475 274 L 1110 274 L 1110 0 Z M 782 1556 C 782 1506 766 1464 735 1430 C 704 1395 662 1378 610 1378 C 558 1378 517 1395 485 1430 C 453 1464 438 1506 438 1556 C 438 1602 453 1644 485 1680 C 517 1716 558 1734 610 1734 C 662 1734 704 1716 735 1680 C 766 1644 782 1602 782 1556 Z" unicode="Ż" />
<glyph horiz-adv-x="940" d="M 897 0 L 37 0 L 37 188 L 483 692 L 55 692 L 55 952 L 897 952 L 897 764 L 453 258 L 897 258 L 897 0 Z M 645 1229 C 645 1179 629 1137 598 1103 C 567 1068 525 1051 473 1051 C 421 1051 380 1068 348 1103 C 316 1137 301 1179 301 1229 C 301 1275 316 1317 348 1353 C 380 1389 421 1407 473 1407 C 525 1407 567 1389 598 1353 C 629 1317 645 1275 645 1229 Z" unicode="ż" />
<glyph horiz-adv-x="1188" d="M 1110 0 L 63 0 L 63 215 L 702 1008 L 76 1008 L 76 1280 L 1112 1280 L 1112 1063 L 475 274 L 1110 274 L 1110 0 Z M 979 1750 L 735 1367 L 448 1367 L 205 1750 L 420 1750 L 590 1529 L 594 1529 L 760 1750 L 979 1750 Z" unicode="Ž" />
<glyph horiz-adv-x="940" d="M 897 0 L 37 0 L 37 188 L 483 692 L 55 692 L 55 952 L 897 952 L 897 764 L 453 258 L 897 258 L 897 0 Z M 850 1462 L 606 1079 L 319 1079 L 76 1462 L 291 1462 L 461 1241 L 465 1241 L 631 1462 L 850 1462 Z" unicode="ž" />
<glyph horiz-adv-x="926" d="M 219 379 L 256 578 L 20 590 L 70 791 L 291 836 L 311 954 C 328 1065 366 1151 425 1213 C 483 1274 568 1305 678 1305 C 734 1305 787 1297 837 1283 C 887 1269 928 1253 961 1235 L 864 1004 C 840 1018 816 1029 790 1038 C 764 1046 740 1051 719 1051 C 686 1051 659 1040 639 1020 C 619 1000 605 970 598 932 L 582 825 L 852 825 L 809 580 L 557 580 L 524 406 C 502 269 458 167 390 101 C 322 34 216 -11 72 -37 L -2 201 C 65 213 116 232 152 260 C 187 288 209 327 219 379 Z" unicode="ƒ" />
<glyph horiz-adv-x="1317" d="M 981 2076 L 635 1697 L 438 1697 L 641 2076 L 981 2076 Z M 449 1249 C 424 1269 405 1294 392 1322 C 379 1350 373 1381 373 1415 C 373 1482 398 1539 450 1586 C 502 1633 571 1657 659 1657 C 748 1657 818 1633 870 1587 C 922 1541 948 1483 948 1415 C 948 1382 941 1352 928 1324 C 915 1296 896 1271 872 1251 L 1313 0 L 989 0 L 895 272 L 420 272 L 328 0 L 4 0 L 449 1249 Z M 829 1417 C 829 1458 813 1491 783 1517 C 752 1543 711 1556 659 1556 C 609 1556 569 1543 539 1517 C 509 1491 494 1458 494 1417 C 494 1376 509 1342 539 1315 C 569 1287 609 1274 659 1274 C 711 1274 752 1287 783 1315 C 813 1342 829 1376 829 1417 Z M 823 526 L 659 1028 L 489 526 L 823 526 Z" unicode="Ǻ" />
<glyph horiz-adv-x="1047" d="M 633 115 L 627 115 C 593 75 555 40 513 12 C 471 -16 417 -31 352 -31 C 270 -31 201 -5 145 46 C 89 97 61 159 61 233 C 61 323 101 400 183 465 C 264 529 411 565 625 571 L 625 590 C 625 640 611 676 584 700 C 557 723 515 735 457 735 C 407 735 355 725 299 707 C 243 689 188 666 133 639 L 68 870 C 117 896 180 922 256 946 C 332 970 416 983 506 983 C 670 983 783 946 847 874 C 911 802 942 699 940 567 L 938 285 C 938 252 942 231 952 223 C 962 215 983 209 1016 207 L 985 -18 C 882 -31 803 -25 748 0 C 692 24 654 63 633 115 Z M 625 242 L 625 424 C 527 412 458 396 418 375 C 378 353 358 322 358 281 C 358 250 369 225 391 206 C 413 187 442 178 477 178 C 509 178 537 184 562 196 C 587 208 608 223 625 242 Z M 850 1980 L 504 1601 L 307 1601 L 510 1980 L 850 1980 Z M 769 1311 C 770 1243 744 1186 692 1139 C 640 1092 569 1069 481 1069 C 392 1069 322 1092 270 1139 C 218 1186 192 1243 192 1311 C 192 1378 218 1435 270 1482 C 322 1528 392 1552 481 1552 C 569 1552 639 1528 691 1482 C 743 1436 769 1379 769 1311 Z M 649 1313 C 649 1353 634 1387 604 1413 C 574 1439 533 1452 481 1452 C 431 1452 390 1439 360 1413 C 330 1387 315 1353 315 1313 C 315 1272 330 1238 360 1210 C 390 1182 431 1169 481 1169 C 533 1169 574 1182 604 1210 C 634 1238 649 1272 649 1313 Z" unicode="ǻ" />
<glyph horiz-adv-x="1837" d="M 1521 1785 L 1175 1406 L 978 1406 L 1181 1785 L 1521 1785 Z M 461 272 L 334 0 L -14 0 L 608 1280 L 1759 1280 L 1759 1018 L 1143 1018 L 1143 772 L 1653 772 L 1653 512 L 1143 512 L 1143 262 L 1759 262 L 1759 0 L 825 0 L 825 272 L 461 272 Z M 575 532 L 825 532 L 825 1071 L 575 532 Z" unicode="Ǽ" />
<glyph horiz-adv-x="1610" d="M 1186 1458 L 840 1079 L 643 1079 L 846 1458 L 1186 1458 Z M 711 168 C 667 114 615 67 556 28 C 496 -11 428 -31 352 -31 C 270 -31 201 -5 145 46 C 89 97 61 159 61 233 C 61 323 103 400 187 466 C 271 532 421 567 637 571 L 637 588 C 637 640 621 678 590 701 C 559 723 515 735 457 735 C 407 735 355 725 299 707 C 243 689 188 666 133 639 L 68 870 C 117 896 180 921 258 945 C 336 969 420 981 510 981 C 589 981 655 972 708 954 C 760 936 803 912 836 881 C 875 912 919 937 968 955 C 1017 973 1073 983 1137 983 C 1270 983 1371 944 1439 868 C 1507 791 1542 696 1542 584 C 1542 558 1540 528 1536 495 C 1532 462 1528 436 1522 416 L 915 406 L 915 401 C 921 338 946 289 990 254 C 1033 218 1093 201 1169 201 C 1220 201 1273 209 1327 226 C 1381 243 1431 265 1479 293 L 1509 49 C 1461 24 1405 5 1340 -8 C 1275 -22 1209 -29 1141 -29 C 1043 -29 957 -11 884 23 C 811 58 753 106 711 168 Z M 635 424 C 537 416 466 400 423 378 C 379 356 358 323 358 281 C 358 250 369 225 392 206 C 414 187 443 178 479 178 C 511 178 543 185 575 201 C 607 217 636 238 662 266 C 655 286 649 312 644 343 C 638 373 635 400 635 424 Z M 920 563 L 1247 565 C 1248 567 1249 570 1249 574 C 1249 578 1249 582 1249 584 C 1249 640 1237 684 1213 717 C 1189 749 1152 766 1102 766 C 1048 766 1006 745 974 705 C 942 664 924 617 920 563 Z" unicode="ǽ" />
<glyph horiz-adv-x="1501" d="M 1423 645 C 1423 443 1358 280 1228 156 C 1098 31 939 -31 750 -31 C 698 -31 647 -26 598 -17 C 548 -7 502 5 459 23 L 365 -137 L 217 -137 L 346 82 C 265 136 201 210 153 304 C 105 397 82 508 82 637 C 82 839 146 1001 275 1125 C 404 1249 564 1311 754 1311 C 804 1311 853 1306 901 1298 C 948 1290 992 1278 1034 1262 C 1035 1262 1051 1287 1081 1339 C 1111 1391 1126 1417 1126 1417 L 1274 1417 L 1149 1204 C 1232 1150 1298 1076 1348 982 C 1398 888 1423 775 1423 645 Z M 991 948 L 598 268 C 620 256 645 246 671 240 C 697 234 726 231 756 231 C 862 231 946 268 1006 344 C 1066 420 1096 517 1096 637 C 1096 702 1087 761 1069 815 C 1051 868 1025 912 991 948 Z M 897 1018 C 874 1028 850 1035 826 1041 C 801 1046 776 1049 750 1049 C 642 1049 558 1011 498 936 C 438 861 408 764 408 645 C 408 581 416 524 433 473 C 450 421 475 378 508 342 L 897 1018 Z M 1151 1759 L 805 1380 L 608 1380 L 811 1759 L 1151 1759 Z" unicode="Ǿ" />
<glyph horiz-adv-x="1145" d="M 1092 475 C 1092 318 1042 194 942 104 C 842 14 721 -31 578 -31 C 543 -31 509 -28 476 -22 C 443 -16 411 -8 381 2 L 301 -137 L 152 -137 L 266 61 C 206 104 158 161 124 231 C 89 301 72 382 72 475 C 72 633 121 757 220 847 C 319 937 442 983 588 983 C 623 983 657 980 691 974 C 725 968 756 959 786 948 L 864 1077 L 1012 1077 L 901 887 C 959 845 1005 788 1040 718 C 1074 648 1092 567 1092 475 Z M 674 745 C 658 755 643 763 627 767 C 611 771 593 774 575 774 C 511 774 461 747 426 695 C 390 642 373 571 373 483 C 373 448 376 416 382 386 C 388 356 399 326 414 297 L 674 745 Z M 791 473 C 791 504 787 534 781 564 C 775 594 766 623 754 653 L 498 205 C 513 199 528 194 542 190 C 556 186 571 184 588 184 C 652 184 701 210 737 263 C 773 315 791 385 791 473 Z M 956 1458 L 610 1079 L 413 1079 L 616 1458 L 956 1458 Z" unicode="ǿ" />
<glyph horiz-adv-x="1155" d="M 411 -250 C 412 -211 427 -177 457 -148 C 487 -118 525 -104 571 -104 C 625 -104 669 -121 704 -156 C 739 -190 757 -235 757 -289 C 757 -355 731 -414 681 -466 C 631 -518 563 -558 477 -586 L 407 -512 C 453 -485 487 -459 509 -434 C 531 -409 542 -386 542 -365 C 542 -343 534 -322 518 -304 C 502 -285 467 -267 411 -250 Z M 559 238 C 616 238 663 248 699 269 C 735 289 754 319 754 358 C 754 401 731 433 686 454 C 640 474 576 496 492 520 C 398 545 306 585 216 640 C 125 694 80 785 80 913 C 80 1031 122 1127 207 1200 C 291 1272 413 1309 571 1309 C 671 1309 760 1298 840 1277 C 919 1256 989 1229 1051 1196 L 987 928 C 923 961 854 988 780 1009 C 705 1029 636 1040 573 1040 C 517 1040 475 1030 447 1012 C 419 993 406 966 406 932 C 406 890 431 858 483 836 C 535 814 599 793 676 772 C 774 745 865 704 950 649 C 1034 594 1077 506 1077 385 C 1077 263 1031 164 940 86 C 849 8 720 -31 553 -31 C 458 -31 367 -19 279 2 C 191 24 118 52 59 86 L 121 356 C 184 322 253 294 328 272 C 403 249 480 238 559 238 Z" unicode="Ș" />
<glyph horiz-adv-x="942" d="M 298 -250 C 299 -211 314 -177 344 -148 C 374 -118 412 -104 458 -104 C 512 -104 556 -121 591 -156 C 626 -190 644 -235 644 -289 C 644 -355 618 -414 568 -466 C 518 -518 450 -558 364 -586 L 294 -512 C 340 -485 374 -459 396 -434 C 418 -409 429 -386 429 -365 C 429 -343 421 -322 405 -304 C 389 -285 354 -267 298 -250 Z M 885 283 C 885 197 847 123 773 61 C 699 0 592 -31 453 -31 C 387 -31 316 -23 239 -8 C 162 6 99 27 49 53 L 111 281 C 165 252 223 230 284 214 C 345 198 403 190 459 190 C 500 190 532 197 554 211 C 576 225 588 244 588 268 C 588 294 574 314 547 328 C 520 341 480 354 426 367 C 316 388 228 422 162 469 C 96 515 63 585 63 678 C 63 766 100 839 174 897 C 248 954 351 983 483 983 C 546 983 615 975 689 959 C 763 943 823 923 870 901 L 807 676 C 753 702 696 723 636 739 C 576 754 523 762 479 762 C 441 762 412 755 392 743 C 372 731 362 713 362 690 C 362 664 376 645 405 632 C 433 619 474 607 526 596 C 638 571 725 536 789 492 C 853 447 885 377 885 283 Z" unicode="ș" />
<glyph horiz-adv-x="1233" d="M 440 -250 C 441 -211 456 -177 486 -148 C 516 -118 554 -104 600 -104 C 654 -104 698 -121 733 -156 C 768 -190 786 -235 786 -289 C 786 -355 760 -414 710 -466 C 660 -518 592 -558 506 -586 L 436 -512 C 482 -485 516 -459 538 -434 C 560 -409 571 -386 571 -365 C 571 -343 563 -322 547 -304 C 531 -285 496 -267 440 -250 Z M 1186 1008 L 778 1008 L 778 0 L 453 0 L 453 1008 L 45 1008 L 45 1280 L 1186 1280 L 1186 1008 Z" unicode="Ț" />
<glyph horiz-adv-x="772" d="M 272 -250 C 273 -211 288 -177 318 -148 C 348 -118 386 -104 432 -104 C 486 -104 530 -121 565 -156 C 600 -190 618 -235 618 -289 C 618 -355 592 -414 542 -466 C 492 -518 424 -558 338 -586 L 268 -512 C 314 -485 348 -459 370 -434 C 392 -409 403 -386 403 -365 C 403 -343 395 -322 379 -304 C 363 -285 328 -267 272 -250 Z M 727 4 C 690 -7 654 -16 619 -22 C 584 -28 543 -31 496 -31 C 378 -31 289 -4 228 49 C 166 102 139 191 145 315 L 160 678 L 16 702 L 23 903 L 166 950 L 170 1167 L 475 1167 L 473 940 L 711 940 L 705 692 L 451 692 L 440 350 C 438 306 448 274 472 254 C 495 234 526 225 565 225 C 584 225 604 227 626 232 C 647 236 668 242 690 250 L 727 4 Z" unicode="ț" />
<glyph horiz-adv-x="539" d="M 125 -496 L -55 -283 C 3 -255 45 -218 72 -174 C 99 -130 113 -57 113 43 L 113 936 L 428 975 L 428 23 C 428 -117 405 -228 360 -312 C 314 -396 236 -457 125 -496 Z" unicode="ȷ" />
<glyph horiz-adv-x="815" d="M 797 1079 L 582 1079 L 412 1298 L 408 1298 L 242 1079 L 23 1079 L 266 1462 L 553 1462 L 797 1079 Z" unicode="ˆ" />
<glyph horiz-adv-x="815" d="M 797 1462 L 553 1079 L 266 1079 L 23 1462 L 238 1462 L 408 1241 L 412 1241 L 578 1462 L 797 1462 Z" unicode="ˇ" />
<glyph horiz-adv-x="815" d="M 782 1455 C 771 1320 729 1221 656 1159 C 582 1097 500 1066 410 1066 C 321 1066 239 1097 165 1159 C 91 1221 48 1320 37 1455 L 227 1453 C 238 1391 258 1341 288 1303 C 318 1265 358 1246 410 1246 C 462 1246 502 1265 532 1303 C 562 1341 582 1391 592 1453 L 782 1455 Z" unicode="˘" />
<glyph horiz-adv-x="815" d="M 582 1229 C 582 1179 566 1137 535 1103 C 504 1068 462 1051 410 1051 C 358 1051 317 1068 285 1103 C 253 1137 238 1179 238 1229 C 238 1275 253 1317 285 1353 C 317 1389 358 1407 410 1407 C 462 1407 504 1389 535 1353 C 566 1317 582 1275 582 1229 Z" unicode="˙" />
<glyph horiz-adv-x="815" d="M 698 1311 C 699 1243 673 1186 621 1139 C 569 1092 498 1069 410 1069 C 321 1069 251 1092 199 1139 C 147 1186 121 1243 121 1311 C 121 1378 147 1435 199 1482 C 251 1528 321 1552 410 1552 C 498 1552 568 1528 620 1482 C 672 1436 698 1379 698 1311 Z M 578 1313 C 578 1353 563 1387 533 1413 C 503 1439 462 1452 410 1452 C 360 1452 319 1439 289 1413 C 259 1387 244 1353 244 1313 C 244 1272 259 1238 289 1210 C 319 1182 360 1169 410 1169 C 462 1169 503 1182 533 1210 C 563 1238 578 1272 578 1313 Z" unicode="˚" />
<glyph horiz-adv-x="815" d="M 680 -451 C 645 -480 604 -506 556 -530 C 508 -553 454 -565 393 -565 C 317 -565 254 -543 202 -499 C 150 -455 125 -397 125 -324 C 125 -244 161 -166 234 -91 C 306 -16 400 35 516 63 L 707 63 C 576 16 478 -38 412 -102 C 346 -166 313 -227 313 -287 C 313 -320 323 -347 345 -368 C 367 -388 397 -399 436 -399 C 470 -399 506 -392 546 -379 C 585 -365 624 -348 662 -326 L 680 -451 Z" unicode="˛" />
<glyph horiz-adv-x="813" d="M 801 1399 C 788 1276 762 1193 724 1150 C 685 1106 635 1085 575 1085 C 512 1085 453 1104 397 1143 C 341 1182 298 1202 266 1202 C 248 1202 234 1195 224 1181 C 213 1167 205 1140 201 1100 L 14 1100 C 26 1221 52 1303 90 1346 C 128 1389 177 1411 238 1411 C 302 1411 361 1391 417 1352 C 472 1313 516 1294 549 1294 C 566 1294 580 1301 590 1316 C 600 1330 607 1358 612 1399 L 801 1399 Z" unicode="˜" />
<glyph horiz-adv-x="813" d="M 629 1454 L 297 1079 L 86 1079 L 338 1454 L 629 1454 Z M 1079 1454 L 700 1079 L 496 1079 L 788 1454 L 1079 1454 Z" unicode="˝" />
<glyph horiz-adv-x="1149" d="M 428 952 L 428 410 C 428 336 442 289 471 268 C 499 246 533 236 573 236 C 607 236 641 248 673 273 C 705 297 721 346 721 420 L 721 952 L 1036 952 L 1036 0 L 723 0 L 723 92 C 709 59 689 31 662 9 C 634 -13 605 -25 575 -25 C 545 -25 517 -19 493 -7 C 468 4 446 25 428 57 L 428 -477 L 113 -477 L 113 952 L 428 952 Z" unicode="μ" />
<glyph horiz-adv-x="1956" d="M 979 911 L 727 0 L 389 0 L 47 1280 L 395 1280 L 567 375 L 797 1280 L 1169 1280 L 1403 375 L 1575 1280 L 1909 1280 L 1567 0 L 1227 0 L 979 911 Z M 1111 1406 L 915 1406 L 568 1785 L 908 1785 L 1111 1406 Z" unicode="Ẁ" />
<glyph horiz-adv-x="1579" d="M 610 -4 L 291 -4 L 23 952 L 342 952 L 471 319 L 633 952 L 963 952 L 1126 330 L 1237 952 L 1565 952 L 1294 -4 L 975 -4 L 793 623 L 610 -4 Z M 935 1079 L 739 1079 L 392 1458 L 732 1458 L 935 1079 Z" unicode="ẁ" />
<glyph horiz-adv-x="1956" d="M 1368 1785 L 1022 1406 L 825 1406 L 1028 1785 L 1368 1785 Z M 979 911 L 727 0 L 389 0 L 47 1280 L 395 1280 L 567 375 L 797 1280 L 1169 1280 L 1403 375 L 1575 1280 L 1909 1280 L 1567 0 L 1227 0 L 979 911 Z" unicode="Ẃ" />
<glyph horiz-adv-x="1579" d="M 1188 1458 L 842 1079 L 645 1079 L 848 1458 L 1188 1458 Z M 610 -4 L 291 -4 L 23 952 L 342 952 L 471 319 L 633 952 L 963 952 L 1126 330 L 1237 952 L 1565 952 L 1294 -4 L 975 -4 L 793 623 L 610 -4 Z" unicode="ẃ" />
<glyph horiz-adv-x="1956" d="M 913 1572 C 913 1521 897 1482 867 1455 C 836 1427 797 1414 749 1414 C 701 1414 661 1427 631 1455 C 600 1482 585 1521 585 1572 C 585 1623 600 1662 631 1689 C 661 1716 701 1730 749 1730 C 797 1730 836 1716 867 1689 C 897 1662 913 1623 913 1572 Z M 1388 1572 C 1388 1521 1373 1482 1344 1455 C 1314 1427 1275 1414 1226 1414 C 1178 1414 1139 1427 1109 1455 C 1079 1482 1064 1521 1064 1572 C 1064 1623 1079 1662 1109 1689 C 1139 1716 1178 1730 1226 1730 C 1275 1730 1314 1716 1344 1689 C 1373 1662 1388 1623 1388 1572 Z M 979 911 L 727 0 L 389 0 L 47 1280 L 395 1280 L 567 375 L 797 1280 L 1169 1280 L 1403 375 L 1575 1280 L 1909 1280 L 1567 0 L 1227 0 L 979 911 Z" unicode="Ẅ" />
<glyph horiz-adv-x="1579" d="M 714 1245 C 714 1194 698 1155 668 1128 C 637 1100 598 1087 550 1087 C 502 1087 462 1100 432 1128 C 401 1155 386 1194 386 1245 C 386 1296 401 1335 432 1362 C 462 1389 502 1403 550 1403 C 598 1403 637 1389 668 1362 C 698 1335 714 1296 714 1245 Z M 1189 1245 C 1189 1194 1174 1155 1145 1128 C 1115 1100 1076 1087 1027 1087 C 979 1087 940 1100 910 1128 C 880 1155 865 1194 865 1245 C 865 1296 880 1335 910 1362 C 940 1389 979 1403 1027 1403 C 1076 1403 1115 1389 1145 1362 C 1174 1335 1189 1296 1189 1245 Z M 610 -4 L 291 -4 L 23 952 L 342 952 L 471 319 L 633 952 L 963 952 L 1126 330 L 1237 952 L 1565 952 L 1294 -4 L 975 -4 L 793 623 L 610 -4 Z" unicode="ẅ" />
<glyph horiz-adv-x="156" d="" unicode=" " />
<glyph horiz-adv-x="1077" d="M 1028 373 L 51 373 L 57 612 L 1022 612 L 1028 373 Z" unicode="–" />
<glyph horiz-adv-x="2040" d="M 1991 373 L 51 373 L 57 612 L 1985 612 L 1991 373 Z" unicode="—" />
<glyph horiz-adv-x="555" d="M 508 852 C 502 796 478 752 436 718 C 394 684 345 668 287 668 C 215 668 157 694 111 746 C 65 798 43 858 43 928 C 43 1020 78 1101 149 1170 C 220 1238 300 1296 389 1343 L 528 1223 C 471 1184 423 1146 383 1110 C 343 1074 324 1039 324 1006 C 324 978 336 952 362 930 C 388 907 436 881 508 852 Z" unicode="‘" />
<glyph horiz-adv-x="555" d="M 49 1184 C 55 1238 78 1283 119 1317 C 160 1351 210 1368 268 1368 C 339 1368 398 1342 444 1290 C 490 1238 514 1177 514 1108 C 514 1014 478 932 407 864 C 336 796 256 738 168 690 L 29 813 C 85 851 133 888 173 924 C 213 960 233 994 233 1028 C 233 1055 220 1080 194 1104 C 168 1127 119 1154 49 1184 Z" unicode="’" />
<glyph horiz-adv-x="555" d="M 49 168 C 55 222 78 267 119 301 C 160 335 210 352 268 352 C 339 352 398 326 444 274 C 490 222 514 161 514 92 C 514 -1 478 -82 407 -151 C 336 -219 256 -278 168 -326 L 29 -203 C 85 -164 133 -127 173 -91 C 213 -55 233 -21 233 12 C 233 40 220 65 194 89 C 168 112 119 138 49 168 Z" unicode="‚" />
<glyph horiz-adv-x="1106" d="M 508 852 C 502 796 478 752 436 718 C 394 684 345 668 287 668 C 215 668 157 694 111 746 C 65 798 43 858 43 928 C 43 1020 78 1101 149 1170 C 220 1238 300 1296 389 1343 L 528 1223 C 471 1184 423 1146 383 1110 C 343 1074 324 1039 324 1006 C 324 978 336 952 362 930 C 388 907 436 881 508 852 Z M 1057 852 C 1051 796 1027 752 985 718 C 943 684 894 668 836 668 C 764 668 706 694 660 746 C 614 798 592 858 592 928 C 592 1020 627 1101 698 1170 C 769 1238 849 1296 938 1343 L 1077 1223 C 1020 1184 972 1146 932 1110 C 892 1074 872 1039 872 1006 C 872 978 885 952 911 930 C 937 907 986 881 1057 852 Z" unicode="“" />
<glyph horiz-adv-x="1106" d="M 49 1184 C 55 1238 78 1283 119 1317 C 160 1351 210 1368 268 1368 C 339 1368 398 1342 444 1290 C 490 1238 514 1177 514 1108 C 514 1014 478 932 407 864 C 336 796 256 738 168 690 L 29 813 C 85 851 133 888 173 924 C 213 960 233 994 233 1028 C 233 1055 220 1080 194 1104 C 168 1127 119 1154 49 1184 Z M 598 1184 C 604 1238 627 1283 669 1317 C 710 1351 760 1368 819 1368 C 890 1368 948 1342 994 1290 C 1040 1238 1063 1177 1063 1108 C 1063 1014 1027 932 956 864 C 885 796 805 738 717 690 L 578 813 C 634 851 682 888 722 924 C 762 960 782 994 782 1028 C 782 1055 768 1080 742 1104 C 716 1127 668 1154 598 1184 Z" unicode="”" />
<glyph horiz-adv-x="1096" d="M 49 168 C 55 222 78 267 119 301 C 160 335 210 352 268 352 C 339 352 398 326 444 274 C 490 222 514 161 514 92 C 514 -1 478 -82 407 -151 C 336 -219 256 -278 168 -326 L 29 -203 C 85 -164 133 -127 173 -91 C 213 -55 233 -21 233 12 C 233 40 220 65 194 89 C 168 112 119 138 49 168 Z M 598 168 C 604 222 627 267 669 301 C 710 335 760 352 819 352 C 890 352 948 326 994 274 C 1040 222 1063 161 1063 92 C 1063 -1 1027 -82 956 -151 C 885 -219 805 -278 717 -326 L 578 -203 C 634 -164 682 -127 722 -91 C 762 -55 782 -21 782 12 C 782 40 768 65 742 89 C 716 112 668 138 598 168 Z" unicode="„" />
<glyph horiz-adv-x="1077" d="M 410 678 L 63 678 L 57 915 L 410 915 L 410 1280 L 668 1280 L 668 915 L 1022 915 L 1016 678 L 668 678 L 668 -258 L 410 -258 L 410 678 Z" unicode="†" />
<glyph horiz-adv-x="1077" d="M 414 702 L 63 702 L 57 940 L 410 940 L 410 1280 L 668 1280 L 668 940 L 1022 940 L 1016 702 L 664 702 L 664 319 L 1016 319 L 1022 82 L 668 82 L 668 -258 L 410 -258 L 410 82 L 57 82 L 63 319 L 414 319 L 414 702 Z" unicode="‡" />
<glyph horiz-adv-x="1024" d="M 907 475 C 907 445 893 397 866 329 C 838 261 814 216 793 195 C 772 174 727 150 659 122 C 590 94 541 80 512 80 C 483 80 435 94 367 122 C 299 150 255 174 236 195 C 215 216 190 261 162 329 C 133 397 119 445 119 475 C 119 504 133 553 162 621 C 190 689 215 733 236 754 C 256 774 300 798 368 826 C 436 854 485 868 514 868 C 543 868 592 854 660 826 C 728 798 772 774 793 754 C 813 733 837 689 865 621 C 893 553 907 504 907 475 Z" unicode="•" />
<glyph horiz-adv-x="1688" d="M 469 150 C 469 96 451 53 415 19 C 379 -14 335 -31 285 -31 C 233 -31 189 -14 153 19 C 116 53 98 96 98 150 C 98 204 116 247 153 280 C 189 313 233 330 285 330 C 335 330 379 313 415 280 C 451 247 469 204 469 150 Z M 1034 150 C 1034 96 1016 53 980 19 C 944 -14 900 -31 850 -31 C 798 -31 753 -14 717 19 C 680 53 662 96 662 150 C 662 204 680 247 717 280 C 753 313 798 330 850 330 C 900 330 944 313 980 280 C 1016 247 1034 204 1034 150 Z M 1597 150 C 1597 96 1579 53 1543 19 C 1507 -14 1464 -31 1413 -31 C 1362 -31 1318 -14 1282 19 C 1245 53 1227 96 1227 150 C 1227 204 1245 247 1282 280 C 1318 313 1362 330 1413 330 C 1464 330 1507 313 1543 280 C 1579 247 1597 204 1597 150 Z" unicode="…" />
<glyph horiz-adv-x="2523" d="M 756 973 C 756 867 723 780 659 714 C 595 647 507 614 395 614 C 283 614 195 647 132 714 C 68 780 37 867 37 973 C 37 1079 69 1164 134 1230 C 198 1296 286 1329 397 1329 C 509 1329 596 1295 660 1229 C 724 1163 756 1077 756 973 Z M 545 971 C 545 1031 531 1078 504 1113 C 476 1147 440 1165 395 1165 C 350 1165 314 1147 288 1113 C 261 1078 248 1031 248 971 C 248 911 261 865 288 831 C 315 797 351 780 397 780 C 441 780 476 797 504 832 C 531 866 545 913 545 971 Z M 1667 307 C 1667 200 1635 114 1571 48 C 1507 -18 1419 -51 1307 -51 C 1195 -51 1107 -17 1043 48 C 979 114 948 201 948 307 C 948 412 980 498 1045 564 C 1109 630 1197 664 1309 664 C 1421 664 1508 630 1572 564 C 1635 498 1667 412 1667 307 Z M 1456 305 C 1456 364 1442 411 1416 446 C 1389 480 1353 498 1309 498 C 1263 498 1226 480 1199 446 C 1172 411 1159 364 1159 305 C 1159 245 1172 198 1199 164 C 1226 130 1263 113 1309 113 C 1353 113 1389 130 1416 165 C 1442 199 1456 246 1456 305 Z M 2486 307 C 2486 200 2453 114 2389 48 C 2324 -18 2236 -51 2124 -51 C 2012 -51 1924 -17 1860 48 C 1796 114 1765 201 1765 307 C 1765 412 1797 498 1862 564 C 1926 630 2014 664 2126 664 C 2238 664 2326 630 2390 564 C 2454 498 2486 412 2486 307 Z M 2273 305 C 2273 364 2259 411 2233 446 C 2206 480 2170 498 2126 498 C 2080 498 2043 480 2016 446 C 1989 411 1976 364 1976 305 C 1976 245 1989 198 2016 164 C 2043 130 2080 113 2126 113 C 2170 113 2206 130 2233 165 C 2259 199 2273 246 2273 305 Z M 1503 1309 L 442 -31 L 205 -31 L 1266 1309 L 1503 1309 Z" unicode="‰" />
<glyph horiz-adv-x="743" d="M 672 223 L 618 25 L 51 350 L 51 606 L 618 934 L 672 733 L 334 479 L 334 475 L 672 223 Z" unicode="‹" />
<glyph horiz-adv-x="743" d="M 692 350 L 125 23 L 72 223 L 410 475 L 410 479 L 72 731 L 125 932 L 692 606 L 692 350 Z" unicode="›" />
<glyph horiz-adv-x="1335" d="M 1317 1309 L 254 -31 L 18 -31 L 1079 1309 L 1317 1309 Z" unicode="⁄" />
<glyph horiz-adv-x="676" d="M 649 940 C 649 810 622 711 570 643 C 517 575 438 541 332 541 C 226 541 148 574 100 642 C 51 710 27 808 27 938 C 27 1066 53 1165 105 1233 C 157 1301 236 1335 340 1335 C 444 1335 522 1301 573 1233 C 623 1165 649 1067 649 940 Z M 422 934 C 422 1034 413 1100 395 1130 C 377 1160 358 1176 336 1176 C 313 1176 293 1161 276 1132 C 258 1102 250 1038 250 938 C 250 840 259 776 278 748 C 296 719 317 705 340 705 C 362 705 382 719 398 747 C 414 775 422 838 422 934 Z" unicode="⁰" />
<glyph horiz-adv-x="676" d="M 659 733 L 569 733 L 569 559 L 354 559 L 354 733 L 23 733 L 14 887 L 272 1325 L 569 1325 L 569 893 L 655 893 L 659 733 Z M 362 891 L 362 1178 L 203 891 L 362 891 Z" unicode="⁴" />
<glyph horiz-adv-x="676" d="M 276 1032 C 282 1032 292 1032 304 1033 C 316 1033 326 1034 336 1034 C 432 1034 506 1013 556 971 C 606 929 631 875 631 809 C 631 732 603 668 548 617 C 493 566 407 541 289 541 C 253 541 210 544 162 550 C 114 556 70 566 31 582 L 49 764 C 75 750 110 739 152 731 C 194 723 234 719 272 719 C 306 719 335 725 359 739 C 383 753 395 774 395 803 C 395 831 381 853 355 869 C 329 885 292 893 246 893 C 210 893 177 890 148 886 C 119 881 95 875 76 868 L 47 899 L 102 1321 L 610 1321 L 614 1141 L 289 1141 L 276 1032 Z" unicode="⁵" />
<glyph horiz-adv-x="676" d="M 29 891 C 29 1008 72 1110 158 1196 C 244 1282 364 1332 516 1348 L 569 1182 C 489 1176 418 1153 356 1114 C 294 1075 255 1029 240 975 L 246 973 C 270 996 297 1014 329 1028 C 361 1042 395 1049 432 1049 C 493 1049 544 1029 584 989 C 624 949 645 893 645 823 C 645 743 619 675 569 621 C 518 566 440 539 336 539 C 236 539 159 571 107 637 C 55 702 29 787 29 891 Z M 238 817 C 238 786 247 758 265 734 C 283 710 309 698 344 698 C 373 698 397 708 415 728 C 433 748 442 774 442 807 C 442 835 433 858 415 875 C 397 892 374 901 346 901 C 328 901 308 897 287 891 C 265 884 250 876 242 868 C 240 859 238 850 238 842 C 238 833 238 825 238 817 Z" unicode="⁶" />
<glyph horiz-adv-x="676" d="M 408 1137 L 47 1137 L 51 1321 L 635 1321 L 633 1157 L 313 559 L 86 559 L 408 1137 Z" unicode="⁷" />
<glyph horiz-adv-x="676" d="M 657 778 C 657 712 631 656 579 610 C 527 564 446 541 334 541 C 247 541 173 559 111 595 C 49 631 18 685 18 756 C 18 791 31 823 59 852 C 86 880 128 903 184 920 C 143 936 107 958 77 988 C 46 1018 31 1055 31 1100 C 31 1167 56 1223 106 1268 C 156 1312 235 1335 344 1335 C 432 1335 504 1316 560 1280 C 616 1244 645 1191 645 1122 C 645 1086 632 1055 607 1027 C 581 999 543 979 492 965 C 536 947 575 924 608 894 C 640 864 657 826 657 778 Z M 451 774 C 451 798 438 820 413 840 C 388 859 351 875 303 889 C 275 873 256 856 246 837 C 236 818 231 800 231 784 C 231 758 240 736 259 718 C 278 699 306 690 344 690 C 377 690 403 697 422 712 C 441 726 451 747 451 774 Z M 438 1106 C 438 1132 429 1154 412 1170 C 394 1186 371 1194 342 1194 C 311 1194 288 1186 273 1170 C 257 1154 250 1135 250 1112 C 250 1089 258 1068 276 1050 C 293 1031 325 1016 371 1004 C 395 1018 412 1034 422 1052 C 432 1070 438 1088 438 1106 Z" unicode="⁸" />
<glyph horiz-adv-x="676" d="M 647 987 C 647 869 603 766 517 680 C 430 594 310 543 158 528 L 106 694 C 186 705 258 726 322 758 C 386 790 426 833 442 887 L 436 889 C 412 865 383 847 350 835 C 316 823 281 817 244 817 C 184 817 133 837 92 879 C 51 920 31 976 31 1047 C 31 1127 56 1195 107 1252 C 157 1308 235 1337 340 1337 C 440 1337 516 1304 568 1240 C 620 1175 647 1091 647 987 Z M 438 1059 C 438 1089 429 1117 411 1141 C 393 1165 366 1178 332 1178 C 301 1178 277 1168 259 1148 C 241 1128 233 1102 233 1071 C 233 1041 241 1016 259 996 C 276 975 300 965 330 965 C 347 965 366 968 388 974 C 409 980 424 987 434 995 C 436 1005 437 1017 437 1029 C 437 1041 438 1051 438 1059 Z" unicode="⁹" />
<glyph horiz-adv-x="676" d="M 575 872 L 389 872 L 389 684 L 252 684 L 252 872 L 63 872 L 68 1004 L 252 1004 L 252 1192 L 389 1192 L 389 1004 L 573 1004 L 575 872 Z" unicode="⁺" />
<glyph horiz-adv-x="676" d="M 575 872 L 63 872 L 68 1004 L 573 1004 L 575 872 Z" unicode="⁻" />
<glyph horiz-adv-x="676" d="M 649 88 C 649 -41 622 -140 570 -208 C 517 -276 438 -311 332 -311 C 226 -311 148 -277 100 -209 C 51 -141 27 -43 27 86 C 27 214 53 313 105 381 C 157 449 236 483 340 483 C 444 483 522 449 573 381 C 623 313 649 215 649 88 Z M 422 82 C 422 182 413 248 395 278 C 377 308 358 324 336 324 C 313 324 293 309 276 280 C 258 250 250 186 250 86 C 250 -12 259 -75 278 -104 C 296 -132 317 -147 340 -147 C 362 -147 382 -132 398 -104 C 414 -76 422 -14 422 82 Z" unicode="₀" />
<glyph horiz-adv-x="676" d="M 262 -293 L 262 250 L 82 219 L 74 410 L 520 483 L 520 -293 L 262 -293 Z" unicode="₁" />
<glyph horiz-adv-x="676" d="M 604 -293 L 35 -293 L 31 -143 C 155 -38 240 37 288 83 C 336 129 360 173 360 215 C 360 238 352 257 337 272 C 322 287 300 295 270 295 C 240 295 211 287 182 273 C 152 259 126 240 104 217 C 101 217 86 244 59 298 C 31 352 19 379 23 379 C 58 411 101 437 153 455 C 204 473 259 483 317 483 C 414 483 486 458 533 409 C 580 359 604 302 604 236 C 604 178 580 126 533 78 C 486 30 412 -32 311 -109 L 600 -109 L 604 -293 Z" unicode="₂" />
<glyph horiz-adv-x="676" d="M 389 102 C 466 106 525 90 565 54 C 605 18 625 -26 625 -78 C 625 -152 593 -209 529 -250 C 465 -290 384 -311 285 -311 C 235 -311 189 -306 147 -296 C 105 -286 68 -275 37 -262 L 72 -96 C 103 -107 136 -117 171 -125 C 206 -133 238 -137 268 -137 C 308 -137 340 -131 365 -120 C 390 -109 403 -91 403 -66 C 403 -45 393 -27 374 -13 C 354 0 319 8 268 8 C 246 8 224 6 202 3 C 180 0 162 -2 147 -4 L 147 147 C 220 158 274 170 309 184 C 344 198 362 219 362 248 C 362 263 356 276 346 288 C 335 299 313 305 279 305 C 248 305 217 299 185 288 C 153 276 126 263 104 248 L 35 412 C 67 431 108 448 157 462 C 205 476 257 483 311 483 C 395 483 462 467 514 435 C 566 403 592 354 592 287 C 592 243 575 205 541 174 C 507 142 456 118 389 102 Z" unicode="₃" />
<glyph horiz-adv-x="676" d="M 659 -119 L 569 -119 L 569 -293 L 354 -293 L 354 -119 L 23 -119 L 14 35 L 272 473 L 569 473 L 569 41 L 655 41 L 659 -119 Z M 362 39 L 362 326 L 203 39 L 362 39 Z" unicode="₄" />
<glyph horiz-adv-x="676" d="M 276 180 C 282 180 292 180 304 181 C 316 181 326 182 336 182 C 432 182 506 161 556 119 C 606 77 631 23 631 -43 C 631 -119 603 -183 548 -234 C 493 -285 407 -311 289 -311 C 253 -311 210 -308 162 -302 C 114 -296 70 -285 31 -270 L 49 -88 C 75 -101 110 -112 152 -120 C 194 -128 234 -133 272 -133 C 306 -133 335 -126 359 -112 C 383 -98 395 -77 395 -49 C 395 -20 381 1 355 17 C 329 33 292 41 246 41 C 210 41 177 38 148 34 C 119 29 95 23 76 16 L 47 47 L 102 469 L 610 469 L 614 289 L 289 289 L 276 180 Z" unicode="₅" />
<glyph horiz-adv-x="676" d="M 29 39 C 29 156 72 258 158 344 C 244 430 364 480 516 496 L 569 330 C 489 324 418 301 356 262 C 294 223 255 177 240 123 L 246 121 C 270 144 297 162 329 176 C 361 190 395 197 432 197 C 493 197 544 177 584 137 C 624 97 645 41 645 -29 C 645 -109 619 -176 569 -231 C 518 -285 440 -313 336 -313 C 236 -313 159 -280 107 -215 C 55 -149 29 -65 29 39 Z M 238 -35 C 238 -65 247 -93 265 -117 C 283 -141 309 -154 344 -154 C 373 -154 397 -144 415 -124 C 433 -104 442 -77 442 -45 C 442 -16 433 6 415 23 C 397 40 374 49 346 49 C 328 49 308 45 287 39 C 265 32 250 24 242 16 C 240 7 238 -1 238 -10 C 238 -18 238 -27 238 -35 Z" unicode="₆" />
<glyph horiz-adv-x="676" d="M 408 285 L 47 285 L 51 469 L 635 469 L 633 305 L 313 -293 L 86 -293 L 408 285 Z" unicode="₇" />
<glyph horiz-adv-x="676" d="M 657 -74 C 657 -140 631 -196 579 -242 C 527 -288 446 -311 334 -311 C 247 -311 173 -292 111 -256 C 49 -220 18 -166 18 -96 C 18 -60 31 -28 59 0 C 86 28 128 51 184 68 C 143 84 107 106 77 136 C 46 166 31 203 31 248 C 31 315 56 371 106 416 C 156 460 235 483 344 483 C 432 483 504 464 560 428 C 616 392 645 339 645 270 C 645 234 632 203 607 175 C 581 147 543 127 492 113 C 536 95 575 72 608 42 C 640 12 657 -26 657 -74 Z M 451 -78 C 451 -53 438 -31 413 -12 C 388 7 351 23 303 37 C 275 21 256 4 246 -14 C 236 -33 231 -51 231 -68 C 231 -93 240 -115 259 -134 C 278 -152 306 -162 344 -162 C 377 -162 403 -154 422 -140 C 441 -125 451 -104 451 -78 Z M 438 254 C 438 280 429 302 412 318 C 394 334 371 342 342 342 C 311 342 288 334 273 318 C 257 302 250 283 250 260 C 250 237 258 216 276 198 C 293 179 325 164 371 152 C 395 166 412 182 422 200 C 432 218 438 236 438 254 Z" unicode="₈" />
<glyph horiz-adv-x="676" d="M 647 135 C 647 17 603 -85 517 -171 C 430 -257 310 -308 158 -324 L 106 -158 C 186 -146 258 -125 322 -93 C 386 -61 426 -19 442 35 L 436 37 C 412 13 383 -4 350 -16 C 316 -28 281 -35 244 -35 C 184 -35 133 -14 92 27 C 51 68 31 124 31 195 C 31 275 56 343 107 400 C 157 456 235 485 340 485 C 440 485 516 452 568 388 C 620 323 647 239 647 135 Z M 438 207 C 438 237 429 265 411 289 C 393 313 366 326 332 326 C 301 326 277 316 259 296 C 241 276 233 251 233 219 C 233 189 241 164 259 144 C 276 123 300 113 330 113 C 347 113 366 116 388 122 C 409 128 424 135 434 143 C 436 153 437 165 437 177 C 437 189 438 199 438 207 Z" unicode="₉" />
<glyph horiz-adv-x="1126" d="M 209 727 L 61 727 L 51 870 L 223 870 C 253 1031 315 1147 409 1217 C 503 1287 613 1323 739 1323 C 808 1323 875 1315 940 1300 C 1004 1285 1057 1266 1098 1243 L 1036 1008 C 1000 1028 960 1044 916 1057 C 872 1070 826 1077 778 1077 C 718 1077 668 1060 629 1027 C 590 993 562 941 545 870 L 954 870 L 946 727 L 524 727 C 523 715 522 703 521 690 C 520 676 520 663 520 651 C 520 633 520 617 521 602 C 522 587 524 572 526 557 L 885 557 L 893 414 L 555 414 C 575 343 606 292 647 261 C 688 230 735 215 788 215 C 835 215 881 221 925 234 C 969 246 1008 263 1044 285 L 1092 47 C 1053 22 1002 3 939 -10 C 875 -24 807 -31 735 -31 C 603 -31 492 2 400 69 C 308 135 248 250 221 414 L 51 414 L 61 557 L 209 557 C 207 569 206 581 206 595 C 205 608 205 621 205 635 C 205 651 205 666 206 682 C 206 698 207 713 209 727 Z" unicode="€" />
<glyph horiz-adv-x="2011" d="M 1866 516 L 1667 516 L 1675 1083 L 1651 1083 L 1487 541 L 1260 541 L 1122 1085 L 1100 1085 L 1094 516 L 907 516 L 922 1280 L 1270 1280 L 1370 752 L 1397 752 L 1522 1280 L 1860 1280 L 1866 516 Z M 819 1102 L 539 1102 L 539 516 L 332 516 L 332 1102 L 74 1102 L 74 1280 L 819 1280 L 819 1102 Z" unicode="™" />
<glyph horiz-adv-x="1024" d="M 983 371 L 43 371 L 49 608 L 977 608 L 983 371 Z" unicode="−" />
<glyph horiz-adv-x="1335" d="M 1317 1309 L 254 -31 L 18 -31 L 1079 1309 L 1317 1309 Z" unicode="∕" />
<glyph horiz-adv-x="1024" d="M 942 420 C 938 337 917 264 877 200 C 837 136 776 104 694 104 C 637 104 574 120 506 152 C 438 184 388 201 358 201 C 336 201 319 194 307 180 C 295 166 287 144 285 115 L 86 115 C 89 197 110 270 150 334 C 190 398 251 430 334 430 C 390 430 453 414 524 382 C 595 350 644 334 670 334 C 689 334 706 338 720 347 C 734 355 742 380 745 420 L 942 420 Z M 940 846 C 936 763 915 690 875 626 C 835 562 774 530 692 530 C 635 530 572 546 504 578 C 436 610 386 627 356 627 C 334 627 317 620 305 606 C 293 592 285 570 283 541 L 84 541 C 87 623 108 696 148 760 C 188 824 249 856 332 856 C 388 856 451 840 522 808 C 593 776 642 760 668 760 C 687 760 704 764 718 773 C 732 781 740 806 743 846 L 940 846 Z" unicode="≈" />
<glyph horiz-adv-x="1024" d="M 250 -68 L 303 139 L 78 139 L 88 375 L 365 375 L 420 586 L 88 586 L 78 821 L 481 821 L 530 1008 L 770 1008 L 721 821 L 946 821 L 936 586 L 659 586 L 604 375 L 936 375 L 946 139 L 543 139 L 489 -68 L 250 -68 Z" unicode="≠" />
<glyph horiz-adv-x="1024" d="M 899 518 L 899 268 L 119 600 L 119 821 L 899 1153 L 899 903 L 451 719 L 451 700 L 899 518 Z M 907 0 L 119 0 L 125 238 L 901 238 L 907 0 Z" unicode="≤" />
<glyph horiz-adv-x="1024" d="M 125 268 L 125 518 L 573 700 L 573 719 L 125 903 L 125 1153 L 905 821 L 905 600 L 125 268 Z M 905 0 L 117 0 L 123 238 L 899 238 L 905 0 Z" unicode="≥" />
<glyph horiz-adv-x="1636" d="M 817 -121 C 608 -121 429 -46 281 102 C 133 250 59 429 59 637 C 59 845 133 1024 281 1174 C 429 1324 608 1399 817 1399 C 1025 1399 1204 1324 1353 1174 C 1502 1024 1577 845 1577 637 C 1577 429 1502 250 1353 102 C 1204 -46 1025 -121 817 -121 Z M 1507 637 C 1507 826 1439 989 1304 1127 C 1168 1264 1006 1333 817 1333 C 627 1333 465 1264 331 1127 C 196 989 129 826 129 637 C 129 447 196 284 331 148 C 465 11 627 -57 817 -57 C 1006 -57 1168 11 1304 148 C 1439 284 1507 447 1507 637 Z M 1221 752 C 1221 656 1189 584 1125 535 C 1061 485 973 461 862 461 L 784 461 L 784 256 L 535 256 L 535 1024 L 872 1024 C 984 1024 1071 999 1131 951 C 1191 902 1221 836 1221 752 Z M 979 745 C 979 779 967 806 944 825 C 920 844 886 854 842 854 L 774 854 L 774 625 L 838 627 C 884 629 919 639 943 658 C 967 676 979 705 979 745 Z" unicode="ⓟ" />
<glyph horiz-adv-x="815" d="M 215 -250 C 216 -211 231 -177 261 -148 C 291 -118 329 -104 375 -104 C 429 -104 473 -121 508 -156 C 543 -190 561 -235 561 -289 C 561 -355 535 -414 485 -466 C 435 -518 367 -558 281 -586 L 211 -512 C 257 -485 291 -459 313 -434 C 335 -409 346 -386 346 -365 C 346 -343 338 -322 322 -304 C 306 -285 271 -267 215 -250 Z" unicode="" />
<glyph horiz-adv-x="1468" d="M 481 692 L 481 0 L 166 0 L 166 690 L 2 702 L 10 903 L 164 948 L 166 1010 C 170 1147 203 1247 266 1310 C 328 1373 419 1405 539 1405 C 597 1405 648 1399 692 1389 C 736 1378 771 1368 797 1358 C 797 1356 787 1312 767 1226 C 747 1139 737 1096 737 1098 C 713 1106 688 1115 663 1123 C 637 1131 609 1135 578 1135 C 536 1135 507 1123 491 1099 C 475 1075 467 1041 467 995 L 467 940 L 872 940 L 874 1030 C 878 1167 912 1267 975 1330 C 1038 1393 1129 1425 1247 1425 C 1305 1425 1356 1419 1401 1409 C 1446 1399 1481 1388 1507 1378 C 1507 1377 1496 1333 1476 1247 C 1456 1160 1446 1117 1446 1118 C 1422 1127 1398 1135 1373 1143 C 1348 1151 1320 1155 1288 1155 C 1247 1155 1218 1143 1202 1120 C 1186 1096 1178 1062 1178 1016 L 1178 940 L 1442 940 L 1436 692 L 1190 692 L 1190 0 L 874 0 L 874 692 L 481 692 Z" unicode="ﬀ" />
<glyph horiz-adv-x="1249" d="M 760 1386 C 760 1386 751 1342 733 1254 C 715 1166 707 1123 707 1124 C 685 1133 663 1140 643 1146 C 623 1152 601 1155 578 1155 C 536 1155 507 1143 491 1120 C 475 1096 467 1062 467 1016 L 467 940 L 719 940 L 713 692 L 481 692 L 481 0 L 166 0 L 166 690 L 2 702 L 10 903 L 164 948 L 166 1030 C 170 1167 203 1267 265 1330 C 327 1393 418 1425 537 1425 C 581 1425 623 1420 662 1412 C 700 1404 733 1395 760 1386 Z M 1174 1231 C 1174 1175 1157 1133 1123 1104 C 1089 1075 1044 1061 987 1061 C 930 1061 885 1075 851 1104 C 817 1133 801 1175 801 1231 C 801 1285 817 1326 851 1356 C 885 1386 930 1401 987 1401 C 1044 1401 1089 1386 1123 1356 C 1157 1326 1174 1285 1174 1231 Z M 1145 0 L 829 0 L 829 936 L 1145 975 L 1145 0 Z" unicode="ﬁ" />
<glyph horiz-adv-x="1298" d="M 797 1378 C 797 1377 787 1333 767 1247 C 747 1160 737 1117 737 1118 C 713 1127 688 1135 663 1143 C 637 1151 609 1155 578 1155 C 536 1155 507 1143 491 1120 C 475 1096 467 1062 467 1016 L 467 940 L 733 940 L 727 692 L 481 692 L 481 0 L 166 0 L 166 690 L 2 702 L 10 903 L 164 948 L 166 1030 C 170 1167 203 1267 266 1330 C 328 1393 419 1425 539 1425 C 597 1425 648 1419 692 1409 C 736 1399 771 1388 797 1378 Z M 1185 0 L 870 0 L 870 1354 L 1185 1393 L 1185 0 Z" unicode="ﬂ" />
<glyph horiz-adv-x="1960" d="M 481 692 L 481 0 L 166 0 L 166 690 L 2 702 L 10 903 L 164 948 L 166 1010 C 170 1147 203 1247 266 1310 C 328 1373 419 1405 539 1405 C 597 1405 648 1399 692 1389 C 736 1378 771 1368 797 1358 C 797 1356 787 1312 767 1226 C 747 1139 737 1096 737 1098 C 713 1106 688 1115 663 1123 C 637 1131 609 1135 578 1135 C 536 1135 507 1123 491 1099 C 475 1075 467 1041 467 995 L 467 940 L 872 940 L 874 1030 C 878 1167 912 1267 974 1330 C 1036 1393 1127 1425 1247 1425 C 1291 1425 1332 1420 1371 1412 C 1409 1404 1442 1395 1468 1386 C 1468 1386 1459 1342 1441 1254 C 1423 1166 1415 1123 1415 1124 C 1395 1133 1374 1140 1353 1146 C 1332 1152 1310 1155 1288 1155 C 1247 1155 1218 1143 1202 1120 C 1186 1096 1178 1062 1178 1016 L 1178 940 L 1430 940 L 1423 692 L 1190 692 L 1190 0 L 874 0 L 874 692 L 481 692 Z M 1884 1231 C 1884 1175 1867 1133 1833 1104 C 1799 1075 1754 1061 1698 1061 C 1640 1061 1594 1075 1561 1104 C 1527 1133 1511 1175 1511 1231 C 1511 1285 1527 1326 1561 1356 C 1594 1386 1640 1401 1698 1401 C 1754 1401 1799 1386 1833 1356 C 1867 1326 1884 1285 1884 1231 Z M 1853 0 L 1538 0 L 1538 936 L 1853 975 L 1853 0 Z" unicode="ﬃ" />
<glyph horiz-adv-x="2007" d="M 481 692 L 481 0 L 166 0 L 166 690 L 2 702 L 10 903 L 164 948 L 166 1010 C 170 1147 203 1247 266 1310 C 328 1373 419 1405 539 1405 C 597 1405 648 1399 692 1389 C 736 1378 771 1368 797 1358 C 797 1356 787 1312 767 1226 C 747 1139 737 1096 737 1098 C 713 1106 688 1115 663 1123 C 637 1131 609 1135 578 1135 C 536 1135 507 1123 491 1099 C 475 1075 467 1041 467 995 L 467 940 L 872 940 L 874 1030 C 878 1167 912 1267 975 1330 C 1038 1393 1129 1425 1247 1425 C 1305 1425 1356 1419 1401 1409 C 1446 1399 1481 1388 1507 1378 C 1507 1377 1496 1333 1476 1247 C 1456 1160 1446 1117 1446 1118 C 1422 1127 1398 1135 1373 1143 C 1348 1151 1320 1155 1288 1155 C 1247 1155 1218 1143 1202 1120 C 1186 1096 1178 1062 1178 1016 L 1178 940 L 1442 940 L 1436 692 L 1190 692 L 1190 0 L 874 0 L 874 692 L 481 692 Z M 1896 0 L 1581 0 L 1581 1354 L 1896 1393 L 1896 0 Z" unicode="ﬄ" />
</font>
</defs>
</svg>
