<?xml version="1.0" encoding="utf-8" ?><svg version="1.1" xmlns = 'http://www.w3.org/2000/svg'><defs><font id='web' horiz-adv-x="1000">
<font-face font-family="web" descent="-477" cap-height="1280" units-per-em="2048" bbox="-502,-522,2277,2015" x-height="938" ascent="1407" />
<missing-glyph horiz-adv-x="1024" d="" /><glyph horiz-adv-x="467" d="" unicode=" " />
<glyph horiz-adv-x="530" d="M 295 80 C 295 52 285 28 266 6 C 247 -16 223 -27 193 -27 C 163 -27 138 -16 119 6 C 99 28 90 52 90 80 C 90 107 99 131 119 151 C 138 171 163 182 193 182 C 223 182 247 171 266 151 C 285 131 295 107 295 80 Z M 215 385 L 358 1329 L 512 1313 L 289 379 L 215 385 Z" unicode="!" />
<glyph horiz-adv-x="1024" d="M 330 815 L 256 815 L 614 1323 L 731 1264 L 330 815 Z M 635 815 L 559 815 L 920 1323 L 1036 1264 L 635 815 Z" unicode="&#x22;" />
<glyph horiz-adv-x="1153" d="M 389 758 L 145 758 L 145 852 L 432 852 C 433 852 470 929 542 1083 C 614 1237 651 1315 651 1315 L 756 1315 C 756 1315 719 1237 646 1083 C 572 929 535 852 535 852 L 895 852 L 1114 1315 L 1217 1315 L 997 852 L 1163 852 L 1161 758 L 952 758 L 799 434 L 1040 434 L 1038 340 L 754 340 L 522 -152 L 420 -152 L 651 340 L 293 340 L 61 -152 L -41 -152 L 190 340 L 23 340 L 23 434 L 236 434 L 389 758 Z M 850 758 L 492 758 L 338 434 L 696 434 C 697 434 723 488 774 596 C 824 704 850 758 850 758 Z" unicode="#" />
<glyph horiz-adv-x="1024" d="M 725 1296 C 726 1296 738 1329 760 1395 C 782 1461 793 1495 793 1495 L 874 1495 L 803 1278 C 842 1266 880 1252 916 1235 C 952 1218 985 1199 1014 1178 L 981 1053 C 952 1077 919 1098 881 1117 C 843 1136 804 1151 764 1163 L 608 698 C 694 660 765 616 822 564 C 878 512 907 440 907 348 C 907 232 864 141 778 74 C 692 6 589 -27 467 -27 C 448 -27 430 -26 412 -25 C 394 -23 376 -21 358 -18 L 281 -252 L 199 -252 L 283 -2 C 235 11 190 28 147 50 C 104 71 65 96 31 125 L 63 252 C 99 220 139 193 184 169 C 228 145 274 126 322 113 L 487 610 C 409 646 340 689 282 739 C 224 789 195 856 195 942 C 195 1059 237 1149 323 1211 C 409 1273 507 1305 618 1305 C 636 1305 654 1304 672 1302 C 690 1300 707 1298 725 1296 Z M 559 578 C 559 578 532 498 478 337 C 424 176 397 96 397 96 C 409 94 422 92 434 91 C 446 90 459 90 471 90 C 552 90 624 111 687 155 C 750 198 782 257 782 332 C 782 390 761 437 721 474 C 680 511 626 546 559 578 Z M 537 731 C 537 731 562 806 612 956 C 662 1106 687 1182 686 1182 C 672 1184 659 1185 646 1186 C 632 1187 619 1188 606 1188 C 530 1188 463 1167 407 1127 C 350 1086 322 1029 322 956 C 322 904 341 861 381 827 C 420 793 472 761 537 731 Z" unicode="$" />
<glyph horiz-adv-x="1522" d="M 813 1024 C 813 920 776 830 704 756 C 632 682 543 645 438 645 C 348 645 273 672 211 727 C 149 781 119 855 119 948 C 119 1051 155 1140 228 1215 C 300 1289 387 1327 489 1327 C 579 1327 656 1300 719 1246 C 781 1192 813 1118 813 1024 Z M 721 1010 C 721 1079 698 1134 654 1175 C 610 1216 553 1237 485 1237 C 407 1237 342 1209 290 1154 C 237 1098 211 1032 211 954 C 211 886 233 831 278 791 C 322 751 377 731 442 731 C 520 731 586 758 640 812 C 694 866 721 932 721 1010 Z M 1477 328 C 1477 224 1440 135 1367 61 C 1294 -12 1206 -49 1102 -49 C 1011 -49 935 -21 875 33 C 814 87 784 161 784 254 C 784 358 819 446 891 520 C 963 594 1051 631 1155 631 C 1245 631 1322 603 1384 549 C 1446 495 1477 421 1477 328 Z M 1384 319 C 1384 387 1361 442 1316 482 C 1271 522 1216 543 1151 543 C 1073 543 1008 515 954 459 C 900 403 874 337 874 260 C 874 192 896 137 941 97 C 986 57 1042 37 1108 37 C 1185 37 1250 64 1304 119 C 1357 174 1384 241 1384 319 Z M 1501 1309 L 209 -31 L 90 -31 L 1384 1309 L 1501 1309 Z" unicode="%" />
<glyph horiz-adv-x="1278" d="M 848 246 C 786 176 717 113 641 57 C 564 1 479 -27 387 -27 C 286 -27 201 5 132 69 C 63 133 29 212 29 307 C 29 417 69 503 151 567 C 233 631 321 676 416 702 C 368 734 330 772 300 817 C 270 861 256 911 256 965 C 256 1055 292 1135 366 1205 C 439 1274 529 1309 637 1309 C 728 1309 805 1281 869 1227 C 933 1173 965 1105 965 1024 C 965 932 930 857 862 801 C 793 745 718 705 637 682 C 685 650 731 611 773 565 C 815 519 851 470 881 418 L 1163 772 L 1319 772 L 936 340 L 1143 -4 L 1004 -27 L 848 246 Z M 801 328 C 760 395 713 457 660 513 C 607 569 549 615 487 651 C 403 625 328 585 261 531 C 193 477 160 409 160 326 C 160 257 183 200 231 154 C 278 108 336 86 406 86 C 483 86 555 112 622 164 C 689 216 749 270 801 328 Z M 563 733 C 630 756 693 789 751 832 C 809 874 838 933 838 1008 C 838 1064 817 1111 776 1147 C 735 1183 685 1202 625 1202 C 557 1202 500 1179 454 1134 C 408 1089 385 1036 385 975 C 385 925 401 881 434 843 C 467 804 510 767 563 733 Z" unicode="&#x26;" />
<glyph horiz-adv-x="512" d="M 219 815 L 147 815 L 508 1323 L 621 1264 L 219 815 Z" unicode="'" />
<glyph horiz-adv-x="1024" d="M 848 -494 C 734 -436 613 -324 485 -157 C 357 9 293 216 293 463 C 293 709 357 916 485 1083 C 613 1250 734 1363 848 1421 L 903 1331 C 797 1275 688 1169 576 1015 C 464 861 408 677 408 463 C 408 249 464 65 576 -88 C 688 -242 797 -347 903 -403 L 848 -494 Z" unicode="(" />
<glyph horiz-adv-x="1024" d="M 176 -494 L 121 -403 C 227 -347 336 -242 447 -88 C 558 65 614 249 614 463 C 614 677 558 861 447 1015 C 336 1169 227 1275 121 1331 L 178 1421 C 292 1363 412 1250 540 1083 C 667 916 731 709 731 463 C 731 216 667 9 540 -157 C 412 -324 291 -436 176 -494 Z" unicode=")" />
<glyph horiz-adv-x="1024" d="M 586 938 L 328 768 L 266 889 L 563 979 L 565 989 L 330 1186 L 426 1278 L 602 1018 L 608 1018 L 725 1305 L 840 1241 L 649 995 L 653 989 L 952 975 L 928 844 L 645 944 L 637 938 L 721 637 L 590 625 L 592 934 L 586 938 Z" unicode="*" />
<glyph horiz-adv-x="1024" d="M 928 426 L 571 426 L 571 57 L 459 57 L 459 426 L 98 426 L 104 537 L 459 537 L 459 901 L 571 901 L 571 537 L 922 537 L 928 426 Z" unicode="+" />
<glyph horiz-adv-x="512" d="M 70 106 C 76 130 89 151 111 169 C 133 186 158 195 186 195 C 224 195 255 180 280 151 C 304 121 317 87 317 49 C 317 -29 280 -101 208 -165 C 135 -229 63 -278 -8 -313 L -53 -256 C 1 -226 52 -188 102 -141 C 151 -94 176 -48 176 -4 C 176 19 164 40 142 59 C 119 78 95 94 70 106 Z" unicode="," />
<glyph horiz-adv-x="598" d="M 537 438 L 74 438 L 74 557 L 537 557 L 537 438 Z" unicode="-" />
<glyph horiz-adv-x="512" d="M 287 80 C 287 52 277 28 259 6 C 240 -16 216 -27 186 -27 C 156 -27 131 -16 111 6 C 91 28 82 52 82 80 C 82 107 91 131 111 151 C 131 171 156 182 186 182 C 216 182 240 171 259 151 C 277 131 287 107 287 80 Z" unicode="." />
<glyph horiz-adv-x="424" d="M 719 1438 L -135 -408 L -233 -408 L 621 1438 L 719 1438 Z" unicode="/" />
<glyph horiz-adv-x="1024" d="M 469 -16 C 315 -16 212 38 160 148 C 108 258 82 365 82 469 C 82 621 121 796 200 996 C 278 1196 416 1296 614 1296 C 768 1296 870 1241 922 1131 C 973 1021 999 913 999 809 C 999 659 960 484 882 284 C 804 84 666 -16 469 -16 Z M 870 819 C 870 883 854 960 824 1050 C 794 1140 721 1186 606 1186 C 441 1186 334 1087 286 890 C 237 693 213 550 213 461 C 213 397 228 321 259 231 C 290 141 363 96 477 96 C 642 96 749 194 797 391 C 845 587 870 730 870 819 Z" unicode="0" />
<glyph horiz-adv-x="1024" d="M 547 0 L 424 0 L 645 1141 L 350 1073 L 367 1188 L 797 1292 L 547 0 Z" unicode="1" />
<glyph horiz-adv-x="1024" d="M 831 0 L 23 0 L 35 131 C 275 329 466 486 607 600 C 748 714 819 836 819 967 C 819 1040 793 1095 743 1133 C 692 1171 634 1190 569 1190 C 514 1190 459 1179 404 1157 C 348 1135 300 1107 258 1073 L 225 1180 C 276 1219 333 1250 395 1272 C 457 1294 519 1305 580 1305 C 676 1305 762 1276 837 1219 C 912 1162 950 1081 950 977 C 950 828 881 697 743 585 C 605 472 414 316 170 117 L 842 117 L 831 0 Z" unicode="2" />
<glyph horiz-adv-x="1024" d="M 569 668 C 657 657 733 628 795 580 C 857 532 889 462 889 371 C 889 254 843 159 751 85 C 659 11 553 -25 432 -25 C 372 -25 306 -14 236 6 C 165 27 107 54 61 88 L 106 201 C 152 168 204 141 263 121 C 321 100 379 90 436 90 C 522 90 597 113 661 159 C 725 205 758 271 758 358 C 758 442 726 502 662 540 C 598 577 522 596 434 596 C 412 596 390 595 370 593 C 350 591 330 590 311 588 L 328 692 C 420 706 526 735 644 777 C 762 819 821 892 821 995 C 821 1063 796 1113 748 1145 C 700 1176 644 1192 582 1192 C 528 1192 473 1181 419 1161 C 364 1141 316 1118 274 1092 L 240 1196 C 286 1226 340 1252 402 1273 C 463 1294 526 1305 592 1305 C 680 1305 762 1281 837 1235 C 912 1189 950 1116 950 1018 C 950 916 910 837 830 781 C 750 725 663 688 569 668 Z" unicode="3" />
<glyph horiz-adv-x="1024" d="M 965 326 L 766 326 L 702 -4 L 584 -4 L 649 326 L 47 326 L 43 422 L 821 1290 L 954 1290 L 788 436 L 981 436 L 965 326 Z M 672 436 L 809 1137 L 184 436 L 672 436 Z" unicode="4" />
<glyph horiz-adv-x="1024" d="M 336 758 C 350 760 365 762 382 763 C 399 763 418 764 440 764 C 546 764 645 736 739 681 C 832 626 879 536 879 410 C 879 277 834 171 744 91 C 654 11 545 -29 416 -29 C 358 -29 295 -19 227 1 C 158 21 101 48 55 82 L 94 201 C 142 168 193 141 249 119 C 305 97 362 86 422 86 C 513 86 591 113 655 169 C 719 224 752 300 752 397 C 752 491 717 559 647 600 C 577 641 504 662 428 662 C 385 662 347 659 315 655 C 282 651 251 645 221 637 L 193 674 L 375 1280 L 991 1280 L 979 1159 L 457 1159 L 336 758 Z" unicode="5" />
<glyph horiz-adv-x="1024" d="M 942 1298 L 961 1186 C 813 1167 673 1115 541 1031 C 408 947 311 826 250 670 L 254 668 C 300 699 352 724 410 744 C 468 764 526 774 584 774 C 690 774 775 741 839 675 C 902 609 934 526 934 428 C 934 302 892 195 810 107 C 728 19 624 -25 498 -25 C 369 -25 269 18 197 105 C 125 191 90 296 90 420 C 90 664 178 865 356 1023 C 534 1180 729 1272 942 1298 Z M 213 414 C 213 328 237 252 286 186 C 335 120 408 88 504 88 C 596 88 670 120 726 184 C 781 248 809 325 809 414 C 809 494 784 556 736 600 C 687 644 624 666 547 666 C 487 666 430 656 376 636 C 322 616 275 591 233 561 C 225 537 219 513 217 489 C 214 464 213 439 213 414 Z" unicode="6" />
<glyph horiz-adv-x="1024" d="M 895 1157 L 199 1157 L 223 1280 L 1030 1280 L 1034 1180 L 279 0 L 141 0 L 895 1157 Z" unicode="7" />
<glyph horiz-adv-x="1024" d="M 903 334 C 903 224 860 137 776 73 C 691 9 593 -23 481 -23 C 374 -23 279 3 196 57 C 113 110 72 189 72 295 C 72 395 105 475 172 535 C 239 595 317 638 406 664 C 354 693 306 730 264 776 C 222 821 201 878 201 948 C 201 1052 241 1137 323 1204 C 405 1271 501 1305 612 1305 C 716 1305 804 1277 878 1222 C 952 1166 989 1087 989 985 C 989 894 959 820 901 762 C 842 704 770 660 686 631 C 740 599 789 559 835 512 C 880 465 903 406 903 334 Z M 778 322 C 778 400 744 461 677 505 C 609 549 548 584 494 610 C 420 590 353 557 291 510 C 229 462 199 397 199 313 C 199 237 228 180 286 142 C 344 104 414 86 494 86 C 571 86 638 106 694 148 C 750 190 778 248 778 322 Z M 862 967 C 862 1037 837 1092 787 1134 C 737 1175 677 1196 606 1196 C 534 1196 469 1174 412 1131 C 354 1087 326 1031 326 961 C 326 887 359 828 425 784 C 491 740 550 707 602 684 C 669 705 729 739 782 785 C 835 831 862 891 862 967 Z" unicode="8" />
<glyph horiz-adv-x="1024" d="M 139 -18 L 123 92 C 268 110 407 162 541 247 C 675 332 772 453 834 610 L 829 612 C 783 580 731 555 672 535 C 612 515 554 506 498 506 C 388 506 302 538 240 603 C 178 668 147 750 147 848 C 147 974 188 1080 271 1168 C 354 1256 459 1300 586 1300 C 713 1300 812 1257 884 1172 C 955 1086 991 983 991 862 C 991 615 902 413 725 256 C 548 99 353 8 139 -18 Z M 868 866 C 868 952 843 1027 794 1091 C 745 1155 673 1188 578 1188 C 486 1188 412 1155 356 1091 C 300 1027 272 950 272 862 C 272 781 296 719 345 677 C 393 635 457 614 535 614 C 595 614 652 624 706 644 C 760 664 807 689 848 719 C 856 742 861 766 864 791 C 866 815 868 840 868 866 Z" unicode="9" />
<glyph horiz-adv-x="512" d="M 287 80 C 287 52 277 28 259 6 C 240 -16 216 -27 187 -27 C 156 -27 131 -16 111 6 C 91 28 82 52 82 80 C 82 107 91 131 111 151 C 131 171 156 182 187 182 C 216 182 240 171 259 151 C 277 131 287 107 287 80 Z M 412 732 C 412 704 402 680 384 658 C 365 636 341 625 312 625 C 281 625 256 636 236 658 C 216 680 207 704 207 732 C 207 759 216 783 236 803 C 256 823 281 834 312 834 C 341 834 365 823 384 803 C 402 783 412 759 412 732 Z" unicode=":" />
<glyph horiz-adv-x="512" d="M 69 106 C 75 130 88 151 110 169 C 132 186 157 195 186 195 C 223 195 254 180 279 151 C 304 121 317 87 317 49 C 317 -29 280 -101 207 -165 C 134 -229 62 -278 -9 -313 L -54 -256 C 0 -226 51 -188 101 -141 C 151 -94 176 -48 176 -4 C 176 19 164 40 141 59 C 118 78 94 94 69 106 Z M 412 731 C 412 703 402 679 384 657 C 365 635 341 624 312 624 C 281 624 256 635 236 657 C 216 679 207 703 207 731 C 207 758 216 782 236 802 C 256 822 281 833 312 833 C 341 833 365 822 384 802 C 402 782 412 758 412 731 Z" unicode=";" />
<glyph horiz-adv-x="1024" d="M 897 160 L 897 37 L 115 426 L 115 537 L 895 928 L 895 803 L 258 492 L 258 471 L 897 160 Z" unicode="&#x3C;" />
<glyph horiz-adv-x="1024" d="M 901 244 L 127 244 L 135 356 L 893 356 L 901 244 Z M 893 604 L 135 604 L 127 717 L 901 717 L 893 604 Z" unicode="=" />
<glyph horiz-adv-x="1024" d="M 905 426 L 123 37 L 123 160 L 762 471 L 762 492 L 125 803 L 125 928 L 905 537 L 905 426 Z" unicode="&#x3E;" />
<glyph horiz-adv-x="715" d="M 741 993 C 741 899 712 831 655 789 C 598 746 537 714 471 694 C 407 674 358 654 325 634 C 292 614 276 585 276 547 C 276 519 285 492 304 466 C 323 439 345 413 369 389 C 369 389 356 386 332 381 C 308 375 295 373 295 373 C 264 396 236 424 212 458 C 188 491 176 527 176 567 C 176 630 199 678 246 711 C 293 743 350 771 418 793 C 481 813 533 836 573 862 C 613 888 633 929 633 983 C 633 1054 601 1106 539 1140 C 476 1173 414 1190 352 1190 C 330 1190 311 1189 294 1187 C 277 1185 262 1184 248 1184 L 270 1303 C 283 1305 298 1306 315 1307 C 332 1308 349 1309 367 1309 C 471 1309 560 1279 632 1219 C 704 1159 741 1083 741 993 Z M 336 80 C 336 52 326 28 307 6 C 287 -16 263 -27 233 -27 C 203 -27 178 -16 158 6 C 138 28 129 52 129 80 C 129 107 138 131 158 151 C 178 171 203 182 233 182 C 263 182 287 171 307 151 C 326 131 336 107 336 80 Z" unicode="?" />
<glyph horiz-adv-x="1702" d="M 1622 627 C 1622 456 1582 325 1503 234 C 1423 143 1335 98 1237 98 C 1179 98 1130 112 1090 141 C 1050 169 1022 206 1006 250 C 964 200 923 165 881 145 C 839 125 797 115 756 115 C 669 115 598 147 544 212 C 490 277 463 357 463 451 C 463 579 505 689 590 783 C 674 877 775 924 891 924 C 929 924 966 917 1000 905 C 1034 893 1066 878 1094 862 L 1212 915 L 1112 424 C 1096 349 1101 291 1126 250 C 1150 208 1192 188 1251 188 C 1325 188 1393 225 1453 300 C 1513 375 1544 484 1544 627 C 1544 810 1475 957 1338 1067 C 1200 1177 1047 1233 877 1233 C 679 1233 511 1159 373 1012 C 235 864 166 693 166 498 C 166 310 226 149 348 17 C 470 -115 626 -182 817 -182 C 859 -182 902 -178 946 -170 C 990 -162 1031 -152 1069 -141 L 1087 -209 C 1041 -223 996 -233 950 -241 C 904 -248 859 -252 813 -252 C 603 -252 429 -179 293 -35 C 156 109 88 286 88 496 C 88 714 164 903 317 1062 C 469 1220 656 1300 877 1300 C 1074 1300 1247 1239 1397 1117 C 1547 995 1622 832 1622 627 Z M 1071 748 C 1049 770 1022 789 988 806 C 954 822 918 831 879 831 C 794 831 723 792 665 716 C 607 639 578 553 578 459 C 578 387 597 328 635 281 C 673 234 724 211 786 211 C 820 211 854 219 887 237 C 920 254 952 280 983 315 L 1071 748 Z" unicode="@" />
<glyph horiz-adv-x="1186" d="M 836 1278 L 1065 0 L 934 0 L 872 356 L 279 356 L 74 0 L -70 0 L 684 1278 L 836 1278 Z M 852 475 L 737 1145 L 348 475 L 852 475 Z" unicode="A" />
<glyph horiz-adv-x="1100" d="M 758 637 C 832 617 890 583 932 533 C 974 483 995 425 995 360 C 995 261 954 176 874 106 C 793 35 666 0 492 0 L 74 0 L 322 1280 L 682 1280 C 812 1280 909 1248 973 1186 C 1037 1124 1069 1050 1069 965 C 1069 884 1041 815 987 757 C 933 699 856 659 758 637 Z M 860 362 C 860 424 833 477 781 520 C 729 562 655 584 559 584 L 317 584 L 227 121 L 514 121 C 634 121 721 143 777 188 C 832 233 860 291 860 362 Z M 934 944 C 934 1002 912 1052 868 1095 C 824 1137 754 1159 657 1159 L 430 1159 L 342 698 L 575 698 C 672 698 756 718 827 760 C 898 802 934 863 934 944 Z" unicode="B" />
<glyph horiz-adv-x="1196" d="M 1229 1225 L 1204 1100 C 1146 1126 1083 1148 1017 1164 C 950 1180 886 1188 825 1188 C 643 1188 501 1124 397 996 C 293 868 242 720 242 553 C 242 407 284 293 369 213 C 453 132 564 92 702 92 C 756 92 811 99 867 113 C 923 127 976 147 1024 172 L 1051 55 C 999 29 940 9 874 -5 C 808 -19 747 -27 692 -27 C 520 -27 379 24 271 127 C 163 230 109 368 109 541 C 109 746 174 925 305 1077 C 436 1229 612 1305 834 1305 C 898 1305 963 1298 1031 1284 C 1099 1270 1165 1250 1229 1225 Z" unicode="C" />
<glyph horiz-adv-x="1282" d="M 1208 731 C 1208 533 1143 362 1015 217 C 886 72 692 0 432 0 L 74 0 L 322 1280 L 598 1280 C 767 1280 911 1232 1030 1138 C 1148 1043 1208 907 1208 731 Z M 1071 717 C 1071 860 1026 969 937 1045 C 848 1120 728 1158 578 1159 L 430 1159 L 229 121 L 457 121 C 627 121 772 172 892 274 C 1011 376 1071 524 1071 717 Z" unicode="D" />
<glyph horiz-adv-x="1038" d="M 848 0 L 74 0 L 324 1280 L 1096 1280 L 1073 1159 L 430 1159 L 342 700 L 879 700 L 854 582 L 319 582 L 229 121 L 870 121 L 848 0 Z" unicode="E" />
<glyph horiz-adv-x="983" d="M 74 0 L 322 1280 L 1075 1280 L 1053 1157 L 430 1157 L 338 680 L 854 680 L 829 561 L 313 561 L 205 0 L 74 0 Z" unicode="F" />
<glyph horiz-adv-x="1272" d="M 1075 66 C 1020 38 957 15 887 -1 C 817 -18 752 -27 692 -27 C 520 -27 379 24 271 127 C 163 230 109 368 109 541 C 109 746 174 925 304 1077 C 434 1229 611 1305 834 1305 C 898 1305 963 1298 1031 1284 C 1099 1270 1165 1250 1229 1225 L 1204 1100 C 1146 1126 1083 1148 1017 1164 C 950 1180 886 1188 825 1188 C 643 1188 500 1124 397 996 C 293 868 242 720 242 553 C 242 407 284 293 370 212 C 455 130 567 90 705 90 C 748 90 791 95 834 105 C 877 115 918 129 958 145 L 1032 518 L 692 518 L 717 637 L 1186 637 L 1075 66 Z" unicode="G" />
<glyph horiz-adv-x="1331" d="M 1075 0 L 944 0 L 1059 584 L 317 584 L 205 0 L 74 0 L 322 1280 L 453 1280 L 342 702 L 1081 702 L 1192 1280 L 1323 1280 L 1075 0 Z" unicode="H" />
<glyph horiz-adv-x="467" d="M 205 0 L 76 0 L 324 1280 L 455 1280 L 205 0 Z" unicode="I" />
<glyph horiz-adv-x="836" d="M 676 350 C 654 238 610 147 544 77 C 478 7 386 -27 270 -27 C 209 -27 149 -16 91 5 C 32 26 -16 53 -55 86 L -8 205 C 31 171 74 143 122 123 C 170 102 220 92 272 92 C 352 92 414 117 458 167 C 502 217 533 286 551 373 L 727 1280 L 856 1280 L 676 350 Z" unicode="J" />
<glyph horiz-adv-x="1073" d="M 334 666 L 336 666 L 1044 1280 L 1214 1280 L 459 639 L 969 0 L 813 0 L 326 612 L 324 612 L 205 0 L 74 0 L 322 1280 L 453 1280 L 334 666 Z" unicode="K" />
<glyph horiz-adv-x="979" d="M 838 0 L 74 0 L 324 1280 L 455 1280 L 229 123 L 862 123 L 838 0 Z" unicode="L" />
<glyph horiz-adv-x="1554" d="M 1206 0 L 1399 1116 L 764 8 L 616 8 L 416 1110 L 168 0 L 31 0 L 328 1280 L 504 1280 L 715 152 L 1362 1280 L 1548 1280 L 1339 0 L 1206 0 Z" unicode="M" />
<glyph horiz-adv-x="1321" d="M 981 158 L 1192 1280 L 1319 1280 L 1071 -12 L 918 -12 L 412 1122 L 201 0 L 74 0 L 319 1280 L 479 1280 L 981 158 Z" unicode="N" />
<glyph horiz-adv-x="1440" d="M 1403 719 C 1403 524 1335 351 1200 200 C 1065 48 896 -27 694 -27 C 526 -27 387 28 277 140 C 167 251 113 393 113 565 C 113 761 180 933 314 1083 C 448 1232 618 1307 823 1307 C 990 1307 1128 1252 1238 1142 C 1348 1032 1403 891 1403 719 Z M 1270 709 C 1270 848 1227 963 1141 1054 C 1055 1144 944 1190 807 1190 C 639 1190 503 1126 400 998 C 297 870 246 729 246 573 C 246 435 288 320 374 228 C 459 136 571 90 709 90 C 877 90 1012 154 1115 283 C 1218 411 1270 553 1270 709 Z" unicode="O" />
<glyph horiz-adv-x="1063" d="M 1071 920 C 1071 780 1021 666 923 579 C 825 492 684 449 500 451 L 293 451 L 203 0 L 74 0 L 322 1280 L 631 1280 C 777 1280 887 1243 961 1169 C 1034 1095 1071 1012 1071 920 Z M 936 897 C 936 971 908 1034 852 1084 C 796 1134 715 1159 610 1159 L 430 1159 L 313 571 L 516 569 C 655 569 760 600 830 662 C 900 724 936 803 936 897 Z" unicode="P" />
<glyph horiz-adv-x="1440" d="M 903 8 L 1274 -240 L 1196 -346 L 737 -23 C 731 -23 724 -24 717 -25 C 710 -26 703 -27 696 -27 C 528 -27 388 28 278 140 C 168 251 113 393 113 565 C 113 761 180 933 314 1082 C 448 1230 618 1305 823 1305 C 990 1305 1128 1250 1238 1141 C 1348 1031 1403 891 1403 719 C 1403 559 1356 413 1264 280 C 1171 146 1051 56 903 8 Z M 1270 709 C 1270 848 1227 963 1141 1054 C 1055 1144 944 1190 807 1190 C 639 1190 503 1126 400 998 C 297 870 246 729 246 573 C 246 435 288 320 374 228 C 459 136 571 90 709 90 C 877 90 1012 154 1115 283 C 1218 411 1270 553 1270 709 Z" unicode="Q" />
<glyph horiz-adv-x="1094" d="M 303 510 L 205 0 L 74 0 L 322 1280 L 618 1280 C 766 1280 876 1245 948 1175 C 1020 1105 1057 1024 1057 932 C 1057 816 1018 727 940 663 C 862 599 776 558 684 541 L 918 0 L 772 0 L 555 526 L 303 510 Z M 324 627 L 528 631 C 630 633 721 656 801 702 C 881 748 922 820 922 918 C 922 991 895 1050 843 1094 C 790 1138 712 1161 608 1161 L 430 1161 L 324 627 Z" unicode="R" />
<glyph horiz-adv-x="1006" d="M 465 90 C 554 90 628 112 686 158 C 744 204 774 262 774 334 C 774 399 748 451 696 490 C 644 529 578 567 496 604 C 413 640 340 683 278 734 C 215 785 184 854 184 942 C 184 1059 227 1149 314 1211 C 400 1273 499 1305 610 1305 C 684 1305 757 1294 827 1272 C 897 1250 956 1223 1006 1192 L 973 1067 C 925 1100 866 1128 797 1152 C 727 1176 661 1188 598 1188 C 521 1188 454 1167 398 1126 C 341 1085 313 1028 313 956 C 313 896 338 848 388 812 C 438 776 504 740 586 705 C 672 665 746 619 808 567 C 870 515 901 442 901 348 C 901 232 857 141 771 74 C 685 6 581 -27 459 -27 C 377 -27 297 -14 220 11 C 143 36 77 67 23 104 L 55 231 C 113 191 178 158 252 131 C 325 103 396 90 465 90 Z" unicode="S" />
<glyph horiz-adv-x="1112" d="M 1212 1157 L 762 1157 L 537 0 L 408 0 L 633 1157 L 180 1157 L 205 1280 L 1235 1280 L 1212 1157 Z" unicode="T" />
<glyph horiz-adv-x="1233" d="M 588 -27 C 452 -27 341 6 255 73 C 168 139 125 232 125 352 C 125 386 127 419 132 452 C 136 485 141 513 145 535 L 293 1280 L 422 1280 L 276 530 C 272 510 267 487 263 461 C 258 434 256 406 256 377 C 256 287 285 217 345 168 C 404 118 488 94 596 94 C 696 94 778 127 841 193 C 903 259 945 345 967 453 L 1128 1280 L 1257 1280 L 1096 438 C 1068 296 1011 183 926 99 C 841 15 728 -27 588 -27 Z" unicode="U" />
<glyph horiz-adv-x="1147" d="M 1294 1280 L 555 2 L 406 2 L 182 1280 L 315 1280 L 506 137 L 1153 1280 L 1294 1280 Z" unicode="V" />
<glyph horiz-adv-x="1851" d="M 1059 1120 L 494 0 L 367 0 L 250 1280 L 385 1280 L 469 188 L 1008 1280 L 1163 1280 L 1282 188 L 1780 1280 L 1917 1280 L 1311 0 L 1184 0 L 1059 1120 Z" unicode="W" />
<glyph horiz-adv-x="1151" d="M 596 567 L 98 0 L -63 0 L 539 657 L 209 1280 L 356 1280 L 627 743 L 1096 1280 L 1257 1280 L 684 649 L 1032 0 L 885 0 L 596 567 Z" unicode="X" />
<glyph horiz-adv-x="1073" d="M 1204 1280 L 610 510 L 510 0 L 383 0 L 483 518 L 184 1280 L 324 1280 L 569 637 L 1051 1280 L 1204 1280 Z" unicode="Y" />
<glyph horiz-adv-x="1044" d="M 881 0 L -41 0 L -20 96 L 934 1159 L 207 1159 L 229 1280 L 1128 1280 L 1110 1182 L 158 121 L 903 121 L 881 0 Z" unicode="Z" />
<glyph horiz-adv-x="1024" d="M 848 -455 L 315 -455 L 315 1382 L 848 1382 L 848 1278 L 432 1278 L 432 -350 L 848 -350 L 848 -455 Z" unicode="[" />
<glyph horiz-adv-x="424" d="M 164 1438 L 260 1438 L 397 -408 L 303 -408 L 164 1438 Z" unicode="\" />
<glyph horiz-adv-x="1024" d="M 176 -455 L 176 -350 L 592 -350 L 592 1278 L 176 1278 L 176 1382 L 707 1382 L 707 -455 L 176 -455 Z" unicode="]" />
<glyph horiz-adv-x="772" d="M 831 1061 L 725 1061 L 588 1337 L 584 1337 L 342 1061 L 223 1061 L 528 1434 L 672 1434 L 831 1061 Z" unicode="^" />
<glyph horiz-adv-x="911" d="M 885 -115 L -70 -115 L -70 0 L 885 0 L 885 -115 Z" unicode="_" />
<glyph horiz-adv-x="811" d="M 664 1061 L 569 1061 L 330 1427 L 494 1427 L 664 1061 Z" unicode="`" />
<glyph horiz-adv-x="905" d="M 664 557 L 674 602 C 688 678 676 738 639 782 C 602 826 541 848 457 848 C 409 848 360 839 310 823 C 259 806 214 786 174 764 L 158 879 C 197 901 245 920 301 937 C 357 954 415 963 473 963 C 589 963 678 932 741 870 C 804 808 823 713 797 586 L 717 197 C 709 160 710 132 718 112 C 726 92 751 82 793 84 L 770 -20 C 704 -24 658 -12 633 16 C 607 44 594 76 592 111 L 590 111 C 553 71 509 38 458 13 C 406 -12 354 -25 301 -25 C 220 -25 154 2 104 57 C 54 112 29 172 29 238 C 29 337 79 416 179 475 C 279 533 440 561 664 557 Z M 594 199 L 647 467 C 477 465 353 444 277 405 C 200 366 162 315 162 252 C 162 206 177 166 209 134 C 241 102 284 86 340 86 C 390 86 438 97 482 120 C 526 142 563 169 594 199 Z" unicode="a" />
<glyph horiz-adv-x="1059" d="M 983 551 C 983 391 932 254 832 142 C 732 29 609 -27 465 -27 C 413 -27 364 -18 317 -1 C 270 15 229 35 195 59 L 55 -10 L 324 1380 L 457 1407 L 352 856 C 386 881 424 904 466 926 C 508 947 558 958 616 958 C 722 958 809 919 879 841 C 948 763 983 667 983 551 Z M 852 532 C 852 627 826 703 775 761 C 724 819 661 848 586 848 C 536 848 489 837 446 816 C 402 794 363 769 328 739 L 221 190 C 249 160 286 134 332 114 C 378 94 427 84 479 84 C 587 84 676 130 746 222 C 816 314 852 417 852 532 Z" unicode="b" />
<glyph horiz-adv-x="918" d="M 762 31 C 729 13 689 0 643 -11 C 596 -21 552 -27 510 -27 C 388 -27 285 12 203 90 C 121 168 80 276 80 412 C 80 551 126 678 220 793 C 313 907 436 965 588 965 C 652 965 710 955 764 937 C 817 919 865 894 909 864 L 874 748 C 830 777 784 801 735 820 C 685 838 634 848 582 848 C 472 848 383 802 315 712 C 247 621 213 524 213 422 C 213 318 241 237 297 179 C 353 121 427 92 520 92 C 560 92 599 97 639 108 C 678 118 713 131 745 145 L 762 31 Z" unicode="c" />
<glyph horiz-adv-x="1057" d="M 862 868 L 961 1380 L 1092 1407 L 819 0 L 692 0 L 707 76 C 672 49 634 25 592 4 C 550 -16 500 -27 442 -27 C 337 -27 250 11 180 89 C 110 167 76 265 76 383 C 76 543 126 678 227 790 C 327 902 451 958 598 958 C 646 958 694 949 740 933 C 786 916 827 894 862 868 Z M 838 741 C 809 771 772 797 726 818 C 680 839 634 850 586 850 C 476 850 385 803 314 711 C 242 619 207 515 207 401 C 207 305 232 229 283 171 C 334 113 397 84 473 84 C 523 84 569 94 612 115 C 655 135 694 160 729 188 L 838 741 Z" unicode="d" />
<glyph horiz-adv-x="956" d="M 215 467 C 215 459 214 451 214 444 C 213 436 213 429 213 422 C 213 318 241 237 298 179 C 354 121 429 92 522 92 C 562 92 602 97 642 108 C 682 118 717 131 748 145 L 766 31 C 733 13 693 0 646 -11 C 598 -21 554 -27 512 -27 C 390 -27 287 12 205 92 C 123 171 82 278 82 412 C 82 551 126 678 216 793 C 306 907 423 965 569 965 C 665 965 743 937 804 881 C 864 825 895 752 895 664 C 895 633 891 600 884 566 C 877 532 867 500 854 471 L 215 467 Z M 233 565 C 261 565 354 565 513 566 C 672 566 752 567 752 567 C 756 580 759 594 762 609 C 764 624 766 639 766 653 C 766 712 746 760 708 796 C 670 832 618 850 553 850 C 475 850 408 822 351 768 C 294 713 255 645 233 565 Z" unicode="e" />
<glyph horiz-adv-x="608" d="M 813 1360 C 813 1358 804 1340 786 1304 C 768 1268 760 1251 760 1251 C 737 1266 712 1279 685 1290 C 657 1301 629 1307 600 1307 C 548 1307 508 1287 482 1247 C 456 1207 437 1160 426 1106 L 391 934 L 662 934 L 655 819 L 369 819 L 209 0 L 84 0 L 242 817 L 98 827 L 104 907 L 264 940 L 299 1110 C 320 1212 355 1290 405 1344 C 455 1398 522 1425 608 1425 C 644 1425 681 1419 718 1407 C 754 1395 786 1380 813 1360 Z" unicode="f" />
<glyph horiz-adv-x="961" d="M 231 344 C 196 371 168 406 148 448 C 127 490 117 538 117 592 C 117 694 155 782 231 854 C 307 926 396 963 500 965 C 546 965 586 959 619 949 C 652 938 683 923 711 905 L 1004 930 L 1010 801 L 795 813 C 809 791 820 766 830 736 C 839 706 844 676 844 645 C 844 541 806 452 731 380 C 656 308 565 272 459 272 C 426 272 396 275 370 281 C 343 287 317 295 293 307 C 268 297 247 282 229 263 C 211 244 203 225 203 205 C 203 171 220 144 255 126 C 289 107 346 90 426 74 L 481 63 C 580 43 658 12 714 -29 C 770 -71 799 -127 799 -199 C 799 -282 757 -355 675 -417 C 592 -479 475 -510 324 -510 C 189 -510 82 -483 3 -431 C -75 -379 -115 -313 -115 -233 C -115 -174 -92 -120 -47 -71 C -1 -22 64 13 150 37 C 128 50 109 67 94 88 C 79 109 72 134 72 164 C 72 203 87 239 119 272 C 150 304 187 328 231 344 Z M 233 -2 C 164 -17 110 -43 71 -81 C 31 -119 12 -163 12 -213 C 12 -273 43 -319 106 -353 C 168 -386 246 -403 338 -403 C 438 -403 519 -385 581 -350 C 643 -314 674 -269 674 -213 C 674 -170 652 -135 609 -109 C 565 -83 502 -61 420 -45 C 381 -37 346 -30 314 -22 C 282 -14 255 -8 233 -2 Z M 467 373 C 538 373 598 398 648 449 C 698 499 723 562 723 637 C 723 702 703 756 663 798 C 623 840 565 862 489 862 C 424 862 366 836 316 786 C 265 736 240 673 240 598 C 240 532 260 478 300 436 C 340 394 395 373 467 373 Z" unicode="g" />
<glyph horiz-adv-x="1034" d="M 803 0 L 676 0 L 788 580 C 792 599 796 616 798 632 C 800 648 801 662 801 676 C 801 732 784 774 751 804 C 717 833 671 848 612 848 C 563 848 514 836 466 813 C 417 789 370 759 326 723 L 184 0 L 57 0 L 326 1380 L 459 1407 L 346 823 C 394 863 445 897 500 923 C 554 949 610 963 666 963 C 746 963 810 939 860 893 C 909 847 934 785 934 707 C 934 691 933 675 931 658 C 929 641 926 622 922 602 L 803 0 Z" unicode="h" />
<glyph horiz-adv-x="428" d="M 459 1247 C 459 1220 450 1196 434 1176 C 418 1155 395 1145 365 1145 C 334 1145 311 1155 295 1176 C 279 1196 272 1220 272 1247 C 272 1272 279 1295 295 1315 C 311 1335 334 1346 365 1346 C 395 1346 418 1335 434 1315 C 450 1295 459 1272 459 1247 Z M 186 0 L 59 0 L 240 928 L 371 954 L 186 0 Z" unicode="i" />
<glyph horiz-adv-x="424" d="M -137 -512 L -205 -420 C -132 -389 -77 -349 -40 -299 C -2 -249 25 -176 45 -78 C 43 -85 75 80 141 419 C 207 758 240 928 240 928 L 371 954 C 371 954 337 779 269 430 C 201 81 168 -89 170 -82 C 146 -203 111 -295 64 -359 C 16 -423 -50 -474 -137 -512 Z M 459 1247 C 459 1220 450 1196 434 1176 C 418 1155 395 1145 365 1145 C 334 1145 311 1155 295 1176 C 279 1196 272 1220 272 1247 C 272 1272 279 1295 295 1315 C 311 1335 334 1346 365 1346 C 395 1346 418 1335 434 1315 C 450 1295 459 1272 459 1247 Z" unicode="j" />
<glyph horiz-adv-x="889" d="M 283 485 L 279 485 L 184 0 L 57 0 L 326 1380 L 459 1407 L 285 526 L 289 526 L 772 938 L 950 938 L 418 500 L 782 0 L 627 0 L 283 485 Z" unicode="k" />
<glyph horiz-adv-x="422" d="M 184 0 L 57 0 L 326 1380 L 459 1407 L 184 0 Z" unicode="l" />
<glyph horiz-adv-x="1587" d="M 1356 0 L 1229 0 L 1339 569 C 1343 588 1347 608 1351 628 C 1354 648 1356 666 1356 682 C 1356 732 1340 772 1309 802 C 1278 831 1234 846 1178 846 C 1130 846 1082 834 1036 811 C 989 787 945 757 905 721 C 904 715 903 710 903 705 C 903 700 902 695 901 690 C 901 680 900 668 898 655 C 896 641 893 626 891 610 L 770 0 L 643 0 L 756 569 C 760 588 763 608 766 628 C 768 648 770 666 770 682 C 770 732 754 772 723 802 C 692 831 648 846 592 846 C 545 846 499 834 453 812 C 407 789 365 761 328 729 L 184 0 L 57 0 L 240 938 L 373 965 L 348 840 C 390 876 436 906 486 930 C 536 953 586 965 637 965 C 698 965 751 950 796 921 C 840 892 871 853 889 803 C 935 847 987 885 1045 917 C 1102 949 1161 965 1223 965 C 1301 965 1364 941 1413 894 C 1462 847 1487 787 1487 713 C 1487 697 1485 678 1483 655 C 1480 631 1477 610 1473 590 L 1356 0 Z" unicode="m" />
<glyph horiz-adv-x="1034" d="M 803 0 L 676 0 L 786 569 C 790 588 794 608 798 628 C 801 648 803 666 803 682 C 803 732 787 772 755 802 C 723 831 677 846 618 846 C 570 846 520 832 468 806 C 415 780 367 747 324 709 L 184 0 L 57 0 L 240 938 L 373 965 L 346 823 C 394 863 445 897 500 924 C 554 951 610 965 666 965 C 746 965 810 941 860 894 C 909 847 934 787 934 713 C 934 697 932 677 929 653 C 925 628 922 606 918 586 L 803 0 Z" unicode="n" />
<glyph horiz-adv-x="1085" d="M 1008 530 C 1008 385 960 256 864 144 C 768 31 642 -25 487 -25 C 363 -25 265 16 191 98 C 117 180 80 283 80 406 C 80 549 127 678 223 792 C 318 906 443 963 598 963 C 721 963 820 921 895 837 C 970 753 1008 651 1008 530 Z M 879 522 C 879 616 853 694 802 757 C 751 820 679 852 586 852 C 467 852 374 804 307 710 C 240 616 207 516 207 412 C 207 318 233 240 285 179 C 337 118 409 88 502 88 C 619 88 711 134 778 226 C 845 318 879 417 879 522 Z" unicode="o" />
<glyph horiz-adv-x="1059" d="M 352 858 C 386 883 424 906 466 927 C 507 947 557 958 616 958 C 720 958 807 919 877 842 C 947 765 983 668 983 551 C 983 391 932 254 832 142 C 731 29 607 -27 461 -27 C 411 -27 363 -18 317 0 C 271 17 230 39 195 66 L 92 -477 L -35 -477 L 240 938 L 373 965 L 352 858 Z M 330 743 L 221 190 C 249 160 286 134 332 114 C 377 94 424 84 473 84 C 583 84 673 130 745 222 C 816 314 852 418 852 532 C 852 627 826 703 775 761 C 724 819 661 848 586 848 C 536 848 489 837 445 817 C 401 796 363 771 330 743 Z" unicode="p" />
<glyph horiz-adv-x="1057" d="M 729 -477 L 600 -477 L 707 76 C 672 49 634 25 593 4 C 551 -16 501 -27 442 -27 C 338 -27 251 11 181 89 C 111 167 76 265 76 383 C 76 543 126 678 228 790 C 329 902 453 958 600 958 C 648 958 695 949 741 933 C 787 916 828 894 864 868 L 1006 958 L 729 -477 Z M 838 741 C 809 771 772 797 727 818 C 681 839 634 850 586 850 C 476 850 385 803 314 711 C 242 619 207 515 207 401 C 207 305 232 229 284 171 C 335 113 399 84 475 84 C 525 84 571 94 614 115 C 657 135 695 160 729 188 L 838 741 Z" unicode="q" />
<glyph horiz-adv-x="729" d="M 305 621 L 184 0 L 57 0 L 240 938 L 373 965 L 338 786 C 371 840 412 883 461 916 C 509 948 559 965 610 965 C 642 965 674 960 704 952 C 734 943 760 932 782 920 L 748 797 C 725 810 700 821 672 830 C 644 839 614 844 584 844 C 528 844 477 824 431 784 C 385 744 343 689 305 621 Z" unicode="r" />
<glyph horiz-adv-x="778" d="M 670 264 C 670 178 636 108 570 54 C 504 0 422 -27 326 -27 C 262 -27 201 -17 143 3 C 85 23 34 47 -8 76 L 35 193 C 81 161 130 135 182 115 C 233 95 284 86 336 86 C 392 86 441 100 483 128 C 525 156 547 196 547 250 C 547 289 530 321 496 347 C 462 372 411 400 342 432 C 278 461 224 494 181 530 C 138 566 117 620 117 690 C 117 774 149 841 214 891 C 278 940 352 965 436 965 C 495 965 551 956 605 939 C 659 921 710 898 758 870 L 717 754 C 667 784 619 808 573 826 C 526 843 478 852 428 852 C 375 852 330 839 294 813 C 258 787 240 751 240 707 C 240 663 256 630 289 607 C 322 583 372 556 440 524 C 508 492 564 458 606 421 C 648 383 670 331 670 264 Z" unicode="s" />
<glyph horiz-adv-x="684" d="M 522 117 L 543 6 C 516 -5 485 -14 449 -21 C 413 -27 380 -31 348 -31 C 278 -31 220 -13 174 21 C 127 56 104 108 104 176 C 104 194 105 214 109 234 C 113 254 117 276 123 299 L 238 817 L 100 827 L 106 907 L 264 940 L 313 1153 L 434 1153 L 385 934 L 694 934 L 688 819 L 358 819 L 242 289 C 238 270 234 253 230 238 C 226 223 225 209 225 195 C 225 155 238 126 264 108 C 290 90 323 82 362 82 C 392 82 421 85 447 92 C 473 99 498 107 522 117 Z" unicode="t" />
<glyph horiz-adv-x="1034" d="M 231 938 L 358 938 L 248 369 C 244 349 240 330 236 310 C 232 290 231 272 231 256 C 231 205 247 165 279 136 C 311 106 356 92 416 92 C 464 92 515 104 567 130 C 619 156 667 188 711 227 L 850 938 L 977 938 L 795 0 L 662 -27 L 688 115 C 640 74 588 40 534 13 C 480 -13 425 -27 369 -27 C 288 -27 223 -3 174 43 C 124 90 100 151 100 225 C 100 240 101 260 105 285 C 109 309 113 332 117 352 L 231 938 Z" unicode="u" />
<glyph horiz-adv-x="866" d="M 952 938 L 397 -2 L 281 -2 L 96 938 L 227 938 L 369 164 L 811 938 L 952 938 Z" unicode="v" />
<glyph horiz-adv-x="1329" d="M 328 -4 L 215 -4 L 117 938 L 248 938 L 315 190 L 709 940 L 825 940 L 926 186 L 1270 938 L 1413 938 L 950 -4 L 836 -4 L 735 752 L 328 -4 Z" unicode="w" />
<glyph horiz-adv-x="807" d="M 702 0 L 565 0 L 391 401 L 63 0 L -86 0 L 328 483 L 121 938 L 256 938 L 416 565 L 711 938 L 856 938 L 475 479 L 702 0 Z" unicode="x" />
<glyph horiz-adv-x="866" d="M -150 -328 C -133 -340 -116 -350 -100 -358 C -84 -366 -64 -371 -41 -371 C -15 -371 11 -359 41 -336 C 71 -313 108 -264 154 -188 L 276 18 L 98 938 L 229 938 L 369 162 L 811 938 L 952 938 L 383 -23 L 258 -238 C 198 -338 145 -406 99 -441 C 52 -476 3 -494 -47 -494 C -81 -494 -113 -487 -142 -475 C -170 -462 -194 -448 -213 -434 L -150 -328 Z" unicode="y" />
<glyph horiz-adv-x="797" d="M 657 0 L -53 0 L -35 88 L 645 823 L 125 823 L 147 938 L 842 938 L 823 850 L 141 115 L 680 115 L 657 0 Z" unicode="z" />
<glyph horiz-adv-x="1024" d="M 819 -469 C 677 -461 568 -438 491 -400 C 413 -361 375 -297 375 -209 C 375 -124 392 -48 426 19 C 460 87 477 153 477 219 C 477 281 457 325 417 352 C 377 379 311 397 217 406 L 211 473 L 217 543 C 311 549 377 566 417 593 C 457 619 477 665 477 729 C 477 794 460 860 426 928 C 392 996 375 1071 375 1155 C 375 1243 413 1307 491 1347 C 568 1387 677 1410 819 1417 L 819 1323 C 699 1313 615 1296 567 1271 C 518 1246 494 1211 494 1165 C 494 1101 511 1033 546 962 C 580 890 598 820 598 750 C 598 679 575 618 529 566 C 483 514 412 485 315 479 L 315 467 C 412 461 483 432 529 380 C 575 328 598 266 598 195 C 598 125 580 55 546 -15 C 511 -85 494 -151 494 -213 C 494 -261 518 -298 567 -324 C 615 -350 699 -367 819 -377 L 819 -469 Z" unicode="{" />
<glyph horiz-adv-x="512" d="M 201 -408 L 201 1438 L 313 1438 L 313 -408 L 201 -408 Z" unicode="|" />
<glyph horiz-adv-x="1024" d="M 813 473 L 807 403 C 713 396 645 379 605 352 C 565 325 545 280 545 217 C 545 151 562 85 597 17 C 631 -50 649 -125 649 -209 C 649 -297 610 -361 533 -401 C 455 -440 346 -463 205 -469 L 205 -377 C 323 -369 406 -352 456 -326 C 505 -300 530 -263 530 -217 C 530 -153 512 -86 478 -15 C 443 55 426 125 426 195 C 426 265 448 326 494 379 C 539 431 611 461 709 467 L 709 479 C 611 484 539 513 494 565 C 448 617 426 678 426 750 C 426 820 443 890 478 962 C 512 1033 530 1100 530 1163 C 530 1210 505 1246 456 1271 C 406 1296 323 1313 205 1323 L 205 1417 C 346 1409 455 1385 533 1346 C 610 1307 649 1243 649 1155 C 649 1070 631 994 597 926 C 562 858 545 792 545 727 C 545 663 565 618 605 591 C 645 564 713 547 807 541 L 813 473 Z" unicode="}" />
<glyph horiz-adv-x="1024" d="M 874 596 C 852 526 825 470 792 427 C 759 383 716 362 662 362 C 594 362 537 386 491 434 C 445 482 402 506 362 506 C 338 506 317 493 301 469 C 285 445 269 414 254 377 L 162 377 C 182 446 208 502 242 545 C 275 588 319 610 375 610 C 442 610 499 586 545 538 C 591 490 634 467 674 467 C 697 467 717 478 734 502 C 750 526 766 557 780 596 L 874 596 Z" unicode="~" />
<glyph horiz-adv-x="281" d="" unicode=" " />
<glyph horiz-adv-x="530" d="M 303 1198 C 303 1225 312 1250 331 1272 C 350 1293 375 1304 405 1304 C 435 1304 459 1293 479 1272 C 498 1250 508 1225 508 1198 C 508 1170 498 1146 479 1126 C 459 1106 435 1096 405 1096 C 375 1096 350 1106 331 1126 C 312 1146 303 1170 303 1198 Z M 383 893 L 240 -50 L 86 -34 L 309 899 L 383 893 Z" unicode="¡" />
<glyph horiz-adv-x="1024" d="M 811 942 C 843 932 874 920 904 905 C 933 890 959 873 983 854 L 930 748 C 909 765 885 781 858 796 C 831 810 803 822 774 831 L 528 92 C 537 91 546 90 556 89 C 565 88 574 88 584 88 C 624 88 665 92 705 102 C 745 112 782 125 817 143 L 819 29 C 783 11 744 -2 702 -12 C 659 -22 617 -27 575 -27 C 561 -27 546 -26 532 -25 C 518 -23 504 -21 492 -18 L 414 -252 L 328 -252 C 328 -252 342 -209 370 -125 C 398 -40 412 1 412 0 C 332 29 267 79 218 151 C 169 223 145 310 145 412 C 145 551 193 678 289 792 C 385 906 508 963 657 963 C 669 963 682 962 694 961 C 706 960 717 959 729 958 L 795 1151 L 881 1151 L 811 942 Z M 692 848 C 685 848 678 849 670 849 C 662 849 655 850 647 850 C 531 850 441 804 375 712 C 309 620 276 524 276 422 C 276 345 291 280 322 227 C 353 174 395 137 449 115 L 692 848 Z" unicode="¢" />
<glyph horiz-adv-x="1024" d="M 299 662 C 304 707 310 751 316 795 C 322 839 330 880 338 920 C 362 1042 410 1137 481 1207 C 552 1276 644 1311 758 1311 C 818 1311 875 1301 928 1283 C 980 1264 1028 1238 1071 1206 L 1020 1100 C 982 1127 940 1150 895 1169 C 849 1188 800 1198 748 1198 C 664 1198 600 1171 556 1119 C 512 1066 482 1001 467 924 C 459 886 452 844 446 800 C 439 755 433 709 428 662 L 821 662 L 813 567 L 416 567 C 410 525 404 484 398 443 C 392 402 385 362 377 324 C 373 307 370 291 366 276 C 362 260 358 246 354 233 C 392 191 438 156 492 127 C 546 98 596 84 643 84 C 700 84 746 102 782 139 C 818 176 848 227 872 291 L 967 262 C 941 173 900 102 845 49 C 789 -4 721 -31 641 -31 C 579 -31 519 -15 461 18 C 403 52 353 93 309 141 C 277 91 234 52 180 25 C 126 -1 57 -22 -27 -37 C -27 -37 -28 -18 -32 18 C -35 54 -37 72 -37 70 C 51 86 117 111 160 147 C 202 183 232 242 250 324 C 257 361 264 400 270 441 C 276 482 281 524 287 567 L 104 567 L 100 662 L 299 662 Z" unicode="£" />
<glyph horiz-adv-x="887" d="M 811 1026 L 694 909 C 708 885 720 858 729 827 C 738 795 743 765 743 735 C 743 702 738 671 730 642 C 722 613 709 586 692 561 L 821 432 L 748 358 L 621 485 C 597 469 570 456 540 446 C 510 436 478 432 444 432 C 408 432 376 436 348 445 C 319 454 292 467 268 483 L 152 367 L 80 438 L 197 555 C 180 580 167 608 157 640 C 147 672 143 703 143 735 C 143 767 147 798 155 828 C 163 858 176 885 195 911 L 74 1032 L 147 1106 L 268 985 C 291 1001 318 1014 348 1024 C 378 1033 410 1038 444 1038 C 480 1038 513 1033 543 1024 C 573 1015 600 1001 625 983 L 739 1098 L 811 1026 Z M 651 735 C 651 792 632 842 596 884 C 559 926 508 948 444 948 C 379 948 328 926 291 884 C 254 842 236 792 236 735 C 236 679 254 629 291 586 C 328 543 379 522 444 522 C 508 522 559 543 596 586 C 632 629 651 679 651 735 Z" unicode="¤" />
<glyph horiz-adv-x="1024" d="M 455 541 L 100 541 L 104 635 L 428 635 L 147 1280 L 287 1280 L 541 668 L 1018 1280 L 1167 1280 C 1167 1280 1080 1172 906 957 C 732 742 644 635 643 635 L 956 635 L 938 541 L 580 541 L 543 360 L 895 360 L 891 268 L 526 268 L 475 0 L 348 0 L 399 268 L 39 268 L 57 360 L 418 360 L 455 541 Z" unicode="¥" />
<glyph horiz-adv-x="512" d="M 201 -285 L 201 401 L 313 401 L 313 -285 L 201 -285 Z M 201 629 L 201 1315 L 313 1315 L 313 629 L 201 629 Z" unicode="¦" />
<glyph horiz-adv-x="1024" d="M 985 584 C 985 504 953 441 889 397 C 825 353 759 324 690 311 C 715 291 736 267 752 239 C 768 211 776 179 776 143 C 776 54 741 -14 671 -63 C 601 -112 524 -137 438 -137 C 377 -137 314 -125 250 -102 C 185 -79 132 -50 90 -16 L 147 90 C 186 55 232 27 285 5 C 337 -16 389 -27 440 -27 C 486 -27 533 -15 582 8 C 630 32 655 71 655 125 C 655 177 629 219 578 250 C 527 280 466 311 395 342 C 323 371 257 405 197 445 C 136 484 106 538 106 608 C 106 685 139 746 206 792 C 273 837 341 865 410 877 C 382 897 359 921 341 951 C 323 980 315 1014 315 1053 C 315 1138 346 1203 410 1249 C 473 1294 546 1317 629 1317 C 687 1317 745 1308 803 1290 C 861 1272 912 1248 958 1219 L 903 1112 C 863 1138 819 1161 770 1180 C 720 1198 671 1208 623 1208 C 581 1208 539 1197 498 1177 C 456 1157 436 1121 436 1069 C 436 1017 460 976 510 947 C 560 918 620 888 692 858 C 764 827 831 791 893 751 C 954 711 985 655 985 584 Z M 866 561 C 866 616 833 660 767 693 C 701 725 648 750 606 768 C 584 778 561 787 538 797 C 514 806 491 817 469 829 C 425 816 373 794 313 764 C 253 733 223 689 223 633 C 223 579 257 535 325 502 C 393 468 448 443 489 426 C 513 416 536 406 560 396 C 583 386 606 375 629 362 C 673 375 724 397 781 429 C 837 461 866 505 866 561 Z" unicode="§" />
<glyph horiz-adv-x="772" d="M 455 1214 C 455 1186 446 1162 428 1142 C 410 1122 386 1112 356 1112 C 328 1112 305 1122 287 1142 C 269 1162 260 1186 260 1214 C 260 1240 269 1264 287 1284 C 305 1304 328 1315 356 1315 C 386 1315 410 1304 428 1284 C 446 1264 455 1240 455 1214 Z M 850 1214 C 850 1186 841 1162 823 1142 C 805 1122 782 1112 754 1112 C 724 1112 699 1122 681 1142 C 662 1162 653 1186 653 1214 C 653 1240 662 1264 681 1284 C 699 1304 724 1315 754 1315 C 782 1315 805 1304 823 1284 C 841 1264 850 1240 850 1214 Z" unicode="¨" />
<glyph horiz-adv-x="1493" d="M 1049 956 L 1014 864 C 984 883 953 897 921 907 C 889 917 855 922 819 922 C 743 922 681 897 633 847 C 585 797 561 727 561 639 C 561 552 584 482 632 430 C 680 378 743 352 821 352 C 859 352 895 358 931 370 C 966 382 996 398 1022 418 L 1042 317 C 1014 299 980 284 940 274 C 900 263 859 258 817 258 C 710 258 623 292 556 360 C 488 428 455 519 455 635 C 455 750 489 842 557 912 C 625 981 712 1016 819 1016 C 861 1016 902 1010 944 1000 C 985 989 1020 974 1049 956 Z M 791 -33 C 606 -33 448 32 317 164 C 186 296 121 453 121 637 C 121 821 186 979 317 1111 C 448 1243 606 1309 791 1309 C 975 1309 1132 1243 1263 1111 C 1394 979 1460 821 1460 637 C 1460 453 1394 296 1263 164 C 1132 32 975 -33 791 -33 Z M 1401 637 C 1401 804 1341 948 1222 1070 C 1102 1192 959 1253 791 1253 C 622 1253 478 1192 359 1070 C 239 948 180 804 180 637 C 180 469 239 325 359 205 C 478 85 622 25 791 25 C 959 25 1102 85 1222 205 C 1341 325 1401 469 1401 637 Z" unicode="©" />
<glyph horiz-adv-x="694" d="M 672 535 L 563 512 C 551 525 542 541 535 561 C 528 580 524 602 522 627 L 518 627 C 491 600 457 574 415 550 C 373 526 330 514 287 514 C 227 514 179 533 143 573 C 106 612 88 657 88 707 C 88 790 128 857 208 909 C 288 960 413 985 582 983 L 592 1028 C 604 1087 597 1132 573 1164 C 548 1196 505 1212 444 1212 C 405 1212 366 1205 328 1191 C 290 1177 253 1160 219 1141 L 197 1231 C 233 1251 274 1268 319 1284 C 363 1299 409 1307 457 1307 C 533 1307 596 1286 648 1245 C 700 1203 715 1130 694 1024 L 635 729 C 625 685 625 647 635 615 C 645 583 657 556 672 535 Z M 526 696 L 567 905 C 421 902 323 882 271 844 C 219 806 193 765 193 719 C 193 685 205 658 231 638 C 257 618 287 608 322 608 C 359 608 396 617 434 636 C 471 654 502 674 526 696 Z" unicode="ª" />
<glyph horiz-adv-x="1178" d="M 502 145 L 465 63 L 43 414 L 70 545 L 627 893 L 621 786 L 164 469 L 164 467 L 502 145 Z M 1047 139 L 1010 53 L 578 412 L 604 547 L 1174 903 L 1167 793 L 700 469 L 700 467 L 1047 139 Z" unicode="«" />
<glyph horiz-adv-x="1024" d="M 926 623 L 926 199 L 813 199 L 813 510 L 98 510 L 104 623 L 926 623 Z" unicode="¬" />
<glyph horiz-adv-x="598" d="M 537 438 L 74 438 L 74 557 L 537 557 L 537 438 Z" unicode="­" />
<glyph horiz-adv-x="1493" d="M 651 543 L 651 283 L 549 283 L 549 1008 L 782 1008 C 872 1008 941 988 988 948 C 1035 908 1059 853 1059 784 C 1059 731 1045 687 1019 652 C 993 617 958 591 915 575 L 1098 283 L 979 283 L 813 551 L 651 543 Z M 791 -33 C 606 -33 448 32 317 164 C 186 296 121 453 121 637 C 121 821 186 979 317 1111 C 448 1243 606 1309 791 1309 C 975 1309 1132 1243 1263 1111 C 1394 979 1460 821 1460 637 C 1460 453 1394 296 1263 164 C 1132 32 975 -33 791 -33 Z M 1401 637 C 1401 804 1341 948 1222 1070 C 1102 1192 959 1253 791 1253 C 622 1253 478 1192 359 1070 C 239 948 180 804 180 637 C 180 469 239 325 359 205 C 478 85 622 25 791 25 C 959 25 1102 85 1222 205 C 1341 325 1401 469 1401 637 Z M 649 631 L 778 635 C 837 635 881 648 911 674 C 941 700 956 734 956 778 C 956 825 940 860 910 882 C 880 904 834 915 772 915 L 649 915 L 649 631 Z" unicode="®" />
<glyph horiz-adv-x="813" d="M 797 1098 L 272 1098 L 297 1190 L 805 1190 L 797 1098 Z" unicode="¯" />
<glyph horiz-adv-x="1024" d="M 922 1038 C 922 948 889 871 824 807 C 759 743 680 711 588 711 C 507 711 441 735 390 784 C 338 833 313 898 313 979 C 313 1066 345 1143 410 1209 C 474 1275 552 1309 643 1309 C 723 1309 790 1284 843 1235 C 895 1185 922 1120 922 1038 Z M 836 1032 C 836 1092 817 1139 779 1173 C 741 1207 693 1225 635 1225 C 569 1225 514 1201 468 1154 C 422 1106 399 1050 399 985 C 399 925 418 878 456 844 C 494 810 542 793 600 793 C 665 793 721 816 767 864 C 813 912 836 968 836 1032 Z" unicode="°" />
<glyph horiz-adv-x="1024" d="M 926 465 L 567 465 L 567 170 L 455 170 L 455 465 L 96 465 L 102 578 L 455 578 L 455 903 L 567 903 L 567 578 L 920 578 L 926 465 Z M 926 18 L 96 18 L 102 129 L 920 129 L 926 18 Z" unicode="±" />
<glyph horiz-adv-x="676" d="M 559 559 L 16 559 C 15 559 17 575 21 608 C 25 640 27 657 27 657 C 177 771 296 861 384 926 C 472 990 516 1060 516 1135 C 516 1175 500 1206 469 1228 C 438 1249 402 1260 360 1260 C 325 1260 290 1253 255 1240 C 220 1227 189 1211 162 1192 L 137 1274 C 171 1297 209 1315 252 1329 C 294 1343 336 1350 377 1350 C 442 1350 501 1332 553 1298 C 605 1263 631 1213 631 1147 C 631 1056 587 978 499 912 C 411 846 293 758 145 649 L 569 649 L 559 559 Z" unicode="²" />
<glyph horiz-adv-x="676" d="M 381 965 C 437 959 486 942 529 913 C 572 884 594 841 594 784 C 594 712 562 654 500 610 C 438 566 366 545 285 545 C 244 545 200 550 152 562 C 104 574 63 590 31 610 L 63 698 C 95 678 130 662 170 650 C 210 637 249 631 287 631 C 337 631 382 643 422 668 C 462 692 483 730 483 780 C 483 829 461 863 418 882 C 375 901 328 911 276 911 C 261 911 246 910 232 910 C 217 909 203 908 190 907 L 203 985 C 253 992 318 1007 398 1030 C 478 1052 518 1093 518 1153 C 518 1191 502 1219 471 1236 C 440 1253 406 1262 369 1262 C 334 1262 299 1256 263 1244 C 227 1232 195 1219 168 1204 L 143 1286 C 175 1304 212 1320 254 1332 C 296 1344 338 1350 381 1350 C 439 1350 494 1336 548 1309 C 602 1281 629 1236 629 1174 C 629 1111 602 1063 549 1030 C 496 997 440 975 381 965 Z" unicode="³" />
<glyph horiz-adv-x="811" d="M 860 1427 L 477 1061 L 377 1061 L 692 1427 L 860 1427 Z" unicode="´" />
<glyph horiz-adv-x="1040" d="M 274 938 L 274 340 C 274 253 299 190 351 152 C 403 113 461 94 526 94 C 579 94 632 111 686 146 C 739 181 766 245 766 338 L 766 938 L 893 938 L 893 0 L 766 0 L 766 111 C 733 61 696 25 654 5 C 612 -14 569 -25 524 -25 C 479 -25 435 -16 393 2 C 350 20 310 55 274 109 L 274 -477 L 147 -477 L 147 938 L 274 938 Z" unicode="µ" />
<glyph horiz-adv-x="1024" d="M 739 528 C 725 526 706 524 681 523 C 656 522 634 522 616 522 C 497 522 393 550 303 608 C 213 666 168 750 168 860 C 168 991 216 1093 312 1167 C 408 1241 525 1278 662 1278 L 997 1278 L 719 -133 L 606 -133 L 739 528 Z" unicode="¶" />
<glyph horiz-adv-x="512" d="M 365 469 C 365 441 355 417 337 395 C 318 373 294 362 264 362 C 233 362 208 373 189 395 C 169 417 160 441 160 469 C 160 496 169 520 189 540 C 208 560 233 571 264 571 C 294 571 318 560 337 540 C 355 520 365 496 365 469 Z" unicode="·" />
<glyph horiz-adv-x="813" d="M 287 -135 C 353 -139 406 -155 447 -185 C 487 -215 508 -254 508 -303 C 508 -362 476 -413 414 -456 C 351 -499 258 -521 135 -522 L 139 -434 C 225 -437 290 -427 334 -405 C 378 -382 401 -351 401 -311 C 401 -273 379 -246 335 -230 C 291 -214 229 -209 150 -217 L 150 -156 L 420 61 L 528 61 L 287 -135 Z" unicode="¸" />
<glyph horiz-adv-x="676" d="M 373 559 L 268 559 L 408 1223 L 215 1182 L 229 1272 L 539 1341 L 373 559 Z" unicode="¹" />
<glyph horiz-adv-x="868" d="M 899 961 C 899 844 860 740 782 650 C 704 559 604 514 481 514 C 382 514 302 546 241 612 C 180 678 150 760 150 858 C 150 973 188 1076 265 1168 C 341 1259 441 1305 565 1305 C 663 1305 744 1271 806 1205 C 868 1139 899 1057 899 961 Z M 797 956 C 797 1030 775 1092 732 1142 C 688 1192 629 1217 555 1217 C 460 1217 385 1179 331 1103 C 277 1027 250 948 250 864 C 250 788 271 726 315 677 C 358 628 418 604 494 604 C 587 604 661 641 715 717 C 769 792 797 872 797 956 Z" unicode="º" />
<glyph horiz-adv-x="1184" d="M 586 410 L 12 53 L 18 166 L 485 487 L 485 489 L 141 819 L 178 905 L 612 545 L 586 410 Z M 1118 414 L 561 66 L 565 172 L 1022 487 L 1022 489 L 686 813 L 723 893 L 1145 543 L 1118 414 Z" unicode="»" />
<glyph horiz-adv-x="1464" d="M 1386 -98 L 1260 -98 L 1219 -295 L 1118 -295 L 1159 -98 L 774 -98 L 774 -27 L 1262 485 L 1382 485 L 1278 -14 L 1401 -14 L 1386 -98 Z M 414 559 L 309 559 L 449 1223 L 256 1182 L 270 1272 L 580 1341 L 414 559 Z M 1495 1280 L 102 -238 L -10 -238 L 1384 1280 L 1495 1280 Z M 1178 -14 L 1262 377 L 889 -14 L 1178 -14 Z" unicode="¼" />
<glyph horiz-adv-x="1464" d="M 1307 -293 L 764 -293 C 762 -293 764 -276 768 -244 C 772 -211 774 -195 774 -195 C 924 -80 1044 9 1132 74 C 1220 138 1264 208 1264 283 C 1264 323 1248 354 1217 376 C 1186 397 1150 408 1108 408 C 1073 408 1038 401 1003 388 C 968 375 937 359 909 340 L 885 422 C 918 445 956 463 999 477 C 1041 491 1083 498 1124 498 C 1189 498 1248 480 1300 446 C 1352 411 1378 361 1378 295 C 1378 204 1334 126 1246 60 C 1158 -6 1041 -93 893 -203 L 1317 -203 L 1307 -293 Z M 414 559 L 309 559 L 449 1223 L 256 1182 L 270 1272 L 580 1341 L 414 559 Z M 1495 1280 L 102 -238 L -10 -238 L 1384 1280 L 1495 1280 Z" unicode="½" />
<glyph horiz-adv-x="1464" d="M 422 965 C 478 959 527 942 570 913 C 613 884 635 841 635 784 C 635 712 603 654 541 610 C 479 566 407 545 326 545 C 284 545 240 550 192 562 C 144 574 104 590 72 610 L 104 698 C 136 678 171 662 211 650 C 251 637 290 631 328 631 C 378 631 423 643 463 668 C 503 692 524 730 524 780 C 524 829 502 863 459 882 C 416 901 369 911 317 911 C 302 911 287 910 273 910 C 258 909 244 908 231 907 L 244 985 C 294 992 359 1007 439 1030 C 519 1052 559 1093 559 1153 C 559 1191 543 1219 512 1236 C 481 1253 447 1262 410 1262 C 375 1262 340 1256 304 1244 C 268 1232 236 1219 209 1204 L 184 1286 C 216 1304 253 1320 295 1332 C 337 1344 379 1350 422 1350 C 480 1350 535 1336 589 1309 C 643 1281 670 1236 670 1174 C 670 1111 643 1063 590 1030 C 537 997 481 975 422 965 Z M 1386 -98 L 1260 -98 L 1219 -295 L 1118 -295 L 1159 -98 L 774 -98 L 774 -27 L 1262 485 L 1382 485 L 1278 -14 L 1401 -14 L 1386 -98 Z M 1495 1280 L 102 -238 L -10 -238 L 1384 1280 L 1495 1280 Z M 1178 -14 L 1262 377 L 889 -14 L 1178 -14 Z" unicode="¾" />
<glyph horiz-adv-x="715" d="M 48 284 C 48 377 76 445 133 488 C 190 530 252 562 318 583 C 382 603 430 622 463 642 C 496 662 513 691 513 730 C 513 757 503 784 484 811 C 465 837 444 863 420 888 C 420 888 432 890 456 896 C 480 901 493 904 494 904 C 524 880 552 852 576 819 C 600 785 613 749 613 710 C 613 646 589 598 542 566 C 495 533 438 506 371 484 C 307 464 256 440 216 414 C 176 388 156 348 156 294 C 156 222 187 170 250 137 C 312 103 375 87 437 87 C 458 87 477 87 494 89 C 511 91 527 92 541 93 L 519 -25 C 505 -27 490 -29 473 -30 C 456 -31 439 -31 422 -31 C 317 -31 228 -1 156 58 C 84 118 48 193 48 284 Z M 453 1197 C 453 1224 462 1249 482 1271 C 501 1292 526 1303 556 1303 C 586 1303 610 1292 630 1271 C 650 1249 660 1224 660 1197 C 660 1169 650 1145 630 1125 C 610 1105 586 1095 556 1095 C 526 1095 501 1105 482 1125 C 462 1145 453 1169 453 1197 Z" unicode="¿" />
<glyph horiz-adv-x="1186" d="M 836 1278 L 1065 0 L 934 0 L 872 356 L 279 356 L 74 0 L -70 0 L 684 1278 L 836 1278 Z M 852 475 L 737 1145 L 348 475 L 852 475 Z M 838 1403 L 743 1403 L 504 1769 L 668 1769 L 838 1403 Z" unicode="À" />
<glyph horiz-adv-x="1186" d="M 836 1278 L 1065 0 L 934 0 L 872 356 L 279 356 L 74 0 L -70 0 L 684 1278 L 836 1278 Z M 852 475 L 737 1145 L 348 475 L 852 475 Z M 1197 1769 L 814 1403 L 714 1403 L 1029 1769 L 1197 1769 Z" unicode="Á" />
<glyph horiz-adv-x="1186" d="M 836 1278 L 1065 0 L 934 0 L 872 356 L 279 356 L 74 0 L -70 0 L 684 1278 L 836 1278 Z M 852 475 L 737 1145 L 348 475 L 852 475 Z M 1066 1403 L 960 1403 L 823 1679 L 819 1679 L 577 1403 L 458 1403 L 763 1776 L 907 1776 L 1066 1403 Z" unicode="Â" />
<glyph horiz-adv-x="1186" d="M 836 1278 L 1065 0 L 934 0 L 872 356 L 279 356 L 74 0 L -70 0 L 684 1278 L 836 1278 Z M 852 475 L 737 1145 L 348 475 L 852 475 Z M 1144 1645 C 1122 1575 1095 1519 1062 1476 C 1028 1432 985 1411 931 1411 C 863 1411 807 1434 761 1482 C 715 1530 672 1554 632 1554 C 608 1554 587 1542 571 1518 C 555 1494 539 1463 524 1425 L 432 1425 C 452 1494 478 1550 512 1594 C 545 1637 589 1659 645 1659 C 711 1659 768 1635 814 1587 C 860 1539 904 1516 944 1516 C 967 1516 987 1527 1004 1551 C 1020 1574 1036 1605 1050 1645 L 1144 1645 Z" unicode="Ã" />
<glyph horiz-adv-x="1186" d="M 836 1278 L 1065 0 L 934 0 L 872 356 L 279 356 L 74 0 L -70 0 L 684 1278 L 836 1278 Z M 852 475 L 737 1145 L 348 475 L 852 475 Z M 696 1556 C 696 1528 687 1504 669 1484 C 651 1464 627 1454 597 1454 C 569 1454 546 1464 528 1484 C 510 1504 501 1528 501 1556 C 501 1582 510 1606 528 1626 C 546 1646 569 1657 597 1657 C 627 1657 651 1646 669 1626 C 687 1606 696 1582 696 1556 Z M 1091 1556 C 1091 1528 1082 1504 1064 1484 C 1046 1464 1023 1454 995 1454 C 965 1454 940 1464 922 1484 C 903 1504 894 1528 894 1556 C 894 1582 903 1606 922 1626 C 940 1646 965 1657 995 1657 C 1023 1657 1046 1646 1064 1626 C 1082 1606 1091 1582 1091 1556 Z" unicode="Ä" />
<glyph horiz-adv-x="1186" d="M 653 1223 C 617 1237 589 1260 567 1292 C 545 1323 535 1359 535 1399 C 535 1463 559 1515 607 1557 C 655 1599 714 1620 784 1620 C 851 1620 907 1600 953 1562 C 999 1524 1022 1474 1022 1413 C 1022 1362 1006 1319 975 1283 C 943 1247 902 1222 850 1210 L 1067 0 L 936 0 L 874 356 L 283 356 L 78 0 L -66 0 L 653 1223 Z M 932 1411 C 932 1450 918 1482 890 1508 C 862 1533 826 1546 784 1546 C 739 1546 702 1532 672 1505 C 642 1477 627 1443 627 1403 C 627 1365 641 1333 669 1309 C 697 1284 731 1272 772 1272 C 818 1272 857 1285 887 1312 C 917 1338 932 1371 932 1411 Z M 854 475 L 739 1147 L 352 475 L 854 475 Z" unicode="Å" />
<glyph horiz-adv-x="1677" d="M 326 356 L 53 0 L -92 0 L 891 1280 L 1739 1280 L 1716 1159 L 1073 1159 L 985 702 L 1520 702 L 1497 582 L 961 582 L 870 121 L 1513 121 L 1491 0 L 717 0 L 786 356 L 326 356 Z M 418 477 L 811 477 L 944 1165 L 418 477 Z" unicode="Æ" />
<glyph horiz-adv-x="1196" d="M 600 -20 C 453 -2 334 55 244 155 C 154 255 109 383 109 541 C 109 746 174 925 305 1077 C 436 1229 612 1305 834 1305 C 898 1305 963 1298 1031 1284 C 1099 1270 1165 1250 1229 1225 L 1204 1100 C 1146 1126 1083 1148 1017 1164 C 950 1180 886 1188 825 1188 C 643 1188 501 1124 397 996 C 293 868 242 720 242 553 C 242 407 284 293 369 213 C 453 132 564 92 702 92 C 756 92 811 99 867 113 C 923 127 976 147 1024 172 L 1051 55 C 1001 31 945 11 881 -3 C 817 -17 757 -25 702 -27 L 569 -135 C 635 -139 689 -155 730 -185 C 770 -215 791 -254 791 -303 C 791 -362 759 -413 697 -456 C 634 -499 541 -521 418 -522 L 422 -434 C 507 -437 572 -427 617 -405 C 661 -382 684 -351 684 -311 C 684 -273 661 -246 617 -230 C 573 -214 511 -209 432 -217 L 432 -156 L 600 -20 Z" unicode="Ç" />
<glyph horiz-adv-x="1038" d="M 848 0 L 74 0 L 324 1280 L 1096 1280 L 1073 1159 L 430 1159 L 342 700 L 879 700 L 854 582 L 319 582 L 229 121 L 870 121 L 848 0 Z M 752 1403 L 657 1403 L 418 1769 L 582 1769 L 752 1403 Z" unicode="È" />
<glyph horiz-adv-x="1038" d="M 848 0 L 74 0 L 324 1280 L 1096 1280 L 1073 1159 L 430 1159 L 342 700 L 879 700 L 854 582 L 319 582 L 229 121 L 870 121 L 848 0 Z M 1107 1769 L 724 1403 L 624 1403 L 939 1769 L 1107 1769 Z" unicode="É" />
<glyph horiz-adv-x="1038" d="M 848 0 L 74 0 L 324 1280 L 1096 1280 L 1073 1159 L 430 1159 L 342 700 L 879 700 L 854 582 L 319 582 L 229 121 L 870 121 L 848 0 Z M 1023 1403 L 917 1403 L 780 1679 L 776 1679 L 534 1403 L 415 1403 L 720 1776 L 864 1776 L 1023 1403 Z" unicode="Ê" />
<glyph horiz-adv-x="1038" d="M 848 0 L 74 0 L 324 1280 L 1096 1280 L 1073 1159 L 430 1159 L 342 700 L 879 700 L 854 582 L 319 582 L 229 121 L 870 121 L 848 0 Z M 629 1556 C 629 1528 620 1504 602 1484 C 584 1464 560 1454 530 1454 C 502 1454 479 1464 461 1484 C 443 1504 434 1528 434 1556 C 434 1582 443 1606 461 1626 C 479 1646 502 1657 530 1657 C 560 1657 584 1646 602 1626 C 620 1606 629 1582 629 1556 Z M 1024 1556 C 1024 1528 1015 1504 997 1484 C 979 1464 956 1454 928 1454 C 898 1454 873 1464 855 1484 C 836 1504 827 1528 827 1556 C 827 1582 836 1606 855 1626 C 873 1646 898 1657 928 1657 C 956 1657 979 1646 997 1626 C 1015 1606 1024 1582 1024 1556 Z" unicode="Ë" />
<glyph horiz-adv-x="467" d="M 205 0 L 76 0 L 324 1280 L 455 1280 L 205 0 Z M 461 1403 L 366 1403 L 127 1769 L 291 1769 L 461 1403 Z" unicode="Ì" />
<glyph horiz-adv-x="467" d="M 205 0 L 76 0 L 324 1280 L 455 1280 L 205 0 Z M 833 1769 L 450 1403 L 350 1403 L 665 1769 L 833 1769 Z" unicode="Í" />
<glyph horiz-adv-x="467" d="M 205 0 L 76 0 L 324 1280 L 455 1280 L 205 0 Z M 697 1403 L 591 1403 L 454 1679 L 450 1679 L 208 1403 L 89 1403 L 394 1776 L 538 1776 L 697 1403 Z" unicode="Î" />
<glyph horiz-adv-x="467" d="M 205 0 L 76 0 L 324 1280 L 455 1280 L 205 0 Z M 330 1556 C 330 1528 321 1504 303 1484 C 285 1464 261 1454 231 1454 C 203 1454 180 1464 162 1484 C 144 1504 135 1528 135 1556 C 135 1582 144 1606 162 1626 C 180 1646 203 1657 231 1657 C 261 1657 285 1646 303 1626 C 321 1606 330 1582 330 1556 Z M 725 1556 C 725 1528 716 1504 698 1484 C 680 1464 657 1454 629 1454 C 599 1454 574 1464 556 1484 C 537 1504 528 1528 528 1556 C 528 1582 537 1606 556 1626 C 574 1646 599 1657 629 1657 C 657 1657 680 1646 698 1626 C 716 1606 725 1582 725 1556 Z" unicode="Ï" />
<glyph horiz-adv-x="1305" d="M 211 588 L 68 588 L 68 702 L 231 702 C 232 702 251 798 288 991 C 325 1183 344 1280 344 1280 L 618 1280 C 788 1280 933 1233 1052 1140 C 1171 1047 1231 912 1231 735 C 1231 537 1166 365 1037 219 C 908 73 714 0 455 0 L 96 0 L 211 588 Z M 365 702 L 727 702 L 727 588 L 342 588 L 252 121 L 477 121 C 648 121 794 172 914 274 C 1034 376 1094 524 1094 717 C 1094 860 1049 969 959 1045 C 869 1120 750 1158 600 1159 L 453 1159 L 365 702 Z" unicode="Ð" />
<glyph horiz-adv-x="1321" d="M 981 158 L 1192 1280 L 1319 1280 L 1071 -12 L 918 -12 L 412 1122 L 201 0 L 74 0 L 319 1280 L 479 1280 L 981 158 Z M 1212 1645 C 1190 1575 1163 1519 1130 1476 C 1096 1432 1053 1411 999 1411 C 931 1411 875 1434 829 1482 C 783 1530 740 1554 700 1554 C 676 1554 655 1542 639 1518 C 623 1494 607 1463 592 1425 L 500 1425 C 520 1494 546 1550 580 1594 C 613 1637 657 1659 713 1659 C 779 1659 836 1635 882 1587 C 928 1539 972 1516 1012 1516 C 1035 1516 1055 1527 1072 1551 C 1088 1574 1104 1605 1118 1645 L 1212 1645 Z" unicode="Ñ" />
<glyph horiz-adv-x="1440" d="M 1403 719 C 1403 524 1335 351 1200 200 C 1065 48 896 -27 694 -27 C 526 -27 387 28 277 140 C 167 251 113 393 113 565 C 113 761 180 933 314 1083 C 448 1232 618 1307 823 1307 C 990 1307 1128 1252 1238 1142 C 1348 1032 1403 891 1403 719 Z M 1270 709 C 1270 848 1227 963 1141 1054 C 1055 1144 944 1190 807 1190 C 639 1190 503 1126 400 998 C 297 870 246 729 246 573 C 246 435 288 320 374 228 C 459 136 571 90 709 90 C 877 90 1012 154 1115 283 C 1218 411 1270 553 1270 709 Z M 891 1403 L 796 1403 L 557 1769 L 721 1769 L 891 1403 Z" unicode="Ò" />
<glyph horiz-adv-x="1440" d="M 1403 719 C 1403 524 1335 351 1200 200 C 1065 48 896 -27 694 -27 C 526 -27 387 28 277 140 C 167 251 113 393 113 565 C 113 761 180 933 314 1083 C 448 1232 618 1307 823 1307 C 990 1307 1128 1252 1238 1142 C 1348 1032 1403 891 1403 719 Z M 1270 709 C 1270 848 1227 963 1141 1054 C 1055 1144 944 1190 807 1190 C 639 1190 503 1126 400 998 C 297 870 246 729 246 573 C 246 435 288 320 374 228 C 459 136 571 90 709 90 C 877 90 1012 154 1115 283 C 1218 411 1270 553 1270 709 Z M 1283 1769 L 900 1403 L 800 1403 L 1115 1769 L 1283 1769 Z" unicode="Ó" />
<glyph horiz-adv-x="1440" d="M 1403 719 C 1403 524 1335 351 1200 200 C 1065 48 896 -27 694 -27 C 526 -27 387 28 277 140 C 167 251 113 393 113 565 C 113 761 180 933 314 1083 C 448 1232 618 1307 823 1307 C 990 1307 1128 1252 1238 1142 C 1348 1032 1403 891 1403 719 Z M 1270 709 C 1270 848 1227 963 1141 1054 C 1055 1144 944 1190 807 1190 C 639 1190 503 1126 400 998 C 297 870 246 729 246 573 C 246 435 288 320 374 228 C 459 136 571 90 709 90 C 877 90 1012 154 1115 283 C 1218 411 1270 553 1270 709 Z M 1173 1403 L 1067 1403 L 930 1679 L 926 1679 L 684 1403 L 565 1403 L 870 1776 L 1014 1776 L 1173 1403 Z" unicode="Ô" />
<glyph horiz-adv-x="1440" d="M 1403 719 C 1403 524 1335 351 1200 200 C 1065 48 896 -27 694 -27 C 526 -27 387 28 277 140 C 167 251 113 393 113 565 C 113 761 180 933 314 1083 C 448 1232 618 1307 823 1307 C 990 1307 1128 1252 1238 1142 C 1348 1032 1403 891 1403 719 Z M 1270 709 C 1270 848 1227 963 1141 1054 C 1055 1144 944 1190 807 1190 C 639 1190 503 1126 400 998 C 297 870 246 729 246 573 C 246 435 288 320 374 228 C 459 136 571 90 709 90 C 877 90 1012 154 1115 283 C 1218 411 1270 553 1270 709 Z M 1251 1645 C 1229 1575 1202 1519 1169 1476 C 1135 1432 1092 1411 1038 1411 C 970 1411 914 1434 868 1482 C 822 1530 779 1554 739 1554 C 715 1554 694 1542 678 1518 C 662 1494 646 1463 631 1425 L 539 1425 C 559 1494 585 1550 619 1594 C 652 1637 696 1659 752 1659 C 818 1659 875 1635 921 1587 C 967 1539 1011 1516 1051 1516 C 1074 1516 1094 1527 1111 1551 C 1127 1574 1143 1605 1157 1645 L 1251 1645 Z" unicode="Õ" />
<glyph horiz-adv-x="1440" d="M 1403 719 C 1403 524 1335 351 1200 200 C 1065 48 896 -27 694 -27 C 526 -27 387 28 277 140 C 167 251 113 393 113 565 C 113 761 180 933 314 1083 C 448 1232 618 1307 823 1307 C 990 1307 1128 1252 1238 1142 C 1348 1032 1403 891 1403 719 Z M 1270 709 C 1270 848 1227 963 1141 1054 C 1055 1144 944 1190 807 1190 C 639 1190 503 1126 400 998 C 297 870 246 729 246 573 C 246 435 288 320 374 228 C 459 136 571 90 709 90 C 877 90 1012 154 1115 283 C 1218 411 1270 553 1270 709 Z M 823 1556 C 823 1528 814 1504 796 1484 C 778 1464 754 1454 724 1454 C 696 1454 673 1464 655 1484 C 637 1504 628 1528 628 1556 C 628 1582 637 1606 655 1626 C 673 1646 696 1657 724 1657 C 754 1657 778 1646 796 1626 C 814 1606 823 1582 823 1556 Z M 1218 1556 C 1218 1528 1209 1504 1191 1484 C 1173 1464 1150 1454 1122 1454 C 1092 1454 1067 1464 1049 1484 C 1030 1504 1021 1528 1021 1556 C 1021 1582 1030 1606 1049 1626 C 1067 1646 1092 1657 1122 1657 C 1150 1657 1173 1646 1191 1626 C 1209 1606 1218 1582 1218 1556 Z" unicode="Ö" />
<glyph horiz-adv-x="1024" d="M 936 133 L 860 57 L 516 403 L 170 57 L 94 133 L 440 479 L 94 823 L 170 899 L 516 553 L 862 901 L 938 825 L 590 479 L 936 133 Z" unicode="×" />
<glyph horiz-adv-x="1440" d="M 1405 721 C 1405 526 1338 353 1204 201 C 1070 49 901 -27 698 -27 C 635 -27 575 -18 518 -1 C 461 16 410 40 365 70 L 199 -137 L 86 -137 L 295 125 C 239 177 195 240 163 316 C 131 391 115 473 115 563 C 115 759 182 932 316 1082 C 450 1232 619 1307 823 1307 C 887 1307 948 1298 1006 1281 C 1063 1263 1115 1238 1161 1206 L 1331 1417 L 1444 1417 L 1231 1151 C 1285 1100 1327 1037 1358 963 C 1389 889 1405 808 1405 721 Z M 1083 1108 C 1045 1134 1003 1155 957 1169 C 910 1183 861 1190 811 1190 C 641 1190 505 1126 402 998 C 299 870 248 729 248 573 C 248 503 259 438 282 379 C 305 319 337 269 377 227 L 1083 1108 Z M 1149 1051 L 444 170 C 480 144 521 125 566 111 C 611 97 659 90 711 90 C 879 90 1014 154 1117 283 C 1220 411 1272 553 1272 709 C 1272 777 1261 840 1239 898 C 1217 956 1187 1007 1149 1051 Z" unicode="Ø" />
<glyph horiz-adv-x="1233" d="M 588 -27 C 452 -27 341 6 255 73 C 168 139 125 232 125 352 C 125 386 127 419 132 452 C 136 485 141 513 145 535 L 293 1280 L 422 1280 L 276 530 C 272 510 267 487 263 461 C 258 434 256 406 256 377 C 256 287 285 217 345 168 C 404 118 488 94 596 94 C 696 94 778 127 841 193 C 903 259 945 345 967 453 L 1128 1280 L 1257 1280 L 1096 438 C 1068 296 1011 183 926 99 C 841 15 728 -27 588 -27 Z M 829 1403 L 734 1403 L 495 1769 L 659 1769 L 829 1403 Z" unicode="Ù" />
<glyph horiz-adv-x="1233" d="M 588 -27 C 452 -27 341 6 255 73 C 168 139 125 232 125 352 C 125 386 127 419 132 452 C 136 485 141 513 145 535 L 293 1280 L 422 1280 L 276 530 C 272 510 267 487 263 461 C 258 434 256 406 256 377 C 256 287 285 217 345 168 C 404 118 488 94 596 94 C 696 94 778 127 841 193 C 903 259 945 345 967 453 L 1128 1280 L 1257 1280 L 1096 438 C 1068 296 1011 183 926 99 C 841 15 728 -27 588 -27 Z M 1191 1769 L 808 1403 L 708 1403 L 1023 1769 L 1191 1769 Z" unicode="Ú" />
<glyph horiz-adv-x="1233" d="M 588 -27 C 452 -27 341 6 255 73 C 168 139 125 232 125 352 C 125 386 127 419 132 452 C 136 485 141 513 145 535 L 293 1280 L 422 1280 L 276 530 C 272 510 267 487 263 461 C 258 434 256 406 256 377 C 256 287 285 217 345 168 C 404 118 488 94 596 94 C 696 94 778 127 841 193 C 903 259 945 345 967 453 L 1128 1280 L 1257 1280 L 1096 438 C 1068 296 1011 183 926 99 C 841 15 728 -27 588 -27 Z M 1091 1403 L 985 1403 L 848 1679 L 844 1679 L 602 1403 L 483 1403 L 788 1776 L 932 1776 L 1091 1403 Z" unicode="Û" />
<glyph horiz-adv-x="1233" d="M 588 -27 C 452 -27 341 6 255 73 C 168 139 125 232 125 352 C 125 386 127 419 132 452 C 136 485 141 513 145 535 L 293 1280 L 422 1280 L 276 530 C 272 510 267 487 263 461 C 258 434 256 406 256 377 C 256 287 285 217 345 168 C 404 118 488 94 596 94 C 696 94 778 127 841 193 C 903 259 945 345 967 453 L 1128 1280 L 1257 1280 L 1096 438 C 1068 296 1011 183 926 99 C 841 15 728 -27 588 -27 Z M 708 1556 C 708 1528 699 1504 681 1484 C 663 1464 639 1454 609 1454 C 581 1454 558 1464 540 1484 C 522 1504 513 1528 513 1556 C 513 1582 522 1606 540 1626 C 558 1646 581 1657 609 1657 C 639 1657 663 1646 681 1626 C 699 1606 708 1582 708 1556 Z M 1103 1556 C 1103 1528 1094 1504 1076 1484 C 1058 1464 1035 1454 1007 1454 C 977 1454 952 1464 934 1484 C 915 1504 906 1528 906 1556 C 906 1582 915 1606 934 1626 C 952 1646 977 1657 1007 1657 C 1035 1657 1058 1646 1076 1626 C 1094 1606 1103 1582 1103 1556 Z" unicode="Ü" />
<glyph horiz-adv-x="1073" d="M 1204 1280 L 610 510 L 510 0 L 383 0 L 483 518 L 184 1280 L 324 1280 L 569 637 L 1051 1280 L 1204 1280 Z M 1097 1769 L 714 1403 L 614 1403 L 929 1769 L 1097 1769 Z" unicode="Ý" />
<glyph horiz-adv-x="1063" d="M 1030 698 C 1030 560 980 447 882 360 C 784 272 642 229 457 229 L 250 229 L 203 0 L 74 0 L 322 1280 L 453 1280 L 410 1061 L 588 1061 C 734 1061 845 1023 919 949 C 993 874 1030 790 1030 698 Z M 893 678 C 893 752 865 814 810 864 C 754 914 674 940 569 940 L 387 940 L 272 350 L 475 350 C 615 349 719 380 789 443 C 858 505 893 584 893 678 Z" unicode="Þ" />
<glyph horiz-adv-x="1106" d="M 84 0 L 242 817 L 98 827 L 104 907 L 264 940 C 264 940 269 966 279 1019 C 289 1071 295 1098 297 1100 C 320 1218 366 1301 434 1350 C 502 1398 579 1423 666 1423 C 757 1423 832 1396 892 1343 C 951 1289 981 1222 981 1141 C 981 1019 936 939 848 900 C 759 861 715 806 715 735 C 715 657 766 591 870 537 C 974 483 1026 395 1026 274 C 1026 190 995 119 934 61 C 872 2 792 -27 692 -27 C 630 -27 571 -17 516 2 C 461 21 411 45 367 74 L 410 193 C 464 157 513 129 557 111 C 601 93 649 84 702 84 C 760 84 807 101 841 137 C 875 172 893 215 893 266 C 893 362 842 434 742 484 C 642 533 592 613 592 725 C 592 825 634 892 720 925 C 805 958 848 1025 848 1126 C 848 1180 831 1224 799 1260 C 766 1295 720 1313 662 1313 C 598 1313 546 1295 506 1259 C 465 1223 438 1171 424 1102 L 209 0 L 84 0 Z" unicode="ß" />
<glyph horiz-adv-x="905" d="M 664 557 L 674 602 C 688 678 676 738 639 782 C 602 826 541 848 457 848 C 409 848 360 839 310 823 C 259 806 214 786 174 764 L 158 879 C 197 901 245 920 301 937 C 357 954 415 963 473 963 C 589 963 678 932 741 870 C 804 808 823 713 797 586 L 717 197 C 709 160 710 132 718 112 C 726 92 751 82 793 84 L 770 -20 C 704 -24 658 -12 633 16 C 607 44 594 76 592 111 L 590 111 C 553 71 509 38 458 13 C 406 -12 354 -25 301 -25 C 220 -25 154 2 104 57 C 54 112 29 172 29 238 C 29 337 79 416 179 475 C 279 533 440 561 664 557 Z M 594 199 L 647 467 C 477 465 353 444 277 405 C 200 366 162 315 162 252 C 162 206 177 166 209 134 C 241 102 284 86 340 86 C 390 86 438 97 482 120 C 526 142 563 169 594 199 Z M 604 1061 L 509 1061 L 270 1427 L 434 1427 L 604 1061 Z" unicode="à" />
<glyph horiz-adv-x="905" d="M 664 557 L 674 602 C 688 678 676 738 639 782 C 602 826 541 848 457 848 C 409 848 360 839 310 823 C 259 806 214 786 174 764 L 158 879 C 197 901 245 920 301 937 C 357 954 415 963 473 963 C 589 963 678 932 741 870 C 804 808 823 713 797 586 L 717 197 C 709 160 710 132 718 112 C 726 92 751 82 793 84 L 770 -20 C 704 -24 658 -12 633 16 C 607 44 594 76 592 111 L 590 111 C 553 71 509 38 458 13 C 406 -12 354 -25 301 -25 C 220 -25 154 2 104 57 C 54 112 29 172 29 238 C 29 337 79 416 179 475 C 279 533 440 561 664 557 Z M 594 199 L 647 467 C 477 465 353 444 277 405 C 200 366 162 315 162 252 C 162 206 177 166 209 134 C 241 102 284 86 340 86 C 390 86 438 97 482 120 C 526 142 563 169 594 199 Z M 917 1427 L 534 1061 L 434 1061 L 749 1427 L 917 1427 Z" unicode="á" />
<glyph horiz-adv-x="905" d="M 664 557 L 674 602 C 688 678 676 738 639 782 C 602 826 541 848 457 848 C 409 848 360 839 310 823 C 259 806 214 786 174 764 L 158 879 C 197 901 245 920 301 937 C 357 954 415 963 473 963 C 589 963 678 932 741 870 C 804 808 823 713 797 586 L 717 197 C 709 160 710 132 718 112 C 726 92 751 82 793 84 L 770 -20 C 704 -24 658 -12 633 16 C 607 44 594 76 592 111 L 590 111 C 553 71 509 38 458 13 C 406 -12 354 -25 301 -25 C 220 -25 154 2 104 57 C 54 112 29 172 29 238 C 29 337 79 416 179 475 C 279 533 440 561 664 557 Z M 594 199 L 647 467 C 477 465 353 444 277 405 C 200 366 162 315 162 252 C 162 206 177 166 209 134 C 241 102 284 86 340 86 C 390 86 438 97 482 120 C 526 142 563 169 594 199 Z M 841 1061 L 735 1061 L 598 1337 L 594 1337 L 352 1061 L 233 1061 L 538 1434 L 682 1434 L 841 1061 Z" unicode="â" />
<glyph horiz-adv-x="905" d="M 664 557 L 674 602 C 688 678 676 738 639 782 C 602 826 541 848 457 848 C 409 848 360 839 310 823 C 259 806 214 786 174 764 L 158 879 C 197 901 245 920 301 937 C 357 954 415 963 473 963 C 589 963 678 932 741 870 C 804 808 823 713 797 586 L 717 197 C 709 160 710 132 718 112 C 726 92 751 82 793 84 L 770 -20 C 704 -24 658 -12 633 16 C 607 44 594 76 592 111 L 590 111 C 553 71 509 38 458 13 C 406 -12 354 -25 301 -25 C 220 -25 154 2 104 57 C 54 112 29 172 29 238 C 29 337 79 416 179 475 C 279 533 440 561 664 557 Z M 594 199 L 647 467 C 477 465 353 444 277 405 C 200 366 162 315 162 252 C 162 206 177 166 209 134 C 241 102 284 86 340 86 C 390 86 438 97 482 120 C 526 142 563 169 594 199 Z M 919 1303 C 897 1233 870 1177 837 1134 C 803 1090 760 1069 706 1069 C 638 1069 582 1092 536 1140 C 490 1188 447 1212 407 1212 C 383 1212 362 1200 346 1176 C 330 1152 314 1121 299 1083 L 207 1083 C 227 1152 253 1208 287 1252 C 320 1295 364 1317 420 1317 C 486 1317 543 1293 589 1245 C 635 1197 679 1174 719 1174 C 742 1174 762 1185 779 1209 C 795 1232 811 1263 825 1303 L 919 1303 Z" unicode="ã" />
<glyph horiz-adv-x="905" d="M 664 557 L 674 602 C 688 678 676 738 639 782 C 602 826 541 848 457 848 C 409 848 360 839 310 823 C 259 806 214 786 174 764 L 158 879 C 197 901 245 920 301 937 C 357 954 415 963 473 963 C 589 963 678 932 741 870 C 804 808 823 713 797 586 L 717 197 C 709 160 710 132 718 112 C 726 92 751 82 793 84 L 770 -20 C 704 -24 658 -12 633 16 C 607 44 594 76 592 111 L 590 111 C 553 71 509 38 458 13 C 406 -12 354 -25 301 -25 C 220 -25 154 2 104 57 C 54 112 29 172 29 238 C 29 337 79 416 179 475 C 279 533 440 561 664 557 Z M 594 199 L 647 467 C 477 465 353 444 277 405 C 200 366 162 315 162 252 C 162 206 177 166 209 134 C 241 102 284 86 340 86 C 390 86 438 97 482 120 C 526 142 563 169 594 199 Z M 473 1214 C 473 1186 464 1162 446 1142 C 428 1122 404 1112 374 1112 C 346 1112 323 1122 305 1142 C 287 1162 278 1186 278 1214 C 278 1240 287 1264 305 1284 C 323 1304 346 1315 374 1315 C 404 1315 428 1304 446 1284 C 464 1264 473 1240 473 1214 Z M 868 1214 C 868 1186 859 1162 841 1142 C 823 1122 800 1112 772 1112 C 742 1112 717 1122 699 1142 C 680 1162 671 1186 671 1214 C 671 1240 680 1264 699 1284 C 717 1304 742 1315 772 1315 C 800 1315 823 1304 841 1284 C 859 1264 868 1240 868 1214 Z" unicode="ä" />
<glyph horiz-adv-x="905" d="M 664 557 L 674 602 C 688 678 676 738 639 782 C 602 826 541 848 457 848 C 409 848 360 839 310 823 C 259 806 214 786 174 764 L 158 879 C 197 901 245 920 301 937 C 357 954 415 963 473 963 C 589 963 678 932 741 870 C 804 808 823 713 797 586 L 717 197 C 709 160 710 132 718 112 C 726 92 751 82 793 84 L 770 -20 C 704 -24 658 -12 633 16 C 607 44 594 76 592 111 L 590 111 C 553 71 509 38 458 13 C 406 -12 354 -25 301 -25 C 220 -25 154 2 104 57 C 54 112 29 172 29 238 C 29 337 79 416 179 475 C 279 533 440 561 664 557 Z M 594 199 L 647 467 C 477 465 353 444 277 405 C 200 366 162 315 162 252 C 162 206 177 166 209 134 C 241 102 284 86 340 86 C 390 86 438 97 482 120 C 526 142 563 169 594 199 Z M 823 1272 C 823 1208 798 1155 750 1115 C 701 1075 642 1055 573 1055 C 507 1055 451 1073 405 1109 C 359 1145 336 1194 336 1255 C 336 1319 360 1372 409 1414 C 457 1456 517 1477 587 1477 C 653 1477 709 1458 755 1420 C 800 1382 823 1333 823 1272 Z M 733 1270 C 733 1308 718 1340 690 1365 C 662 1390 627 1403 585 1403 C 540 1403 503 1389 473 1363 C 443 1336 428 1302 428 1262 C 428 1222 442 1190 470 1165 C 498 1140 533 1128 575 1128 C 619 1128 656 1141 687 1168 C 717 1195 733 1229 733 1270 Z" unicode="å" />
<glyph horiz-adv-x="1526" d="M 782 791 C 825 842 876 884 936 916 C 996 948 1062 965 1135 965 C 1230 965 1308 937 1370 881 C 1431 825 1462 752 1462 664 C 1462 633 1458 600 1450 566 C 1442 532 1432 500 1419 471 L 782 467 C 781 459 780 451 780 444 C 780 436 780 429 780 422 C 780 318 808 237 865 179 C 921 121 996 92 1090 92 C 1129 92 1168 97 1208 108 C 1247 118 1283 131 1315 145 L 1331 31 C 1298 13 1258 0 1212 -11 C 1165 -21 1121 -27 1079 -27 C 992 -27 916 -6 850 33 C 784 73 734 129 700 201 C 639 120 575 62 508 26 C 440 -9 373 -27 307 -27 C 223 -27 156 0 105 54 C 54 108 29 167 29 231 C 29 332 79 412 179 472 C 279 532 441 558 664 551 L 674 602 C 688 678 677 738 642 782 C 607 826 547 848 463 848 C 416 848 367 839 315 823 C 263 806 218 786 178 764 L 162 879 C 201 901 249 920 307 938 C 365 956 423 965 481 965 C 558 965 623 950 676 921 C 728 892 764 849 782 791 Z M 653 461 C 475 459 348 439 274 400 C 199 361 162 310 162 246 C 162 198 178 160 210 131 C 242 102 286 88 342 88 C 390 88 442 102 500 132 C 558 161 614 209 670 276 C 661 304 655 333 653 364 C 651 394 651 427 653 461 Z M 801 565 C 828 565 921 565 1079 566 C 1237 566 1317 567 1317 567 C 1322 580 1326 594 1328 609 C 1330 624 1331 639 1331 653 C 1331 712 1312 760 1274 796 C 1236 832 1184 850 1118 850 C 1042 850 975 822 917 768 C 859 713 821 645 801 565 Z" unicode="æ" />
<glyph horiz-adv-x="918" d="M 408 -16 C 312 3 233 50 172 125 C 110 199 80 295 80 412 C 80 551 126 678 220 793 C 313 907 436 965 588 965 C 652 965 710 955 764 937 C 817 919 865 894 909 864 L 874 748 C 830 777 784 801 735 820 C 685 838 634 848 582 848 C 472 848 383 802 315 712 C 247 621 213 524 213 422 C 213 318 241 237 297 179 C 353 121 427 92 520 92 C 560 92 599 97 639 108 C 678 118 713 131 745 145 L 762 31 C 729 13 689 0 643 -11 C 596 -21 552 -27 510 -27 L 506 -27 L 373 -135 C 439 -139 492 -155 533 -185 C 573 -215 594 -254 594 -303 C 594 -362 562 -413 500 -456 C 437 -499 344 -521 221 -522 L 225 -434 C 311 -437 376 -427 420 -405 C 464 -382 487 -351 487 -311 C 487 -273 465 -246 421 -230 C 377 -214 315 -209 236 -217 L 236 -156 L 408 -16 Z" unicode="ç" />
<glyph horiz-adv-x="956" d="M 215 467 C 215 459 214 451 214 444 C 213 436 213 429 213 422 C 213 318 241 237 298 179 C 354 121 429 92 522 92 C 562 92 602 97 642 108 C 682 118 717 131 748 145 L 766 31 C 733 13 693 0 646 -11 C 598 -21 554 -27 512 -27 C 390 -27 287 12 205 92 C 123 171 82 278 82 412 C 82 551 126 678 216 793 C 306 907 423 965 569 965 C 665 965 743 937 804 881 C 864 825 895 752 895 664 C 895 633 891 600 884 566 C 877 532 867 500 854 471 L 215 467 Z M 233 565 C 261 565 354 565 513 566 C 672 566 752 567 752 567 C 756 580 759 594 762 609 C 764 624 766 639 766 653 C 766 712 746 760 708 796 C 670 832 618 850 553 850 C 475 850 408 822 351 768 C 294 713 255 645 233 565 Z M 645 1061 L 550 1061 L 311 1427 L 475 1427 L 645 1061 Z" unicode="è" />
<glyph horiz-adv-x="956" d="M 215 467 C 215 459 214 451 214 444 C 213 436 213 429 213 422 C 213 318 241 237 298 179 C 354 121 429 92 522 92 C 562 92 602 97 642 108 C 682 118 717 131 748 145 L 766 31 C 733 13 693 0 646 -11 C 598 -21 554 -27 512 -27 C 390 -27 287 12 205 92 C 123 171 82 278 82 412 C 82 551 126 678 216 793 C 306 907 423 965 569 965 C 665 965 743 937 804 881 C 864 825 895 752 895 664 C 895 633 891 600 884 566 C 877 532 867 500 854 471 L 215 467 Z M 233 565 C 261 565 354 565 513 566 C 672 566 752 567 752 567 C 756 580 759 594 762 609 C 764 624 766 639 766 653 C 766 712 746 760 708 796 C 670 832 618 850 553 850 C 475 850 408 822 351 768 C 294 713 255 645 233 565 Z M 968 1427 L 585 1061 L 485 1061 L 800 1427 L 968 1427 Z" unicode="é" />
<glyph horiz-adv-x="956" d="M 215 467 C 215 459 214 451 214 444 C 213 436 213 429 213 422 C 213 318 241 237 298 179 C 354 121 429 92 522 92 C 562 92 602 97 642 108 C 682 118 717 131 748 145 L 766 31 C 733 13 693 0 646 -11 C 598 -21 554 -27 512 -27 C 390 -27 287 12 205 92 C 123 171 82 278 82 412 C 82 551 126 678 216 793 C 306 907 423 965 569 965 C 665 965 743 937 804 881 C 864 825 895 752 895 664 C 895 633 891 600 884 566 C 877 532 867 500 854 471 L 215 467 Z M 233 565 C 261 565 354 565 513 566 C 672 566 752 567 752 567 C 756 580 759 594 762 609 C 764 624 766 639 766 653 C 766 712 746 760 708 796 C 670 832 618 850 553 850 C 475 850 408 822 351 768 C 294 713 255 645 233 565 Z M 880 1061 L 774 1061 L 637 1337 L 633 1337 L 391 1061 L 272 1061 L 577 1434 L 721 1434 L 880 1061 Z" unicode="ê" />
<glyph horiz-adv-x="956" d="M 215 467 C 215 459 214 451 214 444 C 213 436 213 429 213 422 C 213 318 241 237 298 179 C 354 121 429 92 522 92 C 562 92 602 97 642 108 C 682 118 717 131 748 145 L 766 31 C 733 13 693 0 646 -11 C 598 -21 554 -27 512 -27 C 390 -27 287 12 205 92 C 123 171 82 278 82 412 C 82 551 126 678 216 793 C 306 907 423 965 569 965 C 665 965 743 937 804 881 C 864 825 895 752 895 664 C 895 633 891 600 884 566 C 877 532 867 500 854 471 L 215 467 Z M 233 565 C 261 565 354 565 513 566 C 672 566 752 567 752 567 C 756 580 759 594 762 609 C 764 624 766 639 766 653 C 766 712 746 760 708 796 C 670 832 618 850 553 850 C 475 850 408 822 351 768 C 294 713 255 645 233 565 Z M 522 1214 C 522 1186 513 1162 495 1142 C 477 1122 453 1112 423 1112 C 395 1112 372 1122 354 1142 C 336 1162 327 1186 327 1214 C 327 1240 336 1264 354 1284 C 372 1304 395 1315 423 1315 C 453 1315 477 1304 495 1284 C 513 1264 522 1240 522 1214 Z M 917 1214 C 917 1186 908 1162 890 1142 C 872 1122 849 1112 821 1112 C 791 1112 766 1122 748 1142 C 729 1162 720 1186 720 1214 C 720 1240 729 1264 748 1284 C 766 1304 791 1315 821 1315 C 849 1315 872 1304 890 1284 C 908 1264 917 1240 917 1214 Z" unicode="ë" />
<glyph horiz-adv-x="428" d="M 190 0 L 63 0 L 244 928 L 375 954 L 190 0 Z M 385 1061 L 290 1061 L 51 1427 L 215 1427 L 385 1061 Z" unicode="ì" />
<glyph horiz-adv-x="428" d="M 190 0 L 63 0 L 244 928 L 375 954 L 190 0 Z M 749 1427 L 366 1061 L 266 1061 L 581 1427 L 749 1427 Z" unicode="í" />
<glyph horiz-adv-x="428" d="M 190 0 L 63 0 L 244 928 L 375 954 L 190 0 Z M 638 1061 L 532 1061 L 395 1337 L 391 1337 L 149 1061 L 30 1061 L 335 1434 L 479 1434 L 638 1061 Z" unicode="î" />
<glyph horiz-adv-x="428" d="M 190 0 L 63 0 L 244 928 L 375 954 L 190 0 Z M 262 1214 C 262 1186 253 1162 235 1142 C 217 1122 193 1112 163 1112 C 135 1112 112 1122 94 1142 C 76 1162 67 1186 67 1214 C 67 1240 76 1264 94 1284 C 112 1304 135 1315 163 1315 C 193 1315 217 1304 235 1284 C 253 1264 262 1240 262 1214 Z M 657 1214 C 657 1186 648 1162 630 1142 C 612 1122 589 1112 561 1112 C 531 1112 506 1122 488 1142 C 469 1162 460 1186 460 1214 C 460 1240 469 1264 488 1284 C 506 1304 531 1315 561 1315 C 589 1315 612 1304 630 1284 C 648 1264 657 1240 657 1214 Z" unicode="ï" />
<glyph horiz-adv-x="1069" d="M 1004 567 C 1004 416 957 280 865 160 C 773 40 648 -20 492 -20 C 368 -20 268 17 191 91 C 114 165 76 261 76 379 C 76 518 122 637 216 736 C 309 835 419 885 547 885 C 613 885 671 871 723 845 C 775 819 818 786 854 748 L 858 748 C 846 799 821 861 781 935 C 741 1008 696 1081 645 1153 C 645 1154 604 1144 523 1122 C 441 1100 401 1090 401 1090 L 389 1184 L 584 1235 C 560 1266 536 1296 510 1325 C 484 1353 458 1380 434 1405 L 584 1427 C 606 1405 628 1380 651 1354 C 673 1328 696 1300 719 1272 L 940 1329 L 954 1235 L 778 1190 C 840 1098 892 998 936 890 C 980 782 1002 675 1004 567 Z M 870 551 C 870 567 869 582 868 598 C 867 614 866 629 864 643 C 834 679 790 710 732 735 C 673 759 614 772 555 772 C 457 772 375 734 310 658 C 245 582 213 493 213 389 C 213 297 239 225 292 171 C 345 117 416 90 504 90 C 619 90 709 138 773 234 C 837 330 870 435 870 551 Z" unicode="ð" />
<glyph horiz-adv-x="1034" d="M 803 0 L 676 0 L 786 569 C 790 588 794 608 798 628 C 801 648 803 666 803 682 C 803 732 787 772 755 802 C 723 831 677 846 618 846 C 570 846 520 832 468 806 C 415 780 367 747 324 709 L 184 0 L 57 0 L 240 938 L 373 965 L 346 823 C 394 863 445 897 500 924 C 554 951 610 965 666 965 C 746 965 810 941 860 894 C 909 847 934 787 934 713 C 934 697 932 677 929 653 C 925 628 922 606 918 586 L 803 0 Z M 1017 1303 C 995 1233 968 1177 935 1134 C 901 1090 858 1069 804 1069 C 736 1069 680 1092 634 1140 C 588 1188 545 1212 505 1212 C 481 1212 460 1200 444 1176 C 428 1152 412 1121 397 1083 L 305 1083 C 325 1152 351 1208 385 1252 C 418 1295 462 1317 518 1317 C 584 1317 641 1293 687 1245 C 733 1197 777 1174 817 1174 C 840 1174 860 1185 877 1209 C 893 1232 909 1263 923 1303 L 1017 1303 Z" unicode="ñ" />
<glyph horiz-adv-x="1085" d="M 1008 530 C 1008 385 960 256 864 144 C 768 31 642 -25 487 -25 C 363 -25 265 16 191 98 C 117 180 80 283 80 406 C 80 549 127 678 223 792 C 318 906 443 963 598 963 C 721 963 820 921 895 837 C 970 753 1008 651 1008 530 Z M 879 522 C 879 616 853 694 802 757 C 751 820 679 852 586 852 C 467 852 374 804 307 710 C 240 616 207 516 207 412 C 207 318 233 240 285 179 C 337 118 409 88 502 88 C 619 88 711 134 778 226 C 845 318 879 417 879 522 Z M 678 1061 L 583 1061 L 344 1427 L 508 1427 L 678 1061 Z" unicode="ò" />
<glyph horiz-adv-x="1085" d="M 1008 530 C 1008 385 960 256 864 144 C 768 31 642 -25 487 -25 C 363 -25 265 16 191 98 C 117 180 80 283 80 406 C 80 549 127 678 223 792 C 318 906 443 963 598 963 C 721 963 820 921 895 837 C 970 753 1008 651 1008 530 Z M 879 522 C 879 616 853 694 802 757 C 751 820 679 852 586 852 C 467 852 374 804 307 710 C 240 616 207 516 207 412 C 207 318 233 240 285 179 C 337 118 409 88 502 88 C 619 88 711 134 778 226 C 845 318 879 417 879 522 Z M 1038 1427 L 655 1061 L 555 1061 L 870 1427 L 1038 1427 Z" unicode="ó" />
<glyph horiz-adv-x="1085" d="M 1008 530 C 1008 385 960 256 864 144 C 768 31 642 -25 487 -25 C 363 -25 265 16 191 98 C 117 180 80 283 80 406 C 80 549 127 678 223 792 C 318 906 443 963 598 963 C 721 963 820 921 895 837 C 970 753 1008 651 1008 530 Z M 879 522 C 879 616 853 694 802 757 C 751 820 679 852 586 852 C 467 852 374 804 307 710 C 240 616 207 516 207 412 C 207 318 233 240 285 179 C 337 118 409 88 502 88 C 619 88 711 134 778 226 C 845 318 879 417 879 522 Z M 966 1061 L 860 1061 L 723 1337 L 719 1337 L 477 1061 L 358 1061 L 663 1434 L 807 1434 L 966 1061 Z" unicode="ô" />
<glyph horiz-adv-x="1085" d="M 1008 530 C 1008 385 960 256 864 144 C 768 31 642 -25 487 -25 C 363 -25 265 16 191 98 C 117 180 80 283 80 406 C 80 549 127 678 223 792 C 318 906 443 963 598 963 C 721 963 820 921 895 837 C 970 753 1008 651 1008 530 Z M 879 522 C 879 616 853 694 802 757 C 751 820 679 852 586 852 C 467 852 374 804 307 710 C 240 616 207 516 207 412 C 207 318 233 240 285 179 C 337 118 409 88 502 88 C 619 88 711 134 778 226 C 845 318 879 417 879 522 Z M 1044 1303 C 1022 1233 995 1177 962 1134 C 928 1090 885 1069 831 1069 C 763 1069 707 1092 661 1140 C 615 1188 572 1212 532 1212 C 508 1212 487 1200 471 1176 C 455 1152 439 1121 424 1083 L 332 1083 C 352 1152 378 1208 412 1252 C 445 1295 489 1317 545 1317 C 611 1317 668 1293 714 1245 C 760 1197 804 1174 844 1174 C 867 1174 887 1185 904 1209 C 920 1232 936 1263 950 1303 L 1044 1303 Z" unicode="õ" />
<glyph horiz-adv-x="1085" d="M 1008 530 C 1008 385 960 256 864 144 C 768 31 642 -25 487 -25 C 363 -25 265 16 191 98 C 117 180 80 283 80 406 C 80 549 127 678 223 792 C 318 906 443 963 598 963 C 721 963 820 921 895 837 C 970 753 1008 651 1008 530 Z M 879 522 C 879 616 853 694 802 757 C 751 820 679 852 586 852 C 467 852 374 804 307 710 C 240 616 207 516 207 412 C 207 318 233 240 285 179 C 337 118 409 88 502 88 C 619 88 711 134 778 226 C 845 318 879 417 879 522 Z M 588 1214 C 588 1186 579 1162 561 1142 C 543 1122 519 1112 489 1112 C 461 1112 438 1122 420 1142 C 402 1162 393 1186 393 1214 C 393 1240 402 1264 420 1284 C 438 1304 461 1315 489 1315 C 519 1315 543 1304 561 1284 C 579 1264 588 1240 588 1214 Z M 983 1214 C 983 1186 974 1162 956 1142 C 938 1122 915 1112 887 1112 C 857 1112 832 1122 814 1142 C 795 1162 786 1186 786 1214 C 786 1240 795 1264 814 1284 C 832 1304 857 1315 887 1315 C 915 1315 938 1304 956 1284 C 974 1264 983 1240 983 1214 Z" unicode="ö" />
<glyph horiz-adv-x="1024" d="M 621 193 C 621 165 611 140 591 118 C 571 96 546 86 516 86 C 485 86 460 96 440 118 C 420 140 410 165 410 193 C 410 220 420 244 440 265 C 460 286 485 297 516 297 C 546 297 571 286 591 265 C 611 244 621 220 621 193 Z M 621 766 C 621 738 610 714 590 692 C 570 670 544 659 514 659 C 483 659 458 670 439 692 C 419 714 410 738 410 766 C 410 793 419 817 439 839 C 458 861 483 872 514 872 C 544 872 570 861 590 839 C 610 817 621 793 621 766 Z M 928 426 L 98 426 L 104 537 L 922 537 L 928 426 Z" unicode="÷" />
<glyph horiz-adv-x="1085" d="M 1018 532 C 1018 387 969 258 873 145 C 776 31 650 -25 496 -25 C 450 -25 408 -19 370 -8 C 332 2 296 18 264 39 L 125 -137 L 8 -137 L 195 98 C 158 136 130 181 110 233 C 90 285 80 342 80 403 C 80 547 128 676 224 791 C 320 905 445 963 600 963 C 644 963 685 957 724 946 C 762 935 797 919 829 899 L 971 1077 L 1087 1077 C 1087 1077 1061 1044 1011 979 C 960 914 923 868 901 840 C 937 802 966 756 987 703 C 1007 650 1018 593 1018 532 Z M 756 805 C 732 819 707 830 679 839 C 651 847 620 852 588 852 C 469 852 376 804 308 709 C 240 614 207 514 207 410 C 207 368 212 328 224 292 C 236 256 252 224 274 197 L 756 805 Z M 889 524 C 889 566 883 606 871 644 C 859 681 842 713 821 741 L 340 135 C 363 119 389 108 418 100 C 446 92 477 88 510 88 C 627 88 719 134 787 227 C 855 320 889 419 889 524 Z" unicode="ø" />
<glyph horiz-adv-x="1034" d="M 231 938 L 358 938 L 248 369 C 244 349 240 330 236 310 C 232 290 231 272 231 256 C 231 205 247 165 279 136 C 311 106 356 92 416 92 C 464 92 515 104 567 130 C 619 156 667 188 711 227 L 850 938 L 977 938 L 795 0 L 662 -27 L 688 115 C 640 74 588 40 534 13 C 480 -13 425 -27 369 -27 C 288 -27 223 -3 174 43 C 124 90 100 151 100 225 C 100 240 101 260 105 285 C 109 309 113 332 117 352 L 231 938 Z M 674 1061 L 579 1061 L 340 1427 L 504 1427 L 674 1061 Z" unicode="ù" />
<glyph horiz-adv-x="1034" d="M 231 938 L 358 938 L 248 369 C 244 349 240 330 236 310 C 232 290 231 272 231 256 C 231 205 247 165 279 136 C 311 106 356 92 416 92 C 464 92 515 104 567 130 C 619 156 667 188 711 227 L 850 938 L 977 938 L 795 0 L 662 -27 L 688 115 C 640 74 588 40 534 13 C 480 -13 425 -27 369 -27 C 288 -27 223 -3 174 43 C 124 90 100 151 100 225 C 100 240 101 260 105 285 C 109 309 113 332 117 352 L 231 938 Z M 1042 1427 L 659 1061 L 559 1061 L 874 1427 L 1042 1427 Z" unicode="ú" />
<glyph horiz-adv-x="1034" d="M 231 938 L 358 938 L 248 369 C 244 349 240 330 236 310 C 232 290 231 272 231 256 C 231 205 247 165 279 136 C 311 106 356 92 416 92 C 464 92 515 104 567 130 C 619 156 667 188 711 227 L 850 938 L 977 938 L 795 0 L 662 -27 L 688 115 C 640 74 588 40 534 13 C 480 -13 425 -27 369 -27 C 288 -27 223 -3 174 43 C 124 90 100 151 100 225 C 100 240 101 260 105 285 C 109 309 113 332 117 352 L 231 938 Z M 921 1061 L 815 1061 L 678 1337 L 674 1337 L 432 1061 L 313 1061 L 618 1434 L 762 1434 L 921 1061 Z" unicode="û" />
<glyph horiz-adv-x="1034" d="M 231 938 L 358 938 L 248 369 C 244 349 240 330 236 310 C 232 290 231 272 231 256 C 231 205 247 165 279 136 C 311 106 356 92 416 92 C 464 92 515 104 567 130 C 619 156 667 188 711 227 L 850 938 L 977 938 L 795 0 L 662 -27 L 688 115 C 640 74 588 40 534 13 C 480 -13 425 -27 369 -27 C 288 -27 223 -3 174 43 C 124 90 100 151 100 225 C 100 240 101 260 105 285 C 109 309 113 332 117 352 L 231 938 Z M 543 1214 C 543 1186 534 1162 516 1142 C 498 1122 474 1112 444 1112 C 416 1112 393 1122 375 1142 C 357 1162 348 1186 348 1214 C 348 1240 357 1264 375 1284 C 393 1304 416 1315 444 1315 C 474 1315 498 1304 516 1284 C 534 1264 543 1240 543 1214 Z M 938 1214 C 938 1186 929 1162 911 1142 C 893 1122 870 1112 842 1112 C 812 1112 787 1122 769 1142 C 750 1162 741 1186 741 1214 C 741 1240 750 1264 769 1284 C 787 1304 812 1315 842 1315 C 870 1315 893 1304 911 1284 C 929 1264 938 1240 938 1214 Z" unicode="ü" />
<glyph horiz-adv-x="866" d="M -150 -328 C -133 -340 -116 -350 -100 -358 C -84 -366 -64 -371 -41 -371 C -15 -371 11 -359 41 -336 C 71 -313 108 -264 154 -188 L 276 18 L 98 938 L 229 938 L 369 162 L 811 938 L 952 938 L 383 -23 L 258 -238 C 198 -338 145 -406 99 -441 C 52 -476 3 -494 -47 -494 C -81 -494 -113 -487 -142 -475 C -170 -462 -194 -448 -213 -434 L -150 -328 Z M 941 1427 L 558 1061 L 458 1061 L 773 1427 L 941 1427 Z" unicode="ý" />
<glyph horiz-adv-x="1059" d="M 352 858 C 386 883 424 906 466 927 C 507 947 557 958 616 958 C 720 958 807 919 877 842 C 947 765 983 668 983 551 C 983 391 932 254 832 142 C 731 29 607 -27 461 -27 C 411 -27 363 -18 317 0 C 271 17 230 39 195 66 L 92 -477 L -35 -477 L 326 1380 L 459 1407 L 352 858 Z M 330 750 L 221 190 C 249 160 286 134 332 114 C 377 94 424 84 473 84 C 583 84 673 130 745 222 C 816 314 852 418 852 532 C 852 627 826 703 775 761 C 724 819 661 848 586 848 C 536 848 489 838 446 818 C 403 798 364 775 330 750 Z" unicode="þ" />
<glyph horiz-adv-x="866" d="M -150 -328 C -133 -340 -116 -350 -100 -358 C -84 -366 -64 -371 -41 -371 C -15 -371 11 -359 41 -336 C 71 -313 108 -264 154 -188 L 276 18 L 98 938 L 229 938 L 369 162 L 811 938 L 952 938 L 383 -23 L 258 -238 C 198 -338 145 -406 99 -441 C 52 -476 3 -494 -47 -494 C -81 -494 -113 -487 -142 -475 C -170 -462 -194 -448 -213 -434 L -150 -328 Z M 471 1214 C 471 1186 462 1162 444 1142 C 426 1122 402 1112 372 1112 C 344 1112 321 1122 303 1142 C 285 1162 276 1186 276 1214 C 276 1240 285 1264 303 1284 C 321 1304 344 1315 372 1315 C 402 1315 426 1304 444 1284 C 462 1264 471 1240 471 1214 Z M 866 1214 C 866 1186 857 1162 839 1142 C 821 1122 798 1112 770 1112 C 740 1112 715 1122 697 1142 C 678 1162 669 1186 669 1214 C 669 1240 678 1264 697 1284 C 715 1304 740 1315 770 1315 C 798 1315 821 1304 839 1284 C 857 1264 866 1240 866 1214 Z" unicode="ÿ" />
<glyph horiz-adv-x="1186" d="M 836 1278 L 1065 0 L 934 0 L 872 356 L 279 356 L 74 0 L -70 0 L 684 1278 L 836 1278 Z M 852 475 L 737 1145 L 348 475 L 852 475 Z M 1046 1440 L 521 1440 L 546 1532 L 1054 1532 L 1046 1440 Z" unicode="Ā" />
<glyph horiz-adv-x="905" d="M 664 557 L 674 602 C 688 678 676 738 639 782 C 602 826 541 848 457 848 C 409 848 360 839 310 823 C 259 806 214 786 174 764 L 158 879 C 197 901 245 920 301 937 C 357 954 415 963 473 963 C 589 963 678 932 741 870 C 804 808 823 713 797 586 L 717 197 C 709 160 710 132 718 112 C 726 92 751 82 793 84 L 770 -20 C 704 -24 658 -12 633 16 C 607 44 594 76 592 111 L 590 111 C 553 71 509 38 458 13 C 406 -12 354 -25 301 -25 C 220 -25 154 2 104 57 C 54 112 29 172 29 238 C 29 337 79 416 179 475 C 279 533 440 561 664 557 Z M 594 199 L 647 467 C 477 465 353 444 277 405 C 200 366 162 315 162 252 C 162 206 177 166 209 134 C 241 102 284 86 340 86 C 390 86 438 97 482 120 C 526 142 563 169 594 199 Z M 792 1098 L 267 1098 L 292 1190 L 800 1190 L 792 1098 Z" unicode="ā" />
<glyph horiz-adv-x="1186" d="M 836 1278 L 1065 0 L 934 0 L 872 356 L 279 356 L 74 0 L -70 0 L 684 1278 L 836 1278 Z M 852 475 L 737 1145 L 348 475 L 852 475 Z M 1136 1774 C 1102 1672 1056 1585 997 1511 C 937 1437 862 1401 772 1401 C 676 1401 611 1438 577 1514 C 542 1589 526 1676 528 1774 L 622 1774 C 626 1687 641 1620 667 1573 C 693 1526 732 1503 784 1503 C 834 1503 879 1525 920 1570 C 961 1615 1000 1683 1036 1774 L 1136 1774 Z" unicode="Ă" />
<glyph horiz-adv-x="905" d="M 664 557 L 674 602 C 688 678 676 738 639 782 C 602 826 541 848 457 848 C 409 848 360 839 310 823 C 259 806 214 786 174 764 L 158 879 C 197 901 245 920 301 937 C 357 954 415 963 473 963 C 589 963 678 932 741 870 C 804 808 823 713 797 586 L 717 197 C 709 160 710 132 718 112 C 726 92 751 82 793 84 L 770 -20 C 704 -24 658 -12 633 16 C 607 44 594 76 592 111 L 590 111 C 553 71 509 38 458 13 C 406 -12 354 -25 301 -25 C 220 -25 154 2 104 57 C 54 112 29 172 29 238 C 29 337 79 416 179 475 C 279 533 440 561 664 557 Z M 594 199 L 647 467 C 477 465 353 444 277 405 C 200 366 162 315 162 252 C 162 206 177 166 209 134 C 241 102 284 86 340 86 C 390 86 438 97 482 120 C 526 142 563 169 594 199 Z M 884 1432 C 850 1330 804 1243 745 1169 C 685 1095 610 1059 520 1059 C 424 1059 359 1096 325 1172 C 290 1247 274 1334 276 1432 L 370 1432 C 374 1345 389 1278 415 1231 C 441 1184 480 1161 532 1161 C 582 1161 627 1183 668 1228 C 709 1273 748 1341 784 1432 L 884 1432 Z" unicode="ă" />
<glyph horiz-adv-x="1186" d="M 836 1280 L 1065 0 C 1002 -18 949 -48 906 -92 C 863 -136 837 -177 829 -215 C 823 -246 827 -272 840 -294 C 853 -315 875 -326 905 -328 C 923 -329 942 -327 962 -322 C 982 -317 1000 -310 1016 -301 L 1028 -399 C 1008 -410 984 -419 954 -427 C 924 -434 892 -437 858 -436 C 802 -430 759 -409 729 -373 C 699 -337 689 -291 700 -236 C 711 -180 739 -130 784 -87 C 829 -44 878 -10 932 16 L 872 356 L 279 356 L 74 0 L -70 0 L 684 1280 L 836 1280 Z M 852 475 L 737 1147 L 348 475 L 852 475 Z" unicode="Ą" />
<glyph horiz-adv-x="905" d="M 666 557 L 674 604 C 688 679 677 738 640 782 C 602 826 541 848 457 848 C 410 848 361 839 311 822 C 261 805 216 786 176 764 L 160 879 C 199 900 246 919 302 937 C 357 954 414 963 473 963 C 589 963 678 931 741 869 C 804 807 823 712 797 586 L 717 197 C 710 159 710 131 718 111 C 725 91 750 82 793 84 L 770 -20 C 704 -30 648 -53 601 -91 C 553 -128 525 -169 516 -215 C 510 -246 514 -272 527 -294 C 540 -315 562 -326 592 -328 C 609 -329 628 -327 649 -322 C 669 -317 687 -310 702 -301 L 715 -399 C 694 -410 669 -419 639 -427 C 609 -434 577 -437 543 -436 C 488 -430 445 -409 414 -373 C 382 -337 373 -291 385 -236 C 397 -176 428 -126 478 -85 C 528 -43 582 -10 641 14 C 624 21 612 34 605 52 C 597 70 593 91 592 113 L 590 113 C 553 73 509 40 458 14 C 406 -12 354 -25 301 -25 C 220 -25 155 2 105 57 C 55 111 31 172 31 238 C 31 338 80 418 180 476 C 280 534 442 561 666 557 Z M 594 199 L 649 467 C 478 465 354 445 277 406 C 200 367 162 316 162 252 C 162 205 178 166 210 134 C 242 102 285 86 340 86 C 390 86 438 97 482 120 C 526 142 564 169 594 199 Z" unicode="ą" />
<glyph horiz-adv-x="1196" d="M 1122 1769 L 739 1403 L 639 1403 L 954 1769 L 1122 1769 Z M 1229 1225 L 1204 1100 C 1146 1126 1083 1148 1017 1164 C 950 1180 886 1188 825 1188 C 643 1188 501 1124 397 996 C 293 868 242 720 242 553 C 242 407 284 293 369 213 C 453 132 564 92 702 92 C 756 92 811 99 867 113 C 923 127 976 147 1024 172 L 1051 55 C 999 29 940 9 874 -5 C 808 -19 747 -27 692 -27 C 520 -27 379 24 271 127 C 163 230 109 368 109 541 C 109 746 174 925 305 1077 C 436 1229 612 1305 834 1305 C 898 1305 963 1298 1031 1284 C 1099 1270 1165 1250 1229 1225 Z" unicode="Ć" />
<glyph horiz-adv-x="918" d="M 931 1427 L 548 1061 L 448 1061 L 763 1427 L 931 1427 Z M 762 31 C 729 13 689 0 643 -11 C 596 -21 552 -27 510 -27 C 388 -27 285 12 203 90 C 121 168 80 276 80 412 C 80 551 126 678 220 793 C 313 907 436 965 588 965 C 652 965 710 955 764 937 C 817 919 865 894 909 864 L 874 748 C 830 777 784 801 735 820 C 685 838 634 848 582 848 C 472 848 383 802 315 712 C 247 621 213 524 213 422 C 213 318 241 237 297 179 C 353 121 427 92 520 92 C 560 92 599 97 639 108 C 678 118 713 131 745 145 L 762 31 Z" unicode="ć" />
<glyph horiz-adv-x="1196" d="M 1121 1403 L 1015 1403 L 878 1679 L 874 1679 L 632 1403 L 513 1403 L 818 1776 L 962 1776 L 1121 1403 Z M 1229 1225 L 1204 1100 C 1146 1126 1083 1148 1017 1164 C 950 1180 886 1188 825 1188 C 643 1188 501 1124 397 996 C 293 868 242 720 242 553 C 242 407 284 293 369 213 C 453 132 564 92 702 92 C 756 92 811 99 867 113 C 923 127 976 147 1024 172 L 1051 55 C 999 29 940 9 874 -5 C 808 -19 747 -27 692 -27 C 520 -27 379 24 271 127 C 163 230 109 368 109 541 C 109 746 174 925 305 1077 C 436 1229 612 1305 834 1305 C 898 1305 963 1298 1031 1284 C 1099 1270 1165 1250 1229 1225 Z" unicode="Ĉ" />
<glyph horiz-adv-x="918" d="M 890 1061 L 784 1061 L 647 1337 L 643 1337 L 401 1061 L 282 1061 L 587 1434 L 731 1434 L 890 1061 Z M 762 31 C 729 13 689 0 643 -11 C 596 -21 552 -27 510 -27 C 388 -27 285 12 203 90 C 121 168 80 276 80 412 C 80 551 126 678 220 793 C 313 907 436 965 588 965 C 652 965 710 955 764 937 C 817 919 865 894 909 864 L 874 748 C 830 777 784 801 735 820 C 685 838 634 848 582 848 C 472 848 383 802 315 712 C 247 621 213 524 213 422 C 213 318 241 237 297 179 C 353 121 427 92 520 92 C 560 92 599 97 639 108 C 678 118 713 131 745 145 L 762 31 Z" unicode="ĉ" />
<glyph horiz-adv-x="1196" d="M 1229 1225 L 1204 1100 C 1146 1126 1083 1148 1017 1164 C 950 1180 886 1188 825 1188 C 643 1188 501 1124 397 996 C 293 868 242 720 242 553 C 242 407 284 293 369 213 C 453 132 564 92 702 92 C 756 92 811 99 867 113 C 923 127 976 147 1024 172 L 1051 55 C 999 29 940 9 874 -5 C 808 -19 747 -27 692 -27 C 520 -27 379 24 271 127 C 163 230 109 368 109 541 C 109 746 174 925 305 1077 C 436 1229 612 1305 834 1305 C 898 1305 963 1298 1031 1284 C 1099 1270 1165 1250 1229 1225 Z M 941 1554 C 941 1528 932 1504 914 1484 C 896 1464 873 1454 845 1454 C 816 1454 793 1464 776 1484 C 759 1504 751 1528 751 1554 C 751 1580 759 1603 776 1623 C 793 1643 816 1653 845 1653 C 873 1653 896 1643 914 1623 C 932 1603 941 1580 941 1554 Z" unicode="Ċ" />
<glyph horiz-adv-x="918" d="M 762 31 C 729 13 689 0 643 -11 C 596 -21 552 -27 510 -27 C 388 -27 285 12 203 90 C 121 168 80 276 80 412 C 80 551 126 678 220 793 C 313 907 436 965 588 965 C 652 965 710 955 764 937 C 817 919 865 894 909 864 L 874 748 C 830 777 784 801 735 820 C 685 838 634 848 582 848 C 472 848 383 802 315 712 C 247 621 213 524 213 422 C 213 318 241 237 297 179 C 353 121 427 92 520 92 C 560 92 599 97 639 108 C 678 118 713 131 745 145 L 762 31 Z M 728 1212 C 728 1186 719 1162 701 1142 C 683 1122 660 1112 632 1112 C 603 1112 580 1122 563 1142 C 546 1162 538 1186 538 1212 C 538 1238 546 1261 563 1281 C 580 1301 603 1311 632 1311 C 660 1311 683 1301 701 1281 C 719 1261 728 1238 728 1212 Z" unicode="ċ" />
<glyph horiz-adv-x="1196" d="M 555 1765 L 661 1765 L 794 1487 L 799 1487 L 1042 1765 L 1161 1765 L 856 1393 L 715 1393 L 555 1765 Z M 1229 1225 L 1204 1100 C 1146 1126 1083 1148 1017 1164 C 950 1180 886 1188 825 1188 C 643 1188 501 1124 397 996 C 293 868 242 720 242 553 C 242 407 284 293 369 213 C 453 132 564 92 702 92 C 756 92 811 99 867 113 C 923 127 976 147 1024 172 L 1051 55 C 999 29 940 9 874 -5 C 808 -19 747 -27 692 -27 C 520 -27 379 24 271 127 C 163 230 109 368 109 541 C 109 746 174 925 305 1077 C 436 1229 612 1305 834 1305 C 898 1305 963 1298 1031 1284 C 1099 1270 1165 1250 1229 1225 Z" unicode="Č" />
<glyph horiz-adv-x="918" d="M 366 1423 L 472 1423 L 605 1145 L 610 1145 L 853 1423 L 972 1423 L 667 1051 L 526 1051 L 366 1423 Z M 762 31 C 729 13 689 0 643 -11 C 596 -21 552 -27 510 -27 C 388 -27 285 12 203 90 C 121 168 80 276 80 412 C 80 551 126 678 220 793 C 313 907 436 965 588 965 C 652 965 710 955 764 937 C 817 919 865 894 909 864 L 874 748 C 830 777 784 801 735 820 C 685 838 634 848 582 848 C 472 848 383 802 315 712 C 247 621 213 524 213 422 C 213 318 241 237 297 179 C 353 121 427 92 520 92 C 560 92 599 97 639 108 C 678 118 713 131 745 145 L 762 31 Z" unicode="č" />
<glyph horiz-adv-x="1282" d="M 434 1765 L 540 1765 L 673 1487 L 678 1487 L 921 1765 L 1040 1765 L 735 1393 L 594 1393 L 434 1765 Z M 1208 731 C 1208 533 1143 362 1015 217 C 886 72 692 0 432 0 L 74 0 L 322 1280 L 598 1280 C 767 1280 911 1232 1030 1138 C 1148 1043 1208 907 1208 731 Z M 1071 717 C 1071 860 1026 969 937 1045 C 848 1120 728 1158 578 1159 L 430 1159 L 229 121 L 457 121 C 627 121 772 172 892 274 C 1011 376 1071 524 1071 717 Z" unicode="Ď" />
<glyph horiz-adv-x="1440" d="M 1290 1333 C 1297 1358 1311 1379 1333 1396 C 1355 1412 1380 1421 1409 1421 C 1445 1421 1476 1406 1501 1377 C 1525 1347 1538 1313 1538 1275 C 1538 1196 1501 1125 1428 1061 C 1355 997 1283 947 1212 913 L 1167 970 C 1222 999 1274 1037 1323 1084 C 1372 1130 1397 1176 1397 1220 C 1397 1244 1385 1266 1362 1285 C 1339 1304 1315 1320 1290 1333 Z M 862 868 L 961 1380 L 1092 1407 L 819 0 L 692 0 L 707 76 C 672 49 634 25 592 4 C 550 -16 500 -27 442 -27 C 337 -27 250 11 180 89 C 110 167 76 265 76 383 C 76 543 126 678 227 790 C 327 902 451 958 598 958 C 646 958 694 949 740 933 C 786 916 827 894 862 868 Z M 838 741 C 809 771 772 797 726 818 C 680 839 634 850 586 850 C 476 850 385 803 314 711 C 242 619 207 515 207 401 C 207 305 232 229 283 171 C 334 113 397 84 473 84 C 523 84 569 94 612 115 C 655 135 694 160 729 188 L 838 741 Z" unicode="ď" />
<glyph horiz-adv-x="1305" d="M 211 588 L 68 588 L 68 702 L 231 702 C 232 702 251 798 288 991 C 325 1183 344 1280 344 1280 L 618 1280 C 788 1280 933 1233 1052 1140 C 1171 1047 1231 912 1231 735 C 1231 537 1166 365 1037 219 C 908 73 714 0 455 0 L 96 0 L 211 588 Z M 365 702 L 727 702 L 727 588 L 342 588 L 252 121 L 477 121 C 648 121 794 172 914 274 C 1034 376 1094 524 1094 717 C 1094 860 1049 969 959 1045 C 869 1120 750 1158 600 1159 L 453 1159 L 365 702 Z" unicode="Đ" />
<glyph horiz-adv-x="1057" d="M 862 868 L 903 1085 L 670 1085 L 686 1180 L 922 1180 L 961 1380 L 1092 1407 L 1047 1180 L 1192 1180 L 1192 1085 L 1028 1085 L 819 0 L 692 0 L 707 76 C 672 49 634 25 592 4 C 550 -16 500 -27 442 -27 C 337 -27 250 11 180 89 C 110 167 76 265 76 383 C 76 543 126 678 227 790 C 327 902 451 958 598 958 C 646 958 694 949 740 933 C 786 916 827 894 862 868 Z M 838 741 C 809 771 772 797 726 818 C 680 839 634 850 586 850 C 476 850 385 803 314 711 C 242 619 207 515 207 401 C 207 305 232 229 283 171 C 334 113 397 84 473 84 C 523 84 569 94 612 115 C 655 135 694 160 729 188 L 838 741 Z" unicode="đ" />
<glyph horiz-adv-x="1038" d="M 848 0 L 74 0 L 324 1280 L 1096 1280 L 1073 1159 L 430 1159 L 342 700 L 879 700 L 854 582 L 319 582 L 229 121 L 870 121 L 848 0 Z M 985 1440 L 460 1440 L 485 1532 L 993 1532 L 985 1440 Z" unicode="Ē" />
<glyph horiz-adv-x="956" d="M 215 467 C 215 459 214 451 214 444 C 213 436 213 429 213 422 C 213 318 241 237 298 179 C 354 121 429 92 522 92 C 562 92 602 97 642 108 C 682 118 717 131 748 145 L 766 31 C 733 13 693 0 646 -11 C 598 -21 554 -27 512 -27 C 390 -27 287 12 205 92 C 123 171 82 278 82 412 C 82 551 126 678 216 793 C 306 907 423 965 569 965 C 665 965 743 937 804 881 C 864 825 895 752 895 664 C 895 633 891 600 884 566 C 877 532 867 500 854 471 L 215 467 Z M 233 565 C 261 565 354 565 513 566 C 672 566 752 567 752 567 C 756 580 759 594 762 609 C 764 624 766 639 766 653 C 766 712 746 760 708 796 C 670 832 618 850 553 850 C 475 850 408 822 351 768 C 294 713 255 645 233 565 Z M 837 1098 L 312 1098 L 337 1190 L 845 1190 L 837 1098 Z" unicode="ē" />
<glyph horiz-adv-x="1038" d="M 848 0 L 74 0 L 324 1280 L 1096 1280 L 1073 1159 L 430 1159 L 342 700 L 879 700 L 854 582 L 319 582 L 229 121 L 870 121 L 848 0 Z M 1081 1774 C 1047 1672 1001 1585 942 1511 C 882 1437 807 1401 717 1401 C 621 1401 556 1438 522 1514 C 487 1589 471 1676 473 1774 L 567 1774 C 571 1687 586 1620 612 1573 C 638 1526 677 1503 729 1503 C 779 1503 824 1525 865 1570 C 906 1615 945 1683 981 1774 L 1081 1774 Z" unicode="Ĕ" />
<glyph horiz-adv-x="956" d="M 215 467 C 215 459 214 451 214 444 C 213 436 213 429 213 422 C 213 318 241 237 298 179 C 354 121 429 92 522 92 C 562 92 602 97 642 108 C 682 118 717 131 748 145 L 766 31 C 733 13 693 0 646 -11 C 598 -21 554 -27 512 -27 C 390 -27 287 12 205 92 C 123 171 82 278 82 412 C 82 551 126 678 216 793 C 306 907 423 965 569 965 C 665 965 743 937 804 881 C 864 825 895 752 895 664 C 895 633 891 600 884 566 C 877 532 867 500 854 471 L 215 467 Z M 233 565 C 261 565 354 565 513 566 C 672 566 752 567 752 567 C 756 580 759 594 762 609 C 764 624 766 639 766 653 C 766 712 746 760 708 796 C 670 832 618 850 553 850 C 475 850 408 822 351 768 C 294 713 255 645 233 565 Z M 929 1432 C 895 1330 849 1243 790 1169 C 730 1095 655 1059 565 1059 C 469 1059 404 1096 370 1172 C 335 1247 319 1334 321 1432 L 415 1432 C 419 1345 434 1278 460 1231 C 486 1184 525 1161 577 1161 C 627 1161 672 1183 713 1228 C 754 1273 793 1341 829 1432 L 929 1432 Z" unicode="ĕ" />
<glyph horiz-adv-x="1038" d="M 848 0 L 74 0 L 324 1280 L 1096 1280 L 1073 1159 L 430 1159 L 342 700 L 879 700 L 854 582 L 319 582 L 229 121 L 870 121 L 848 0 Z M 837 1554 C 837 1528 828 1504 810 1484 C 792 1464 769 1454 741 1454 C 712 1454 689 1464 672 1484 C 655 1504 647 1528 647 1554 C 647 1580 655 1603 672 1623 C 689 1643 712 1653 741 1653 C 769 1653 792 1643 810 1623 C 828 1603 837 1580 837 1554 Z" unicode="Ė" />
<glyph horiz-adv-x="956" d="M 215 467 C 215 459 214 451 214 444 C 213 436 213 429 213 422 C 213 318 241 237 298 179 C 354 121 429 92 522 92 C 562 92 602 97 642 108 C 682 118 717 131 748 145 L 766 31 C 733 13 693 0 646 -11 C 598 -21 554 -27 512 -27 C 390 -27 287 12 205 92 C 123 171 82 278 82 412 C 82 551 126 678 216 793 C 306 907 423 965 569 965 C 665 965 743 937 804 881 C 864 825 895 752 895 664 C 895 633 891 600 884 566 C 877 532 867 500 854 471 L 215 467 Z M 233 565 C 261 565 354 565 513 566 C 672 566 752 567 752 567 C 756 580 759 594 762 609 C 764 624 766 639 766 653 C 766 712 746 760 708 796 C 670 832 618 850 553 850 C 475 850 408 822 351 768 C 294 713 255 645 233 565 Z M 694 1212 C 694 1186 685 1162 667 1142 C 649 1122 626 1112 598 1112 C 569 1112 546 1122 529 1142 C 512 1162 504 1186 504 1212 C 504 1238 512 1261 529 1281 C 546 1301 569 1311 598 1311 C 626 1311 649 1301 667 1281 C 685 1261 694 1238 694 1212 Z" unicode="ė" />
<glyph horiz-adv-x="1038" d="M 848 0 L 768 0 C 718 -34 678 -69 649 -104 C 619 -139 601 -176 594 -215 C 588 -246 591 -272 605 -293 C 618 -314 640 -326 670 -328 C 687 -328 706 -326 726 -322 C 746 -318 764 -311 780 -301 L 793 -399 C 772 -410 747 -419 717 -427 C 687 -435 655 -438 621 -436 C 565 -431 522 -410 492 -374 C 461 -338 451 -292 463 -236 C 473 -184 497 -139 536 -100 C 574 -60 618 -27 666 0 L 76 0 L 324 1280 L 1096 1280 L 1073 1161 L 430 1161 L 342 700 L 879 700 L 854 582 L 319 582 L 229 121 L 870 121 L 848 0 Z" unicode="Ę" />
<glyph horiz-adv-x="956" d="M 215 467 C 215 461 214 454 214 444 C 213 434 213 427 213 422 C 213 318 241 237 298 179 C 354 121 429 92 522 92 C 563 92 603 97 643 108 C 682 119 717 131 748 145 L 766 31 C 704 9 650 -26 603 -76 C 555 -125 528 -171 520 -215 C 514 -246 518 -272 531 -294 C 544 -315 566 -326 596 -328 C 614 -329 633 -327 653 -322 C 673 -317 691 -310 707 -301 L 719 -399 C 699 -410 675 -419 645 -427 C 615 -434 583 -437 549 -436 C 493 -430 450 -409 420 -373 C 390 -337 380 -291 391 -236 C 399 -192 418 -152 449 -116 C 480 -80 515 -50 553 -25 C 547 -25 540 -25 532 -26 C 524 -26 517 -27 512 -27 C 389 -27 287 12 205 92 C 123 171 82 278 82 412 C 82 551 127 678 217 793 C 307 907 424 965 569 965 C 665 965 743 937 804 881 C 864 825 895 753 895 666 C 895 636 891 603 884 568 C 877 533 867 501 854 471 L 215 467 Z M 233 565 L 752 567 C 757 581 761 595 763 610 C 765 625 766 639 766 653 C 766 711 747 759 709 796 C 671 833 619 852 553 852 C 475 852 407 824 351 770 C 294 715 255 647 233 565 Z" unicode="ę" />
<glyph horiz-adv-x="1038" d="M 479 1765 L 585 1765 L 718 1487 L 723 1487 L 966 1765 L 1085 1765 L 780 1393 L 639 1393 L 479 1765 Z M 848 0 L 74 0 L 324 1280 L 1096 1280 L 1073 1159 L 430 1159 L 342 700 L 879 700 L 854 582 L 319 582 L 229 121 L 870 121 L 848 0 Z" unicode="Ě" />
<glyph horiz-adv-x="956" d="M 350 1423 L 456 1423 L 589 1145 L 594 1145 L 837 1423 L 956 1423 L 651 1051 L 510 1051 L 350 1423 Z M 215 467 C 215 459 214 451 214 444 C 213 436 213 429 213 422 C 213 318 241 237 298 179 C 354 121 429 92 522 92 C 562 92 602 97 642 108 C 682 118 717 131 748 145 L 766 31 C 733 13 693 0 646 -11 C 598 -21 554 -27 512 -27 C 390 -27 287 12 205 92 C 123 171 82 278 82 412 C 82 551 126 678 216 793 C 306 907 423 965 569 965 C 665 965 743 937 804 881 C 864 825 895 752 895 664 C 895 633 891 600 884 566 C 877 532 867 500 854 471 L 215 467 Z M 233 565 C 261 565 354 565 513 566 C 672 566 752 567 752 567 C 756 580 759 594 762 609 C 764 624 766 639 766 653 C 766 712 746 760 708 796 C 670 832 618 850 553 850 C 475 850 408 822 351 768 C 294 713 255 645 233 565 Z" unicode="ě" />
<glyph horiz-adv-x="1272" d="M 1111 1403 L 1005 1403 L 868 1679 L 864 1679 L 622 1403 L 503 1403 L 808 1776 L 952 1776 L 1111 1403 Z M 1075 66 C 1020 38 957 15 887 -1 C 817 -18 752 -27 692 -27 C 520 -27 379 24 271 127 C 163 230 109 368 109 541 C 109 746 174 925 304 1077 C 434 1229 611 1305 834 1305 C 898 1305 963 1298 1031 1284 C 1099 1270 1165 1250 1229 1225 L 1204 1100 C 1146 1126 1083 1148 1017 1164 C 950 1180 886 1188 825 1188 C 643 1188 500 1124 397 996 C 293 868 242 720 242 553 C 242 407 284 293 370 212 C 455 130 567 90 705 90 C 748 90 791 95 834 105 C 877 115 918 129 958 145 L 1032 518 L 692 518 L 717 637 L 1186 637 L 1075 66 Z" unicode="Ĝ" />
<glyph horiz-adv-x="961" d="M 829 1061 L 723 1061 L 586 1337 L 582 1337 L 340 1061 L 221 1061 L 526 1434 L 670 1434 L 829 1061 Z M 231 344 C 196 371 168 406 148 448 C 127 490 117 538 117 592 C 117 694 155 782 231 854 C 307 926 396 963 500 965 C 546 965 586 959 619 949 C 652 938 683 923 711 905 L 1004 930 L 1010 801 L 795 813 C 809 791 820 766 830 736 C 839 706 844 676 844 645 C 844 541 806 452 731 380 C 656 308 565 272 459 272 C 426 272 396 275 370 281 C 343 287 317 295 293 307 C 268 297 247 282 229 263 C 211 244 203 225 203 205 C 203 171 220 144 255 126 C 289 107 346 90 426 74 L 481 63 C 580 43 658 12 714 -29 C 770 -71 799 -127 799 -199 C 799 -282 757 -355 675 -417 C 592 -479 475 -510 324 -510 C 189 -510 82 -483 3 -431 C -75 -379 -115 -313 -115 -233 C -115 -174 -92 -120 -47 -71 C -1 -22 64 13 150 37 C 128 50 109 67 94 88 C 79 109 72 134 72 164 C 72 203 87 239 119 272 C 150 304 187 328 231 344 Z M 233 -2 C 164 -17 110 -43 71 -81 C 31 -119 12 -163 12 -213 C 12 -273 43 -319 106 -353 C 168 -386 246 -403 338 -403 C 438 -403 519 -385 581 -350 C 643 -314 674 -269 674 -213 C 674 -170 652 -135 609 -109 C 565 -83 502 -61 420 -45 C 381 -37 346 -30 314 -22 C 282 -14 255 -8 233 -2 Z M 467 373 C 538 373 598 398 648 449 C 698 499 723 562 723 637 C 723 702 703 756 663 798 C 623 840 565 862 489 862 C 424 862 366 836 316 786 C 265 736 240 673 240 598 C 240 532 260 478 300 436 C 340 394 395 373 467 373 Z" unicode="ĝ" />
<glyph horiz-adv-x="1272" d="M 1075 66 C 1020 38 957 15 887 -1 C 817 -18 752 -27 692 -27 C 520 -27 379 24 271 127 C 163 230 109 368 109 541 C 109 746 174 925 304 1077 C 434 1229 611 1305 834 1305 C 898 1305 963 1298 1031 1284 C 1099 1270 1165 1250 1229 1225 L 1204 1100 C 1146 1126 1083 1148 1017 1164 C 950 1180 886 1188 825 1188 C 643 1188 500 1124 397 996 C 293 868 242 720 242 553 C 242 407 284 293 370 212 C 455 130 567 90 705 90 C 748 90 791 95 834 105 C 877 115 918 129 958 145 L 1032 518 L 692 518 L 717 637 L 1186 637 L 1075 66 Z M 1163 1774 C 1129 1672 1083 1585 1024 1511 C 964 1437 889 1401 799 1401 C 703 1401 638 1438 604 1514 C 569 1589 553 1676 555 1774 L 649 1774 C 653 1687 668 1620 694 1573 C 720 1526 759 1503 811 1503 C 861 1503 906 1525 947 1570 C 988 1615 1027 1683 1063 1774 L 1163 1774 Z" unicode="Ğ" />
<glyph horiz-adv-x="961" d="M 231 344 C 196 371 168 406 148 448 C 127 490 117 538 117 592 C 117 694 155 782 231 854 C 307 926 396 963 500 965 C 546 965 586 959 619 949 C 652 938 683 923 711 905 L 1004 930 L 1010 801 L 795 813 C 809 791 820 766 830 736 C 839 706 844 676 844 645 C 844 541 806 452 731 380 C 656 308 565 272 459 272 C 426 272 396 275 370 281 C 343 287 317 295 293 307 C 268 297 247 282 229 263 C 211 244 203 225 203 205 C 203 171 220 144 255 126 C 289 107 346 90 426 74 L 481 63 C 580 43 658 12 714 -29 C 770 -71 799 -127 799 -199 C 799 -282 757 -355 675 -417 C 592 -479 475 -510 324 -510 C 189 -510 82 -483 3 -431 C -75 -379 -115 -313 -115 -233 C -115 -174 -92 -120 -47 -71 C -1 -22 64 13 150 37 C 128 50 109 67 94 88 C 79 109 72 134 72 164 C 72 203 87 239 119 272 C 150 304 187 328 231 344 Z M 233 -2 C 164 -17 110 -43 71 -81 C 31 -119 12 -163 12 -213 C 12 -273 43 -319 106 -353 C 168 -386 246 -403 338 -403 C 438 -403 519 -385 581 -350 C 643 -314 674 -269 674 -213 C 674 -170 652 -135 609 -109 C 565 -83 502 -61 420 -45 C 381 -37 346 -30 314 -22 C 282 -14 255 -8 233 -2 Z M 467 373 C 538 373 598 398 648 449 C 698 499 723 562 723 637 C 723 702 703 756 663 798 C 623 840 565 862 489 862 C 424 862 366 836 316 786 C 265 736 240 673 240 598 C 240 532 260 478 300 436 C 340 394 395 373 467 373 Z M 913 1432 C 879 1330 833 1243 774 1169 C 714 1095 639 1059 549 1059 C 453 1059 388 1096 354 1172 C 319 1247 303 1334 305 1432 L 399 1432 C 403 1345 418 1278 444 1231 C 470 1184 509 1161 561 1161 C 611 1161 656 1183 697 1228 C 738 1273 777 1341 813 1432 L 913 1432 Z" unicode="ğ" />
<glyph horiz-adv-x="1272" d="M 1075 66 C 1020 38 957 15 887 -1 C 817 -18 752 -27 692 -27 C 520 -27 379 24 271 127 C 163 230 109 368 109 541 C 109 746 174 925 304 1077 C 434 1229 611 1305 834 1305 C 898 1305 963 1298 1031 1284 C 1099 1270 1165 1250 1229 1225 L 1204 1100 C 1146 1126 1083 1148 1017 1164 C 950 1180 886 1188 825 1188 C 643 1188 500 1124 397 996 C 293 868 242 720 242 553 C 242 407 284 293 370 212 C 455 130 567 90 705 90 C 748 90 791 95 834 105 C 877 115 918 129 958 145 L 1032 518 L 692 518 L 717 637 L 1186 637 L 1075 66 Z M 919 1554 C 919 1528 910 1504 892 1484 C 874 1464 851 1454 823 1454 C 794 1454 771 1464 754 1484 C 737 1504 729 1528 729 1554 C 729 1580 737 1603 754 1623 C 771 1643 794 1653 823 1653 C 851 1653 874 1643 892 1623 C 910 1603 919 1580 919 1554 Z" unicode="Ġ" />
<glyph horiz-adv-x="961" d="M 231 344 C 196 371 168 406 148 448 C 127 490 117 538 117 592 C 117 694 155 782 231 854 C 307 926 396 963 500 965 C 546 965 586 959 619 949 C 652 938 683 923 711 905 L 1004 930 L 1010 801 L 795 813 C 809 791 820 766 830 736 C 839 706 844 676 844 645 C 844 541 806 452 731 380 C 656 308 565 272 459 272 C 426 272 396 275 370 281 C 343 287 317 295 293 307 C 268 297 247 282 229 263 C 211 244 203 225 203 205 C 203 171 220 144 255 126 C 289 107 346 90 426 74 L 481 63 C 580 43 658 12 714 -29 C 770 -71 799 -127 799 -199 C 799 -282 757 -355 675 -417 C 592 -479 475 -510 324 -510 C 189 -510 82 -483 3 -431 C -75 -379 -115 -313 -115 -233 C -115 -174 -92 -120 -47 -71 C -1 -22 64 13 150 37 C 128 50 109 67 94 88 C 79 109 72 134 72 164 C 72 203 87 239 119 272 C 150 304 187 328 231 344 Z M 233 -2 C 164 -17 110 -43 71 -81 C 31 -119 12 -163 12 -213 C 12 -273 43 -319 106 -353 C 168 -386 246 -403 338 -403 C 438 -403 519 -385 581 -350 C 643 -314 674 -269 674 -213 C 674 -170 652 -135 609 -109 C 565 -83 502 -61 420 -45 C 381 -37 346 -30 314 -22 C 282 -14 255 -8 233 -2 Z M 467 373 C 538 373 598 398 648 449 C 698 499 723 562 723 637 C 723 702 703 756 663 798 C 623 840 565 862 489 862 C 424 862 366 836 316 786 C 265 736 240 673 240 598 C 240 532 260 478 300 436 C 340 394 395 373 467 373 Z M 655 1212 C 655 1186 646 1162 628 1142 C 610 1122 587 1112 559 1112 C 530 1112 507 1122 490 1142 C 473 1162 465 1186 465 1212 C 465 1238 473 1261 490 1281 C 507 1301 530 1311 559 1311 C 587 1311 610 1301 628 1281 C 646 1261 655 1238 655 1212 Z" unicode="ġ" />
<glyph horiz-adv-x="1272" d="M 528 -186 C 533 -164 546 -146 567 -130 C 587 -114 613 -107 643 -111 C 677 -113 703 -129 721 -158 C 739 -186 744 -220 737 -258 C 727 -311 700 -358 656 -400 C 612 -441 560 -477 499 -508 L 458 -463 C 515 -431 554 -401 574 -373 C 594 -345 606 -320 612 -297 C 617 -272 613 -252 600 -236 C 586 -220 562 -203 528 -186 Z M 1075 66 C 1020 38 957 15 887 -1 C 817 -18 752 -27 692 -27 C 520 -27 379 24 271 127 C 163 230 109 368 109 541 C 109 746 174 925 304 1077 C 434 1229 611 1305 834 1305 C 898 1305 963 1298 1031 1284 C 1099 1270 1165 1250 1229 1225 L 1204 1100 C 1146 1126 1083 1148 1017 1164 C 950 1180 886 1188 825 1188 C 643 1188 500 1124 397 996 C 293 868 242 720 242 553 C 242 407 284 293 370 212 C 455 130 567 90 705 90 C 748 90 791 95 834 105 C 877 115 918 129 958 145 L 1032 518 L 692 518 L 717 637 L 1186 637 L 1075 66 Z" unicode="Ģ" />
<glyph horiz-adv-x="961" d="M 712 1137 C 706 1116 693 1097 673 1081 C 652 1065 627 1059 597 1062 C 562 1065 536 1081 518 1109 C 500 1138 495 1171 503 1209 C 513 1263 539 1310 583 1351 C 627 1393 679 1429 741 1459 L 782 1414 C 724 1382 686 1353 666 1325 C 646 1297 633 1272 628 1248 C 622 1224 626 1203 640 1187 C 653 1171 677 1155 712 1137 Z M 231 344 C 196 371 168 406 148 448 C 127 490 117 538 117 592 C 117 694 155 782 231 854 C 307 926 396 963 500 965 C 546 965 586 959 619 949 C 652 938 683 923 711 905 L 1004 930 L 1010 801 L 795 813 C 809 791 820 766 830 736 C 839 706 844 676 844 645 C 844 541 806 452 731 380 C 656 308 565 272 459 272 C 426 272 396 275 370 281 C 343 287 317 295 293 307 C 268 297 247 282 229 263 C 211 244 203 225 203 205 C 203 171 220 144 255 126 C 289 107 346 90 426 74 L 481 63 C 580 43 658 12 714 -29 C 770 -71 799 -127 799 -199 C 799 -282 757 -355 675 -417 C 592 -479 475 -510 324 -510 C 189 -510 82 -483 3 -431 C -75 -379 -115 -313 -115 -233 C -115 -174 -92 -120 -47 -71 C -1 -22 64 13 150 37 C 128 50 109 67 94 88 C 79 109 72 134 72 164 C 72 203 87 239 119 272 C 150 304 187 328 231 344 Z M 233 -2 C 164 -17 110 -43 71 -81 C 31 -119 12 -163 12 -213 C 12 -273 43 -319 106 -353 C 168 -386 246 -403 338 -403 C 438 -403 519 -385 581 -350 C 643 -314 674 -269 674 -213 C 674 -170 652 -135 609 -109 C 565 -83 502 -61 420 -45 C 381 -37 346 -30 314 -22 C 282 -14 255 -8 233 -2 Z M 467 373 C 538 373 598 398 648 449 C 698 499 723 562 723 637 C 723 702 703 756 663 798 C 623 840 565 862 489 862 C 424 862 366 836 316 786 C 265 736 240 673 240 598 C 240 532 260 478 300 436 C 340 394 395 373 467 373 Z" unicode="ģ" />
<glyph horiz-adv-x="1331" d="M 1128 1403 L 1022 1403 L 885 1679 L 881 1679 L 639 1403 L 520 1403 L 825 1776 L 969 1776 L 1128 1403 Z M 1075 0 L 944 0 L 1059 584 L 317 584 L 205 0 L 74 0 L 322 1280 L 453 1280 L 342 702 L 1081 702 L 1192 1280 L 1323 1280 L 1075 0 Z" unicode="Ĥ" />
<glyph horiz-adv-x="1034" d="M 720 1403 L 614 1403 L 477 1679 L 473 1679 L 231 1403 L 112 1403 L 417 1776 L 561 1776 L 720 1403 Z M 803 0 L 676 0 L 788 580 C 792 599 796 616 798 632 C 800 648 801 662 801 676 C 801 732 784 774 751 804 C 717 833 671 848 612 848 C 563 848 514 836 466 813 C 417 789 370 759 326 723 L 184 0 L 57 0 L 326 1380 L 459 1407 L 346 823 C 394 863 445 897 500 923 C 554 949 610 963 666 963 C 746 963 810 939 860 893 C 909 847 934 785 934 707 C 934 691 933 675 931 658 C 929 641 926 622 922 602 L 803 0 Z" unicode="ĥ" />
<glyph horiz-adv-x="1331" d="M 1075 0 L 946 0 L 1059 586 L 317 586 L 205 0 L 76 0 L 254 928 L 92 928 L 117 1014 L 272 1014 L 324 1280 L 453 1280 L 401 1014 L 1143 1014 L 1194 1280 L 1323 1280 L 1272 1014 L 1411 1014 L 1403 928 L 1255 928 L 1075 0 Z M 342 702 L 1083 702 L 1126 928 L 385 928 L 342 702 Z" unicode="Ħ" />
<glyph horiz-adv-x="1034" d="M 803 0 L 678 0 L 791 582 C 793 601 796 618 798 633 C 800 648 801 662 801 676 C 801 732 784 775 752 805 C 719 835 672 850 612 850 C 563 850 514 838 466 814 C 417 790 370 759 326 723 L 184 0 L 59 0 L 268 1085 L 121 1085 L 145 1180 L 289 1180 L 328 1380 L 459 1407 L 414 1180 L 651 1180 L 643 1085 L 397 1085 L 346 823 C 394 863 445 897 500 923 C 554 949 610 963 666 963 C 746 963 810 939 860 893 C 909 847 934 785 934 707 C 934 691 933 675 931 658 C 929 641 926 622 922 602 L 803 0 Z" unicode="ħ" />
<glyph horiz-adv-x="467" d="M 205 0 L 76 0 L 324 1280 L 455 1280 L 205 0 Z M 690 1440 L 165 1440 L 190 1532 L 698 1532 L 690 1440 Z" unicode="Ī" />
<glyph horiz-adv-x="428" d="M 190 0 L 63 0 L 244 928 L 375 954 L 190 0 Z M 612 1098 L 87 1098 L 112 1190 L 620 1190 L 612 1098 Z" unicode="ī" />
<glyph horiz-adv-x="467" d="M 205 0 L 76 0 L 324 1280 L 455 1280 L 205 0 Z M 782 1774 C 748 1672 702 1585 643 1511 C 583 1437 508 1401 418 1401 C 322 1401 257 1438 223 1514 C 188 1589 172 1676 174 1774 L 268 1774 C 272 1687 287 1620 313 1573 C 339 1526 378 1503 430 1503 C 480 1503 525 1525 566 1570 C 607 1615 646 1683 682 1774 L 782 1774 Z" unicode="Ĭ" />
<glyph horiz-adv-x="428" d="M 190 0 L 63 0 L 244 928 L 375 954 L 190 0 Z M 692 1432 C 658 1330 612 1243 553 1169 C 493 1095 418 1059 328 1059 C 232 1059 167 1096 133 1172 C 98 1247 82 1334 84 1432 L 178 1432 C 182 1345 197 1278 223 1231 C 249 1184 288 1161 340 1161 C 390 1161 435 1183 476 1228 C 517 1273 556 1341 592 1432 L 692 1432 Z" unicode="ĭ" />
<glyph horiz-adv-x="467" d="M 57 -436 C 1 -431 -42 -410 -72 -374 C -102 -338 -111 -292 -100 -236 C -90 -184 -65 -139 -27 -99 C 11 -59 54 -26 102 0 L 76 0 L 326 1280 L 455 1280 L 205 0 C 155 -34 116 -69 86 -104 C 56 -139 37 -176 31 -215 C 25 -246 28 -272 42 -293 C 55 -314 76 -326 106 -328 C 123 -328 142 -326 163 -322 C 183 -318 201 -311 217 -301 L 229 -399 C 209 -410 184 -419 154 -427 C 124 -435 91 -438 57 -436 Z" unicode="Į" />
<glyph horiz-adv-x="428" d="M 39 -436 C -17 -431 -60 -410 -90 -374 C -120 -338 -130 -292 -119 -236 C -109 -184 -84 -139 -46 -100 C -7 -60 35 -27 82 0 L 61 0 L 242 928 L 371 954 L 186 0 C 136 -34 96 -69 67 -104 C 37 -139 19 -176 12 -215 C 5 -246 9 -272 23 -293 C 37 -314 58 -326 88 -328 C 105 -328 124 -326 145 -322 C 165 -318 183 -311 199 -301 L 211 -399 C 190 -410 165 -419 135 -427 C 105 -435 73 -438 39 -436 Z M 459 1247 C 459 1220 450 1196 434 1176 C 418 1155 395 1145 365 1145 C 334 1145 311 1155 295 1176 C 279 1196 272 1220 272 1247 C 272 1272 279 1295 295 1315 C 311 1335 334 1346 365 1346 C 395 1346 418 1335 434 1315 C 450 1295 459 1272 459 1247 Z" unicode="į" />
<glyph horiz-adv-x="467" d="M 205 0 L 76 0 L 324 1280 L 455 1280 L 205 0 Z M 536 1554 C 536 1528 527 1504 509 1484 C 491 1464 468 1454 440 1454 C 411 1454 388 1464 371 1484 C 354 1504 346 1528 346 1554 C 346 1580 354 1603 371 1623 C 388 1643 411 1653 440 1653 C 468 1653 491 1643 509 1623 C 527 1603 536 1580 536 1554 Z" unicode="İ" />
<glyph horiz-adv-x="428" d="M 190 0 L 63 0 L 244 928 L 375 954 L 190 0 Z" unicode="ı" />
<glyph horiz-adv-x="836" d="M 1101 1403 L 995 1403 L 858 1679 L 854 1679 L 612 1403 L 493 1403 L 798 1776 L 942 1776 L 1101 1403 Z M 676 350 C 654 238 610 147 544 77 C 478 7 386 -27 270 -27 C 209 -27 149 -16 91 5 C 32 26 -16 53 -55 86 L -8 205 C 31 171 74 143 122 123 C 170 102 220 92 272 92 C 352 92 414 117 458 167 C 502 217 533 286 551 373 L 727 1280 L 856 1280 L 676 350 Z" unicode="Ĵ" />
<glyph horiz-adv-x="424" d="M -137 -512 L -207 -420 C -133 -390 -77 -351 -39 -301 C -1 -251 27 -176 45 -78 C 44 -86 77 79 143 419 C 209 758 242 928 242 928 L 371 954 C 371 954 337 779 269 430 C 201 80 168 -90 170 -82 C 146 -203 111 -296 64 -360 C 16 -424 -50 -475 -137 -512 Z M 648 1061 L 542 1061 L 405 1337 L 401 1337 L 159 1061 L 40 1061 L 345 1434 L 489 1434 L 648 1061 Z" unicode="ĵ" />
<glyph horiz-adv-x="1073" d="M 415 -186 C 420 -164 433 -146 454 -130 C 474 -114 500 -107 530 -111 C 564 -113 590 -129 608 -158 C 626 -186 631 -220 624 -258 C 614 -311 587 -358 543 -400 C 499 -441 447 -477 386 -508 L 345 -463 C 402 -431 441 -401 461 -373 C 481 -345 493 -320 499 -297 C 504 -272 500 -252 487 -236 C 473 -220 449 -203 415 -186 Z M 334 666 L 336 666 L 1044 1280 L 1214 1280 L 459 639 L 969 0 L 813 0 L 326 612 L 324 612 L 205 0 L 74 0 L 322 1280 L 453 1280 L 334 666 Z" unicode="Ķ" />
<glyph horiz-adv-x="889" d="M 243 -186 C 248 -164 261 -146 282 -130 C 302 -114 328 -107 358 -111 C 392 -113 418 -129 436 -158 C 454 -186 459 -220 452 -258 C 442 -311 415 -358 371 -400 C 327 -441 275 -477 214 -508 L 173 -463 C 230 -431 269 -401 289 -373 C 309 -345 321 -320 327 -297 C 332 -272 328 -252 315 -236 C 301 -220 277 -203 243 -186 Z M 283 485 L 279 485 L 184 0 L 57 0 L 326 1380 L 459 1407 L 285 526 L 289 526 L 772 938 L 950 938 L 418 500 L 782 0 L 627 0 L 283 485 Z" unicode="ķ" />
<glyph horiz-adv-x="979" d="M 825 1769 L 442 1403 L 342 1403 L 657 1769 L 825 1769 Z M 838 0 L 74 0 L 324 1280 L 455 1280 L 229 123 L 862 123 L 838 0 Z" unicode="Ĺ" />
<glyph horiz-adv-x="422" d="M 829 1836 L 446 1470 L 346 1470 L 661 1836 L 829 1836 Z M 184 0 L 57 0 L 326 1380 L 459 1407 L 184 0 Z" unicode="ĺ" />
<glyph horiz-adv-x="979" d="M 358 -186 C 363 -164 376 -146 397 -130 C 417 -114 443 -107 473 -111 C 507 -113 533 -129 551 -158 C 569 -186 574 -220 567 -258 C 557 -311 530 -358 486 -400 C 442 -441 390 -477 329 -508 L 288 -463 C 345 -431 384 -401 404 -373 C 424 -345 436 -320 442 -297 C 447 -272 443 -252 430 -236 C 416 -220 392 -203 358 -186 Z M 838 0 L 74 0 L 324 1280 L 455 1280 L 229 123 L 862 123 L 838 0 Z" unicode="Ļ" />
<glyph horiz-adv-x="422" d="M -13 -186 C -7 -164 5 -146 26 -130 C 46 -114 72 -107 102 -111 C 136 -113 162 -129 180 -158 C 198 -186 203 -220 196 -258 C 186 -311 159 -358 115 -400 C 71 -441 19 -477 -42 -508 L -83 -463 C -25 -431 13 -401 33 -373 C 53 -345 65 -320 71 -297 C 76 -272 72 -252 59 -236 C 45 -220 21 -203 -13 -186 Z M 184 0 L 57 0 L 326 1380 L 459 1407 L 184 0 Z" unicode="ļ" />
<glyph horiz-adv-x="1169" d="M 988 1190 C 995 1215 1009 1236 1031 1253 C 1053 1269 1078 1278 1107 1278 C 1143 1278 1174 1263 1199 1234 C 1223 1204 1236 1170 1236 1132 C 1236 1053 1199 982 1126 918 C 1053 854 981 804 910 770 L 865 827 C 920 856 972 894 1021 941 C 1070 987 1095 1033 1095 1077 C 1095 1101 1083 1123 1060 1142 C 1037 1161 1013 1177 988 1190 Z M 838 0 L 74 0 L 324 1280 L 455 1280 L 229 123 L 862 123 L 838 0 Z" unicode="Ľ" />
<glyph horiz-adv-x="805" d="M 653 1321 C 660 1346 674 1367 696 1384 C 718 1400 743 1409 772 1409 C 808 1409 839 1394 864 1365 C 888 1335 901 1301 901 1263 C 901 1184 864 1113 791 1049 C 718 985 646 935 575 901 L 530 958 C 585 987 637 1025 686 1072 C 735 1118 760 1164 760 1208 C 760 1232 748 1254 725 1273 C 702 1292 678 1308 653 1321 Z M 184 0 L 57 0 L 326 1380 L 459 1407 L 184 0 Z" unicode="ľ" />
<glyph horiz-adv-x="1096" d="M 838 0 L 74 0 L 324 1280 L 455 1280 L 229 123 L 862 123 L 838 0 Z M 907 641 C 907 613 897 589 878 567 C 858 545 834 534 805 534 C 775 534 750 545 731 567 C 711 589 702 613 702 641 C 702 667 711 691 731 711 C 750 731 775 741 805 741 C 834 741 858 731 878 711 C 897 691 907 667 907 641 Z" unicode="Ŀ" />
<glyph horiz-adv-x="709" d="M 184 0 L 57 0 L 326 1380 L 459 1407 L 184 0 Z M 708 641 C 708 613 698 589 679 567 C 659 545 635 534 606 534 C 576 534 551 545 532 567 C 512 589 503 613 503 641 C 503 667 512 691 532 711 C 551 731 576 741 606 741 C 635 741 659 731 679 711 C 698 691 708 667 708 641 Z" unicode="ŀ" />
<glyph horiz-adv-x="1020" d="M 352 547 C 353 547 340 477 312 336 C 284 195 270 125 270 125 L 903 125 L 879 0 L 115 0 C 115 0 131 85 165 255 C 198 425 214 510 213 510 L 63 469 L 63 582 L 238 629 L 365 1280 L 496 1280 C 496 1280 476 1177 436 973 C 396 769 377 666 377 666 L 680 750 L 680 635 L 352 547 Z" unicode="Ł" />
<glyph horiz-adv-x="504" d="M 332 545 C 332 545 314 455 278 273 C 242 91 225 0 225 0 L 98 0 C 98 0 114 84 147 254 C 180 424 197 508 197 508 L 43 467 L 43 584 L 221 633 L 367 1380 L 500 1407 L 356 670 L 518 713 L 518 596 L 332 545 Z" unicode="ł" />
<glyph horiz-adv-x="1321" d="M 1195 1769 L 812 1403 L 712 1403 L 1027 1769 L 1195 1769 Z M 981 158 L 1192 1280 L 1319 1280 L 1071 -12 L 918 -12 L 412 1122 L 201 0 L 74 0 L 319 1280 L 479 1280 L 981 158 Z" unicode="Ń" />
<glyph horiz-adv-x="1034" d="M 919 1427 L 536 1061 L 436 1061 L 751 1427 L 919 1427 Z M 803 0 L 676 0 L 786 569 C 790 588 794 608 798 628 C 801 648 803 666 803 682 C 803 732 787 772 755 802 C 723 831 677 846 618 846 C 570 846 520 832 468 806 C 415 780 367 747 324 709 L 184 0 L 57 0 L 240 938 L 373 965 L 346 823 C 394 863 445 897 500 924 C 554 951 610 965 666 965 C 746 965 810 941 860 894 C 909 847 934 787 934 713 C 934 697 932 677 929 653 C 925 628 922 606 918 586 L 803 0 Z" unicode="ń" />
<glyph horiz-adv-x="1321" d="M 442 -186 C 447 -164 460 -146 481 -130 C 501 -114 527 -107 557 -111 C 591 -113 617 -129 635 -158 C 653 -186 658 -220 651 -258 C 641 -311 614 -358 570 -400 C 526 -441 474 -477 413 -508 L 372 -463 C 429 -431 468 -401 488 -373 C 508 -345 520 -320 526 -297 C 531 -272 527 -252 514 -236 C 500 -220 476 -203 442 -186 Z M 981 158 L 1192 1280 L 1319 1280 L 1071 -12 L 918 -12 L 412 1122 L 201 0 L 74 0 L 319 1280 L 479 1280 L 981 158 Z" unicode="Ņ" />
<glyph horiz-adv-x="1034" d="M 290 -186 C 295 -164 308 -146 329 -130 C 349 -114 375 -107 405 -111 C 439 -113 465 -129 483 -158 C 501 -186 506 -220 499 -258 C 489 -311 462 -358 418 -400 C 374 -441 322 -477 261 -508 L 220 -463 C 277 -431 316 -401 336 -373 C 356 -345 368 -320 374 -297 C 379 -272 375 -252 362 -236 C 348 -220 324 -203 290 -186 Z M 803 0 L 676 0 L 786 569 C 790 588 794 608 798 628 C 801 648 803 666 803 682 C 803 732 787 772 755 802 C 723 831 677 846 618 846 C 570 846 520 832 468 806 C 415 780 367 747 324 709 L 184 0 L 57 0 L 240 938 L 373 965 L 346 823 C 394 863 445 897 500 924 C 554 951 610 965 666 965 C 746 965 810 941 860 894 C 909 847 934 787 934 713 C 934 697 932 677 929 653 C 925 628 922 606 918 586 L 803 0 Z" unicode="ņ" />
<glyph horiz-adv-x="1321" d="M 589 1765 L 695 1765 L 828 1487 L 833 1487 L 1076 1765 L 1195 1765 L 890 1393 L 749 1393 L 589 1765 Z M 981 158 L 1192 1280 L 1319 1280 L 1071 -12 L 918 -12 L 412 1122 L 201 0 L 74 0 L 319 1280 L 479 1280 L 981 158 Z" unicode="Ň" />
<glyph horiz-adv-x="1034" d="M 338 1423 L 444 1423 L 577 1145 L 582 1145 L 825 1423 L 944 1423 L 639 1051 L 498 1051 L 338 1423 Z M 803 0 L 676 0 L 786 569 C 790 588 794 608 798 628 C 801 648 803 666 803 682 C 803 732 787 772 755 802 C 723 831 677 846 618 846 C 570 846 520 832 468 806 C 415 780 367 747 324 709 L 184 0 L 57 0 L 240 938 L 373 965 L 346 823 C 394 863 445 897 500 924 C 554 951 610 965 666 965 C 746 965 810 941 860 894 C 909 847 934 787 934 713 C 934 697 932 677 929 653 C 925 628 922 606 918 586 L 803 0 Z" unicode="ň" />
<glyph horiz-adv-x="1440" d="M 1122 1440 L 597 1440 L 622 1532 L 1130 1532 L 1122 1440 Z M 1403 719 C 1403 524 1335 351 1200 200 C 1065 48 896 -27 694 -27 C 526 -27 387 28 277 140 C 167 251 113 393 113 565 C 113 761 180 933 314 1083 C 448 1232 618 1307 823 1307 C 990 1307 1128 1252 1238 1142 C 1348 1032 1403 891 1403 719 Z M 1270 709 C 1270 848 1227 963 1141 1054 C 1055 1144 944 1190 807 1190 C 639 1190 503 1126 400 998 C 297 870 246 729 246 573 C 246 435 288 320 374 228 C 459 136 571 90 709 90 C 877 90 1012 154 1115 283 C 1218 411 1270 553 1270 709 Z" unicode="Ō" />
<glyph horiz-adv-x="1085" d="M 893 1098 L 368 1098 L 393 1190 L 901 1190 L 893 1098 Z M 1008 530 C 1008 385 960 256 864 144 C 768 31 642 -25 487 -25 C 363 -25 265 16 191 98 C 117 180 80 283 80 406 C 80 549 127 678 223 792 C 318 906 443 963 598 963 C 721 963 820 921 895 837 C 970 753 1008 651 1008 530 Z M 879 522 C 879 616 853 694 802 757 C 751 820 679 852 586 852 C 467 852 374 804 307 710 C 240 616 207 516 207 412 C 207 318 233 240 285 179 C 337 118 409 88 502 88 C 619 88 711 134 778 226 C 845 318 879 417 879 522 Z" unicode="ō" />
<glyph horiz-adv-x="1440" d="M 1403 719 C 1403 524 1335 351 1200 200 C 1065 48 896 -27 694 -27 C 526 -27 387 28 277 140 C 167 251 113 393 113 565 C 113 761 180 933 314 1083 C 448 1232 618 1307 823 1307 C 990 1307 1128 1252 1238 1142 C 1348 1032 1403 891 1403 719 Z M 1270 709 C 1270 848 1227 963 1141 1054 C 1055 1144 944 1190 807 1190 C 639 1190 503 1126 400 998 C 297 870 246 729 246 573 C 246 435 288 320 374 228 C 459 136 571 90 709 90 C 877 90 1012 154 1115 283 C 1218 411 1270 553 1270 709 Z M 1214 1774 C 1180 1672 1134 1585 1075 1511 C 1015 1437 940 1401 850 1401 C 754 1401 689 1438 655 1514 C 620 1589 604 1676 606 1774 L 700 1774 C 704 1687 719 1620 745 1573 C 771 1526 810 1503 862 1503 C 912 1503 957 1525 998 1570 C 1039 1615 1078 1683 1114 1774 L 1214 1774 Z" unicode="Ŏ" />
<glyph horiz-adv-x="1085" d="M 1008 530 C 1008 385 960 256 864 144 C 768 31 642 -25 487 -25 C 363 -25 265 16 191 98 C 117 180 80 283 80 406 C 80 549 127 678 223 792 C 318 906 443 963 598 963 C 721 963 820 921 895 837 C 970 753 1008 651 1008 530 Z M 879 522 C 879 616 853 694 802 757 C 751 820 679 852 586 852 C 467 852 374 804 307 710 C 240 616 207 516 207 412 C 207 318 233 240 285 179 C 337 118 409 88 502 88 C 619 88 711 134 778 226 C 845 318 879 417 879 522 Z M 982 1432 C 948 1330 902 1243 843 1169 C 783 1095 708 1059 618 1059 C 522 1059 457 1096 423 1172 C 388 1247 372 1334 374 1432 L 468 1432 C 472 1345 487 1278 513 1231 C 539 1184 578 1161 630 1161 C 680 1161 725 1183 766 1228 C 807 1273 846 1341 882 1432 L 982 1432 Z" unicode="ŏ" />
<glyph horiz-adv-x="1440" d="M 1013 1755 L 677 1393 L 567 1393 L 872 1755 L 1013 1755 Z M 1355 1755 L 997 1393 L 884 1393 L 1214 1755 L 1355 1755 Z M 1403 719 C 1403 524 1335 351 1200 200 C 1065 48 896 -27 694 -27 C 526 -27 387 28 277 140 C 167 251 113 393 113 565 C 113 761 180 933 314 1083 C 448 1232 618 1307 823 1307 C 990 1307 1128 1252 1238 1142 C 1348 1032 1403 891 1403 719 Z M 1270 709 C 1270 848 1227 963 1141 1054 C 1055 1144 944 1190 807 1190 C 639 1190 503 1126 400 998 C 297 870 246 729 246 573 C 246 435 288 320 374 228 C 459 136 571 90 709 90 C 877 90 1012 154 1115 283 C 1218 411 1270 553 1270 709 Z" unicode="Ő" />
<glyph horiz-adv-x="1085" d="M 786 1413 L 450 1051 L 340 1051 L 645 1413 L 786 1413 Z M 1128 1413 L 770 1051 L 657 1051 L 987 1413 L 1128 1413 Z M 1008 530 C 1008 385 960 256 864 144 C 768 31 642 -25 487 -25 C 363 -25 265 16 191 98 C 117 180 80 283 80 406 C 80 549 127 678 223 792 C 318 906 443 963 598 963 C 721 963 820 921 895 837 C 970 753 1008 651 1008 530 Z M 879 522 C 879 616 853 694 802 757 C 751 820 679 852 586 852 C 467 852 374 804 307 710 C 240 616 207 516 207 412 C 207 318 233 240 285 179 C 337 118 409 88 502 88 C 619 88 711 134 778 226 C 845 318 879 417 879 522 Z" unicode="ő" />
<glyph horiz-adv-x="1829" d="M 1886 1280 L 1864 1159 L 1243 1159 L 1153 702 L 1669 702 L 1647 582 L 1130 582 L 1040 121 L 1663 121 L 1638 0 L 741 0 C 572 0 428 47 309 142 C 190 236 131 372 131 549 C 131 746 195 917 324 1062 C 453 1207 647 1280 907 1280 L 1886 1280 Z M 268 563 C 268 419 312 310 402 235 C 491 159 611 121 762 121 L 909 121 L 1110 1159 L 883 1159 C 711 1159 566 1107 447 1005 C 327 903 268 755 268 563 Z" unicode="Œ" />
<glyph horiz-adv-x="1739" d="M 911 221 C 869 149 812 90 739 44 C 666 -2 582 -25 487 -25 C 363 -25 265 16 191 98 C 117 180 80 283 80 406 C 80 549 127 678 223 792 C 318 906 443 963 598 963 C 686 963 761 941 823 897 C 885 853 930 795 958 723 C 999 793 1053 850 1121 896 C 1188 942 1265 965 1352 965 C 1447 965 1525 937 1587 881 C 1648 825 1679 752 1679 664 C 1679 633 1675 600 1667 566 C 1659 532 1649 500 1636 471 L 999 467 C 998 459 997 451 997 444 C 997 436 997 429 997 422 C 997 318 1025 237 1082 179 C 1139 121 1214 92 1307 92 C 1346 92 1385 97 1425 108 C 1465 118 1500 131 1532 145 L 1548 31 C 1515 13 1475 0 1429 -11 C 1382 -21 1338 -27 1296 -27 C 1204 -27 1125 -5 1059 39 C 992 83 943 143 911 221 Z M 207 412 C 207 318 233 240 285 179 C 337 118 409 88 502 88 C 619 88 711 134 778 226 C 845 318 879 417 879 522 C 879 616 853 694 802 757 C 751 820 679 852 586 852 C 467 852 374 804 307 710 C 240 616 207 516 207 412 Z M 1018 565 C 1045 565 1138 565 1297 566 C 1456 566 1536 567 1536 567 C 1540 580 1543 594 1546 609 C 1548 624 1550 639 1550 653 C 1550 712 1530 760 1492 796 C 1454 832 1402 850 1337 850 C 1259 850 1192 822 1134 768 C 1076 713 1038 645 1018 565 Z" unicode="œ" />
<glyph horiz-adv-x="1094" d="M 999 1769 L 616 1403 L 516 1403 L 831 1769 L 999 1769 Z M 303 510 L 205 0 L 74 0 L 322 1280 L 618 1280 C 766 1280 876 1245 948 1175 C 1020 1105 1057 1024 1057 932 C 1057 816 1018 727 940 663 C 862 599 776 558 684 541 L 918 0 L 772 0 L 555 526 L 303 510 Z M 324 627 L 528 631 C 630 633 721 656 801 702 C 881 748 922 820 922 918 C 922 991 895 1050 843 1094 C 790 1138 712 1161 608 1161 L 430 1161 L 324 627 Z" unicode="Ŕ" />
<glyph horiz-adv-x="729" d="M 874 1427 L 491 1061 L 391 1061 L 706 1427 L 874 1427 Z M 305 621 L 184 0 L 57 0 L 240 938 L 373 965 L 338 786 C 371 840 412 883 461 916 C 509 948 559 965 610 965 C 642 965 674 960 704 952 C 734 943 760 932 782 920 L 748 797 C 725 810 700 821 672 830 C 644 839 614 844 584 844 C 528 844 477 824 431 784 C 385 744 343 689 305 621 Z" unicode="ŕ" />
<glyph horiz-adv-x="1094" d="M 374 -186 C 379 -164 392 -146 413 -130 C 433 -114 459 -107 489 -111 C 523 -113 549 -129 567 -158 C 585 -186 590 -220 583 -258 C 573 -311 546 -358 502 -400 C 458 -441 406 -477 345 -508 L 304 -463 C 361 -431 400 -401 420 -373 C 440 -345 452 -320 458 -297 C 463 -272 459 -252 446 -236 C 432 -220 408 -203 374 -186 Z M 303 510 L 205 0 L 74 0 L 322 1280 L 618 1280 C 766 1280 876 1245 948 1175 C 1020 1105 1057 1024 1057 932 C 1057 816 1018 727 940 663 C 862 599 776 558 684 541 L 918 0 L 772 0 L 555 526 L 303 510 Z M 324 627 L 528 631 C 630 633 721 656 801 702 C 881 748 922 820 922 918 C 922 991 895 1050 843 1094 C 790 1138 712 1161 608 1161 L 430 1161 L 324 627 Z" unicode="Ŗ" />
<glyph horiz-adv-x="729" d="M -7 -186 C -1 -164 11 -146 32 -130 C 52 -114 78 -107 108 -111 C 142 -113 168 -129 186 -158 C 204 -186 209 -220 202 -258 C 192 -311 165 -358 121 -400 C 77 -441 25 -477 -36 -508 L -77 -463 C -19 -431 19 -401 39 -373 C 59 -345 71 -320 77 -297 C 82 -272 78 -252 65 -236 C 51 -220 27 -203 -7 -186 Z M 305 621 L 184 0 L 57 0 L 240 938 L 373 965 L 338 786 C 371 840 412 883 461 916 C 509 948 559 965 610 965 C 642 965 674 960 704 952 C 734 943 760 932 782 920 L 748 797 C 725 810 700 821 672 830 C 644 839 614 844 584 844 C 528 844 477 824 431 784 C 385 744 343 689 305 621 Z" unicode="ŗ" />
<glyph horiz-adv-x="1094" d="M 403 1765 L 509 1765 L 642 1487 L 647 1487 L 890 1765 L 1009 1765 L 704 1393 L 563 1393 L 403 1765 Z M 303 510 L 205 0 L 74 0 L 322 1280 L 618 1280 C 766 1280 876 1245 948 1175 C 1020 1105 1057 1024 1057 932 C 1057 816 1018 727 940 663 C 862 599 776 558 684 541 L 918 0 L 772 0 L 555 526 L 303 510 Z M 324 627 L 528 631 C 630 633 721 656 801 702 C 881 748 922 820 922 918 C 922 991 895 1050 843 1094 C 790 1138 712 1161 608 1161 L 430 1161 L 324 627 Z" unicode="Ř" />
<glyph horiz-adv-x="729" d="M 288 1423 L 394 1423 L 527 1145 L 532 1145 L 775 1423 L 894 1423 L 589 1051 L 448 1051 L 288 1423 Z M 305 621 L 184 0 L 57 0 L 240 938 L 373 965 L 338 786 C 371 840 412 883 461 916 C 509 948 559 965 610 965 C 642 965 674 960 704 952 C 734 943 760 932 782 920 L 748 797 C 725 810 700 821 672 830 C 644 839 614 844 584 844 C 528 844 477 824 431 784 C 385 744 343 689 305 621 Z" unicode="ř" />
<glyph horiz-adv-x="1006" d="M 970 1769 L 587 1403 L 487 1403 L 802 1769 L 970 1769 Z M 465 90 C 554 90 628 112 686 158 C 744 204 774 262 774 334 C 774 399 748 451 696 490 C 644 529 578 567 496 604 C 413 640 340 683 278 734 C 215 785 184 854 184 942 C 184 1059 227 1149 314 1211 C 400 1273 499 1305 610 1305 C 684 1305 757 1294 827 1272 C 897 1250 956 1223 1006 1192 L 973 1067 C 925 1100 866 1128 797 1152 C 727 1176 661 1188 598 1188 C 521 1188 454 1167 398 1126 C 341 1085 313 1028 313 956 C 313 896 338 848 388 812 C 438 776 504 740 586 705 C 672 665 746 619 808 567 C 870 515 901 442 901 348 C 901 232 857 141 771 74 C 685 6 581 -27 459 -27 C 377 -27 297 -14 220 11 C 143 36 77 67 23 104 L 55 231 C 113 191 178 158 252 131 C 325 103 396 90 465 90 Z" unicode="Ś" />
<glyph horiz-adv-x="778" d="M 821 1427 L 438 1061 L 338 1061 L 653 1427 L 821 1427 Z M 670 264 C 670 178 636 108 570 54 C 504 0 422 -27 326 -27 C 262 -27 201 -17 143 3 C 85 23 34 47 -8 76 L 35 193 C 81 161 130 135 182 115 C 233 95 284 86 336 86 C 392 86 441 100 483 128 C 525 156 547 196 547 250 C 547 289 530 321 496 347 C 462 372 411 400 342 432 C 278 461 224 494 181 530 C 138 566 117 620 117 690 C 117 774 149 841 214 891 C 278 940 352 965 436 965 C 495 965 551 956 605 939 C 659 921 710 898 758 870 L 717 754 C 667 784 619 808 573 826 C 526 843 478 852 428 852 C 375 852 330 839 294 813 C 258 787 240 751 240 707 C 240 663 256 630 289 607 C 322 583 372 556 440 524 C 508 492 564 458 606 421 C 648 383 670 331 670 264 Z" unicode="ś" />
<glyph horiz-adv-x="1006" d="M 947 1403 L 841 1403 L 704 1679 L 700 1679 L 458 1403 L 339 1403 L 644 1776 L 788 1776 L 947 1403 Z M 465 90 C 554 90 628 112 686 158 C 744 204 774 262 774 334 C 774 399 748 451 696 490 C 644 529 578 567 496 604 C 413 640 340 683 278 734 C 215 785 184 854 184 942 C 184 1059 227 1149 314 1211 C 400 1273 499 1305 610 1305 C 684 1305 757 1294 827 1272 C 897 1250 956 1223 1006 1192 L 973 1067 C 925 1100 866 1128 797 1152 C 727 1176 661 1188 598 1188 C 521 1188 454 1167 398 1126 C 341 1085 313 1028 313 956 C 313 896 338 848 388 812 C 438 776 504 740 586 705 C 672 665 746 619 808 567 C 870 515 901 442 901 348 C 901 232 857 141 771 74 C 685 6 581 -27 459 -27 C 377 -27 297 -14 220 11 C 143 36 77 67 23 104 L 55 231 C 113 191 178 158 252 131 C 325 103 396 90 465 90 Z" unicode="Ŝ" />
<glyph horiz-adv-x="778" d="M 769 1061 L 663 1061 L 526 1337 L 522 1337 L 280 1061 L 161 1061 L 466 1434 L 610 1434 L 769 1061 Z M 670 264 C 670 178 636 108 570 54 C 504 0 422 -27 326 -27 C 262 -27 201 -17 143 3 C 85 23 34 47 -8 76 L 35 193 C 81 161 130 135 182 115 C 233 95 284 86 336 86 C 392 86 441 100 483 128 C 525 156 547 196 547 250 C 547 289 530 321 496 347 C 462 372 411 400 342 432 C 278 461 224 494 181 530 C 138 566 117 620 117 690 C 117 774 149 841 214 891 C 278 940 352 965 436 965 C 495 965 551 956 605 939 C 659 921 710 898 758 870 L 717 754 C 667 784 619 808 573 826 C 526 843 478 852 428 852 C 375 852 330 839 294 813 C 258 787 240 751 240 707 C 240 663 256 630 289 607 C 322 583 372 556 440 524 C 508 492 564 458 606 421 C 648 383 670 331 670 264 Z" unicode="ŝ" />
<glyph horiz-adv-x="1006" d="M 360 -135 C 426 -139 480 -155 521 -185 C 561 -215 582 -254 582 -303 C 582 -362 550 -413 488 -456 C 425 -499 332 -521 209 -522 L 213 -434 C 298 -437 363 -427 408 -405 C 452 -382 475 -351 475 -311 C 475 -273 452 -246 408 -230 C 364 -214 302 -209 223 -217 L 223 -156 L 389 -23 C 319 -15 253 0 189 22 C 125 45 69 72 23 104 L 55 231 C 113 191 178 158 252 131 C 325 103 396 90 465 90 C 554 90 628 112 686 158 C 744 204 774 262 774 334 C 774 399 748 451 696 490 C 644 529 578 567 496 604 C 413 640 340 683 278 734 C 215 785 184 854 184 942 C 184 1059 227 1149 314 1211 C 400 1273 499 1305 610 1305 C 684 1305 757 1294 827 1272 C 897 1250 956 1223 1006 1192 L 973 1067 C 925 1100 866 1128 797 1152 C 727 1176 661 1188 598 1188 C 521 1188 454 1167 398 1126 C 341 1085 313 1028 313 956 C 313 896 338 848 388 812 C 438 776 504 740 586 705 C 672 665 746 619 808 567 C 870 515 901 442 901 348 C 901 238 861 150 783 84 C 704 18 608 -18 494 -25 L 360 -135 Z" unicode="Ş" />
<glyph horiz-adv-x="778" d="M 219 -135 C 285 -139 338 -155 379 -185 C 419 -215 440 -254 440 -303 C 440 -362 408 -413 346 -456 C 284 -499 191 -521 68 -522 L 72 -434 C 157 -437 222 -427 267 -405 C 311 -382 334 -351 334 -311 C 334 -273 311 -246 267 -230 C 223 -214 161 -209 82 -217 L 82 -156 L 248 -20 C 198 -14 152 -2 108 15 C 64 33 25 53 -8 76 L 35 193 C 81 161 130 135 182 115 C 233 95 284 86 336 86 C 392 86 441 100 483 128 C 525 156 547 196 547 250 C 547 289 530 321 496 347 C 462 372 411 400 342 432 C 278 461 224 494 181 530 C 138 566 117 620 117 690 C 117 774 149 841 214 891 C 278 940 352 965 436 965 C 495 965 551 956 605 939 C 659 921 710 898 758 870 L 717 754 C 667 784 619 808 573 826 C 526 843 478 852 428 852 C 375 852 330 839 294 813 C 258 787 240 751 240 707 C 240 663 256 630 289 607 C 322 583 372 556 440 524 C 508 492 564 458 606 421 C 648 383 670 331 670 264 C 670 182 639 115 579 62 C 518 9 442 -19 352 -25 L 219 -135 Z" unicode="ş" />
<glyph horiz-adv-x="1006" d="M 465 90 C 554 90 628 112 686 158 C 744 204 774 262 774 334 C 774 399 748 451 696 490 C 644 529 578 567 496 604 C 413 640 340 683 278 734 C 215 785 184 854 184 942 C 184 1059 227 1149 314 1211 C 400 1273 499 1305 610 1305 C 684 1305 757 1294 827 1272 C 897 1250 956 1223 1006 1192 L 973 1067 C 925 1100 866 1128 797 1152 C 727 1176 661 1188 598 1188 C 521 1188 454 1167 398 1126 C 341 1085 313 1028 313 956 C 313 896 338 848 388 812 C 438 776 504 740 586 705 C 672 665 746 619 808 567 C 870 515 901 442 901 348 C 901 232 857 141 771 74 C 685 6 581 -27 459 -27 C 377 -27 297 -14 220 11 C 143 36 77 67 23 104 L 55 231 C 113 191 178 158 252 131 C 325 103 396 90 465 90 Z M 413 1765 L 519 1765 L 652 1487 L 657 1487 L 900 1765 L 1019 1765 L 714 1393 L 573 1393 L 413 1765 Z" unicode="Š" />
<glyph horiz-adv-x="778" d="M 670 264 C 670 178 636 108 570 54 C 504 0 422 -27 326 -27 C 262 -27 201 -17 143 3 C 85 23 34 47 -8 76 L 35 193 C 81 161 130 135 182 115 C 233 95 284 86 336 86 C 392 86 441 100 483 128 C 525 156 547 196 547 250 C 547 289 530 321 496 347 C 462 372 411 400 342 432 C 278 461 224 494 181 530 C 138 566 117 620 117 690 C 117 774 149 841 214 891 C 278 940 352 965 436 965 C 495 965 551 956 605 939 C 659 921 710 898 758 870 L 717 754 C 667 784 619 808 573 826 C 526 843 478 852 428 852 C 375 852 330 839 294 813 C 258 787 240 751 240 707 C 240 663 256 630 289 607 C 322 583 372 556 440 524 C 508 492 564 458 606 421 C 648 383 670 331 670 264 Z M 256 1423 L 362 1423 L 495 1145 L 500 1145 L 743 1423 L 862 1423 L 557 1051 L 416 1051 L 256 1423 Z" unicode="š" />
<glyph horiz-adv-x="1112" d="M 333 -186 C 338 -164 351 -146 372 -130 C 392 -114 418 -107 448 -111 C 482 -113 508 -129 526 -158 C 544 -186 549 -220 542 -258 C 532 -311 505 -358 461 -400 C 417 -441 365 -477 304 -508 L 263 -463 C 320 -431 359 -401 379 -373 C 399 -345 411 -320 417 -297 C 422 -272 418 -252 405 -236 C 391 -220 367 -203 333 -186 Z M 1212 1157 L 762 1157 L 537 0 L 408 0 L 633 1157 L 180 1157 L 205 1280 L 1235 1280 L 1212 1157 Z" unicode="Ţ" />
<glyph horiz-adv-x="684" d="M 172 -186 C 177 -164 190 -146 211 -130 C 231 -114 257 -107 287 -111 C 321 -113 347 -129 365 -158 C 383 -186 388 -220 381 -258 C 371 -311 344 -358 300 -400 C 256 -441 204 -477 143 -508 L 102 -463 C 159 -431 198 -401 218 -373 C 238 -345 250 -320 256 -297 C 261 -272 257 -252 244 -236 C 230 -220 206 -203 172 -186 Z M 522 117 L 543 6 C 516 -5 485 -14 449 -21 C 413 -27 380 -31 348 -31 C 278 -31 220 -13 174 21 C 127 56 104 108 104 176 C 104 194 105 214 109 234 C 113 254 117 276 123 299 L 238 817 L 100 827 L 106 907 L 264 940 L 313 1153 L 434 1153 L 385 934 L 694 934 L 688 819 L 358 819 L 242 289 C 238 270 234 253 230 238 C 226 223 225 209 225 195 C 225 155 238 126 264 108 C 290 90 323 82 362 82 C 392 82 421 85 447 92 C 473 99 498 107 522 117 Z" unicode="ţ" />
<glyph horiz-adv-x="1112" d="M 491 1765 L 597 1765 L 730 1487 L 735 1487 L 978 1765 L 1097 1765 L 792 1393 L 651 1393 L 491 1765 Z M 1212 1157 L 762 1157 L 537 0 L 408 0 L 633 1157 L 180 1157 L 205 1280 L 1235 1280 L 1212 1157 Z" unicode="Ť" />
<glyph horiz-adv-x="684" d="M 599 1399 C 606 1424 620 1445 642 1462 C 664 1478 689 1487 718 1487 C 754 1487 785 1472 810 1443 C 834 1413 847 1379 847 1341 C 847 1262 810 1191 737 1127 C 664 1063 592 1013 521 979 L 476 1036 C 531 1065 583 1103 632 1150 C 681 1196 706 1242 706 1286 C 706 1310 694 1332 671 1351 C 648 1370 624 1386 599 1399 Z M 522 117 L 543 6 C 516 -5 485 -14 449 -21 C 413 -27 380 -31 348 -31 C 278 -31 220 -13 174 21 C 127 56 104 108 104 176 C 104 194 105 214 109 234 C 113 254 117 276 123 299 L 238 817 L 100 827 L 106 907 L 264 940 L 313 1153 L 434 1153 L 385 934 L 694 934 L 688 819 L 358 819 L 242 289 C 238 270 234 253 230 238 C 226 223 225 209 225 195 C 225 155 238 126 264 108 C 290 90 323 82 362 82 C 392 82 421 85 447 92 C 473 99 498 107 522 117 Z" unicode="ť" />
<glyph horiz-adv-x="1233" d="M 588 -27 C 452 -27 341 6 255 73 C 168 139 125 232 125 352 C 125 386 127 419 132 452 C 136 485 141 513 145 535 L 293 1280 L 422 1280 L 276 530 C 272 510 267 487 263 461 C 258 434 256 406 256 377 C 256 287 285 217 345 168 C 404 118 488 94 596 94 C 696 94 778 127 841 193 C 903 259 945 345 967 453 L 1128 1280 L 1257 1280 L 1096 438 C 1068 296 1011 183 926 99 C 841 15 728 -27 588 -27 Z M 1057 1440 L 532 1440 L 557 1532 L 1065 1532 L 1057 1440 Z" unicode="Ū" />
<glyph horiz-adv-x="1034" d="M 231 938 L 358 938 L 248 369 C 244 349 240 330 236 310 C 232 290 231 272 231 256 C 231 205 247 165 279 136 C 311 106 356 92 416 92 C 464 92 515 104 567 130 C 619 156 667 188 711 227 L 850 938 L 977 938 L 795 0 L 662 -27 L 688 115 C 640 74 588 40 534 13 C 480 -13 425 -27 369 -27 C 288 -27 223 -3 174 43 C 124 90 100 151 100 225 C 100 240 101 260 105 285 C 109 309 113 332 117 352 L 231 938 Z M 889 1098 L 364 1098 L 389 1190 L 897 1190 L 889 1098 Z" unicode="ū" />
<glyph horiz-adv-x="1233" d="M 588 -27 C 452 -27 341 6 255 73 C 168 139 125 232 125 352 C 125 386 127 419 132 452 C 136 485 141 513 145 535 L 293 1280 L 422 1280 L 276 530 C 272 510 267 487 263 461 C 258 434 256 406 256 377 C 256 287 285 217 345 168 C 404 118 488 94 596 94 C 696 94 778 127 841 193 C 903 259 945 345 967 453 L 1128 1280 L 1257 1280 L 1096 438 C 1068 296 1011 183 926 99 C 841 15 728 -27 588 -27 Z M 1154 1774 C 1120 1672 1074 1585 1015 1511 C 955 1437 880 1401 790 1401 C 694 1401 629 1438 595 1514 C 560 1589 544 1676 546 1774 L 640 1774 C 644 1687 659 1620 685 1573 C 711 1526 750 1503 802 1503 C 852 1503 897 1525 938 1570 C 979 1615 1018 1683 1054 1774 L 1154 1774 Z" unicode="Ŭ" />
<glyph horiz-adv-x="1034" d="M 231 938 L 358 938 L 248 369 C 244 349 240 330 236 310 C 232 290 231 272 231 256 C 231 205 247 165 279 136 C 311 106 356 92 416 92 C 464 92 515 104 567 130 C 619 156 667 188 711 227 L 850 938 L 977 938 L 795 0 L 662 -27 L 688 115 C 640 74 588 40 534 13 C 480 -13 425 -27 369 -27 C 288 -27 223 -3 174 43 C 124 90 100 151 100 225 C 100 240 101 260 105 285 C 109 309 113 332 117 352 L 231 938 Z M 978 1432 C 944 1330 898 1243 839 1169 C 779 1095 704 1059 614 1059 C 518 1059 453 1096 419 1172 C 384 1247 368 1334 370 1432 L 464 1432 C 468 1345 483 1278 509 1231 C 535 1184 574 1161 626 1161 C 676 1161 721 1183 762 1228 C 803 1273 842 1341 878 1432 L 978 1432 Z" unicode="ŭ" />
<glyph horiz-adv-x="1233" d="M 1054 1614 C 1054 1550 1029 1497 981 1457 C 932 1417 873 1397 804 1397 C 738 1397 682 1415 636 1451 C 590 1487 567 1536 567 1597 C 567 1661 591 1714 640 1756 C 688 1798 748 1819 818 1819 C 884 1819 940 1800 986 1762 C 1031 1724 1054 1675 1054 1614 Z M 964 1612 C 964 1650 949 1682 921 1707 C 893 1732 858 1745 816 1745 C 771 1745 734 1731 704 1705 C 674 1678 659 1644 659 1604 C 659 1564 673 1532 701 1507 C 729 1482 764 1470 806 1470 C 850 1470 887 1483 918 1510 C 948 1537 964 1571 964 1612 Z M 588 -27 C 452 -27 341 6 255 73 C 168 139 125 232 125 352 C 125 386 127 419 132 452 C 136 485 141 513 145 535 L 293 1280 L 422 1280 L 276 530 C 272 510 267 487 263 461 C 258 434 256 406 256 377 C 256 287 285 217 345 168 C 404 118 488 94 596 94 C 696 94 778 127 841 193 C 903 259 945 345 967 453 L 1128 1280 L 1257 1280 L 1096 438 C 1068 296 1011 183 926 99 C 841 15 728 -27 588 -27 Z" unicode="Ů" />
<glyph horiz-adv-x="1034" d="M 899 1272 C 899 1208 874 1155 826 1115 C 777 1075 718 1055 649 1055 C 583 1055 527 1073 481 1109 C 435 1145 412 1194 412 1255 C 412 1319 436 1372 485 1414 C 533 1456 593 1477 663 1477 C 729 1477 785 1458 831 1420 C 876 1382 899 1333 899 1272 Z M 809 1270 C 809 1308 794 1340 766 1365 C 738 1390 703 1403 661 1403 C 616 1403 579 1389 549 1363 C 519 1336 504 1302 504 1262 C 504 1222 518 1190 546 1165 C 574 1140 609 1128 651 1128 C 695 1128 732 1141 763 1168 C 793 1195 809 1229 809 1270 Z M 231 938 L 358 938 L 248 369 C 244 349 240 330 236 310 C 232 290 231 272 231 256 C 231 205 247 165 279 136 C 311 106 356 92 416 92 C 464 92 515 104 567 130 C 619 156 667 188 711 227 L 850 938 L 977 938 L 795 0 L 662 -27 L 688 115 C 640 74 588 40 534 13 C 480 -13 425 -27 369 -27 C 288 -27 223 -3 174 43 C 124 90 100 151 100 225 C 100 240 101 260 105 285 C 109 309 113 332 117 352 L 231 938 Z" unicode="ů" />
<glyph horiz-adv-x="1233" d="M 588 -27 C 452 -27 341 6 255 73 C 168 139 125 232 125 352 C 125 386 127 419 132 452 C 136 485 141 513 145 535 L 293 1280 L 422 1280 L 276 530 C 272 510 267 487 263 461 C 258 434 256 406 256 377 C 256 287 285 217 345 168 C 404 118 488 94 596 94 C 696 94 778 127 841 193 C 903 259 945 345 967 453 L 1128 1280 L 1257 1280 L 1096 438 C 1068 296 1011 183 926 99 C 841 15 728 -27 588 -27 Z M 950 1755 L 614 1393 L 504 1393 L 809 1755 L 950 1755 Z M 1292 1755 L 934 1393 L 821 1393 L 1151 1755 L 1292 1755 Z" unicode="Ű" />
<glyph horiz-adv-x="1034" d="M 231 938 L 358 938 L 248 369 C 244 349 240 330 236 310 C 232 290 231 272 231 256 C 231 205 247 165 279 136 C 311 106 356 92 416 92 C 464 92 515 104 567 130 C 619 156 667 188 711 227 L 850 938 L 977 938 L 795 0 L 662 -27 L 688 115 C 640 74 588 40 534 13 C 480 -13 425 -27 369 -27 C 288 -27 223 -3 174 43 C 124 90 100 151 100 225 C 100 240 101 260 105 285 C 109 309 113 332 117 352 L 231 938 Z M 806 1413 L 470 1051 L 360 1051 L 665 1413 L 806 1413 Z M 1148 1413 L 790 1051 L 677 1051 L 1007 1413 L 1148 1413 Z" unicode="ű" />
<glyph horiz-adv-x="1233" d="M 627 -436 C 571 -431 528 -410 498 -374 C 467 -338 457 -292 469 -236 C 478 -192 498 -152 529 -116 C 559 -80 594 -50 633 -25 C 627 -25 619 -25 610 -26 C 601 -26 594 -27 588 -27 C 452 -27 342 6 256 74 C 170 141 127 234 127 352 C 127 386 129 419 134 453 C 138 487 143 515 147 537 L 293 1280 L 422 1280 L 276 530 C 272 510 267 487 263 461 C 258 434 256 406 256 377 C 256 287 285 217 345 168 C 404 118 488 94 596 94 C 696 94 778 127 842 193 C 905 259 947 345 969 453 L 1128 1280 L 1257 1280 L 1096 438 C 1075 335 1040 248 992 178 C 944 108 881 52 803 12 C 747 -18 701 -53 665 -93 C 629 -132 607 -173 600 -215 C 594 -246 597 -272 611 -293 C 625 -314 646 -326 676 -328 C 693 -328 712 -326 733 -322 C 753 -318 771 -311 786 -301 L 799 -399 C 778 -410 753 -419 723 -427 C 693 -435 661 -438 627 -436 Z" unicode="Ų" />
<glyph horiz-adv-x="1034" d="M 231 938 L 358 938 L 248 369 C 244 349 240 330 236 310 C 232 290 231 272 231 256 C 231 205 247 165 279 136 C 311 106 356 92 416 92 C 464 92 515 104 567 130 C 619 156 667 188 713 227 L 850 938 L 977 938 L 793 -14 C 727 -31 670 -63 620 -109 C 570 -155 540 -201 532 -246 C 526 -277 529 -303 543 -324 C 557 -344 578 -356 608 -358 C 625 -359 644 -357 665 -353 C 685 -349 703 -342 719 -332 L 731 -430 C 711 -441 686 -450 656 -458 C 626 -466 593 -469 559 -467 C 504 -461 461 -440 431 -404 C 400 -368 390 -322 401 -266 C 413 -204 446 -148 500 -99 C 554 -49 610 -14 670 8 L 690 117 C 642 76 590 42 535 14 C 480 -13 425 -27 371 -27 C 289 -27 223 -3 175 43 C 126 90 102 151 102 227 C 102 242 103 262 106 286 C 109 310 113 332 117 354 L 231 938 Z" unicode="ų" />
<glyph horiz-adv-x="1851" d="M 1408 1403 L 1302 1403 L 1165 1679 L 1161 1679 L 919 1403 L 800 1403 L 1105 1776 L 1249 1776 L 1408 1403 Z M 1059 1120 L 494 0 L 367 0 L 250 1280 L 385 1280 L 469 188 L 1008 1280 L 1163 1280 L 1282 188 L 1780 1280 L 1917 1280 L 1311 0 L 1184 0 L 1059 1120 Z" unicode="Ŵ" />
<glyph horiz-adv-x="1329" d="M 1093 1061 L 987 1061 L 850 1337 L 846 1337 L 604 1061 L 485 1061 L 790 1434 L 934 1434 L 1093 1061 Z M 328 -4 L 215 -4 L 117 938 L 248 938 L 315 190 L 709 940 L 825 940 L 926 186 L 1270 938 L 1413 938 L 950 -4 L 836 -4 L 735 752 L 328 -4 Z" unicode="ŵ" />
<glyph horiz-adv-x="1073" d="M 1204 1280 L 610 510 L 510 0 L 383 0 L 483 518 L 184 1280 L 324 1280 L 569 637 L 1051 1280 L 1204 1280 Z M 1017 1403 L 911 1403 L 774 1679 L 770 1679 L 528 1403 L 409 1403 L 714 1776 L 858 1776 L 1017 1403 Z" unicode="Ŷ" />
<glyph horiz-adv-x="866" d="M -150 -328 C -133 -340 -116 -350 -100 -358 C -84 -366 -64 -371 -41 -371 C -15 -371 11 -359 41 -336 C 71 -313 108 -264 154 -188 L 276 18 L 98 938 L 229 938 L 369 162 L 811 938 L 952 938 L 383 -23 L 258 -238 C 198 -338 145 -406 99 -441 C 52 -476 3 -494 -47 -494 C -81 -494 -113 -487 -142 -475 C -170 -462 -194 -448 -213 -434 L -150 -328 Z M 839 1061 L 733 1061 L 596 1337 L 592 1337 L 350 1061 L 231 1061 L 536 1434 L 680 1434 L 839 1061 Z" unicode="ŷ" />
<glyph horiz-adv-x="1073" d="M 1204 1280 L 610 510 L 510 0 L 383 0 L 483 518 L 184 1280 L 324 1280 L 569 637 L 1051 1280 L 1204 1280 Z M 614 1556 C 614 1528 605 1504 587 1484 C 569 1464 545 1454 515 1454 C 487 1454 464 1464 446 1484 C 428 1504 419 1528 419 1556 C 419 1582 428 1606 446 1626 C 464 1646 487 1657 515 1657 C 545 1657 569 1646 587 1626 C 605 1606 614 1582 614 1556 Z M 1009 1556 C 1009 1528 1000 1504 982 1484 C 964 1464 941 1454 913 1454 C 883 1454 858 1464 840 1484 C 821 1504 812 1528 812 1556 C 812 1582 821 1606 840 1626 C 858 1646 883 1657 913 1657 C 941 1657 964 1646 982 1626 C 1000 1606 1009 1582 1009 1556 Z" unicode="Ÿ" />
<glyph horiz-adv-x="1044" d="M 1025 1769 L 642 1403 L 542 1403 L 857 1769 L 1025 1769 Z M 881 0 L -41 0 L -20 96 L 934 1159 L 207 1159 L 229 1280 L 1128 1280 L 1110 1182 L 158 121 L 903 121 L 881 0 Z" unicode="Ź" />
<glyph horiz-adv-x="797" d="M 872 1427 L 489 1061 L 389 1061 L 704 1427 L 872 1427 Z M 657 0 L -53 0 L -35 88 L 645 823 L 125 823 L 147 938 L 842 938 L 823 850 L 141 115 L 680 115 L 657 0 Z" unicode="ź" />
<glyph horiz-adv-x="1044" d="M 881 0 L -41 0 L -20 96 L 934 1159 L 207 1159 L 229 1280 L 1128 1280 L 1110 1182 L 158 121 L 903 121 L 881 0 Z M 796 1554 C 796 1528 787 1504 769 1484 C 751 1464 728 1454 700 1454 C 671 1454 648 1464 631 1484 C 614 1504 606 1528 606 1554 C 606 1580 614 1603 631 1623 C 648 1643 671 1653 700 1653 C 728 1653 751 1643 769 1623 C 787 1603 796 1580 796 1554 Z" unicode="Ż" />
<glyph horiz-adv-x="797" d="M 657 0 L -53 0 L -35 88 L 645 823 L 125 823 L 147 938 L 842 938 L 823 850 L 141 115 L 680 115 L 657 0 Z M 614 1212 C 614 1186 605 1162 587 1142 C 569 1122 546 1112 518 1112 C 489 1112 466 1122 449 1142 C 432 1162 424 1186 424 1212 C 424 1238 432 1261 449 1281 C 466 1301 489 1311 518 1311 C 546 1311 569 1301 587 1281 C 605 1261 614 1238 614 1212 Z" unicode="ż" />
<glyph horiz-adv-x="1044" d="M 881 0 L -41 0 L -20 96 L 934 1159 L 207 1159 L 229 1280 L 1128 1280 L 1110 1182 L 158 121 L 903 121 L 881 0 Z M 417 1765 L 523 1765 L 656 1487 L 661 1487 L 904 1765 L 1023 1765 L 718 1393 L 577 1393 L 417 1765 Z" unicode="Ž" />
<glyph horiz-adv-x="797" d="M 657 0 L -53 0 L -35 88 L 645 823 L 125 823 L 147 938 L 842 938 L 823 850 L 141 115 L 680 115 L 657 0 Z M 301 1423 L 407 1423 L 540 1145 L 545 1145 L 788 1423 L 907 1423 L 602 1051 L 461 1051 L 301 1423 Z" unicode="ž" />
<glyph horiz-adv-x="735" d="M 215 268 L 299 702 L 90 713 L 106 793 L 322 823 L 354 993 C 375 1095 409 1170 457 1219 C 504 1267 566 1292 643 1292 C 683 1292 720 1285 755 1273 C 789 1260 819 1245 844 1227 C 844 1225 835 1207 817 1172 C 799 1137 791 1120 791 1120 C 768 1135 744 1148 719 1158 C 694 1168 668 1174 641 1174 C 596 1174 560 1158 534 1126 C 508 1094 488 1046 475 981 L 442 817 L 686 817 L 670 705 L 420 705 L 334 256 C 316 169 286 103 242 57 C 198 11 135 -20 51 -37 L 23 80 C 83 90 128 110 157 142 C 185 173 205 215 215 268 Z" unicode="ƒ" />
<glyph horiz-adv-x="1186" d="M 1110 2015 L 727 1649 L 627 1649 L 942 2015 L 1110 2015 Z M 653 1223 C 617 1237 589 1260 567 1292 C 545 1323 535 1359 535 1399 C 535 1463 559 1515 607 1557 C 655 1599 714 1620 784 1620 C 851 1620 907 1600 953 1562 C 999 1524 1022 1474 1022 1413 C 1022 1362 1006 1319 975 1283 C 943 1247 902 1222 850 1210 L 1067 0 L 936 0 L 874 356 L 283 356 L 78 0 L -66 0 L 653 1223 Z M 932 1411 C 932 1450 918 1482 890 1508 C 862 1533 826 1546 784 1546 C 739 1546 702 1532 672 1505 C 642 1477 627 1443 627 1403 C 627 1365 641 1333 669 1309 C 697 1284 731 1272 772 1272 C 818 1272 857 1285 887 1312 C 917 1338 932 1371 932 1411 Z M 854 475 L 739 1147 L 352 475 L 854 475 Z" unicode="Ǻ" />
<glyph horiz-adv-x="905" d="M 931 1906 L 548 1540 L 448 1540 L 763 1906 L 931 1906 Z" unicode="ǻ" />
<glyph horiz-adv-x="1677" d="M 1572 1769 L 1189 1403 L 1089 1403 L 1404 1769 L 1572 1769 Z M 326 356 L 53 0 L -92 0 L 891 1280 L 1739 1280 L 1716 1159 L 1073 1159 L 985 702 L 1520 702 L 1497 582 L 961 582 L 870 121 L 1513 121 L 1491 0 L 717 0 L 786 356 L 326 356 Z M 418 477 L 811 477 L 944 1165 L 418 477 Z" unicode="Ǽ" />
<glyph horiz-adv-x="1526" d="M 1212 1427 L 829 1061 L 729 1061 L 1044 1427 L 1212 1427 Z M 782 791 C 825 842 876 884 936 916 C 996 948 1062 965 1135 965 C 1230 965 1308 937 1370 881 C 1431 825 1462 752 1462 664 C 1462 633 1458 600 1450 566 C 1442 532 1432 500 1419 471 L 782 467 C 781 459 780 451 780 444 C 780 436 780 429 780 422 C 780 318 808 237 865 179 C 921 121 996 92 1090 92 C 1129 92 1168 97 1208 108 C 1247 118 1283 131 1315 145 L 1331 31 C 1298 13 1258 0 1212 -11 C 1165 -21 1121 -27 1079 -27 C 992 -27 916 -6 850 33 C 784 73 734 129 700 201 C 639 120 575 62 508 26 C 440 -9 373 -27 307 -27 C 223 -27 156 0 105 54 C 54 108 29 167 29 231 C 29 332 79 412 179 472 C 279 532 441 558 664 551 L 674 602 C 688 678 677 738 642 782 C 607 826 547 848 463 848 C 416 848 367 839 315 823 C 263 806 218 786 178 764 L 162 879 C 201 901 249 920 307 938 C 365 956 423 965 481 965 C 558 965 623 950 676 921 C 728 892 764 849 782 791 Z M 653 461 C 475 459 348 439 274 400 C 199 361 162 310 162 246 C 162 198 178 160 210 131 C 242 102 286 88 342 88 C 390 88 442 102 500 132 C 558 161 614 209 670 276 C 661 304 655 333 653 364 C 651 394 651 427 653 461 Z M 801 565 C 828 565 921 565 1079 566 C 1237 566 1317 567 1317 567 C 1322 580 1326 594 1328 609 C 1330 624 1331 639 1331 653 C 1331 712 1312 760 1274 796 C 1236 832 1184 850 1118 850 C 1042 850 975 822 917 768 C 859 713 821 645 801 565 Z" unicode="ǽ" />
<glyph horiz-adv-x="1440" d="M 1405 721 C 1405 526 1338 353 1204 201 C 1070 49 901 -27 698 -27 C 635 -27 575 -18 518 -1 C 461 16 410 40 365 70 L 199 -137 L 86 -137 L 295 125 C 239 177 195 240 163 316 C 131 391 115 473 115 563 C 115 759 182 932 316 1082 C 450 1232 619 1307 823 1307 C 887 1307 948 1298 1006 1281 C 1063 1263 1115 1238 1161 1206 L 1331 1417 L 1444 1417 L 1231 1151 C 1285 1100 1327 1037 1358 963 C 1389 889 1405 808 1405 721 Z M 1083 1108 C 1045 1134 1003 1155 957 1169 C 910 1183 861 1190 811 1190 C 641 1190 505 1126 402 998 C 299 870 248 729 248 573 C 248 503 259 438 282 379 C 305 319 337 269 377 227 L 1083 1108 Z M 1149 1051 L 444 170 C 480 144 521 125 566 111 C 611 97 659 90 711 90 C 879 90 1014 154 1117 283 C 1220 411 1272 553 1272 709 C 1272 777 1261 840 1239 898 C 1217 956 1187 1007 1149 1051 Z M 1281 1769 L 898 1403 L 798 1403 L 1113 1769 L 1281 1769 Z" unicode="Ǿ" />
<glyph horiz-adv-x="1085" d="M 1018 532 C 1018 387 969 258 873 145 C 776 31 650 -25 496 -25 C 450 -25 408 -19 370 -8 C 332 2 296 18 264 39 L 125 -137 L 8 -137 L 195 98 C 158 136 130 181 110 233 C 90 285 80 342 80 403 C 80 547 128 676 224 791 C 320 905 445 963 600 963 C 644 963 685 957 724 946 C 762 935 797 919 829 899 L 971 1077 L 1087 1077 C 1087 1077 1061 1044 1011 979 C 960 914 923 868 901 840 C 937 802 966 756 987 703 C 1007 650 1018 593 1018 532 Z M 756 805 C 732 819 707 830 679 839 C 651 847 620 852 588 852 C 469 852 376 804 308 709 C 240 614 207 514 207 410 C 207 368 212 328 224 292 C 236 256 252 224 274 197 L 756 805 Z M 889 524 C 889 566 883 606 871 644 C 859 681 842 713 821 741 L 340 135 C 363 119 389 108 418 100 C 446 92 477 88 510 88 C 627 88 719 134 787 227 C 855 320 889 419 889 524 Z M 1027 1427 L 644 1061 L 544 1061 L 859 1427 L 1027 1427 Z" unicode="ǿ" />
<glyph horiz-adv-x="1006" d="M 342 -186 C 347 -164 360 -146 381 -130 C 401 -114 427 -107 457 -111 C 491 -113 517 -129 535 -158 C 553 -186 558 -220 551 -258 C 541 -311 514 -358 470 -400 C 426 -441 374 -477 313 -508 L 272 -463 C 329 -431 368 -401 388 -373 C 408 -345 420 -320 426 -297 C 431 -272 427 -252 414 -236 C 400 -220 376 -203 342 -186 Z M 465 90 C 554 90 628 112 686 158 C 744 204 774 262 774 334 C 774 399 748 451 696 490 C 644 529 578 567 496 604 C 413 640 340 683 278 734 C 215 785 184 854 184 942 C 184 1059 227 1149 314 1211 C 400 1273 499 1305 610 1305 C 684 1305 757 1294 827 1272 C 897 1250 956 1223 1006 1192 L 973 1067 C 925 1100 866 1128 797 1152 C 727 1176 661 1188 598 1188 C 521 1188 454 1167 398 1126 C 341 1085 313 1028 313 956 C 313 896 338 848 388 812 C 438 776 504 740 586 705 C 672 665 746 619 808 567 C 870 515 901 442 901 348 C 901 232 857 141 771 74 C 685 6 581 -27 459 -27 C 377 -27 297 -14 220 11 C 143 36 77 67 23 104 L 55 231 C 113 191 178 158 252 131 C 325 103 396 90 465 90 Z" unicode="Ș" />
<glyph horiz-adv-x="778" d="M 192 -186 C 197 -164 210 -146 231 -130 C 251 -114 277 -107 307 -111 C 341 -113 367 -129 385 -158 C 403 -186 408 -220 401 -258 C 391 -311 364 -358 320 -400 C 276 -441 224 -477 163 -508 L 122 -463 C 179 -431 218 -401 238 -373 C 258 -345 270 -320 276 -297 C 281 -272 277 -252 264 -236 C 250 -220 226 -203 192 -186 Z M 670 264 C 670 178 636 108 570 54 C 504 0 422 -27 326 -27 C 262 -27 201 -17 143 3 C 85 23 34 47 -8 76 L 35 193 C 81 161 130 135 182 115 C 233 95 284 86 336 86 C 392 86 441 100 483 128 C 525 156 547 196 547 250 C 547 289 530 321 496 347 C 462 372 411 400 342 432 C 278 461 224 494 181 530 C 138 566 117 620 117 690 C 117 774 149 841 214 891 C 278 940 352 965 436 965 C 495 965 551 956 605 939 C 659 921 710 898 758 870 L 717 754 C 667 784 619 808 573 826 C 526 843 478 852 428 852 C 375 852 330 839 294 813 C 258 787 240 751 240 707 C 240 663 256 630 289 607 C 322 583 372 556 440 524 C 508 492 564 458 606 421 C 648 383 670 331 670 264 Z" unicode="ș" />
<glyph horiz-adv-x="1112" d="M 333 -186 C 338 -164 351 -146 372 -130 C 392 -114 418 -107 448 -111 C 482 -113 508 -129 526 -158 C 544 -186 549 -220 542 -258 C 532 -311 505 -358 461 -400 C 417 -441 365 -477 304 -508 L 263 -463 C 320 -431 359 -401 379 -373 C 399 -345 411 -320 417 -297 C 422 -272 418 -252 405 -236 C 391 -220 367 -203 333 -186 Z M 1212 1157 L 762 1157 L 537 0 L 408 0 L 633 1157 L 180 1157 L 205 1280 L 1235 1280 L 1212 1157 Z" unicode="Ț" />
<glyph horiz-adv-x="684" d="M 172 -186 C 177 -164 190 -146 211 -130 C 231 -114 257 -107 287 -111 C 321 -113 347 -129 365 -158 C 383 -186 388 -220 381 -258 C 371 -311 344 -358 300 -400 C 256 -441 204 -477 143 -508 L 102 -463 C 159 -431 198 -401 218 -373 C 238 -345 250 -320 256 -297 C 261 -272 257 -252 244 -236 C 230 -220 206 -203 172 -186 Z M 522 117 L 543 6 C 516 -5 485 -14 449 -21 C 413 -27 380 -31 348 -31 C 278 -31 220 -13 174 21 C 127 56 104 108 104 176 C 104 194 105 214 109 234 C 113 254 117 276 123 299 L 238 817 L 100 827 L 106 907 L 264 940 L 313 1153 L 434 1153 L 385 934 L 694 934 L 688 819 L 358 819 L 242 289 C 238 270 234 253 230 238 C 226 223 225 209 225 195 C 225 155 238 126 264 108 C 290 90 323 82 362 82 C 392 82 421 85 447 92 C 473 99 498 107 522 117 Z" unicode="ț" />
<glyph horiz-adv-x="424" d="M -137 -512 L -207 -420 C -133 -390 -77 -351 -39 -301 C -1 -251 27 -176 45 -78 C 44 -86 77 79 143 419 C 209 758 242 928 242 928 L 371 954 C 371 954 337 779 269 430 C 201 80 168 -90 170 -82 C 146 -203 111 -296 64 -360 C 16 -424 -50 -475 -137 -512 Z" unicode="ȷ" />
<glyph horiz-adv-x="813" d="M 829 1061 L 723 1061 L 586 1337 L 582 1337 L 340 1061 L 221 1061 L 526 1434 L 670 1434 L 829 1061 Z" unicode="ˆ" />
<glyph horiz-adv-x="813" d="M 293 1423 L 399 1423 L 532 1145 L 537 1145 L 780 1423 L 899 1423 L 594 1051 L 453 1051 L 293 1423 Z" unicode="ˇ" />
<glyph horiz-adv-x="813" d="M 901 1432 C 867 1330 821 1243 762 1169 C 702 1095 627 1059 537 1059 C 441 1059 376 1096 342 1172 C 307 1247 291 1334 293 1432 L 387 1432 C 391 1345 406 1278 432 1231 C 458 1184 497 1161 549 1161 C 599 1161 644 1183 685 1228 C 726 1273 765 1341 801 1432 L 901 1432 Z" unicode="˘" />
<glyph horiz-adv-x="811" d="M 649 1212 C 649 1186 640 1162 622 1142 C 604 1122 581 1112 553 1112 C 524 1112 501 1122 484 1142 C 467 1162 459 1186 459 1212 C 459 1238 467 1261 484 1281 C 501 1301 524 1311 553 1311 C 581 1311 604 1301 622 1281 C 640 1261 649 1238 649 1212 Z" unicode="˙" />
<glyph horiz-adv-x="813" d="M 811 1272 C 811 1208 786 1155 738 1115 C 689 1075 630 1055 561 1055 C 495 1055 439 1073 393 1109 C 347 1145 324 1194 324 1255 C 324 1319 348 1372 397 1414 C 445 1456 505 1477 575 1477 C 641 1477 697 1458 743 1420 C 788 1382 811 1333 811 1272 Z M 721 1270 C 721 1308 706 1340 678 1365 C 650 1390 615 1403 573 1403 C 528 1403 491 1389 461 1363 C 431 1336 416 1302 416 1262 C 416 1222 430 1190 458 1165 C 486 1140 521 1128 563 1128 C 607 1128 644 1141 675 1168 C 705 1195 721 1229 721 1270 Z" unicode="˚" />
<glyph horiz-adv-x="813" d="M 446 -459 C 418 -474 388 -486 356 -494 C 324 -502 292 -506 260 -506 C 203 -506 152 -489 106 -455 C 60 -421 37 -373 37 -313 C 37 -223 81 -146 169 -81 C 257 -15 345 27 434 47 L 563 47 C 465 9 370 -38 280 -98 C 190 -158 145 -225 145 -301 C 145 -341 159 -370 187 -388 C 215 -406 249 -416 287 -416 C 314 -416 341 -412 369 -405 C 397 -397 424 -388 451 -377 L 446 -459 Z" unicode="˛" />
<glyph horiz-adv-x="813" d="M 907 1303 C 885 1233 858 1177 825 1134 C 791 1090 748 1069 694 1069 C 626 1069 570 1092 524 1140 C 478 1188 435 1212 395 1212 C 371 1212 350 1200 334 1176 C 318 1152 302 1121 287 1083 L 195 1083 C 215 1152 241 1208 275 1252 C 308 1295 352 1317 408 1317 C 474 1317 531 1293 577 1245 C 623 1197 667 1174 707 1174 C 730 1174 750 1185 767 1209 C 783 1232 799 1263 813 1303 L 907 1303 Z" unicode="˜" />
<glyph horiz-adv-x="813" d="M 690 1413 L 354 1051 L 244 1051 L 549 1413 L 690 1413 Z M 1032 1413 L 674 1051 L 561 1051 L 891 1413 L 1032 1413 Z" unicode="˝" />
<glyph horiz-adv-x="1040" d="M 274 938 L 274 340 C 274 253 299 190 351 152 C 403 113 461 94 526 94 C 579 94 632 111 686 146 C 739 181 766 245 766 338 L 766 938 L 893 938 L 893 0 L 766 0 L 766 111 C 733 61 696 25 654 5 C 612 -14 569 -25 524 -25 C 479 -25 435 -16 393 2 C 350 20 310 55 274 109 L 274 -477 L 147 -477 L 147 938 L 274 938 Z" unicode="μ" />
<glyph horiz-adv-x="1851" d="M 1059 1120 L 494 0 L 367 0 L 250 1280 L 385 1280 L 469 188 L 1008 1280 L 1163 1280 L 1282 188 L 1780 1280 L 1917 1280 L 1311 0 L 1184 0 L 1059 1120 Z M 1145 1403 L 1050 1403 L 811 1769 L 975 1769 L 1145 1403 Z" unicode="Ẁ" />
<glyph horiz-adv-x="1329" d="M 328 -4 L 215 -4 L 117 938 L 248 938 L 315 190 L 709 940 L 825 940 L 926 186 L 1270 938 L 1413 938 L 950 -4 L 836 -4 L 735 752 L 328 -4 Z M 819 1061 L 724 1061 L 485 1427 L 649 1427 L 819 1061 Z" unicode="ẁ" />
<glyph horiz-adv-x="1851" d="M 1507 1769 L 1124 1403 L 1024 1403 L 1339 1769 L 1507 1769 Z M 1059 1120 L 494 0 L 367 0 L 250 1280 L 385 1280 L 469 188 L 1008 1280 L 1163 1280 L 1282 188 L 1780 1280 L 1917 1280 L 1311 0 L 1184 0 L 1059 1120 Z" unicode="Ẃ" />
<glyph horiz-adv-x="1329" d="M 1226 1427 L 843 1061 L 743 1061 L 1058 1427 L 1226 1427 Z M 328 -4 L 215 -4 L 117 938 L 248 938 L 315 190 L 709 940 L 825 940 L 926 186 L 1270 938 L 1413 938 L 950 -4 L 836 -4 L 735 752 L 328 -4 Z" unicode="ẃ" />
<glyph horiz-adv-x="1851" d="M 1034 1556 C 1034 1528 1025 1504 1007 1484 C 989 1464 965 1454 935 1454 C 907 1454 884 1464 866 1484 C 848 1504 839 1528 839 1556 C 839 1582 848 1606 866 1626 C 884 1646 907 1657 935 1657 C 965 1657 989 1646 1007 1626 C 1025 1606 1034 1582 1034 1556 Z M 1429 1556 C 1429 1528 1420 1504 1402 1484 C 1384 1464 1361 1454 1333 1454 C 1303 1454 1278 1464 1260 1484 C 1241 1504 1232 1528 1232 1556 C 1232 1582 1241 1606 1260 1626 C 1278 1646 1303 1657 1333 1657 C 1361 1657 1384 1646 1402 1626 C 1420 1606 1429 1582 1429 1556 Z M 1059 1120 L 494 0 L 367 0 L 250 1280 L 385 1280 L 469 188 L 1008 1280 L 1163 1280 L 1282 188 L 1780 1280 L 1917 1280 L 1311 0 L 1184 0 L 1059 1120 Z" unicode="Ẅ" />
<glyph horiz-adv-x="1329" d="M 711 1214 C 711 1186 702 1162 684 1142 C 666 1122 642 1112 612 1112 C 584 1112 561 1122 543 1142 C 525 1162 516 1186 516 1214 C 516 1240 525 1264 543 1284 C 561 1304 584 1315 612 1315 C 642 1315 666 1304 684 1284 C 702 1264 711 1240 711 1214 Z M 1106 1214 C 1106 1186 1097 1162 1079 1142 C 1061 1122 1038 1112 1010 1112 C 980 1112 955 1122 937 1142 C 918 1162 909 1186 909 1214 C 909 1240 918 1264 937 1284 C 955 1304 980 1315 1010 1315 C 1038 1315 1061 1304 1079 1284 C 1097 1264 1106 1240 1106 1214 Z M 328 -4 L 215 -4 L 117 938 L 248 938 L 315 190 L 709 940 L 825 940 L 926 186 L 1270 938 L 1413 938 L 950 -4 L 836 -4 L 735 752 L 328 -4 Z" unicode="ẅ" />
<glyph horiz-adv-x="156" d="" unicode=" " />
<glyph horiz-adv-x="911" d="M 852 440 L 66 440 L 72 541 L 846 541 L 852 440 Z" unicode="–" />
<glyph horiz-adv-x="1874" d="M 1815 440 L 66 440 L 72 541 L 1808 541 L 1815 440 Z" unicode="—" />
<glyph horiz-adv-x="383" d="M 401 918 C 395 892 381 870 359 854 C 337 837 312 829 285 829 C 247 829 215 843 191 872 C 166 901 154 935 154 973 C 154 1052 190 1124 263 1188 C 335 1252 407 1302 479 1337 L 524 1280 C 469 1250 417 1212 368 1165 C 319 1118 295 1072 295 1028 C 295 1004 306 983 329 964 C 351 945 375 930 401 918 Z" unicode="‘" />
<glyph horiz-adv-x="383" d="M 223 1260 C 230 1285 244 1306 266 1323 C 288 1339 313 1348 342 1348 C 378 1348 409 1333 434 1304 C 458 1274 471 1240 471 1202 C 471 1123 434 1052 361 988 C 288 924 216 874 145 840 L 100 897 C 155 926 207 964 256 1011 C 305 1057 330 1103 330 1147 C 330 1171 318 1193 295 1212 C 272 1231 248 1247 223 1260 Z" unicode="’" />
<glyph horiz-adv-x="383" d="M 2 117 C 9 142 23 163 45 180 C 67 196 92 205 121 205 C 157 205 188 190 213 161 C 237 131 250 97 250 59 C 250 -19 213 -90 140 -154 C 67 -218 -4 -268 -76 -303 L -121 -246 C -65 -216 -13 -177 35 -131 C 84 -85 109 -40 109 4 C 109 28 97 50 74 69 C 51 88 27 104 2 117 Z" unicode="‚" />
<glyph horiz-adv-x="772" d="M 401 918 C 395 892 381 870 359 854 C 337 837 312 829 285 829 C 247 829 215 843 191 872 C 166 901 154 935 154 973 C 154 1052 190 1124 263 1188 C 335 1252 407 1302 479 1337 L 524 1280 C 469 1250 417 1212 368 1165 C 319 1118 295 1072 295 1028 C 295 1004 306 983 329 964 C 351 945 375 930 401 918 Z M 805 918 C 799 892 785 870 763 854 C 741 837 716 829 688 829 C 650 829 619 843 594 872 C 569 901 557 935 557 973 C 557 1052 593 1124 666 1188 C 739 1252 811 1302 883 1337 L 928 1280 C 872 1250 820 1212 771 1165 C 722 1118 698 1072 698 1028 C 698 1004 709 983 732 964 C 755 945 779 930 805 918 Z" unicode="“" />
<glyph horiz-adv-x="772" d="M 223 1260 C 230 1285 244 1306 266 1323 C 288 1339 313 1348 342 1348 C 378 1348 409 1333 434 1304 C 458 1274 471 1240 471 1202 C 471 1123 434 1052 361 988 C 288 924 216 874 145 840 L 100 897 C 155 926 207 964 256 1011 C 305 1057 330 1103 330 1147 C 330 1171 318 1193 295 1212 C 272 1231 248 1247 223 1260 Z M 627 1260 C 633 1285 648 1306 670 1323 C 692 1339 717 1348 745 1348 C 781 1348 812 1333 838 1304 C 864 1274 877 1240 877 1202 C 877 1123 840 1052 766 988 C 692 924 620 874 549 840 L 506 897 C 560 926 611 964 660 1011 C 708 1057 733 1103 733 1147 C 733 1171 721 1193 699 1212 C 676 1231 652 1247 627 1260 Z" unicode="”" />
<glyph horiz-adv-x="772" d="M 4 117 C 11 142 25 163 47 180 C 69 196 94 205 123 205 C 159 205 190 190 215 161 C 239 131 252 97 252 59 C 252 -19 215 -90 142 -154 C 69 -218 -2 -268 -74 -303 L -119 -246 C -63 -216 -11 -177 37 -131 C 86 -85 111 -40 111 4 C 111 28 99 50 76 69 C 53 88 29 104 4 117 Z M 408 117 C 414 142 429 163 451 180 C 473 196 498 205 526 205 C 562 205 593 190 619 161 C 644 131 657 97 657 59 C 657 -19 620 -90 547 -154 C 473 -218 401 -268 330 -303 L 287 -246 C 341 -216 392 -177 441 -131 C 489 -85 514 -40 514 4 C 514 28 502 50 480 69 C 457 88 433 104 408 117 Z" unicode="„" />
<glyph horiz-adv-x="954" d="M 424 801 L 72 801 L 68 897 L 424 897 L 424 1280 L 528 1280 L 528 897 L 885 897 L 883 801 L 528 801 L 528 -258 L 424 -258 L 424 801 Z" unicode="†" />
<glyph horiz-adv-x="954" d="M 424 831 L 72 831 L 68 928 L 424 928 L 424 1280 L 528 1280 L 528 928 L 885 928 L 883 831 L 528 831 L 528 188 L 883 188 L 885 92 L 528 92 L 528 -258 L 424 -258 L 424 92 L 68 92 L 72 188 L 424 188 L 424 831 Z" unicode="‡" />
<glyph horiz-adv-x="1024" d="M 905 475 C 905 445 891 397 864 329 C 836 261 812 216 791 195 C 770 174 725 150 657 122 C 588 94 539 80 510 80 C 481 80 433 94 365 122 C 297 150 253 174 233 195 C 213 216 189 261 160 329 C 131 397 117 445 117 475 C 117 504 131 553 160 621 C 188 689 213 733 233 754 C 253 774 298 798 366 826 C 434 854 483 868 512 868 C 541 868 590 854 658 826 C 726 798 770 774 791 754 C 812 733 836 689 864 621 C 891 553 905 504 905 475 Z" unicode="•" />
<glyph horiz-adv-x="1159" d="M 221 80 C 221 52 211 28 193 6 C 174 -16 150 -27 121 -27 C 90 -27 65 -16 45 6 C 25 28 16 52 16 80 C 16 107 25 131 45 151 C 65 171 90 182 121 182 C 150 182 174 171 193 151 C 211 131 221 107 221 80 Z M 610 80 C 610 52 600 28 581 6 C 561 -16 537 -27 508 -27 C 478 -27 454 -16 435 6 C 415 28 406 52 406 80 C 406 107 415 131 435 151 C 454 171 478 182 508 182 C 537 182 561 171 581 151 C 600 131 610 107 610 80 Z M 997 80 C 997 52 987 28 969 6 C 950 -16 925 -27 895 -27 C 865 -27 841 -16 822 6 C 802 28 793 52 793 80 C 793 107 802 131 822 151 C 841 171 865 182 895 182 C 925 182 950 171 969 151 C 987 131 997 107 997 80 Z" unicode="…" />
<glyph horiz-adv-x="2292" d="M 813 1024 C 813 920 776 830 704 756 C 632 682 543 645 438 645 C 348 645 273 672 211 727 C 149 781 119 855 119 948 C 119 1051 155 1140 228 1215 C 300 1289 387 1327 489 1327 C 579 1327 656 1300 719 1246 C 781 1192 813 1118 813 1024 Z M 721 1010 C 721 1079 698 1134 654 1175 C 610 1216 553 1237 485 1237 C 407 1237 342 1209 290 1154 C 237 1098 211 1032 211 954 C 211 886 233 831 278 791 C 322 751 377 731 442 731 C 520 731 586 758 640 812 C 694 866 721 932 721 1010 Z M 1477 328 C 1477 224 1440 135 1367 61 C 1294 -12 1206 -49 1102 -49 C 1011 -49 935 -21 875 33 C 814 87 784 161 784 254 C 784 358 819 446 891 520 C 963 594 1051 631 1155 631 C 1245 631 1322 603 1384 549 C 1446 495 1477 421 1477 328 Z M 1384 319 C 1384 387 1361 442 1316 482 C 1271 522 1216 543 1151 543 C 1073 543 1008 515 954 459 C 900 403 874 337 874 260 C 874 192 896 137 941 97 C 986 57 1042 37 1108 37 C 1185 37 1250 64 1304 119 C 1357 174 1384 241 1384 319 Z M 2249 328 C 2249 224 2212 135 2139 61 C 2066 -12 1978 -49 1874 -49 C 1783 -49 1707 -21 1647 33 C 1586 87 1556 161 1556 254 C 1556 358 1591 446 1663 520 C 1735 594 1823 631 1927 631 C 2017 631 2094 603 2156 549 C 2218 495 2249 421 2249 328 Z M 2157 319 C 2157 387 2134 442 2089 482 C 2044 522 1989 543 1923 543 C 1845 543 1780 515 1727 459 C 1673 403 1647 337 1647 260 C 1647 192 1669 137 1714 97 C 1758 57 1814 37 1880 37 C 1957 37 2022 64 2076 119 C 2130 174 2157 241 2157 319 Z M 1501 1309 L 209 -31 L 90 -31 L 1384 1309 L 1501 1309 Z" unicode="‰" />
<glyph horiz-adv-x="672" d="M 522 139 L 485 53 L 53 412 L 80 547 L 651 903 L 643 793 L 170 469 L 170 467 L 522 139 Z" unicode="‹" />
<glyph horiz-adv-x="672" d="M 598 408 L 25 51 L 33 162 L 504 483 L 504 485 L 154 815 L 190 903 L 623 543 L 598 408 Z" unicode="›" />
<glyph horiz-adv-x="1221" d="M 1298 1309 L 68 -31 L -41 -31 L 1190 1309 L 1298 1309 Z" unicode="⁄" />
<glyph horiz-adv-x="676" d="M 311 547 C 210 547 141 579 104 644 C 67 709 49 776 49 846 C 49 939 74 1046 126 1166 C 178 1286 269 1346 399 1346 C 500 1346 569 1313 606 1248 C 643 1182 662 1114 662 1044 C 662 951 636 845 585 726 C 533 606 442 547 311 547 Z M 553 1053 C 553 1090 543 1134 524 1184 C 505 1234 461 1260 393 1260 C 297 1260 235 1203 206 1091 C 176 978 162 896 162 844 C 162 804 171 759 189 709 C 207 659 249 635 315 635 C 413 635 477 691 507 803 C 537 915 553 999 553 1053 Z" unicode="⁰" />
<glyph horiz-adv-x="676" d="M 639 754 L 512 754 L 471 557 L 371 557 L 412 754 L 27 754 L 27 825 L 514 1337 L 635 1337 L 530 838 L 653 838 L 639 754 Z M 430 838 L 514 1229 L 141 838 L 430 838 Z" unicode="⁴" />
<glyph horiz-adv-x="676" d="M 233 1022 C 240 1022 249 1023 259 1023 C 269 1023 279 1024 291 1024 C 362 1024 429 1007 493 974 C 556 941 588 886 588 809 C 588 728 558 663 499 614 C 439 565 367 541 281 541 C 241 541 198 547 150 559 C 102 571 62 588 31 608 L 59 698 C 91 678 126 662 166 649 C 205 635 244 629 283 629 C 337 629 384 644 422 674 C 460 704 479 745 479 799 C 479 853 455 891 408 912 C 361 933 314 944 266 944 C 238 944 214 942 192 940 C 170 938 149 934 131 930 L 111 954 L 231 1331 L 657 1331 L 647 1241 L 303 1241 L 233 1022 Z" unicode="⁵" />
<glyph horiz-adv-x="676" d="M 612 1346 L 631 1260 C 540 1248 453 1219 369 1173 C 285 1126 224 1059 186 973 L 188 971 C 218 990 251 1005 287 1017 C 323 1028 360 1034 397 1034 C 465 1034 520 1014 561 974 C 602 934 623 884 623 823 C 623 745 595 679 540 625 C 485 570 415 543 330 543 C 241 543 173 569 126 623 C 78 676 55 741 55 817 C 55 955 109 1073 218 1170 C 327 1267 458 1326 612 1346 Z M 160 807 C 160 759 174 717 204 682 C 233 646 276 629 334 629 C 388 629 432 647 466 683 C 499 719 516 763 516 813 C 516 857 501 890 472 914 C 442 938 404 950 356 950 C 323 950 290 945 258 935 C 226 925 197 912 172 897 C 166 881 163 866 162 852 C 160 837 160 822 160 807 Z" unicode="⁶" />
<glyph horiz-adv-x="676" d="M 567 1239 L 119 1239 L 137 1331 L 684 1331 L 682 1253 L 197 559 L 84 559 L 567 1239 Z" unicode="⁷" />
<glyph horiz-adv-x="676" d="M 606 768 C 606 696 577 641 519 603 C 461 564 395 545 319 545 C 251 545 187 560 128 590 C 68 620 39 669 39 737 C 39 796 60 843 102 879 C 144 915 192 940 248 956 C 215 974 185 997 158 1024 C 130 1051 117 1084 117 1124 C 117 1191 145 1245 201 1286 C 257 1327 323 1348 397 1348 C 465 1348 526 1332 578 1300 C 630 1268 657 1218 657 1151 C 657 1097 638 1053 602 1020 C 566 986 521 960 469 942 C 503 924 535 901 563 873 C 591 845 606 810 606 768 Z M 502 758 C 502 802 480 837 437 863 C 393 889 353 908 317 922 C 275 910 236 891 200 863 C 163 835 145 799 145 754 C 145 710 164 677 202 656 C 240 635 282 625 330 625 C 376 625 416 636 450 659 C 484 682 502 715 502 758 Z M 553 1139 C 553 1179 537 1211 506 1233 C 474 1255 437 1266 395 1266 C 352 1266 313 1254 278 1231 C 242 1207 225 1175 225 1135 C 225 1093 246 1059 288 1034 C 330 1009 367 990 401 977 C 439 990 474 1010 506 1036 C 537 1062 553 1097 553 1139 Z" unicode="⁸" />
<glyph horiz-adv-x="676" d="M 98 545 L 80 629 C 170 641 257 670 341 718 C 425 765 486 832 526 918 L 522 920 C 492 900 459 885 422 874 C 385 863 349 858 313 858 C 243 858 188 877 148 916 C 108 955 88 1005 88 1067 C 88 1143 115 1209 170 1265 C 225 1320 295 1348 381 1348 C 470 1348 538 1321 586 1267 C 633 1213 657 1149 657 1075 C 657 935 602 817 492 719 C 382 621 251 563 98 545 Z M 553 1083 C 553 1131 537 1172 507 1208 C 477 1244 433 1262 377 1262 C 321 1262 276 1243 244 1206 C 211 1169 195 1126 195 1077 C 195 1032 209 998 238 975 C 267 951 305 940 352 940 C 386 940 419 945 452 955 C 485 965 514 979 539 995 C 543 1009 547 1024 549 1038 C 551 1052 553 1067 553 1083 Z" unicode="⁹" />
<glyph horiz-adv-x="676" d="M 614 915 L 393 915 L 393 686 L 324 686 L 324 915 L 102 915 L 104 983 L 324 983 L 324 1208 L 393 1208 L 393 983 L 610 983 L 614 915 Z" unicode="⁺" />
<glyph horiz-adv-x="676" d="M 614 913 L 102 913 L 104 981 L 610 981 L 614 913 Z" unicode="⁻" />
<glyph horiz-adv-x="676" d="M 311 -305 C 210 -305 141 -272 104 -207 C 67 -142 49 -75 49 -6 C 49 87 74 194 126 314 C 178 434 269 494 399 494 C 500 494 569 461 606 396 C 643 330 662 263 662 193 C 662 99 636 -6 585 -126 C 533 -245 442 -305 311 -305 Z M 553 201 C 553 238 543 282 524 332 C 505 382 461 408 393 408 C 297 408 235 351 206 239 C 176 126 162 44 162 -8 C 162 -48 171 -92 189 -142 C 207 -192 249 -217 315 -217 C 413 -217 477 -160 507 -48 C 537 63 553 147 553 201 Z" unicode="₀" />
<glyph horiz-adv-x="676" d="M 373 -293 L 268 -293 L 408 371 L 215 330 L 229 420 L 539 489 L 373 -293 Z" unicode="₁" />
<glyph horiz-adv-x="676" d="M 559 -293 L 16 -293 C 15 -293 17 -276 21 -244 C 25 -211 27 -195 27 -195 C 177 -80 296 9 384 74 C 472 138 516 208 516 283 C 516 323 500 354 469 376 C 438 397 402 408 360 408 C 325 408 290 401 255 388 C 220 375 189 359 162 340 L 137 422 C 171 445 209 463 252 477 C 294 491 336 498 377 498 C 442 498 501 480 553 446 C 605 411 631 361 631 295 C 631 204 587 126 499 60 C 411 -6 293 -93 145 -203 L 569 -203 L 559 -293 Z" unicode="₂" />
<glyph horiz-adv-x="676" d="M 381 113 C 437 107 486 90 529 61 C 572 32 594 -10 594 -68 C 594 -140 562 -197 500 -241 C 438 -285 366 -307 285 -307 C 244 -307 200 -301 152 -289 C 104 -277 63 -262 31 -242 L 63 -154 C 95 -173 130 -189 170 -202 C 210 -214 249 -221 287 -221 C 337 -221 382 -208 422 -184 C 462 -159 483 -122 483 -72 C 483 -22 461 11 418 30 C 375 49 328 59 276 59 C 261 59 246 58 232 58 C 217 57 203 56 190 55 L 203 133 C 253 140 318 155 398 178 C 478 200 518 241 518 301 C 518 339 502 367 471 384 C 440 401 406 410 369 410 C 334 410 299 404 263 392 C 227 380 195 367 168 352 L 143 434 C 175 452 212 468 254 480 C 296 492 338 498 381 498 C 439 498 494 484 548 457 C 602 429 629 384 629 322 C 629 259 602 211 549 178 C 496 145 440 123 381 113 Z" unicode="₃" />
<glyph horiz-adv-x="676" d="M 639 -98 L 512 -98 L 471 -295 L 371 -295 L 412 -98 L 27 -98 L 27 -27 L 514 485 L 635 485 L 530 -14 L 653 -14 L 639 -98 Z M 430 -14 L 514 377 L 141 -14 L 430 -14 Z" unicode="₄" />
<glyph horiz-adv-x="676" d="M 233 170 C 240 171 249 172 259 172 C 269 172 279 172 291 172 C 362 172 429 155 493 122 C 556 89 588 34 588 -43 C 588 -123 558 -188 499 -237 C 439 -286 367 -311 281 -311 C 241 -311 198 -304 150 -292 C 102 -280 62 -264 31 -244 L 59 -154 C 91 -173 126 -189 166 -203 C 205 -216 244 -223 283 -223 C 337 -223 384 -208 422 -178 C 460 -148 479 -106 479 -53 C 479 1 455 39 408 60 C 361 81 314 92 266 92 C 238 92 214 90 192 88 C 170 86 149 82 131 78 L 111 102 L 231 479 L 657 479 L 647 389 L 303 389 L 233 170 Z" unicode="₅" />
<glyph horiz-adv-x="676" d="M 612 494 L 631 408 C 540 396 453 367 369 321 C 285 274 224 207 186 121 L 188 119 C 218 138 251 153 287 165 C 323 176 360 182 397 182 C 465 182 520 162 561 122 C 602 82 623 32 623 -29 C 623 -106 595 -172 540 -227 C 485 -281 415 -309 330 -309 C 241 -309 173 -282 126 -229 C 78 -175 55 -111 55 -35 C 55 103 109 221 218 319 C 327 416 458 474 612 494 Z M 160 -45 C 160 -93 174 -134 204 -170 C 233 -205 276 -223 334 -223 C 388 -223 432 -204 466 -168 C 499 -132 516 -89 516 -39 C 516 5 501 38 472 62 C 442 86 404 98 356 98 C 323 98 290 93 258 83 C 226 73 197 60 172 45 C 166 29 163 14 162 0 C 160 -14 160 -29 160 -45 Z" unicode="₆" />
<glyph horiz-adv-x="676" d="M 567 387 L 119 387 L 137 479 L 684 479 L 682 401 L 197 -293 L 84 -293 L 567 387 Z" unicode="₇" />
<glyph horiz-adv-x="676" d="M 606 -84 C 606 -155 577 -210 519 -249 C 461 -287 395 -307 319 -307 C 251 -307 187 -291 128 -261 C 68 -231 39 -182 39 -115 C 39 -55 60 -8 102 28 C 144 64 192 89 248 104 C 215 122 185 145 158 172 C 130 199 117 232 117 272 C 117 339 145 393 201 434 C 257 475 323 496 397 496 C 465 496 526 480 578 448 C 630 416 657 366 657 299 C 657 245 638 201 602 168 C 566 134 521 108 469 90 C 503 72 535 49 563 21 C 591 -7 606 -42 606 -84 Z M 502 -94 C 502 -49 480 -14 437 11 C 393 37 353 56 317 70 C 275 58 236 39 200 11 C 163 -16 145 -52 145 -98 C 145 -142 164 -174 202 -195 C 240 -216 282 -227 330 -227 C 376 -227 416 -215 450 -192 C 484 -169 502 -136 502 -94 Z M 553 287 C 553 327 537 359 506 381 C 474 403 437 414 395 414 C 352 414 313 402 278 379 C 242 355 225 323 225 283 C 225 241 246 207 288 182 C 330 157 367 138 401 125 C 439 138 474 158 506 184 C 537 210 553 245 553 287 Z" unicode="₈" />
<glyph horiz-adv-x="676" d="M 98 -307 L 80 -223 C 170 -211 257 -181 341 -134 C 425 -86 486 -20 526 66 L 522 68 C 492 48 459 33 422 22 C 385 11 349 6 313 6 C 243 6 188 25 148 64 C 108 103 88 153 88 215 C 88 291 115 357 170 413 C 225 468 295 496 381 496 C 470 496 538 469 586 415 C 633 361 657 297 657 223 C 657 83 602 -35 492 -133 C 382 -231 251 -289 98 -307 Z M 553 231 C 553 279 537 320 507 356 C 477 392 433 410 377 410 C 321 410 276 391 244 354 C 211 317 195 274 195 225 C 195 180 209 146 238 123 C 267 99 305 88 352 88 C 386 88 419 93 452 103 C 485 113 514 127 539 143 C 543 157 547 172 549 186 C 551 200 553 215 553 231 Z" unicode="₉" />
<glyph horiz-adv-x="1032" d="M 262 762 L 145 762 L 139 854 L 291 854 C 337 983 403 1088 489 1170 C 574 1251 679 1292 805 1292 C 864 1292 925 1282 987 1264 C 1049 1245 1100 1220 1141 1190 L 1090 1083 C 1052 1113 1005 1136 951 1154 C 897 1171 845 1180 795 1180 C 708 1180 634 1150 572 1092 C 510 1034 460 954 424 854 L 907 854 L 901 762 L 395 762 C 391 745 387 728 383 711 C 379 693 375 676 373 659 C 367 635 363 612 360 588 C 356 564 354 542 352 522 L 766 522 L 772 430 L 350 430 C 352 318 379 232 431 172 C 483 112 566 82 680 82 C 720 82 759 85 797 93 C 835 100 870 111 903 125 L 901 12 C 867 -2 831 -12 792 -19 C 753 -25 712 -29 670 -31 C 518 -31 404 8 329 87 C 254 165 217 280 217 430 L 63 430 L 70 522 L 223 522 C 224 543 226 565 229 589 C 232 612 236 635 240 659 C 242 676 246 693 250 711 C 254 728 258 745 262 762 Z" unicode="€" />
<glyph horiz-adv-x="1860" d="M 1817 516 L 1718 516 L 1700 1165 L 1686 1165 L 1446 526 L 1329 526 L 1116 1165 L 1102 1165 L 1077 516 L 983 516 L 1014 1282 L 1184 1282 L 1386 637 L 1403 637 L 1628 1282 L 1790 1282 L 1817 516 Z M 877 1186 L 578 1186 L 578 516 L 477 516 L 477 1186 L 190 1186 L 190 1282 L 877 1282 L 877 1186 Z" unicode="™" />
<glyph horiz-adv-x="1024" d="M 928 426 L 98 426 L 104 537 L 922 537 L 928 426 Z" unicode="−" />
<glyph horiz-adv-x="1221" d="M 1298 1309 L 68 -31 L -41 -31 L 1190 1309 L 1298 1309 Z" unicode="∕" />
<glyph horiz-adv-x="1024" d="M 866 430 C 852 358 828 304 794 269 C 760 234 722 217 680 217 C 626 217 567 236 505 274 C 443 312 394 332 358 332 C 336 332 315 325 296 312 C 276 299 261 271 250 227 L 158 227 C 171 299 195 353 229 388 C 263 422 302 440 344 440 C 398 440 457 421 522 383 C 587 345 635 326 666 326 C 695 326 718 333 734 348 C 750 362 764 390 776 430 L 866 430 Z M 866 733 C 852 661 828 607 794 572 C 760 537 722 520 680 520 C 626 520 567 539 505 577 C 443 615 394 635 358 635 C 336 635 315 628 296 615 C 276 602 261 574 250 530 L 158 530 C 171 602 195 656 229 691 C 263 725 302 743 344 743 C 398 743 457 724 522 686 C 587 648 635 629 666 629 C 695 629 718 636 734 651 C 750 666 764 693 776 733 L 866 733 Z" unicode="≈" />
<glyph horiz-adv-x="1024" d="M 342 -47 L 418 244 L 125 244 L 133 356 L 446 356 L 512 604 L 133 604 L 125 717 L 541 717 L 612 987 L 709 987 L 637 717 L 899 717 L 891 604 L 608 604 L 543 356 L 891 356 L 899 244 L 514 244 L 438 -47 L 342 -47 Z" unicode="≠" />
<glyph horiz-adv-x="1024" d="M 881 303 L 881 182 L 141 494 L 141 633 L 881 944 L 881 821 L 276 571 L 276 553 L 881 303 Z M 883 18 L 156 18 L 162 129 L 877 129 L 883 18 Z" unicode="≤" />
<glyph horiz-adv-x="1024" d="M 143 182 L 143 303 L 748 553 L 748 571 L 143 821 L 143 944 L 883 633 L 883 494 L 143 182 Z M 868 18 L 141 18 L 147 129 L 862 129 L 868 18 Z" unicode="≥" />
<glyph horiz-adv-x="1493" d="M 791 -33 C 606 -33 448 32 317 163 C 186 294 121 452 121 637 C 121 821 186 979 317 1111 C 448 1243 606 1309 791 1309 C 975 1309 1132 1243 1263 1111 C 1394 979 1460 821 1460 637 C 1460 452 1394 294 1263 163 C 1132 32 975 -33 791 -33 Z M 1401 637 C 1401 804 1341 948 1222 1070 C 1102 1192 959 1253 791 1253 C 622 1253 478 1192 359 1070 C 239 948 180 804 180 637 C 180 469 239 325 359 205 C 478 85 622 25 791 25 C 959 25 1102 85 1222 205 C 1341 325 1401 469 1401 637 Z M 1096 754 C 1096 671 1069 609 1016 567 C 962 525 889 504 797 504 L 690 504 L 690 262 L 588 262 L 588 987 L 807 987 C 905 987 977 965 1025 921 C 1072 877 1096 822 1096 754 Z M 991 750 C 991 796 975 832 943 857 C 911 882 864 895 803 895 L 690 895 L 690 596 L 805 596 C 866 596 912 610 944 636 C 975 662 991 700 991 750 Z" unicode="ⓟ" />
<glyph horiz-adv-x="813" d="M 170 -186 C 175 -164 188 -146 209 -130 C 229 -114 255 -107 285 -111 C 319 -113 345 -129 363 -158 C 381 -186 386 -220 379 -258 C 369 -311 342 -358 298 -400 C 254 -441 202 -477 141 -508 L 100 -463 C 157 -431 196 -401 216 -373 C 236 -345 248 -320 254 -297 C 259 -272 255 -252 242 -236 C 228 -220 204 -203 170 -186 Z" unicode="" />
<glyph horiz-adv-x="1214" d="M 369 819 L 209 0 L 84 0 L 242 819 L 98 829 L 104 907 L 264 940 L 295 1090 C 316 1192 351 1270 401 1324 C 451 1378 518 1405 604 1405 C 640 1405 677 1399 714 1387 C 750 1375 782 1359 809 1339 C 809 1338 800 1320 782 1284 C 764 1248 756 1231 756 1231 C 733 1246 708 1259 681 1270 C 653 1280 625 1286 596 1286 C 544 1286 504 1266 478 1227 C 452 1187 433 1140 422 1085 L 391 934 L 870 934 L 907 1110 C 928 1212 963 1290 1013 1344 C 1063 1398 1130 1425 1214 1425 C 1250 1425 1287 1419 1325 1407 C 1363 1395 1395 1380 1421 1360 C 1421 1358 1412 1340 1394 1304 C 1376 1268 1368 1251 1368 1251 C 1345 1266 1320 1279 1293 1290 C 1265 1301 1236 1307 1206 1307 C 1155 1307 1116 1287 1089 1247 C 1062 1207 1043 1160 1032 1106 L 997 934 L 1268 934 L 1262 819 L 977 819 L 817 0 L 690 0 L 850 819 L 369 819 Z" unicode="ﬀ" />
<glyph horiz-adv-x="1032" d="M 813 1360 C 813 1358 804 1340 786 1304 C 768 1268 760 1251 760 1251 C 737 1266 712 1279 685 1290 C 657 1301 629 1307 600 1307 C 548 1307 508 1287 482 1247 C 456 1207 437 1160 426 1106 L 391 934 L 662 934 L 655 819 L 369 819 L 209 0 L 84 0 L 242 817 L 98 827 L 104 907 L 264 940 L 299 1110 C 320 1212 355 1290 405 1344 C 455 1398 522 1425 608 1425 C 644 1425 681 1419 718 1407 C 754 1395 786 1380 813 1360 Z M 1066 1247 C 1066 1220 1057 1196 1041 1176 C 1025 1155 1002 1145 972 1145 C 941 1145 918 1155 902 1176 C 886 1196 879 1220 879 1247 C 879 1272 886 1295 902 1315 C 918 1335 941 1346 972 1346 C 1002 1346 1025 1335 1041 1315 C 1057 1295 1066 1272 1066 1247 Z M 793 0 L 666 0 L 847 928 L 978 954 L 793 0 Z" unicode="ﬁ" />
<glyph horiz-adv-x="1030" d="M 813 1360 C 813 1358 804 1340 786 1304 C 768 1268 760 1251 760 1251 C 737 1266 712 1279 685 1290 C 657 1301 629 1307 600 1307 C 548 1307 508 1287 482 1247 C 456 1207 437 1160 426 1106 L 391 934 L 662 934 L 655 819 L 369 819 L 209 0 L 84 0 L 242 817 L 98 827 L 104 907 L 264 940 L 299 1110 C 320 1212 355 1290 405 1344 C 455 1398 522 1425 608 1425 C 644 1425 681 1419 718 1407 C 754 1395 786 1380 813 1360 Z M 792 0 L 665 0 L 934 1380 L 1067 1407 L 792 0 Z" unicode="ﬂ" />
<glyph horiz-adv-x="1640" d="M 369 819 L 209 0 L 84 0 L 242 819 L 98 829 L 104 907 L 264 940 L 295 1090 C 316 1192 351 1270 401 1324 C 451 1378 518 1405 604 1405 C 640 1405 677 1399 714 1387 C 750 1375 782 1359 809 1339 C 809 1338 800 1320 782 1284 C 764 1248 756 1231 756 1231 C 733 1246 708 1259 681 1270 C 653 1280 625 1286 596 1286 C 544 1286 504 1266 478 1227 C 452 1187 433 1140 422 1085 L 391 934 L 870 934 L 907 1110 C 928 1212 963 1290 1013 1344 C 1063 1398 1130 1425 1214 1425 C 1250 1425 1287 1419 1325 1407 C 1363 1395 1395 1380 1421 1360 C 1421 1358 1412 1340 1394 1304 C 1376 1268 1368 1251 1368 1251 C 1345 1266 1320 1279 1293 1290 C 1265 1301 1236 1307 1206 1307 C 1155 1307 1116 1287 1089 1247 C 1062 1207 1043 1160 1032 1106 L 997 934 L 1268 934 L 1262 819 L 977 819 L 817 0 L 690 0 L 850 819 L 369 819 Z M 1673 1247 C 1673 1220 1664 1196 1648 1176 C 1632 1155 1609 1145 1579 1145 C 1548 1145 1525 1155 1509 1176 C 1493 1196 1486 1220 1486 1247 C 1486 1272 1493 1295 1509 1315 C 1525 1335 1548 1346 1579 1346 C 1609 1346 1632 1335 1648 1315 C 1664 1295 1673 1272 1673 1247 Z M 1400 0 L 1273 0 L 1454 928 L 1585 954 L 1400 0 Z" unicode="ﬃ" />
<glyph horiz-adv-x="1636" d="M 369 819 L 209 0 L 84 0 L 242 819 L 98 829 L 104 907 L 264 940 L 295 1090 C 316 1192 351 1270 401 1324 C 451 1378 518 1405 604 1405 C 640 1405 677 1399 714 1387 C 750 1375 782 1359 809 1339 C 809 1338 800 1320 782 1284 C 764 1248 756 1231 756 1231 C 733 1246 708 1259 681 1270 C 653 1280 625 1286 596 1286 C 544 1286 504 1266 478 1227 C 452 1187 433 1140 422 1085 L 391 934 L 870 934 L 907 1110 C 928 1212 963 1290 1013 1344 C 1063 1398 1130 1425 1214 1425 C 1250 1425 1287 1419 1325 1407 C 1363 1395 1395 1380 1421 1360 C 1421 1358 1412 1340 1394 1304 C 1376 1268 1368 1251 1368 1251 C 1345 1266 1320 1279 1293 1290 C 1265 1301 1236 1307 1206 1307 C 1155 1307 1116 1287 1089 1247 C 1062 1207 1043 1160 1032 1106 L 997 934 L 1268 934 L 1262 819 L 977 819 L 817 0 L 690 0 L 850 819 L 369 819 Z M 1400 0 L 1273 0 L 1542 1380 L 1675 1407 L 1400 0 Z" unicode="ﬄ" />
</font>
</defs>
</svg>
