<?xml version="1.0" encoding="utf-8" ?><svg version="1.1" xmlns = 'http://www.w3.org/2000/svg'><defs><font id='web' horiz-adv-x="1000">
<font-face font-family="web" descent="-477" cap-height="1280" units-per-em="2048" bbox="-403,-532,2386,2033" x-height="938" ascent="1407" />
<missing-glyph horiz-adv-x="1024" d="" /><glyph horiz-adv-x="467" d="" unicode=" " />
<glyph horiz-adv-x="532" d="M 369 80 C 369 52 359 28 341 6 C 322 -16 298 -27 268 -27 C 237 -27 212 -16 193 6 C 173 28 164 52 164 80 C 164 107 173 131 193 151 C 212 171 237 182 268 182 C 298 182 322 171 341 151 C 359 131 369 107 369 80 Z M 233 381 L 190 1331 L 344 1331 L 305 381 L 233 381 Z" unicode="!" />
<glyph horiz-adv-x="1024" d="M 262 815 L 195 815 L 455 1323 L 578 1264 L 262 815 Z M 567 815 L 498 815 L 758 1323 L 881 1264 L 567 815 Z" unicode="&#x22;" />
<glyph horiz-adv-x="1153" d="M 338 758 L 80 758 L 80 852 L 362 852 L 485 1315 L 586 1315 L 461 852 L 813 852 L 936 1315 L 1034 1315 L 911 852 L 1096 852 L 1096 758 L 885 758 L 799 434 L 1055 434 L 1055 340 L 772 340 L 641 -152 L 543 -152 L 674 340 L 324 340 L 190 -152 L 92 -152 L 225 340 L 39 340 L 39 434 L 250 434 L 338 758 Z M 786 758 L 434 758 L 348 434 L 700 434 L 786 758 Z" unicode="#" />
<glyph horiz-adv-x="1024" d="M 563 1305 C 564 1305 569 1336 577 1400 C 585 1463 590 1495 590 1495 L 672 1495 L 645 1294 C 691 1286 735 1273 777 1256 C 819 1239 859 1219 897 1196 L 848 1081 C 816 1102 781 1121 743 1137 C 705 1153 667 1165 629 1174 L 565 709 C 655 681 737 640 811 588 C 885 536 922 454 922 342 C 922 237 881 149 801 79 C 720 8 615 -27 487 -27 L 457 -27 L 426 -252 L 344 -252 L 375 -18 C 321 -10 269 3 219 22 C 169 41 122 64 80 92 L 125 209 C 162 182 203 159 248 140 C 293 120 341 106 391 98 L 459 604 C 371 630 289 668 214 717 C 139 765 102 846 102 958 C 102 1059 140 1142 217 1208 C 294 1274 392 1307 510 1307 C 519 1307 528 1306 537 1306 C 546 1306 555 1305 563 1305 Z M 487 733 L 549 1186 C 541 1186 534 1187 528 1187 C 522 1187 516 1188 510 1188 C 415 1188 344 1166 298 1122 C 252 1078 229 1027 229 969 C 229 904 252 855 298 822 C 344 789 407 759 487 733 Z M 471 90 L 492 90 C 582 90 655 113 711 160 C 767 207 795 264 795 332 C 795 398 772 449 726 485 C 680 521 617 553 537 580 L 471 90 Z" unicode="$" />
<glyph horiz-adv-x="1522" d="M 711 987 C 711 896 680 817 619 750 C 558 682 475 649 371 649 C 267 649 184 682 123 750 C 61 817 31 896 31 987 C 31 1079 61 1159 123 1227 C 184 1295 267 1329 371 1329 C 475 1329 558 1295 619 1227 C 680 1159 711 1079 711 987 Z M 618 987 C 618 1057 596 1117 552 1167 C 508 1216 448 1241 371 1241 C 294 1241 234 1216 190 1167 C 146 1117 125 1057 125 987 C 125 921 146 862 190 812 C 234 762 294 737 371 737 C 448 737 508 762 552 812 C 596 862 618 921 618 987 Z M 1489 291 C 1489 198 1458 118 1397 50 C 1335 -17 1253 -51 1149 -51 C 1044 -51 961 -17 900 50 C 839 118 809 198 809 291 C 809 381 839 460 900 528 C 961 595 1044 629 1149 629 C 1253 629 1335 595 1397 528 C 1458 460 1489 381 1489 291 Z M 1397 291 C 1397 357 1375 415 1331 465 C 1287 515 1226 541 1149 541 C 1072 541 1012 515 968 465 C 924 415 903 357 903 291 C 903 220 924 160 968 111 C 1012 61 1072 37 1149 37 C 1226 37 1287 61 1331 111 C 1375 160 1397 220 1397 291 Z M 1335 1309 L 299 -31 L 186 -31 L 1225 1309 L 1335 1309 Z" unicode="%" />
<glyph horiz-adv-x="1278" d="M 889 276 C 831 186 763 113 686 57 C 609 1 526 -27 438 -27 C 320 -27 227 8 161 79 C 94 149 61 231 61 324 C 61 412 91 487 153 548 C 215 608 290 653 379 682 C 313 715 261 757 221 807 C 181 857 162 915 162 983 C 162 1062 194 1135 260 1203 C 326 1271 414 1305 524 1305 C 626 1305 707 1274 767 1213 C 827 1152 858 1081 858 1001 C 858 931 834 869 786 816 C 738 762 676 720 600 690 C 646 666 696 632 750 587 C 804 542 854 492 901 436 L 1118 780 L 1270 780 L 963 367 L 1253 8 L 1128 -29 L 889 276 Z M 831 346 C 770 419 708 480 645 530 C 581 580 519 616 459 639 C 385 606 322 564 269 513 C 216 462 190 401 190 330 C 190 265 213 208 260 159 C 307 110 372 86 455 86 C 523 86 589 109 653 156 C 717 203 776 266 831 346 Z M 514 729 C 580 757 633 793 673 836 C 713 878 733 930 733 991 C 733 1047 712 1094 671 1134 C 629 1174 577 1194 514 1194 C 444 1194 390 1173 351 1132 C 312 1091 293 1044 293 991 C 293 927 313 874 355 832 C 397 790 450 756 514 729 Z" unicode="&#x26;" />
<glyph horiz-adv-x="512" d="M 152 815 L 84 815 L 344 1323 L 467 1264 L 152 815 Z" unicode="'" />
<glyph horiz-adv-x="1024" d="M 844 -494 C 730 -434 609 -322 483 -156 C 356 10 293 216 293 463 C 293 709 356 916 483 1083 C 609 1249 730 1362 844 1421 L 903 1331 C 795 1274 685 1169 574 1017 C 463 864 408 679 408 463 C 408 247 463 62 574 -89 C 685 -241 795 -346 903 -403 L 844 -494 Z" unicode="(" />
<glyph horiz-adv-x="1024" d="M 180 -494 L 121 -403 C 229 -346 339 -241 449 -89 C 559 62 614 247 614 463 C 614 679 559 864 449 1017 C 339 1169 229 1274 121 1331 L 180 1421 C 294 1362 414 1249 541 1083 C 667 916 731 709 731 463 C 731 216 667 10 541 -156 C 414 -322 294 -434 180 -494 Z" unicode=")" />
<glyph horiz-adv-x="1024" d="M 494 934 L 272 717 L 190 825 L 465 971 L 465 981 L 195 1128 L 272 1237 L 494 1016 L 502 1018 L 559 1321 L 686 1280 L 545 1004 L 551 997 L 848 1040 L 848 907 L 551 950 L 545 944 L 682 666 L 557 627 L 500 932 L 494 934 Z" unicode="*" />
<glyph horiz-adv-x="1024" d="M 928 424 L 571 424 L 571 57 L 459 57 L 459 424 L 98 424 L 104 537 L 459 537 L 459 901 L 571 901 L 571 537 L 922 537 L 928 424 Z" unicode="+" />
<glyph horiz-adv-x="512" d="M 141 94 C 143 119 153 142 172 163 C 191 184 218 195 252 195 C 288 195 322 180 352 150 C 382 120 397 81 397 33 C 397 -35 372 -100 322 -161 C 272 -222 212 -276 143 -322 L 88 -266 C 152 -220 198 -176 226 -136 C 254 -96 268 -58 268 -23 C 268 3 258 25 238 42 C 218 59 186 76 141 94 Z" unicode="," />
<glyph horiz-adv-x="598" d="M 532 438 L 70 438 L 70 557 L 532 557 L 532 438 Z" unicode="-" />
<glyph horiz-adv-x="512" d="M 360 80 C 360 52 350 28 331 6 C 311 -16 287 -27 258 -27 C 228 -27 204 -16 185 6 C 165 28 156 52 156 80 C 156 107 165 131 185 151 C 204 171 228 182 258 182 C 287 182 311 171 331 151 C 350 131 360 107 360 80 Z" unicode="." />
<glyph horiz-adv-x="424" d="M 494 1438 L -6 -408 L -106 -408 L 391 1438 L 494 1438 Z" unicode="/" />
<glyph horiz-adv-x="1024" d="M 952 641 C 952 438 910 276 828 156 C 745 35 638 -25 508 -25 C 376 -25 270 34 190 154 C 110 273 70 434 70 637 C 70 839 111 1002 194 1124 C 277 1246 384 1307 516 1307 C 646 1307 752 1246 832 1126 C 912 1005 952 843 952 641 Z M 821 637 C 821 828 790 969 730 1059 C 669 1149 595 1194 508 1194 C 420 1194 346 1149 287 1061 C 228 972 199 832 199 641 C 199 453 229 315 291 225 C 352 135 427 90 516 90 C 604 90 676 134 734 223 C 792 311 821 449 821 637 Z" unicode="0" />
<glyph horiz-adv-x="1024" d="M 528 0 L 528 1130 L 219 1038 L 213 1159 L 651 1292 L 651 0 L 528 0 Z" unicode="1" />
<glyph horiz-adv-x="1024" d="M 909 0 L 100 0 L 92 125 C 298 327 457 484 568 597 C 679 710 735 822 735 932 C 735 1011 710 1073 661 1119 C 612 1165 547 1188 467 1188 C 411 1188 354 1173 297 1145 C 240 1117 193 1083 156 1044 L 111 1155 C 150 1193 202 1228 268 1259 C 333 1289 403 1305 479 1305 C 593 1305 686 1271 758 1204 C 830 1136 866 1047 866 936 C 866 814 812 696 705 584 C 598 472 440 316 231 117 L 903 117 L 909 0 Z" unicode="2" />
<glyph horiz-adv-x="1024" d="M 526 672 C 649 674 743 644 808 581 C 872 518 905 444 905 358 C 905 238 860 143 771 75 C 682 7 577 -27 455 -27 C 395 -27 334 -18 272 -2 C 210 13 158 33 117 57 L 147 172 C 186 150 232 131 286 115 C 340 98 397 90 459 90 C 542 90 616 112 680 156 C 744 200 776 264 776 348 C 776 418 748 476 693 521 C 638 565 563 588 467 588 C 440 588 411 586 380 583 C 349 580 319 576 291 571 L 291 678 C 430 713 538 755 615 804 C 692 853 731 915 731 989 C 731 1052 707 1101 661 1137 C 615 1172 554 1190 479 1190 C 426 1190 371 1178 314 1154 C 257 1130 208 1100 166 1063 L 119 1174 C 163 1210 218 1242 284 1268 C 349 1294 415 1307 481 1307 C 594 1307 685 1279 755 1223 C 825 1167 860 1093 860 999 C 860 923 831 858 775 804 C 719 749 636 705 526 672 Z" unicode="3" />
<glyph horiz-adv-x="1024" d="M 995 326 L 795 326 L 795 -4 L 678 -4 L 678 326 L 72 326 L 53 422 L 664 1290 L 795 1290 L 795 436 L 989 436 L 995 326 Z M 678 436 L 678 1137 L 190 436 L 678 436 Z" unicode="4" />
<glyph horiz-adv-x="1024" d="M 281 743 C 304 748 329 753 356 757 C 382 761 417 764 459 764 C 585 764 688 730 768 663 C 848 595 889 502 889 383 C 889 265 849 168 770 90 C 690 12 584 -27 451 -27 C 392 -27 332 -18 271 -2 C 210 13 160 33 121 57 L 145 180 C 187 154 234 133 287 116 C 340 98 395 90 453 90 C 542 90 616 114 675 164 C 734 213 764 284 764 377 C 764 460 736 526 681 576 C 625 626 547 651 446 651 C 393 651 345 646 302 637 C 258 628 220 617 188 604 L 154 639 L 236 1280 L 860 1280 L 866 1159 L 338 1159 L 281 743 Z" unicode="5" />
<glyph horiz-adv-x="1024" d="M 94 485 C 94 654 151 819 265 981 C 379 1142 558 1251 801 1307 L 834 1200 C 660 1158 523 1085 421 982 C 319 878 253 762 225 633 L 229 631 C 275 672 328 706 389 733 C 450 760 512 774 575 774 C 671 774 756 741 830 675 C 904 609 942 516 942 395 C 942 273 903 173 826 93 C 749 13 649 -27 526 -27 C 385 -27 278 22 204 122 C 130 221 94 342 94 485 Z M 219 463 C 219 363 246 275 300 200 C 354 125 430 88 530 88 C 616 88 685 116 738 173 C 790 230 817 302 817 389 C 817 475 791 542 739 589 C 687 635 625 659 551 659 C 489 659 429 647 373 623 C 317 599 267 566 225 526 C 223 516 221 505 220 495 C 219 485 219 474 219 463 Z" unicode="6" />
<glyph horiz-adv-x="1024" d="M 780 1157 L 82 1157 L 88 1280 L 895 1280 L 915 1180 L 352 0 L 223 0 L 780 1157 Z" unicode="7" />
<glyph horiz-adv-x="1024" d="M 926 334 C 926 238 890 153 819 81 C 748 9 645 -27 510 -27 C 365 -27 259 7 193 75 C 127 143 94 223 94 317 C 94 411 126 484 192 536 C 257 588 317 627 371 651 C 304 681 245 719 194 765 C 142 811 117 872 117 950 C 117 1056 154 1142 228 1208 C 302 1274 398 1307 516 1307 C 635 1307 730 1275 800 1212 C 870 1148 905 1066 905 965 C 905 882 877 814 821 762 C 765 710 710 670 657 643 C 726 610 788 570 843 524 C 898 478 926 414 926 334 Z M 801 317 C 801 395 766 457 697 501 C 627 545 550 580 465 608 C 401 584 344 549 294 503 C 244 457 219 400 219 332 C 219 256 244 196 295 151 C 346 106 419 84 514 84 C 610 84 682 105 730 149 C 777 192 801 248 801 317 Z M 780 950 C 780 1023 755 1082 705 1128 C 655 1173 591 1196 514 1196 C 425 1196 357 1172 311 1126 C 265 1079 242 1025 242 965 C 242 892 274 834 340 790 C 406 746 481 712 567 688 C 624 712 674 746 716 789 C 758 832 780 886 780 950 Z" unicode="8" />
<glyph horiz-adv-x="1024" d="M 928 795 C 928 625 870 460 756 299 C 642 137 463 29 221 -27 L 190 80 C 363 122 500 194 602 298 C 703 401 768 517 797 647 L 793 649 C 747 607 694 573 634 546 C 573 519 511 506 449 506 C 351 506 266 538 192 604 C 118 670 82 763 82 885 C 82 1006 120 1107 196 1187 C 272 1267 373 1307 498 1307 C 637 1307 743 1257 817 1158 C 891 1058 928 937 928 795 Z M 805 817 C 805 917 778 1004 724 1079 C 670 1154 593 1192 494 1192 C 407 1192 337 1163 284 1106 C 231 1049 205 977 205 891 C 205 804 231 737 283 691 C 335 644 399 621 473 621 C 535 621 593 633 649 657 C 705 681 755 713 799 754 C 801 764 802 774 803 784 C 804 794 805 805 805 817 Z" unicode="9" />
<glyph horiz-adv-x="512" d="M 361 80 C 361 52 351 28 332 6 C 312 -16 288 -27 259 -27 C 229 -27 204 -16 185 6 C 165 28 156 52 156 80 C 156 107 165 131 185 151 C 204 171 229 182 259 182 C 288 182 312 171 332 151 C 351 131 361 107 361 80 Z M 360 731 C 360 703 350 679 331 657 C 311 635 287 624 258 624 C 228 624 203 635 184 657 C 164 679 155 703 155 731 C 155 758 164 782 184 802 C 203 822 228 833 258 833 C 287 833 311 822 331 802 C 350 782 360 758 360 731 Z" unicode=":" />
<glyph horiz-adv-x="512" d="M 142 94 C 144 119 154 142 173 163 C 192 184 218 195 252 195 C 288 195 322 180 352 150 C 382 120 398 81 398 33 C 398 -35 373 -100 323 -161 C 273 -222 213 -276 144 -322 L 89 -266 C 153 -220 199 -176 227 -136 C 255 -96 269 -58 269 -23 C 269 3 259 25 239 42 C 219 59 186 76 142 94 Z M 361 731 C 361 703 351 679 332 657 C 312 635 288 624 259 624 C 229 624 204 635 185 657 C 165 679 156 703 156 731 C 156 758 165 782 185 802 C 204 822 229 833 259 833 C 288 833 312 822 332 802 C 351 782 361 758 361 731 Z" unicode=";" />
<glyph horiz-adv-x="1024" d="M 897 160 L 897 37 L 115 426 L 115 537 L 895 928 L 895 803 L 258 492 L 258 471 L 897 160 Z" unicode="&#x3C;" />
<glyph horiz-adv-x="1024" d="M 901 244 L 127 244 L 135 356 L 893 356 L 901 244 Z M 893 604 L 135 604 L 127 717 L 901 717 L 893 604 Z" unicode="=" />
<glyph horiz-adv-x="1024" d="M 905 426 L 123 37 L 123 160 L 762 471 L 762 492 L 125 803 L 125 928 L 905 537 L 905 426 Z" unicode="&#x3E;" />
<glyph horiz-adv-x="715" d="M 633 975 C 633 889 610 827 565 790 C 519 752 470 722 418 700 C 368 678 329 658 301 640 C 272 621 258 595 258 561 C 258 529 269 499 292 471 C 315 442 345 414 381 387 L 313 365 C 273 388 237 418 205 455 C 172 491 156 532 156 578 C 156 638 175 683 214 714 C 253 745 300 772 354 795 C 402 814 443 836 477 861 C 511 885 528 923 528 973 C 528 1029 503 1080 455 1125 C 406 1169 337 1192 248 1192 C 221 1192 196 1190 172 1186 C 148 1182 126 1178 106 1174 L 106 1290 C 124 1295 146 1299 170 1303 C 194 1307 222 1309 254 1309 C 371 1309 463 1274 531 1204 C 599 1134 633 1057 633 975 Z M 406 80 C 406 52 396 28 376 6 C 356 -16 332 -27 303 -27 C 272 -27 247 -16 228 6 C 208 28 199 52 199 80 C 199 107 208 131 228 151 C 247 171 272 182 303 182 C 332 182 356 171 376 151 C 396 131 406 107 406 80 Z" unicode="?" />
<glyph horiz-adv-x="1702" d="M 1112 424 C 1096 349 1101 291 1126 250 C 1150 208 1192 188 1251 188 C 1325 188 1393 225 1453 300 C 1513 375 1544 484 1544 627 C 1544 810 1475 957 1338 1067 C 1200 1177 1047 1233 877 1233 C 679 1233 511 1159 373 1012 C 235 864 166 693 166 498 C 166 310 226 149 348 17 C 470 -115 626 -182 817 -182 C 859 -182 902 -178 946 -170 C 990 -162 1031 -152 1069 -141 L 1087 -209 C 1041 -223 996 -233 950 -241 C 904 -248 859 -252 813 -252 C 603 -252 429 -179 293 -35 C 156 109 88 286 88 496 C 88 714 164 903 317 1062 C 469 1220 656 1300 877 1300 C 1074 1300 1247 1239 1397 1117 C 1547 995 1622 832 1622 627 C 1622 456 1582 325 1503 234 C 1423 143 1335 98 1237 98 C 1179 98 1130 112 1090 141 C 1050 169 1022 206 1006 250 C 964 200 923 165 881 145 C 839 125 797 115 756 115 C 669 115 598 147 544 212 C 490 277 463 357 463 451 C 463 579 505 689 590 783 C 674 877 775 924 891 924 C 929 924 966 917 1000 905 C 1034 893 1066 878 1094 862 L 1212 915 L 1112 424 Z M 983 315 L 1071 748 C 1049 770 1022 789 988 806 C 954 822 918 831 879 831 C 794 831 723 792 665 716 C 607 639 578 553 578 459 C 578 387 597 328 635 281 C 673 234 724 211 786 211 C 820 211 854 219 887 237 C 920 254 952 280 983 315 Z" unicode="@" />
<glyph horiz-adv-x="1178" d="M 670 1280 L 1147 0 L 1014 0 L 879 367 L 299 367 L 164 0 L 31 0 L 516 1280 L 670 1280 Z M 834 485 L 590 1151 L 344 485 L 834 485 Z" unicode="A" />
<glyph horiz-adv-x="1126" d="M 754 655 C 847 637 918 601 967 548 C 1015 494 1040 430 1040 356 C 1040 252 1003 166 930 100 C 857 33 740 0 580 0 L 164 0 L 164 1280 L 563 1280 C 715 1280 826 1248 895 1185 C 964 1122 999 1042 999 946 C 999 884 979 825 940 770 C 900 714 838 676 754 655 Z M 909 356 C 909 430 878 487 818 525 C 757 563 670 582 557 582 L 295 582 L 295 119 L 590 119 C 702 119 783 140 833 183 C 883 226 909 284 909 356 Z M 868 936 C 868 1004 843 1058 794 1099 C 745 1140 670 1161 569 1161 L 295 1161 L 295 700 L 549 700 C 645 700 722 720 780 761 C 838 802 868 860 868 936 Z" unicode="B" />
<glyph horiz-adv-x="1200" d="M 1110 1202 L 1069 1085 C 1018 1117 963 1143 903 1161 C 843 1179 780 1188 713 1188 C 574 1188 459 1140 367 1044 C 275 948 229 814 229 641 C 229 473 273 339 363 240 C 453 141 571 92 717 92 C 786 92 852 103 915 125 C 977 147 1031 174 1075 207 L 1100 78 C 1052 47 995 22 927 2 C 859 -17 789 -27 715 -27 C 530 -27 381 33 267 153 C 153 273 96 435 96 637 C 96 839 154 1002 271 1124 C 388 1246 536 1307 715 1307 C 792 1307 865 1296 935 1276 C 1005 1255 1063 1230 1110 1202 Z" unicode="C" />
<glyph horiz-adv-x="1286" d="M 1190 649 C 1190 448 1129 290 1008 174 C 887 58 718 0 502 0 L 164 0 L 164 1280 L 512 1280 C 720 1280 885 1221 1007 1105 C 1129 988 1190 836 1190 649 Z M 1059 639 C 1059 801 1010 928 912 1020 C 814 1112 678 1159 504 1159 L 295 1159 L 295 121 L 508 121 C 670 121 803 163 905 249 C 1007 335 1059 465 1059 639 Z" unicode="D" />
<glyph horiz-adv-x="1038" d="M 938 0 L 164 0 L 164 1280 L 938 1280 L 938 1159 L 295 1159 L 295 700 L 831 700 L 831 582 L 295 582 L 295 121 L 938 121 L 938 0 Z" unicode="E" />
<glyph horiz-adv-x="981" d="M 164 0 L 164 1280 L 918 1280 L 918 1157 L 295 1157 L 295 680 L 811 680 L 811 559 L 295 559 L 295 0 L 164 0 Z" unicode="F" />
<glyph horiz-adv-x="1280" d="M 1151 100 C 1089 58 1018 27 940 5 C 862 -16 787 -27 715 -27 C 530 -27 381 33 267 153 C 153 273 96 435 96 637 C 96 839 154 1002 271 1124 C 388 1246 536 1307 715 1307 C 793 1307 868 1296 941 1275 C 1013 1253 1073 1228 1120 1200 L 1077 1081 C 1029 1111 972 1137 908 1157 C 844 1177 779 1188 713 1188 C 574 1188 459 1140 367 1044 C 275 948 229 814 229 641 C 229 473 273 339 363 240 C 453 141 571 92 717 92 C 777 92 833 99 885 114 C 937 128 983 147 1024 170 L 1024 518 L 653 518 L 653 637 L 1151 637 L 1151 100 Z" unicode="G" />
<glyph horiz-adv-x="1339" d="M 1176 0 L 1044 0 L 1044 584 L 295 584 L 295 0 L 164 0 L 164 1280 L 295 1280 L 295 702 L 1044 702 L 1044 1280 L 1176 1280 L 1176 0 Z" unicode="H" />
<glyph horiz-adv-x="467" d="M 297 0 L 168 0 L 168 1280 L 297 1280 L 297 0 Z" unicode="I" />
<glyph horiz-adv-x="848" d="M 698 393 C 698 267 667 165 605 88 C 543 11 445 -27 313 -27 C 257 -27 203 -18 153 -2 C 103 14 61 33 29 53 L 51 180 C 91 154 134 133 178 117 C 222 100 267 92 315 92 C 399 92 462 118 505 170 C 547 222 569 297 569 397 L 569 1280 L 698 1280 L 698 393 Z" unicode="J" />
<glyph horiz-adv-x="1100" d="M 295 666 L 297 666 L 889 1280 L 1057 1280 L 424 645 L 1067 0 L 897 0 L 297 612 L 295 612 L 295 0 L 164 0 L 164 1280 L 295 1280 L 295 666 Z" unicode="K" />
<glyph horiz-adv-x="979" d="M 928 0 L 164 0 L 164 1280 L 295 1280 L 295 123 L 928 123 L 928 0 Z" unicode="L" />
<glyph horiz-adv-x="1559" d="M 1292 0 L 1272 1118 L 852 8 L 709 8 L 285 1120 L 262 0 L 133 0 L 176 1280 L 352 1280 L 784 150 L 1210 1280 L 1384 1280 L 1425 0 L 1292 0 Z" unicode="M" />
<glyph horiz-adv-x="1331" d="M 1038 182 L 1038 1280 L 1165 1280 L 1165 -12 L 1024 -12 L 291 1096 L 291 0 L 164 0 L 164 1280 L 311 1280 L 1038 182 Z" unicode="N" />
<glyph horiz-adv-x="1452" d="M 1356 645 C 1356 450 1296 289 1177 163 C 1058 36 907 -27 725 -27 C 547 -27 398 34 277 157 C 156 280 96 440 96 637 C 96 831 155 992 274 1118 C 393 1244 544 1307 727 1307 C 904 1307 1053 1245 1174 1123 C 1295 1001 1356 841 1356 645 Z M 1223 637 C 1223 801 1175 934 1081 1036 C 987 1138 867 1190 723 1190 C 580 1190 462 1139 369 1038 C 275 937 229 806 229 645 C 229 481 276 347 371 244 C 466 141 586 90 731 90 C 873 90 990 140 1083 242 C 1176 344 1223 475 1223 637 Z" unicode="O" />
<glyph horiz-adv-x="1063" d="M 985 881 C 985 741 938 635 845 563 C 752 491 627 455 469 453 L 295 451 L 295 0 L 164 0 L 164 1280 L 485 1280 C 653 1280 779 1242 861 1168 C 943 1093 985 997 985 881 Z M 850 874 C 850 965 818 1035 755 1085 C 691 1134 600 1159 481 1159 L 295 1159 L 295 571 L 477 575 C 597 577 690 603 754 652 C 818 701 850 775 850 874 Z" unicode="P" />
<glyph horiz-adv-x="1452" d="M 975 27 L 1395 -186 L 1337 -299 L 813 -18 C 799 -20 784 -22 770 -24 C 755 -26 740 -27 725 -27 C 547 -27 398 34 277 157 C 156 280 96 440 96 637 C 96 831 155 992 274 1118 C 393 1244 544 1307 727 1307 C 904 1307 1053 1245 1174 1123 C 1295 1001 1356 841 1356 645 C 1356 499 1321 372 1251 262 C 1181 152 1089 74 975 27 Z M 1223 637 C 1223 801 1175 934 1081 1036 C 987 1138 867 1190 723 1190 C 580 1190 462 1139 369 1038 C 275 937 229 806 229 645 C 229 481 276 347 371 244 C 466 141 586 90 731 90 C 873 90 990 140 1083 242 C 1176 344 1223 475 1223 637 Z" unicode="Q" />
<glyph horiz-adv-x="1083" d="M 295 512 L 295 0 L 164 0 L 164 1280 L 508 1280 C 664 1280 781 1246 858 1179 C 934 1111 973 1022 973 911 C 973 815 944 738 886 678 C 828 618 758 576 676 551 L 1030 0 L 879 0 L 551 528 L 295 512 Z M 295 629 L 524 637 C 608 640 682 665 746 711 C 810 757 842 821 842 905 C 842 989 811 1052 751 1096 C 690 1139 604 1161 494 1161 L 295 1161 L 295 629 Z" unicode="R" />
<glyph horiz-adv-x="1004" d="M 489 90 C 577 90 650 113 707 160 C 764 207 793 264 793 332 C 793 406 764 461 706 499 C 648 537 569 570 469 600 C 379 626 294 664 215 714 C 135 764 96 845 96 958 C 96 1059 134 1142 212 1208 C 290 1274 388 1307 506 1307 C 579 1307 648 1297 713 1277 C 777 1257 837 1230 891 1196 L 844 1081 C 796 1113 742 1139 682 1159 C 622 1178 564 1188 508 1188 C 412 1188 340 1166 293 1122 C 246 1078 223 1027 223 969 C 223 898 252 845 311 811 C 370 776 449 743 547 713 C 638 685 723 645 801 593 C 879 541 918 457 918 342 C 918 237 877 149 797 79 C 716 8 612 -27 485 -27 C 409 -27 336 -16 266 5 C 196 26 132 55 74 92 L 121 209 C 171 174 227 145 289 123 C 350 101 417 90 489 90 Z" unicode="S" />
<glyph horiz-adv-x="1126" d="M 1079 1157 L 629 1157 L 629 0 L 498 0 L 498 1157 L 47 1157 L 47 1280 L 1079 1280 L 1079 1157 Z" unicode="T" />
<glyph horiz-adv-x="1262" d="M 1114 489 C 1114 331 1072 206 990 113 C 908 19 787 -27 629 -27 C 475 -27 357 18 274 108 C 191 198 150 318 150 469 L 150 1280 L 276 1280 L 276 485 C 276 364 306 269 367 199 C 427 129 517 94 635 94 C 748 94 835 127 895 195 C 955 262 985 359 985 487 L 985 1280 L 1114 1280 L 1114 489 Z" unicode="U" />
<glyph horiz-adv-x="1137" d="M 1116 1280 L 643 0 L 489 0 L 20 1280 L 154 1280 L 569 135 L 983 1280 L 1116 1280 Z" unicode="V" />
<glyph horiz-adv-x="1833" d="M 920 1126 L 573 0 L 449 0 L 84 1280 L 219 1280 L 518 186 L 844 1280 L 999 1280 L 1331 186 L 1618 1280 L 1749 1280 L 1391 0 L 1264 0 L 920 1126 Z" unicode="W" />
<glyph horiz-adv-x="1151" d="M 571 567 L 180 0 L 27 0 L 496 651 L 51 1280 L 207 1280 L 575 745 L 946 1280 L 1100 1280 L 651 657 L 1122 0 L 963 0 L 571 567 Z" unicode="X" />
<glyph horiz-adv-x="1073" d="M 1049 1280 L 602 514 L 602 0 L 471 0 L 471 514 L 25 1280 L 172 1280 L 541 643 L 903 1280 L 1049 1280 Z" unicode="Y" />
<glyph horiz-adv-x="1044" d="M 971 0 L 49 0 L 49 96 L 809 1161 L 72 1161 L 72 1280 L 973 1280 L 973 1182 L 213 119 L 971 119 L 971 0 Z" unicode="Z" />
<glyph horiz-adv-x="1024" d="M 848 -455 L 315 -455 L 315 1382 L 848 1382 L 848 1278 L 432 1278 L 432 -350 L 848 -350 L 848 -455 Z" unicode="[" />
<glyph horiz-adv-x="424" d="M -68 1438 L 35 1438 L 532 -408 L 432 -408 L -68 1438 Z" unicode="\" />
<glyph horiz-adv-x="1024" d="M 176 -455 L 176 -350 L 592 -350 L 592 1278 L 176 1278 L 176 1382 L 707 1382 L 707 -455 L 176 -455 Z" unicode="]" />
<glyph horiz-adv-x="772" d="M 713 1061 L 616 1061 L 412 1337 L 410 1337 L 203 1061 L 106 1061 L 338 1434 L 481 1434 L 713 1061 Z" unicode="^" />
<glyph horiz-adv-x="911" d="M 934 -100 L -23 -100 L -23 0 L 934 0 L 934 -100 Z" unicode="_" />
<glyph horiz-adv-x="811" d="M 551 1061 L 457 1061 L 145 1427 L 309 1427 L 551 1061 Z" unicode="`" />
<glyph horiz-adv-x="899" d="M 645 113 L 639 113 C 607 74 567 41 519 14 C 471 -13 419 -27 365 -27 C 279 -27 208 -2 152 47 C 96 97 68 159 68 233 C 68 317 108 391 189 454 C 270 517 419 555 637 567 L 637 623 C 637 696 619 751 584 789 C 549 827 493 846 416 846 C 364 846 310 834 253 812 C 196 789 148 763 109 733 L 80 852 C 122 881 175 907 239 930 C 303 953 366 965 428 965 C 536 965 619 938 677 885 C 735 832 764 747 764 629 L 764 178 C 764 144 769 120 780 105 C 791 89 817 82 858 84 L 850 -20 C 788 -24 741 -15 707 8 C 673 32 652 67 645 113 Z M 637 207 L 637 481 C 477 463 364 435 299 397 C 233 359 201 310 201 248 C 201 198 219 158 256 128 C 292 98 338 84 393 84 C 443 84 489 96 531 121 C 573 145 608 174 637 207 Z" unicode="a" />
<glyph horiz-adv-x="1047" d="M 967 481 C 967 334 923 213 836 117 C 749 21 638 -27 504 -27 C 466 -27 425 -22 383 -12 C 341 -2 304 10 274 25 L 147 -31 L 147 1380 L 274 1407 L 274 840 C 306 869 346 896 394 921 C 442 945 497 958 557 958 C 680 958 779 913 854 824 C 929 735 967 621 967 481 Z M 836 475 C 836 581 808 668 754 738 C 699 807 625 842 532 842 C 481 842 434 832 390 812 C 346 792 308 767 274 737 L 274 162 C 302 139 338 121 380 108 C 422 94 465 88 510 88 C 610 88 689 124 748 197 C 806 270 836 363 836 475 Z" unicode="b" />
<glyph horiz-adv-x="924" d="M 836 53 C 796 29 751 9 701 -5 C 651 -19 599 -27 545 -27 C 404 -27 292 19 210 111 C 127 203 86 322 86 467 C 86 612 129 731 217 825 C 304 918 414 965 547 965 C 603 965 656 958 706 944 C 755 930 800 910 840 885 L 807 770 C 771 793 730 811 686 825 C 642 839 595 846 547 846 C 446 846 366 811 306 742 C 246 672 217 582 217 471 C 217 357 247 265 309 196 C 370 126 450 92 549 92 C 595 92 641 99 687 113 C 732 127 773 146 809 170 L 836 53 Z" unicode="c" />
<glyph horiz-adv-x="1053" d="M 778 907 L 778 1380 L 905 1407 L 905 0 L 778 0 L 778 88 C 747 59 708 33 662 9 C 616 -15 564 -27 506 -27 C 380 -27 279 18 202 110 C 124 202 86 319 86 461 C 86 605 129 724 217 818 C 305 911 416 958 551 958 C 591 958 631 953 671 943 C 711 933 747 921 778 907 Z M 778 772 C 749 794 714 812 673 825 C 632 837 589 844 545 844 C 445 844 365 808 306 736 C 246 664 217 573 217 463 C 217 355 245 265 301 195 C 357 125 433 90 528 90 C 576 90 621 99 664 119 C 707 139 745 164 778 195 L 778 772 Z" unicode="d" />
<glyph horiz-adv-x="963" d="M 215 465 L 215 455 C 217 349 247 262 307 194 C 366 126 445 92 543 92 C 593 92 642 99 690 113 C 738 127 779 146 815 170 L 840 53 C 800 29 754 9 703 -5 C 651 -19 597 -27 539 -27 C 404 -27 295 18 211 110 C 127 202 86 319 86 461 C 86 607 128 728 212 823 C 296 917 402 965 528 965 C 631 965 714 933 776 870 C 838 807 870 723 870 618 C 870 594 868 568 864 541 C 860 513 856 489 850 469 L 215 465 Z M 223 565 L 743 567 C 744 572 745 579 745 588 C 745 596 745 603 745 608 C 745 679 725 737 687 782 C 649 827 593 850 520 850 C 436 850 369 821 317 765 C 265 709 233 642 223 565 Z" unicode="e" />
<glyph horiz-adv-x="610" d="M 629 1384 C 629 1383 623 1363 613 1325 C 603 1287 598 1268 598 1270 C 576 1280 553 1289 529 1297 C 505 1305 480 1309 455 1309 C 403 1309 364 1291 338 1256 C 312 1220 299 1165 299 1090 L 299 934 L 594 934 L 588 821 L 299 821 L 299 0 L 174 0 L 174 817 L 23 827 L 31 907 L 172 940 L 174 1087 C 176 1210 203 1297 255 1348 C 307 1399 375 1425 457 1425 C 488 1425 519 1420 550 1412 C 581 1404 607 1394 629 1384 Z" unicode="f" />
<glyph horiz-adv-x="958" d="M 219 -2 C 179 12 148 32 126 58 C 103 84 92 113 92 147 C 92 186 107 221 137 253 C 167 285 203 309 246 326 C 201 353 164 391 136 441 C 108 491 94 548 94 612 C 94 711 128 795 196 863 C 264 931 353 965 463 965 C 511 965 554 959 591 948 C 627 936 658 923 684 909 L 944 930 L 950 803 L 743 823 C 765 801 784 769 798 729 C 812 689 819 650 819 612 C 819 513 784 431 715 366 C 645 300 559 268 455 268 C 429 268 405 270 383 275 C 361 280 339 287 315 295 C 291 285 267 270 245 251 C 222 231 211 208 211 182 C 211 152 225 129 255 112 C 284 94 340 86 424 86 L 545 86 C 680 86 779 64 841 20 C 903 -23 934 -83 934 -160 C 934 -262 884 -346 785 -411 C 685 -475 570 -508 440 -508 C 314 -508 212 -482 134 -432 C 55 -381 16 -315 16 -233 C 16 -180 34 -132 72 -89 C 110 -46 159 -17 219 -2 Z M 330 -27 C 274 -42 228 -66 192 -100 C 156 -134 139 -171 139 -211 C 139 -265 167 -311 225 -348 C 282 -384 360 -403 459 -403 C 555 -403 638 -382 707 -340 C 776 -298 811 -245 811 -182 C 811 -127 786 -88 738 -66 C 689 -44 618 -33 526 -33 C 494 -33 460 -32 424 -31 C 387 -30 356 -29 330 -27 Z M 219 610 C 219 542 240 486 283 440 C 326 394 385 371 461 371 C 532 371 589 394 631 440 C 673 486 694 544 694 616 C 694 685 673 743 633 790 C 592 836 533 860 455 860 C 382 860 324 836 282 789 C 240 742 219 682 219 610 Z" unicode="g" />
<glyph horiz-adv-x="1034" d="M 893 0 L 766 0 L 766 606 C 766 687 749 747 716 786 C 682 824 632 844 565 844 C 511 844 458 831 408 806 C 358 781 313 749 274 711 L 274 0 L 147 0 L 147 1380 L 274 1407 L 274 815 C 323 863 377 900 435 926 C 493 952 548 965 600 965 C 690 965 762 936 814 880 C 866 824 893 745 893 643 L 893 0 Z" unicode="h" />
<glyph horiz-adv-x="428" d="M 299 1247 C 299 1223 291 1201 277 1182 C 263 1162 241 1153 213 1153 C 184 1153 162 1162 148 1182 C 134 1201 127 1223 127 1247 C 127 1270 134 1291 148 1309 C 162 1327 184 1337 213 1337 C 241 1337 263 1327 277 1309 C 291 1291 299 1270 299 1247 Z M 276 0 L 150 0 L 150 938 L 276 965 L 276 0 Z" unicode="i" />
<glyph horiz-adv-x="424" d="M 299 1247 C 299 1223 291 1201 277 1182 C 263 1162 241 1153 213 1153 C 184 1153 162 1162 148 1182 C 134 1201 127 1223 127 1247 C 127 1270 134 1291 148 1309 C 162 1327 184 1337 213 1337 C 241 1337 263 1327 277 1309 C 291 1291 299 1270 299 1247 Z M 55 -512 L -31 -422 C 36 -387 83 -344 110 -292 C 136 -240 150 -165 150 -66 L 150 938 L 276 965 L 276 -66 C 276 -186 259 -279 225 -347 C 191 -414 135 -469 55 -512 Z" unicode="j" />
<glyph horiz-adv-x="889" d="M 279 467 L 274 467 L 274 0 L 147 0 L 147 1380 L 274 1407 L 274 506 L 279 506 L 700 938 L 860 938 L 410 492 L 862 0 L 700 0 L 279 467 Z" unicode="k" />
<glyph horiz-adv-x="422" d="M 274 0 L 147 0 L 147 1380 L 274 1407 L 274 0 Z" unicode="l" />
<glyph horiz-adv-x="1587" d="M 1446 0 L 1319 0 L 1319 604 C 1319 685 1302 745 1270 785 C 1237 824 1187 844 1120 844 C 1070 844 1022 832 977 808 C 932 784 892 756 856 723 C 857 717 858 704 859 685 C 859 665 860 650 860 639 L 860 0 L 733 0 L 733 604 C 733 685 716 745 684 785 C 651 824 601 844 535 844 C 485 844 438 833 394 813 C 350 793 310 767 274 735 L 274 0 L 147 0 L 147 938 L 274 965 L 274 836 C 322 879 371 911 423 933 C 474 954 523 965 571 965 C 629 965 681 952 725 926 C 769 900 803 861 825 809 C 877 861 931 900 989 926 C 1047 952 1103 965 1157 965 C 1245 965 1316 936 1368 880 C 1420 823 1446 743 1446 641 L 1446 0 Z" unicode="m" />
<glyph horiz-adv-x="1034" d="M 893 0 L 766 0 L 766 606 C 766 687 749 747 715 786 C 681 824 629 844 559 844 C 508 844 458 831 408 806 C 358 781 313 749 274 711 L 274 0 L 147 0 L 147 938 L 274 965 L 274 811 C 323 859 376 897 434 924 C 492 951 545 965 594 965 C 688 965 761 936 814 880 C 866 824 893 745 893 643 L 893 0 Z" unicode="n" />
<glyph horiz-adv-x="1087" d="M 999 471 C 999 322 954 202 866 110 C 777 18 668 -27 539 -27 C 409 -27 301 17 215 107 C 129 197 86 317 86 467 C 86 615 130 735 219 827 C 308 919 418 965 549 965 C 679 965 786 920 871 830 C 956 740 999 621 999 471 Z M 874 467 C 874 581 843 673 782 744 C 721 814 641 850 543 850 C 443 850 363 814 303 743 C 243 671 213 581 213 471 C 213 357 243 264 305 194 C 366 123 446 88 545 88 C 643 88 723 123 783 195 C 843 266 874 357 874 467 Z" unicode="o" />
<glyph horiz-adv-x="1055" d="M 274 844 C 306 873 345 899 391 923 C 437 946 489 958 547 958 C 673 958 774 912 851 822 C 928 731 967 615 967 473 C 967 328 923 208 836 114 C 749 20 638 -27 504 -27 C 467 -27 427 -22 384 -13 C 341 -3 304 8 274 23 L 274 -477 L 147 -477 L 147 942 L 274 969 L 274 844 Z M 274 737 L 274 162 C 302 139 338 121 380 108 C 422 94 465 88 510 88 C 610 88 689 124 748 197 C 806 269 836 361 836 471 C 836 579 808 667 752 737 C 696 807 620 842 526 842 C 478 842 433 832 390 812 C 346 792 308 767 274 737 Z" unicode="p" />
<glyph horiz-adv-x="1053" d="M 905 -477 L 778 -477 L 778 88 C 747 59 708 33 662 9 C 616 -15 564 -27 506 -27 C 380 -27 279 18 202 110 C 124 202 86 319 86 461 C 86 605 129 724 217 818 C 305 911 416 958 551 958 C 597 958 642 952 686 942 C 730 932 768 919 799 905 L 905 965 L 905 -477 Z M 778 772 C 749 794 714 812 673 826 C 632 839 589 846 545 846 C 445 846 365 809 306 737 C 246 664 217 573 217 463 C 217 355 245 265 301 194 C 357 123 433 88 528 88 C 576 88 621 98 664 118 C 707 138 745 164 778 195 L 778 772 Z" unicode="q" />
<glyph horiz-adv-x="729" d="M 274 602 L 274 0 L 147 0 L 147 938 L 274 965 L 274 764 C 304 824 343 872 389 909 C 435 946 489 965 551 965 C 581 965 611 960 640 952 C 668 944 693 934 715 922 L 682 803 C 661 815 638 824 614 832 C 590 840 565 844 539 844 C 489 844 442 824 397 785 C 351 746 310 685 274 602 Z" unicode="r" />
<glyph horiz-adv-x="793" d="M 711 256 C 711 170 678 102 613 50 C 547 -1 468 -27 375 -27 C 319 -27 264 -19 209 -4 C 154 11 107 31 68 57 L 102 174 C 142 147 186 126 234 111 C 282 95 331 88 379 88 C 435 88 484 101 526 128 C 568 155 590 194 590 246 C 590 302 565 341 515 365 C 465 389 412 410 354 428 C 290 447 228 476 170 514 C 111 552 82 612 82 694 C 82 778 113 845 175 893 C 237 941 311 965 399 965 C 450 965 500 958 550 945 C 599 932 644 915 684 895 L 647 780 C 608 801 566 818 520 831 C 474 843 431 850 391 850 C 334 850 288 837 254 812 C 220 786 203 751 203 707 C 203 653 226 615 273 592 C 320 569 374 548 434 530 C 500 510 563 481 622 443 C 681 405 711 342 711 256 Z" unicode="s" />
<glyph horiz-adv-x="674" d="M 614 18 C 581 3 546 -8 510 -17 C 474 -26 439 -31 406 -31 C 317 -31 252 -6 211 43 C 169 92 150 166 154 264 L 168 819 L 25 827 L 31 907 L 172 940 L 178 1153 L 299 1153 L 293 934 L 606 934 L 600 821 L 289 821 L 274 260 C 272 200 282 156 304 127 C 326 98 362 84 412 84 C 442 84 472 88 503 97 C 533 106 563 117 592 129 L 614 18 Z" unicode="t" />
<glyph horiz-adv-x="1032" d="M 139 938 L 266 938 L 266 332 C 266 250 282 190 316 152 C 350 113 401 94 469 94 C 523 94 575 106 625 131 C 675 156 720 188 758 227 L 758 938 L 885 938 L 885 0 L 758 -27 L 758 125 C 710 76 657 38 599 12 C 541 -13 486 -27 434 -27 C 343 -27 271 1 218 57 C 165 113 139 193 139 295 L 139 938 Z" unicode="u" />
<glyph horiz-adv-x="868" d="M 860 938 L 492 -2 L 377 -2 L 6 938 L 143 938 L 440 164 L 727 938 L 860 938 Z" unicode="v" />
<glyph horiz-adv-x="1356" d="M 428 -4 L 317 -4 L 31 938 L 166 938 L 383 190 L 627 936 L 741 936 L 997 186 L 1192 938 L 1331 938 L 1053 -4 L 940 -4 L 684 754 L 428 -4 Z" unicode="w" />
<glyph horiz-adv-x="807" d="M 799 0 L 657 0 L 403 395 L 152 0 L 8 0 L 332 481 L 29 938 L 170 938 L 403 573 L 633 938 L 774 938 L 475 485 L 799 0 Z" unicode="x" />
<glyph horiz-adv-x="868" d="M 860 938 L 496 10 L 420 -193 C 377 -307 331 -384 283 -425 C 235 -466 179 -487 117 -487 C 81 -487 48 -483 20 -475 C -8 -467 -37 -456 -66 -444 L -27 -328 C -4 -340 19 -349 43 -357 C 67 -365 91 -369 117 -369 C 152 -369 184 -355 214 -327 C 244 -299 275 -240 309 -152 L 373 14 L 6 938 L 143 938 L 438 164 L 727 938 L 860 938 Z" unicode="y" />
<glyph horiz-adv-x="803" d="M 754 0 L 43 0 L 43 100 L 602 825 L 61 825 L 61 938 L 754 938 L 754 840 L 195 113 L 754 113 L 754 0 Z" unicode="z" />
<glyph horiz-adv-x="1024" d="M 819 -469 C 677 -461 568 -438 491 -400 C 413 -361 375 -297 375 -209 C 375 -124 392 -48 426 19 C 460 87 477 153 477 219 C 477 281 457 325 417 352 C 377 379 311 397 217 406 L 211 473 L 217 543 C 311 549 377 566 417 593 C 457 619 477 665 477 729 C 477 794 460 860 426 928 C 392 996 375 1071 375 1155 C 375 1243 413 1307 491 1347 C 568 1387 677 1410 819 1417 L 819 1323 C 699 1313 615 1296 567 1271 C 518 1246 494 1211 494 1165 C 494 1101 511 1033 546 962 C 580 890 598 820 598 750 C 598 679 575 618 529 566 C 483 514 412 485 315 479 L 315 467 C 412 461 483 432 529 380 C 575 328 598 266 598 195 C 598 125 580 55 546 -15 C 511 -85 494 -151 494 -213 C 494 -261 518 -298 567 -324 C 615 -350 699 -367 819 -377 L 819 -469 Z" unicode="{" />
<glyph horiz-adv-x="512" d="M 201 -408 L 201 1438 L 313 1438 L 313 -408 L 201 -408 Z" unicode="|" />
<glyph horiz-adv-x="1024" d="M 813 473 L 807 403 C 713 396 645 379 605 352 C 565 325 545 280 545 217 C 545 151 562 85 597 17 C 631 -50 649 -125 649 -209 C 649 -297 610 -361 533 -401 C 455 -440 346 -463 205 -469 L 205 -377 C 323 -369 406 -352 456 -326 C 505 -300 530 -263 530 -217 C 530 -153 512 -86 478 -15 C 443 55 426 125 426 195 C 426 265 448 326 494 379 C 539 431 611 461 709 467 L 709 479 C 611 484 539 513 494 565 C 448 617 426 678 426 750 C 426 820 443 890 478 962 C 512 1033 530 1100 530 1163 C 530 1210 505 1246 456 1271 C 406 1296 323 1313 205 1323 L 205 1417 C 346 1409 455 1385 533 1346 C 610 1307 649 1243 649 1155 C 649 1070 631 994 597 926 C 562 858 545 792 545 727 C 545 663 565 618 605 591 C 645 564 713 547 807 541 L 813 473 Z" unicode="}" />
<glyph horiz-adv-x="1024" d="M 866 598 C 854 518 834 459 805 420 C 776 381 736 362 684 362 C 624 362 568 386 514 435 C 460 483 414 508 377 508 C 356 508 339 498 325 480 C 311 462 298 427 285 375 L 201 375 C 212 454 232 513 261 552 C 290 590 331 610 383 610 C 442 610 499 585 554 537 C 609 488 655 464 692 464 C 711 464 728 473 742 491 C 756 509 770 545 782 598 L 866 598 Z" unicode="~" />
<glyph horiz-adv-x="281" d="" unicode=" " />
<glyph horiz-adv-x="532" d="M 164 1198 C 164 1225 173 1250 192 1272 C 210 1293 235 1304 265 1304 C 295 1304 320 1293 340 1272 C 359 1250 369 1225 369 1198 C 369 1170 359 1146 340 1126 C 320 1106 295 1096 265 1096 C 235 1096 210 1106 192 1126 C 173 1146 164 1170 164 1198 Z M 300 897 L 343 -52 L 189 -52 L 228 897 L 300 897 Z" unicode="¡" />
<glyph horiz-adv-x="1024" d="M 717 956 C 751 949 784 939 815 927 C 846 915 875 901 903 885 L 872 772 C 848 788 821 803 793 815 C 764 827 734 836 702 842 L 600 88 L 614 88 C 661 88 707 95 753 110 C 799 124 840 143 877 166 L 899 53 C 860 29 816 9 767 -5 C 717 -19 666 -27 612 -27 L 586 -27 L 555 -252 L 471 -252 L 504 -14 C 396 9 311 64 248 150 C 185 236 154 342 154 467 C 154 611 196 730 282 824 C 368 918 476 965 608 965 L 635 965 L 659 1151 L 743 1151 L 717 956 Z M 618 850 L 608 850 C 508 850 428 814 369 744 C 310 673 281 582 281 471 C 281 376 302 296 344 230 C 386 164 444 120 518 100 C 519 100 536 225 570 475 C 603 725 619 850 618 850 Z" unicode="¢" />
<glyph horiz-adv-x="1024" d="M 264 662 C 262 701 260 739 259 776 C 258 812 258 847 258 879 C 258 1018 292 1125 362 1199 C 431 1273 525 1311 643 1311 C 696 1311 746 1304 793 1290 C 840 1276 884 1258 924 1235 L 891 1122 C 856 1142 818 1160 778 1174 C 737 1188 691 1196 641 1196 C 549 1196 483 1167 443 1111 C 403 1055 383 983 383 897 C 383 865 383 830 385 790 C 387 750 389 707 391 662 L 793 662 L 786 567 L 395 567 C 396 533 397 499 398 465 C 398 431 399 396 399 362 C 399 336 398 312 396 289 C 394 265 390 243 385 223 C 431 182 483 149 542 123 C 600 97 649 84 688 84 C 736 84 779 99 818 130 C 857 161 885 219 903 305 L 999 285 C 989 183 955 104 899 50 C 842 -3 776 -31 702 -31 C 641 -31 580 -15 518 16 C 456 47 400 86 348 133 C 324 96 290 64 246 36 C 201 8 143 -15 72 -35 C 72 -35 67 -17 57 19 C 47 55 43 72 43 70 C 135 97 196 132 227 174 C 258 216 274 274 274 350 C 274 384 273 420 272 456 C 271 492 270 529 268 567 L 78 567 L 72 662 L 264 662 Z" unicode="£" />
<glyph horiz-adv-x="887" d="M 811 1026 L 694 909 C 708 885 720 858 729 827 C 738 795 743 765 743 735 C 743 702 738 671 730 642 C 722 613 709 586 692 561 L 821 432 L 748 358 L 621 485 C 597 469 570 456 540 446 C 510 436 478 432 444 432 C 408 432 376 436 348 445 C 319 454 292 467 268 483 L 152 367 L 80 438 L 197 555 C 180 580 167 608 157 640 C 147 672 143 703 143 735 C 143 767 147 798 155 828 C 163 858 176 885 195 911 L 74 1032 L 147 1106 L 268 985 C 291 1001 318 1014 348 1024 C 378 1033 410 1038 444 1038 C 480 1038 513 1033 543 1024 C 573 1015 600 1001 625 983 L 739 1098 L 811 1026 Z M 651 735 C 651 792 632 842 596 884 C 559 926 508 948 444 948 C 379 948 328 926 291 884 C 254 842 236 792 236 735 C 236 679 254 629 291 586 C 328 543 379 522 444 522 C 508 522 559 543 596 586 C 632 629 651 679 651 735 Z" unicode="¤" />
<glyph horiz-adv-x="1024" d="M 428 541 L 72 541 L 66 635 L 383 635 L -20 1280 L 125 1280 L 494 668 L 858 1280 L 999 1280 L 596 635 L 915 635 L 909 541 L 553 541 L 553 360 L 909 360 L 915 268 L 553 268 L 553 0 L 426 0 L 426 268 L 66 268 L 72 360 L 428 360 L 428 541 Z" unicode="¥" />
<glyph horiz-adv-x="512" d="M 201 -285 L 201 401 L 313 401 L 313 -285 L 201 -285 Z M 201 629 L 201 1315 L 313 1315 L 313 629 L 201 629 Z" unicode="¦" />
<glyph horiz-adv-x="1024" d="M 954 592 C 954 526 932 472 888 428 C 844 384 789 352 723 332 C 755 311 781 286 801 256 C 821 226 831 189 831 145 C 831 61 798 -6 732 -58 C 666 -109 586 -135 494 -135 C 438 -135 383 -127 328 -111 C 273 -95 226 -75 188 -51 L 221 59 C 261 33 305 13 353 -2 C 401 -17 450 -25 498 -25 C 554 -25 604 -10 648 17 C 691 45 713 85 713 135 C 713 189 683 229 623 256 C 563 282 497 306 424 328 C 340 352 262 382 189 419 C 116 456 80 517 80 602 C 80 665 104 719 152 765 C 200 811 256 842 322 860 C 286 881 256 906 234 936 C 212 966 201 1003 201 1047 C 201 1132 232 1198 295 1246 C 358 1293 432 1317 518 1317 C 570 1317 620 1310 669 1297 C 718 1284 763 1267 803 1247 L 768 1137 C 729 1158 687 1175 641 1187 C 595 1199 552 1206 510 1206 C 454 1206 407 1193 371 1167 C 335 1141 317 1105 317 1061 C 317 1009 346 972 404 948 C 462 924 528 902 602 881 C 686 856 766 824 841 785 C 916 745 954 681 954 592 Z M 840 567 C 840 645 789 698 688 726 C 586 753 489 786 397 825 C 352 805 307 779 261 746 C 215 713 193 673 193 627 C 193 551 246 500 353 474 C 459 448 559 413 653 371 C 697 390 739 415 779 447 C 819 479 840 519 840 567 Z" unicode="§" />
<glyph horiz-adv-x="813" d="M 309 1214 C 309 1186 300 1162 282 1142 C 264 1122 240 1112 211 1112 C 182 1112 159 1122 141 1142 C 123 1162 115 1186 115 1214 C 115 1240 123 1264 141 1284 C 159 1304 182 1315 211 1315 C 240 1315 264 1304 282 1284 C 300 1264 309 1240 309 1214 Z M 705 1214 C 705 1186 696 1162 678 1142 C 660 1122 636 1112 608 1112 C 578 1112 554 1122 536 1142 C 517 1162 508 1186 508 1214 C 508 1240 517 1264 536 1284 C 554 1304 578 1315 608 1315 C 636 1315 660 1304 678 1284 C 696 1264 705 1240 705 1214 Z" unicode="¨" />
<glyph horiz-adv-x="1493" d="M 1006 956 L 971 864 C 941 883 910 897 878 907 C 846 917 812 922 776 922 C 700 922 638 897 590 847 C 542 797 518 727 518 639 C 518 552 541 482 589 430 C 637 378 700 352 778 352 C 816 352 852 358 888 370 C 923 382 953 398 979 418 L 999 317 C 971 299 937 284 897 274 C 857 263 816 258 774 258 C 667 258 580 292 513 360 C 445 428 412 519 412 635 C 412 750 446 842 514 912 C 582 981 669 1016 776 1016 C 818 1016 859 1010 901 1000 C 942 989 977 974 1006 956 Z M 748 -33 C 563 -33 405 32 274 164 C 143 296 78 453 78 637 C 78 821 143 979 274 1111 C 405 1243 563 1309 748 1309 C 932 1309 1089 1243 1220 1111 C 1351 979 1417 821 1417 637 C 1417 453 1351 296 1220 164 C 1089 32 932 -33 748 -33 Z M 1358 637 C 1358 804 1298 948 1179 1070 C 1059 1192 916 1253 748 1253 C 579 1253 435 1192 316 1070 C 196 948 137 804 137 637 C 137 469 196 325 316 205 C 435 85 579 25 748 25 C 916 25 1059 85 1179 205 C 1298 325 1358 469 1358 637 Z" unicode="©" />
<glyph horiz-adv-x="696" d="M 664 537 L 553 512 C 539 525 527 541 517 559 C 507 577 498 599 492 623 L 489 623 C 465 596 432 571 391 547 C 350 523 306 512 260 512 C 194 512 142 532 104 573 C 66 613 47 663 47 721 C 47 795 80 856 147 904 C 213 952 325 981 481 989 L 481 1038 C 481 1091 468 1132 444 1161 C 419 1189 380 1204 326 1204 C 282 1204 241 1195 202 1178 C 162 1160 126 1139 94 1114 L 51 1202 C 89 1230 133 1255 181 1276 C 229 1296 280 1307 334 1307 C 405 1307 465 1287 513 1248 C 561 1209 586 1141 586 1044 L 586 733 C 586 688 594 649 610 617 C 626 585 644 558 664 537 Z M 481 694 L 481 907 C 355 899 268 878 221 844 C 173 810 150 773 150 733 C 150 691 163 660 190 639 C 217 618 249 608 285 608 C 320 608 356 616 393 633 C 429 649 459 670 481 694 Z" unicode="ª" />
<glyph horiz-adv-x="1174" d="M 547 170 L 530 76 L 51 416 L 51 543 L 530 883 L 547 788 L 164 481 L 164 477 L 547 170 Z M 1104 152 L 1090 53 L 586 412 L 586 547 L 1090 905 L 1104 807 L 702 481 L 702 477 L 1104 152 Z" unicode="«" />
<glyph horiz-adv-x="1024" d="M 926 623 L 926 199 L 813 199 L 813 510 L 98 510 L 104 623 L 926 623 Z" unicode="¬" />
<glyph horiz-adv-x="598" d="M 532 438 L 70 438 L 70 557 L 532 557 L 532 438 Z" unicode="­" />
<glyph horiz-adv-x="1493" d="M 608 543 L 608 283 L 506 283 L 506 1008 L 739 1008 C 829 1008 898 988 945 948 C 992 908 1016 853 1016 784 C 1016 731 1002 687 976 652 C 950 617 915 591 872 575 L 1055 283 L 936 283 L 770 551 L 608 543 Z M 748 -33 C 563 -33 405 32 274 164 C 143 296 78 453 78 637 C 78 821 143 979 274 1111 C 405 1243 563 1309 748 1309 C 932 1309 1089 1243 1220 1111 C 1351 979 1417 821 1417 637 C 1417 453 1351 296 1220 164 C 1089 32 932 -33 748 -33 Z M 1358 637 C 1358 804 1298 948 1179 1070 C 1059 1192 916 1253 748 1253 C 579 1253 435 1192 316 1070 C 196 948 137 804 137 637 C 137 469 196 325 316 205 C 435 85 579 25 748 25 C 916 25 1059 85 1179 205 C 1298 325 1358 469 1358 637 Z M 606 631 L 735 635 C 794 635 838 648 868 674 C 898 700 913 734 913 778 C 913 825 897 860 867 882 C 837 904 791 915 729 915 L 606 915 L 606 631 Z" unicode="®" />
<glyph horiz-adv-x="813" d="M 672 1098 L 150 1098 L 156 1190 L 664 1190 L 672 1098 Z" unicode="¯" />
<glyph horiz-adv-x="1024" d="M 815 1004 C 815 923 788 852 734 791 C 680 730 606 700 512 700 C 419 700 345 730 291 791 C 236 852 209 923 209 1004 C 209 1086 236 1157 291 1219 C 345 1280 419 1311 512 1311 C 606 1311 680 1280 734 1219 C 788 1157 815 1086 815 1004 Z M 727 1004 C 727 1064 708 1115 670 1159 C 632 1203 579 1225 512 1225 C 444 1225 392 1203 354 1159 C 316 1115 297 1064 297 1004 C 297 945 316 894 354 851 C 392 807 444 786 512 786 C 579 786 632 807 670 851 C 708 894 727 945 727 1004 Z" unicode="°" />
<glyph horiz-adv-x="1024" d="M 926 465 L 567 465 L 567 170 L 455 170 L 455 465 L 96 465 L 102 578 L 455 578 L 455 903 L 567 903 L 567 578 L 920 578 L 926 465 Z M 926 18 L 96 18 L 102 129 L 920 129 L 926 18 Z" unicode="±" />
<glyph horiz-adv-x="676" d="M 604 559 L 61 559 L 57 651 C 189 767 290 857 361 921 C 431 985 467 1050 467 1116 C 467 1160 451 1194 421 1219 C 391 1244 351 1257 303 1257 C 267 1257 232 1249 197 1233 C 161 1217 130 1198 104 1176 L 66 1260 C 93 1283 129 1303 174 1321 C 218 1339 266 1348 317 1348 C 395 1348 458 1327 505 1285 C 551 1243 575 1189 575 1122 C 575 1048 541 979 475 914 C 408 849 309 761 178 649 C 177 648 247 648 388 648 C 529 648 600 649 600 649 L 604 559 Z" unicode="²" />
<glyph horiz-adv-x="676" d="M 356 967 C 438 967 500 948 542 910 C 583 872 604 828 604 778 C 604 704 574 647 514 605 C 454 563 381 543 297 543 C 257 543 215 547 173 557 C 130 566 95 578 68 594 L 88 682 C 114 668 146 656 184 646 C 221 636 260 631 301 631 C 351 631 396 642 436 666 C 476 690 496 725 496 772 C 496 810 479 842 445 868 C 411 894 362 907 299 907 C 280 906 260 905 238 903 C 216 901 197 898 180 895 L 180 975 C 268 994 337 1017 388 1044 C 439 1071 465 1106 465 1149 C 465 1183 451 1210 423 1230 C 395 1250 357 1260 309 1260 C 275 1260 240 1253 204 1239 C 168 1225 136 1207 109 1186 L 68 1270 C 98 1291 135 1309 180 1325 C 224 1340 269 1348 315 1348 C 393 1348 455 1331 502 1298 C 549 1264 573 1219 573 1161 C 573 1115 554 1075 518 1043 C 481 1010 427 985 356 967 Z" unicode="³" />
<glyph horiz-adv-x="811" d="M 674 1427 L 362 1061 L 268 1061 L 510 1427 L 674 1427 Z" unicode="´" />
<glyph horiz-adv-x="1040" d="M 274 938 L 274 340 C 274 253 299 190 351 152 C 403 113 461 94 526 94 C 579 94 632 111 686 146 C 739 181 766 245 766 338 L 766 938 L 893 938 L 893 0 L 766 0 L 766 111 C 733 61 696 25 654 5 C 612 -14 569 -25 524 -25 C 479 -25 435 -16 393 2 C 350 20 310 55 274 109 L 274 -477 L 147 -477 L 147 938 L 274 938 Z" unicode="µ" />
<glyph horiz-adv-x="1024" d="M 725 539 C 705 533 681 529 651 525 C 621 521 593 520 569 520 C 408 520 289 556 211 628 C 133 700 94 788 94 893 C 94 1020 138 1116 227 1182 C 316 1247 426 1280 557 1280 L 836 1280 L 836 -131 L 725 -131 L 725 539 Z" unicode="¶" />
<glyph horiz-adv-x="512" d="M 360 469 C 360 441 350 417 331 395 C 311 373 287 362 258 362 C 228 362 204 373 185 395 C 165 417 156 441 156 469 C 156 496 165 520 185 540 C 204 560 228 571 258 571 C 287 571 311 560 331 540 C 350 520 360 496 360 469 Z" unicode="·" />
<glyph horiz-adv-x="813" d="M 389 -139 C 461 -136 521 -149 568 -178 C 615 -207 639 -250 639 -307 C 639 -363 612 -411 558 -452 C 504 -493 422 -520 311 -532 L 301 -446 C 379 -442 438 -428 478 -405 C 517 -382 537 -353 537 -317 C 537 -273 513 -244 465 -230 C 417 -215 352 -215 268 -231 L 256 -170 L 492 61 L 594 61 L 389 -139 Z" unicode="¸" />
<glyph horiz-adv-x="676" d="M 338 559 L 338 1221 L 133 1169 L 129 1262 L 444 1341 L 444 559 L 338 559 Z" unicode="¹" />
<glyph horiz-adv-x="866" d="M 799 911 C 799 792 763 696 692 623 C 621 550 534 514 430 514 C 326 514 239 549 171 621 C 102 693 68 789 68 909 C 68 1028 103 1124 174 1197 C 245 1270 333 1307 438 1307 C 542 1307 628 1271 696 1199 C 764 1127 799 1031 799 911 Z M 696 907 C 696 997 672 1071 624 1127 C 576 1183 512 1212 434 1212 C 354 1212 291 1183 243 1127 C 195 1071 172 999 172 911 C 172 821 196 748 244 692 C 292 636 355 608 434 608 C 513 608 576 636 624 692 C 672 748 696 820 696 907 Z" unicode="º" />
<glyph horiz-adv-x="1180" d="M 594 412 L 92 53 L 76 152 L 477 477 L 477 481 L 76 807 L 92 905 L 594 547 L 594 412 Z M 1128 416 L 649 76 L 633 170 L 1016 477 L 1016 481 L 633 788 L 649 883 L 1128 543 L 1128 416 Z" unicode="»" />
<glyph horiz-adv-x="1464" d="M 1446 -98 L 1319 -98 L 1319 -295 L 1221 -295 L 1221 -98 L 831 -98 L 821 -27 L 1200 485 L 1319 485 L 1319 -14 L 1442 -14 L 1446 -98 Z M 338 559 L 338 1221 L 133 1169 L 129 1262 L 444 1341 L 444 559 L 338 559 Z M 1378 1280 L 281 -238 L 168 -238 L 1268 1280 L 1378 1280 Z M 1221 -14 L 1221 377 L 932 -14 L 1221 -14 Z" unicode="¼" />
<glyph horiz-adv-x="1464" d="M 1393 -293 L 850 -293 L 846 -201 C 977 -84 1078 6 1149 70 C 1219 134 1255 198 1255 264 C 1255 308 1240 342 1210 368 C 1180 393 1140 406 1092 406 C 1056 406 1020 397 985 381 C 950 365 919 346 893 324 L 854 408 C 881 431 917 451 962 469 C 1007 487 1055 496 1106 496 C 1184 496 1247 475 1294 433 C 1340 391 1364 337 1364 270 C 1364 196 1330 127 1264 62 C 1197 -2 1098 -91 967 -203 C 965 -203 1035 -203 1177 -203 C 1318 -203 1389 -203 1389 -203 L 1393 -293 Z M 338 559 L 338 1221 L 133 1169 L 129 1262 L 444 1341 L 444 559 L 338 559 Z M 1348 1280 L 250 -238 L 137 -238 L 1237 1280 L 1348 1280 Z" unicode="½" />
<glyph horiz-adv-x="1464" d="M 356 967 C 438 967 500 948 542 910 C 583 872 604 828 604 778 C 604 704 574 647 514 605 C 454 563 381 543 297 543 C 257 543 215 547 173 557 C 130 566 95 578 68 594 L 88 682 C 114 668 146 656 184 646 C 221 636 260 631 301 631 C 351 631 396 642 436 666 C 476 690 496 725 496 772 C 496 810 479 842 445 868 C 411 894 362 907 299 907 C 280 906 260 905 238 903 C 216 901 197 898 180 895 L 180 975 C 268 994 337 1017 388 1044 C 439 1071 465 1106 465 1149 C 465 1183 451 1210 423 1230 C 395 1250 357 1260 309 1260 C 275 1260 240 1253 204 1239 C 168 1225 136 1207 109 1186 L 68 1270 C 98 1291 135 1309 180 1325 C 224 1340 269 1348 315 1348 C 393 1348 455 1331 502 1298 C 549 1264 573 1219 573 1161 C 573 1115 554 1075 518 1043 C 481 1010 427 985 356 967 Z M 1446 -98 L 1319 -98 L 1319 -295 L 1221 -295 L 1221 -98 L 831 -98 L 821 -27 L 1200 485 L 1319 485 L 1319 -14 L 1442 -14 L 1446 -98 Z M 1378 1280 L 281 -238 L 168 -238 L 1268 1280 L 1378 1280 Z M 1221 -14 L 1221 377 L 932 -14 L 1221 -14 Z" unicode="¾" />
<glyph horiz-adv-x="715" d="M 82 303 C 82 389 104 450 150 488 C 195 525 244 555 297 578 C 346 599 385 619 414 638 C 442 656 457 683 457 717 C 457 748 445 778 422 807 C 399 835 370 863 334 891 L 402 913 C 441 889 477 859 510 823 C 542 786 559 745 559 700 C 559 640 539 594 500 563 C 461 532 415 505 361 483 C 313 463 272 441 238 417 C 204 392 187 355 187 305 C 187 248 211 197 260 153 C 308 108 377 86 467 86 C 493 86 518 88 542 92 C 566 96 588 100 609 104 L 609 -11 C 590 -17 568 -21 544 -25 C 520 -29 492 -30 461 -30 C 343 -30 251 4 183 74 C 115 144 82 220 82 303 Z M 309 1198 C 309 1225 318 1250 338 1272 C 358 1293 382 1304 412 1304 C 442 1304 467 1293 487 1272 C 506 1250 516 1225 516 1198 C 516 1170 506 1146 487 1126 C 467 1106 442 1096 412 1096 C 382 1096 358 1106 338 1126 C 318 1146 309 1170 309 1198 Z" unicode="¿" />
<glyph horiz-adv-x="1178" d="M 670 1280 L 1147 0 L 1014 0 L 879 367 L 299 367 L 164 0 L 31 0 L 516 1280 L 670 1280 Z M 834 485 L 590 1151 L 344 485 L 834 485 Z M 630 1403 L 536 1403 L 224 1769 L 388 1769 L 630 1403 Z" unicode="À" />
<glyph horiz-adv-x="1178" d="M 670 1280 L 1147 0 L 1014 0 L 879 367 L 299 367 L 164 0 L 31 0 L 516 1280 L 670 1280 Z M 834 485 L 590 1151 L 344 485 L 834 485 Z M 938 1769 L 626 1403 L 532 1403 L 774 1769 L 938 1769 Z" unicode="Á" />
<glyph horiz-adv-x="1178" d="M 670 1280 L 1147 0 L 1014 0 L 879 367 L 299 367 L 164 0 L 31 0 L 516 1280 L 670 1280 Z M 834 485 L 590 1151 L 344 485 L 834 485 Z M 895 1403 L 798 1403 L 594 1679 L 592 1679 L 385 1403 L 288 1403 L 520 1776 L 663 1776 L 895 1403 Z" unicode="Â" />
<glyph horiz-adv-x="1178" d="M 670 1280 L 1147 0 L 1014 0 L 879 367 L 299 367 L 164 0 L 31 0 L 516 1280 L 670 1280 Z M 834 485 L 590 1151 L 344 485 L 834 485 Z M 923 1647 C 912 1567 892 1507 863 1469 C 833 1430 793 1411 741 1411 C 681 1411 625 1435 571 1483 C 517 1531 471 1556 434 1556 C 413 1556 396 1546 382 1528 C 368 1510 355 1475 342 1423 L 258 1423 C 269 1503 289 1562 318 1601 C 347 1639 388 1659 440 1659 C 499 1659 556 1634 611 1585 C 666 1535 712 1511 749 1511 C 768 1511 785 1520 799 1539 C 813 1557 827 1593 839 1647 L 923 1647 Z" unicode="Ã" />
<glyph horiz-adv-x="1178" d="M 670 1280 L 1147 0 L 1014 0 L 879 367 L 299 367 L 164 0 L 31 0 L 516 1280 L 670 1280 Z M 834 485 L 590 1151 L 344 485 L 834 485 Z M 487 1556 C 487 1528 478 1504 460 1484 C 442 1464 418 1454 389 1454 C 360 1454 337 1464 319 1484 C 301 1504 293 1528 293 1556 C 293 1582 301 1606 319 1626 C 337 1646 360 1657 389 1657 C 418 1657 442 1646 460 1626 C 478 1606 487 1582 487 1556 Z M 883 1556 C 883 1528 874 1504 856 1484 C 838 1464 814 1454 786 1454 C 756 1454 732 1464 714 1484 C 695 1504 686 1528 686 1556 C 686 1582 695 1606 714 1626 C 732 1646 756 1657 786 1657 C 814 1657 838 1646 856 1626 C 874 1606 883 1582 883 1556 Z" unicode="Ä" />
<glyph horiz-adv-x="1178" d="M 489 1214 C 447 1230 413 1256 388 1291 C 362 1325 350 1364 350 1407 C 350 1464 371 1514 415 1556 C 459 1598 518 1620 592 1620 C 665 1620 723 1598 766 1556 C 809 1514 832 1464 834 1407 C 834 1364 821 1325 797 1291 C 772 1256 738 1230 694 1214 L 1147 0 L 1014 0 L 879 367 L 301 367 L 164 0 L 31 0 L 489 1214 Z M 745 1405 C 745 1443 731 1476 703 1504 C 675 1532 638 1546 592 1546 C 545 1546 508 1532 481 1505 C 453 1477 440 1445 440 1409 C 440 1371 453 1338 481 1311 C 508 1283 545 1270 592 1270 C 638 1270 675 1283 703 1310 C 731 1336 745 1368 745 1405 Z M 836 485 L 592 1151 L 344 485 L 836 485 Z" unicode="Å" />
<glyph horiz-adv-x="1675" d="M 344 356 L 141 0 L 2 0 L 735 1280 L 1581 1280 L 1581 1159 L 938 1159 L 938 702 L 1475 702 L 1475 582 L 938 582 L 938 121 L 1581 121 L 1581 0 L 807 0 L 807 356 L 344 356 Z M 414 477 L 807 477 L 807 1165 L 414 477 Z" unicode="Æ" />
<glyph horiz-adv-x="1200" d="M 653 -25 C 486 -11 351 54 249 173 C 147 291 96 446 96 637 C 96 839 154 1002 271 1124 C 388 1246 536 1307 715 1307 C 792 1307 865 1296 935 1276 C 1005 1255 1063 1230 1110 1202 L 1069 1085 C 1018 1117 963 1143 903 1161 C 843 1179 780 1188 713 1188 C 574 1188 459 1140 367 1044 C 275 948 229 814 229 641 C 229 473 273 339 363 240 C 453 141 571 92 717 92 C 786 92 852 103 915 125 C 977 147 1031 174 1075 207 L 1100 78 C 1057 50 1005 27 945 8 C 885 -10 822 -21 756 -25 L 639 -139 C 711 -136 770 -149 818 -178 C 865 -207 889 -250 889 -307 C 889 -363 862 -411 808 -452 C 754 -493 672 -520 561 -532 L 551 -446 C 629 -442 688 -428 727 -405 C 766 -382 786 -353 786 -317 C 786 -273 762 -244 714 -230 C 666 -215 601 -215 518 -231 L 506 -170 L 653 -25 Z" unicode="Ç" />
<glyph horiz-adv-x="1038" d="M 938 0 L 164 0 L 164 1280 L 938 1280 L 938 1159 L 295 1159 L 295 700 L 831 700 L 831 582 L 295 582 L 295 121 L 938 121 L 938 0 Z M 618 1403 L 524 1403 L 212 1769 L 376 1769 L 618 1403 Z" unicode="È" />
<glyph horiz-adv-x="1038" d="M 938 0 L 164 0 L 164 1280 L 938 1280 L 938 1159 L 295 1159 L 295 700 L 831 700 L 831 582 L 295 582 L 295 121 L 938 121 L 938 0 Z M 854 1769 L 542 1403 L 448 1403 L 690 1769 L 854 1769 Z" unicode="É" />
<glyph horiz-adv-x="1038" d="M 938 0 L 164 0 L 164 1280 L 938 1280 L 938 1159 L 295 1159 L 295 700 L 831 700 L 831 582 L 295 582 L 295 121 L 938 121 L 938 0 Z M 856 1403 L 759 1403 L 555 1679 L 553 1679 L 346 1403 L 249 1403 L 481 1776 L 624 1776 L 856 1403 Z" unicode="Ê" />
<glyph horiz-adv-x="1038" d="M 938 0 L 164 0 L 164 1280 L 938 1280 L 938 1159 L 295 1159 L 295 700 L 831 700 L 831 582 L 295 582 L 295 121 L 938 121 L 938 0 Z M 442 1556 C 442 1528 433 1504 415 1484 C 397 1464 373 1454 344 1454 C 315 1454 292 1464 274 1484 C 256 1504 248 1528 248 1556 C 248 1582 256 1606 274 1626 C 292 1646 315 1657 344 1657 C 373 1657 397 1646 415 1626 C 433 1606 442 1582 442 1556 Z M 838 1556 C 838 1528 829 1504 811 1484 C 793 1464 769 1454 741 1454 C 711 1454 687 1464 669 1484 C 650 1504 641 1528 641 1556 C 641 1582 650 1606 669 1626 C 687 1646 711 1657 741 1657 C 769 1657 793 1646 811 1626 C 829 1606 838 1582 838 1556 Z" unicode="Ë" />
<glyph horiz-adv-x="467" d="M 297 0 L 168 0 L 168 1280 L 297 1280 L 297 0 Z M 294 1403 L 200 1403 L -112 1769 L 52 1769 L 294 1403 Z" unicode="Ì" />
<glyph horiz-adv-x="467" d="M 297 0 L 168 0 L 168 1280 L 297 1280 L 297 0 Z M 587 1769 L 275 1403 L 181 1403 L 423 1769 L 587 1769 Z" unicode="Í" />
<glyph horiz-adv-x="467" d="M 297 0 L 168 0 L 168 1280 L 297 1280 L 297 0 Z M 540 1403 L 443 1403 L 239 1679 L 237 1679 L 30 1403 L -67 1403 L 165 1776 L 308 1776 L 540 1403 Z" unicode="Î" />
<glyph horiz-adv-x="467" d="M 297 0 L 168 0 L 168 1280 L 297 1280 L 297 0 Z M 136 1556 C 136 1528 127 1504 109 1484 C 91 1464 67 1454 38 1454 C 9 1454 -13 1464 -31 1484 C -49 1504 -58 1528 -58 1556 C -58 1582 -49 1606 -31 1626 C -13 1646 9 1657 38 1657 C 67 1657 91 1646 109 1626 C 127 1606 136 1582 136 1556 Z M 532 1556 C 532 1528 523 1504 505 1484 C 487 1464 463 1454 435 1454 C 405 1454 381 1464 363 1484 C 344 1504 335 1528 335 1556 C 335 1582 344 1606 363 1626 C 381 1646 405 1657 435 1657 C 463 1657 487 1646 505 1626 C 523 1606 532 1582 532 1556 Z" unicode="Ï" />
<glyph horiz-adv-x="1323" d="M 205 588 L 33 588 L 33 702 L 205 702 L 205 1280 L 553 1280 C 761 1280 926 1221 1048 1105 C 1170 988 1231 836 1231 649 C 1231 448 1170 290 1049 174 C 928 58 759 0 543 0 L 205 0 L 205 588 Z M 336 702 L 694 702 L 694 588 L 336 588 L 336 121 L 549 121 C 711 121 844 163 946 249 C 1048 335 1100 465 1100 639 C 1100 801 1051 928 953 1020 C 855 1112 719 1159 545 1159 L 336 1159 L 336 702 Z" unicode="Ð" />
<glyph horiz-adv-x="1331" d="M 1038 182 L 1038 1280 L 1165 1280 L 1165 -12 L 1024 -12 L 291 1096 L 291 0 L 164 0 L 164 1280 L 311 1280 L 1038 182 Z M 999 1647 C 988 1567 968 1507 939 1469 C 909 1430 869 1411 817 1411 C 757 1411 701 1435 647 1483 C 593 1531 547 1556 510 1556 C 489 1556 472 1546 458 1528 C 444 1510 431 1475 418 1423 L 334 1423 C 345 1503 365 1562 394 1601 C 423 1639 464 1659 516 1659 C 575 1659 632 1634 687 1585 C 742 1535 788 1511 825 1511 C 844 1511 861 1520 875 1539 C 889 1557 903 1593 915 1647 L 999 1647 Z" unicode="Ñ" />
<glyph horiz-adv-x="1452" d="M 1356 645 C 1356 450 1296 289 1177 163 C 1058 36 907 -27 725 -27 C 547 -27 398 34 277 157 C 156 280 96 440 96 637 C 96 831 155 992 274 1118 C 393 1244 544 1307 727 1307 C 904 1307 1053 1245 1174 1123 C 1295 1001 1356 841 1356 645 Z M 1223 637 C 1223 801 1175 934 1081 1036 C 987 1138 867 1190 723 1190 C 580 1190 462 1139 369 1038 C 275 937 229 806 229 645 C 229 481 276 347 371 244 C 466 141 586 90 731 90 C 873 90 990 140 1083 242 C 1176 344 1223 475 1223 637 Z M 792 1403 L 698 1403 L 386 1769 L 550 1769 L 792 1403 Z" unicode="Ò" />
<glyph horiz-adv-x="1452" d="M 1356 645 C 1356 450 1296 289 1177 163 C 1058 36 907 -27 725 -27 C 547 -27 398 34 277 157 C 156 280 96 440 96 637 C 96 831 155 992 274 1118 C 393 1244 544 1307 727 1307 C 904 1307 1053 1245 1174 1123 C 1295 1001 1356 841 1356 645 Z M 1223 637 C 1223 801 1175 934 1081 1036 C 987 1138 867 1190 723 1190 C 580 1190 462 1139 369 1038 C 275 937 229 806 229 645 C 229 481 276 347 371 244 C 466 141 586 90 731 90 C 873 90 990 140 1083 242 C 1176 344 1223 475 1223 637 Z M 1071 1769 L 759 1403 L 665 1403 L 907 1769 L 1071 1769 Z" unicode="Ó" />
<glyph horiz-adv-x="1452" d="M 1356 645 C 1356 450 1296 289 1177 163 C 1058 36 907 -27 725 -27 C 547 -27 398 34 277 157 C 156 280 96 440 96 637 C 96 831 155 992 274 1118 C 393 1244 544 1307 727 1307 C 904 1307 1053 1245 1174 1123 C 1295 1001 1356 841 1356 645 Z M 1223 637 C 1223 801 1175 934 1081 1036 C 987 1138 867 1190 723 1190 C 580 1190 462 1139 369 1038 C 275 937 229 806 229 645 C 229 481 276 347 371 244 C 466 141 586 90 731 90 C 873 90 990 140 1083 242 C 1176 344 1223 475 1223 637 Z M 1032 1403 L 935 1403 L 731 1679 L 729 1679 L 522 1403 L 425 1403 L 657 1776 L 800 1776 L 1032 1403 Z" unicode="Ô" />
<glyph horiz-adv-x="1452" d="M 1356 645 C 1356 450 1296 289 1177 163 C 1058 36 907 -27 725 -27 C 547 -27 398 34 277 157 C 156 280 96 440 96 637 C 96 831 155 992 274 1118 C 393 1244 544 1307 727 1307 C 904 1307 1053 1245 1174 1123 C 1295 1001 1356 841 1356 645 Z M 1223 637 C 1223 801 1175 934 1081 1036 C 987 1138 867 1190 723 1190 C 580 1190 462 1139 369 1038 C 275 937 229 806 229 645 C 229 481 276 347 371 244 C 466 141 586 90 731 90 C 873 90 990 140 1083 242 C 1176 344 1223 475 1223 637 Z M 1060 1647 C 1049 1567 1029 1507 1000 1469 C 970 1430 930 1411 878 1411 C 818 1411 762 1435 708 1483 C 654 1531 608 1556 571 1556 C 550 1556 533 1546 519 1528 C 505 1510 492 1475 479 1423 L 395 1423 C 406 1503 426 1562 455 1601 C 484 1639 525 1659 577 1659 C 636 1659 693 1634 748 1585 C 803 1535 849 1511 886 1511 C 905 1511 922 1520 936 1539 C 950 1557 964 1593 976 1647 L 1060 1647 Z" unicode="Õ" />
<glyph horiz-adv-x="1452" d="M 1356 645 C 1356 450 1296 289 1177 163 C 1058 36 907 -27 725 -27 C 547 -27 398 34 277 157 C 156 280 96 440 96 637 C 96 831 155 992 274 1118 C 393 1244 544 1307 727 1307 C 904 1307 1053 1245 1174 1123 C 1295 1001 1356 841 1356 645 Z M 1223 637 C 1223 801 1175 934 1081 1036 C 987 1138 867 1190 723 1190 C 580 1190 462 1139 369 1038 C 275 937 229 806 229 645 C 229 481 276 347 371 244 C 466 141 586 90 731 90 C 873 90 990 140 1083 242 C 1176 344 1223 475 1223 637 Z M 628 1556 C 628 1528 619 1504 601 1484 C 583 1464 559 1454 530 1454 C 501 1454 478 1464 460 1484 C 442 1504 434 1528 434 1556 C 434 1582 442 1606 460 1626 C 478 1646 501 1657 530 1657 C 559 1657 583 1646 601 1626 C 619 1606 628 1582 628 1556 Z M 1024 1556 C 1024 1528 1015 1504 997 1484 C 979 1464 955 1454 927 1454 C 897 1454 873 1464 855 1484 C 836 1504 827 1528 827 1556 C 827 1582 836 1606 855 1626 C 873 1646 897 1657 927 1657 C 955 1657 979 1646 997 1626 C 1015 1606 1024 1582 1024 1556 Z" unicode="Ö" />
<glyph horiz-adv-x="1024" d="M 936 133 L 860 57 L 516 403 L 170 57 L 94 133 L 440 479 L 94 823 L 170 899 L 516 553 L 862 901 L 938 825 L 590 479 L 936 133 Z" unicode="×" />
<glyph horiz-adv-x="1452" d="M 1358 645 C 1358 451 1298 291 1179 164 C 1060 36 910 -27 729 -27 C 676 -27 625 -20 575 -8 C 525 4 478 21 436 43 L 334 -137 L 227 -137 C 227 -137 248 -99 292 -23 C 336 52 358 89 358 88 C 280 146 217 222 170 316 C 123 410 100 517 100 637 C 100 831 159 992 279 1118 C 398 1244 549 1307 731 1307 C 784 1307 835 1300 884 1288 C 933 1275 979 1258 1022 1237 L 1126 1417 L 1233 1417 L 1102 1192 C 1179 1134 1241 1059 1288 965 C 1334 871 1358 764 1358 645 Z M 963 1133 C 928 1151 891 1165 851 1175 C 811 1185 769 1190 725 1190 C 582 1190 464 1139 371 1038 C 277 937 231 806 231 645 C 231 549 248 462 283 386 C 317 310 364 247 422 199 L 963 1133 Z M 1038 1081 L 496 147 C 531 129 568 115 608 105 C 647 95 689 90 733 90 C 875 90 993 140 1086 242 C 1178 344 1225 475 1225 637 C 1225 731 1208 817 1174 894 C 1140 971 1095 1033 1038 1081 Z" unicode="Ø" />
<glyph horiz-adv-x="1262" d="M 1114 489 C 1114 331 1072 206 990 113 C 908 19 787 -27 629 -27 C 475 -27 357 18 274 108 C 191 198 150 318 150 469 L 150 1280 L 276 1280 L 276 485 C 276 364 306 269 367 199 C 427 129 517 94 635 94 C 748 94 835 127 895 195 C 955 262 985 359 985 487 L 985 1280 L 1114 1280 L 1114 489 Z M 710 1403 L 616 1403 L 304 1769 L 468 1769 L 710 1403 Z" unicode="Ù" />
<glyph horiz-adv-x="1262" d="M 1114 489 C 1114 331 1072 206 990 113 C 908 19 787 -27 629 -27 C 475 -27 357 18 274 108 C 191 198 150 318 150 469 L 150 1280 L 276 1280 L 276 485 C 276 364 306 269 367 199 C 427 129 517 94 635 94 C 748 94 835 127 895 195 C 955 262 985 359 985 487 L 985 1280 L 1114 1280 L 1114 489 Z M 950 1769 L 638 1403 L 544 1403 L 786 1769 L 950 1769 Z" unicode="Ú" />
<glyph horiz-adv-x="1262" d="M 1114 489 C 1114 331 1072 206 990 113 C 908 19 787 -27 629 -27 C 475 -27 357 18 274 108 C 191 198 150 318 150 469 L 150 1280 L 276 1280 L 276 485 C 276 364 306 269 367 199 C 427 129 517 94 635 94 C 748 94 835 127 895 195 C 955 262 985 359 985 487 L 985 1280 L 1114 1280 L 1114 489 Z M 936 1403 L 839 1403 L 635 1679 L 633 1679 L 426 1403 L 329 1403 L 561 1776 L 704 1776 L 936 1403 Z" unicode="Û" />
<glyph horiz-adv-x="1262" d="M 1114 489 C 1114 331 1072 206 990 113 C 908 19 787 -27 629 -27 C 475 -27 357 18 274 108 C 191 198 150 318 150 469 L 150 1280 L 276 1280 L 276 485 C 276 364 306 269 367 199 C 427 129 517 94 635 94 C 748 94 835 127 895 195 C 955 262 985 359 985 487 L 985 1280 L 1114 1280 L 1114 489 Z M 532 1556 C 532 1528 523 1504 505 1484 C 487 1464 463 1454 434 1454 C 405 1454 382 1464 364 1484 C 346 1504 338 1528 338 1556 C 338 1582 346 1606 364 1626 C 382 1646 405 1657 434 1657 C 463 1657 487 1646 505 1626 C 523 1606 532 1582 532 1556 Z M 928 1556 C 928 1528 919 1504 901 1484 C 883 1464 859 1454 831 1454 C 801 1454 777 1464 759 1484 C 740 1504 731 1528 731 1556 C 731 1582 740 1606 759 1626 C 777 1646 801 1657 831 1657 C 859 1657 883 1646 901 1626 C 919 1606 928 1582 928 1556 Z" unicode="Ü" />
<glyph horiz-adv-x="1073" d="M 1049 1280 L 602 514 L 602 0 L 471 0 L 471 514 L 25 1280 L 172 1280 L 541 643 L 903 1280 L 1049 1280 Z M 872 1769 L 560 1403 L 466 1403 L 708 1769 L 872 1769 Z" unicode="Ý" />
<glyph horiz-adv-x="1057" d="M 985 659 C 985 519 938 414 845 342 C 752 270 627 233 469 231 L 295 229 L 295 0 L 164 0 L 164 1280 L 295 1280 L 295 1061 L 485 1061 C 653 1061 779 1023 861 949 C 943 874 985 777 985 659 Z M 850 655 C 850 745 818 815 755 865 C 691 915 600 940 481 940 L 295 940 L 295 352 L 477 354 C 597 356 690 381 754 431 C 818 481 850 555 850 655 Z" unicode="Þ" />
<glyph horiz-adv-x="1124" d="M 174 0 L 174 817 L 23 827 L 31 907 L 172 940 C 172 940 172 960 173 1001 C 173 1042 174 1061 174 1059 C 174 1191 208 1285 278 1341 C 348 1397 427 1425 516 1425 C 616 1425 697 1395 757 1337 C 817 1279 848 1206 848 1118 C 848 1029 816 961 753 914 C 690 867 659 820 659 774 C 659 668 725 595 859 555 C 992 515 1059 418 1059 264 C 1059 173 1028 102 968 50 C 907 -1 829 -27 733 -27 C 681 -27 629 -19 577 -4 C 525 11 480 31 440 57 L 475 174 C 515 147 557 125 601 109 C 645 92 690 84 735 84 C 792 84 839 98 875 127 C 911 155 930 198 930 254 C 930 375 864 452 734 486 C 604 520 539 608 539 750 C 539 834 568 895 628 934 C 687 972 717 1030 717 1108 C 717 1168 699 1217 664 1256 C 628 1295 579 1315 516 1315 C 448 1315 395 1293 357 1251 C 318 1208 299 1148 299 1071 L 299 0 L 174 0 Z" unicode="ß" />
<glyph horiz-adv-x="899" d="M 645 113 L 639 113 C 607 74 567 41 519 14 C 471 -13 419 -27 365 -27 C 279 -27 208 -2 152 47 C 96 97 68 159 68 233 C 68 317 108 391 189 454 C 270 517 419 555 637 567 L 637 623 C 637 696 619 751 584 789 C 549 827 493 846 416 846 C 364 846 310 834 253 812 C 196 789 148 763 109 733 L 80 852 C 122 881 175 907 239 930 C 303 953 366 965 428 965 C 536 965 619 938 677 885 C 735 832 764 747 764 629 L 764 178 C 764 144 769 120 780 105 C 791 89 817 82 858 84 L 850 -20 C 788 -24 741 -15 707 8 C 673 32 652 67 645 113 Z M 637 207 L 637 481 C 477 463 364 435 299 397 C 233 359 201 310 201 248 C 201 198 219 158 256 128 C 292 98 338 84 393 84 C 443 84 489 96 531 121 C 573 145 608 174 637 207 Z M 516 1061 L 422 1061 L 110 1427 L 274 1427 L 516 1061 Z" unicode="à" />
<glyph horiz-adv-x="899" d="M 645 113 L 639 113 C 607 74 567 41 519 14 C 471 -13 419 -27 365 -27 C 279 -27 208 -2 152 47 C 96 97 68 159 68 233 C 68 317 108 391 189 454 C 270 517 419 555 637 567 L 637 623 C 637 696 619 751 584 789 C 549 827 493 846 416 846 C 364 846 310 834 253 812 C 196 789 148 763 109 733 L 80 852 C 122 881 175 907 239 930 C 303 953 366 965 428 965 C 536 965 619 938 677 885 C 735 832 764 747 764 629 L 764 178 C 764 144 769 120 780 105 C 791 89 817 82 858 84 L 850 -20 C 788 -24 741 -15 707 8 C 673 32 652 67 645 113 Z M 637 207 L 637 481 C 477 463 364 435 299 397 C 233 359 201 310 201 248 C 201 198 219 158 256 128 C 292 98 338 84 393 84 C 443 84 489 96 531 121 C 573 145 608 174 637 207 Z M 737 1427 L 425 1061 L 331 1061 L 573 1427 L 737 1427 Z" unicode="á" />
<glyph horiz-adv-x="899" d="M 645 113 L 639 113 C 607 74 567 41 519 14 C 471 -13 419 -27 365 -27 C 279 -27 208 -2 152 47 C 96 97 68 159 68 233 C 68 317 108 391 189 454 C 270 517 419 555 637 567 L 637 623 C 637 696 619 751 584 789 C 549 827 493 846 416 846 C 364 846 310 834 253 812 C 196 789 148 763 109 733 L 80 852 C 122 881 175 907 239 930 C 303 953 366 965 428 965 C 536 965 619 938 677 885 C 735 832 764 747 764 629 L 764 178 C 764 144 769 120 780 105 C 791 89 817 82 858 84 L 850 -20 C 788 -24 741 -15 707 8 C 673 32 652 67 645 113 Z M 637 207 L 637 481 C 477 463 364 435 299 397 C 233 359 201 310 201 248 C 201 198 219 158 256 128 C 292 98 338 84 393 84 C 443 84 489 96 531 121 C 573 145 608 174 637 207 Z M 733 1061 L 636 1061 L 432 1337 L 430 1337 L 223 1061 L 126 1061 L 358 1434 L 501 1434 L 733 1061 Z" unicode="â" />
<glyph horiz-adv-x="899" d="M 645 113 L 639 113 C 607 74 567 41 519 14 C 471 -13 419 -27 365 -27 C 279 -27 208 -2 152 47 C 96 97 68 159 68 233 C 68 317 108 391 189 454 C 270 517 419 555 637 567 L 637 623 C 637 696 619 751 584 789 C 549 827 493 846 416 846 C 364 846 310 834 253 812 C 196 789 148 763 109 733 L 80 852 C 122 881 175 907 239 930 C 303 953 366 965 428 965 C 536 965 619 938 677 885 C 735 832 764 747 764 629 L 764 178 C 764 144 769 120 780 105 C 791 89 817 82 858 84 L 850 -20 C 788 -24 741 -15 707 8 C 673 32 652 67 645 113 Z M 637 207 L 637 481 C 477 463 364 435 299 397 C 233 359 201 310 201 248 C 201 198 219 158 256 128 C 292 98 338 84 393 84 C 443 84 489 96 531 121 C 573 145 608 174 637 207 Z M 761 1305 C 750 1225 730 1165 701 1127 C 671 1088 631 1069 579 1069 C 519 1069 463 1093 409 1141 C 355 1189 309 1214 272 1214 C 251 1214 234 1204 220 1186 C 206 1168 193 1133 180 1081 L 96 1081 C 107 1161 127 1220 156 1259 C 185 1297 226 1317 278 1317 C 337 1317 394 1292 449 1243 C 504 1193 550 1169 587 1169 C 606 1169 623 1178 637 1197 C 651 1215 665 1251 677 1305 L 761 1305 Z" unicode="ã" />
<glyph horiz-adv-x="899" d="M 645 113 L 639 113 C 607 74 567 41 519 14 C 471 -13 419 -27 365 -27 C 279 -27 208 -2 152 47 C 96 97 68 159 68 233 C 68 317 108 391 189 454 C 270 517 419 555 637 567 L 637 623 C 637 696 619 751 584 789 C 549 827 493 846 416 846 C 364 846 310 834 253 812 C 196 789 148 763 109 733 L 80 852 C 122 881 175 907 239 930 C 303 953 366 965 428 965 C 536 965 619 938 677 885 C 735 832 764 747 764 629 L 764 178 C 764 144 769 120 780 105 C 791 89 817 82 858 84 L 850 -20 C 788 -24 741 -15 707 8 C 673 32 652 67 645 113 Z M 637 207 L 637 481 C 477 463 364 435 299 397 C 233 359 201 310 201 248 C 201 198 219 158 256 128 C 292 98 338 84 393 84 C 443 84 489 96 531 121 C 573 145 608 174 637 207 Z M 329 1214 C 329 1186 320 1162 302 1142 C 284 1122 260 1112 231 1112 C 202 1112 179 1122 161 1142 C 143 1162 135 1186 135 1214 C 135 1240 143 1264 161 1284 C 179 1304 202 1315 231 1315 C 260 1315 284 1304 302 1284 C 320 1264 329 1240 329 1214 Z M 725 1214 C 725 1186 716 1162 698 1142 C 680 1122 656 1112 628 1112 C 598 1112 574 1122 556 1142 C 537 1162 528 1186 528 1214 C 528 1240 537 1264 556 1284 C 574 1304 598 1315 628 1315 C 656 1315 680 1304 698 1284 C 716 1264 725 1240 725 1214 Z" unicode="ä" />
<glyph horiz-adv-x="899" d="M 645 113 L 639 113 C 607 74 567 41 519 14 C 471 -13 419 -27 365 -27 C 279 -27 208 -2 152 47 C 96 97 68 159 68 233 C 68 317 108 391 189 454 C 270 517 419 555 637 567 L 637 623 C 637 696 619 751 584 789 C 549 827 493 846 416 846 C 364 846 310 834 253 812 C 196 789 148 763 109 733 L 80 852 C 122 881 175 907 239 930 C 303 953 366 965 428 965 C 536 965 619 938 677 885 C 735 832 764 747 764 629 L 764 178 C 764 144 769 120 780 105 C 791 89 817 82 858 84 L 850 -20 C 788 -24 741 -15 707 8 C 673 32 652 67 645 113 Z M 637 207 L 637 481 C 477 463 364 435 299 397 C 233 359 201 310 201 248 C 201 198 219 158 256 128 C 292 98 338 84 393 84 C 443 84 489 96 531 121 C 573 145 608 174 637 207 Z M 673 1266 C 673 1208 651 1158 608 1117 C 564 1075 505 1055 430 1055 C 355 1055 296 1075 253 1117 C 209 1158 188 1208 188 1266 C 188 1322 209 1372 253 1415 C 296 1457 355 1479 430 1479 C 505 1479 564 1457 607 1415 C 650 1372 672 1322 673 1266 Z M 583 1264 C 583 1301 569 1334 541 1362 C 513 1390 476 1405 430 1405 C 384 1405 348 1391 321 1364 C 293 1336 280 1304 280 1268 C 280 1230 293 1197 321 1169 C 348 1141 384 1128 430 1128 C 476 1128 513 1141 541 1168 C 569 1195 583 1227 583 1264 Z" unicode="å" />
<glyph horiz-adv-x="1509" d="M 709 174 C 671 118 619 70 553 31 C 487 -7 418 -27 348 -27 C 263 -27 195 -2 144 47 C 93 97 68 157 68 227 C 68 317 110 392 195 453 C 279 514 427 549 637 557 L 639 608 C 641 690 623 749 585 787 C 547 825 490 844 412 844 C 360 844 307 833 254 811 C 200 789 153 763 113 733 L 78 846 C 118 875 169 902 231 927 C 293 952 356 965 422 965 C 505 965 572 949 624 919 C 676 888 711 843 729 784 C 765 838 813 881 873 915 C 933 948 999 965 1073 965 C 1176 965 1259 933 1321 870 C 1383 807 1415 723 1415 618 C 1415 594 1413 568 1409 541 C 1405 513 1401 489 1395 469 L 760 465 L 760 455 C 762 349 792 262 852 194 C 911 126 989 92 1087 92 C 1138 92 1187 99 1235 113 C 1282 127 1324 146 1360 170 L 1384 53 C 1344 29 1299 9 1248 -5 C 1196 -19 1141 -27 1083 -27 C 1001 -27 927 -8 862 27 C 797 63 746 112 709 174 Z M 635 469 C 473 457 359 432 295 392 C 231 352 199 302 199 242 C 199 192 215 154 249 128 C 283 101 327 88 381 88 C 427 88 477 101 532 129 C 586 157 633 196 672 246 C 661 272 652 307 645 352 C 638 397 635 436 635 469 Z M 768 565 L 1288 567 C 1289 572 1290 579 1291 588 C 1291 596 1292 603 1292 608 C 1292 679 1272 737 1233 782 C 1194 827 1138 850 1065 850 C 981 850 913 821 861 765 C 809 709 778 642 768 565 Z" unicode="æ" />
<glyph horiz-adv-x="924" d="M 492 -25 C 367 -12 268 39 195 129 C 122 219 86 331 86 467 C 86 612 129 731 217 825 C 304 918 414 965 547 965 C 603 965 656 958 706 944 C 755 930 800 910 840 885 L 807 770 C 771 793 730 811 686 825 C 642 839 595 846 547 846 C 446 846 366 811 306 742 C 246 672 217 582 217 471 C 217 357 247 265 309 196 C 370 126 450 92 549 92 C 595 92 641 99 687 113 C 732 127 773 146 809 170 L 836 53 C 802 33 764 16 723 2 C 681 -11 638 -20 594 -25 L 477 -139 C 549 -136 609 -149 656 -178 C 703 -207 727 -250 727 -307 C 727 -363 700 -411 646 -452 C 592 -493 510 -520 399 -532 L 389 -446 C 467 -442 526 -428 566 -405 C 605 -382 625 -353 625 -317 C 625 -273 601 -244 553 -230 C 505 -215 440 -215 356 -231 L 344 -170 L 492 -25 Z" unicode="ç" />
<glyph horiz-adv-x="963" d="M 215 465 L 215 455 C 217 349 247 262 307 194 C 366 126 445 92 543 92 C 593 92 642 99 690 113 C 738 127 779 146 815 170 L 840 53 C 800 29 754 9 703 -5 C 651 -19 597 -27 539 -27 C 404 -27 295 18 211 110 C 127 202 86 319 86 461 C 86 607 128 728 212 823 C 296 917 402 965 528 965 C 631 965 714 933 776 870 C 838 807 870 723 870 618 C 870 594 868 568 864 541 C 860 513 856 489 850 469 L 215 465 Z M 223 565 L 743 567 C 744 572 745 579 745 588 C 745 596 745 603 745 608 C 745 679 725 737 687 782 C 649 827 593 850 520 850 C 436 850 369 821 317 765 C 265 709 233 642 223 565 Z M 581 1061 L 487 1061 L 175 1427 L 339 1427 L 581 1061 Z" unicode="è" />
<glyph horiz-adv-x="963" d="M 215 465 L 215 455 C 217 349 247 262 307 194 C 366 126 445 92 543 92 C 593 92 642 99 690 113 C 738 127 779 146 815 170 L 840 53 C 800 29 754 9 703 -5 C 651 -19 597 -27 539 -27 C 404 -27 295 18 211 110 C 127 202 86 319 86 461 C 86 607 128 728 212 823 C 296 917 402 965 528 965 C 631 965 714 933 776 870 C 838 807 870 723 870 618 C 870 594 868 568 864 541 C 860 513 856 489 850 469 L 215 465 Z M 223 565 L 743 567 C 744 572 745 579 745 588 C 745 596 745 603 745 608 C 745 679 725 737 687 782 C 649 827 593 850 520 850 C 436 850 369 821 317 765 C 265 709 233 642 223 565 Z M 837 1427 L 525 1061 L 431 1061 L 673 1427 L 837 1427 Z" unicode="é" />
<glyph horiz-adv-x="963" d="M 215 465 L 215 455 C 217 349 247 262 307 194 C 366 126 445 92 543 92 C 593 92 642 99 690 113 C 738 127 779 146 815 170 L 840 53 C 800 29 754 9 703 -5 C 651 -19 597 -27 539 -27 C 404 -27 295 18 211 110 C 127 202 86 319 86 461 C 86 607 128 728 212 823 C 296 917 402 965 528 965 C 631 965 714 933 776 870 C 838 807 870 723 870 618 C 870 594 868 568 864 541 C 860 513 856 489 850 469 L 215 465 Z M 223 565 L 743 567 C 744 572 745 579 745 588 C 745 596 745 603 745 608 C 745 679 725 737 687 782 C 649 827 593 850 520 850 C 436 850 369 821 317 765 C 265 709 233 642 223 565 Z M 780 1061 L 683 1061 L 479 1337 L 477 1337 L 270 1061 L 173 1061 L 405 1434 L 548 1434 L 780 1061 Z" unicode="ê" />
<glyph horiz-adv-x="963" d="M 215 465 L 215 455 C 217 349 247 262 307 194 C 366 126 445 92 543 92 C 593 92 642 99 690 113 C 738 127 779 146 815 170 L 840 53 C 800 29 754 9 703 -5 C 651 -19 597 -27 539 -27 C 404 -27 295 18 211 110 C 127 202 86 319 86 461 C 86 607 128 728 212 823 C 296 917 402 965 528 965 C 631 965 714 933 776 870 C 838 807 870 723 870 618 C 870 594 868 568 864 541 C 860 513 856 489 850 469 L 215 465 Z M 223 565 L 743 567 C 744 572 745 579 745 588 C 745 596 745 603 745 608 C 745 679 725 737 687 782 C 649 827 593 850 520 850 C 436 850 369 821 317 765 C 265 709 233 642 223 565 Z M 386 1214 C 386 1186 377 1162 359 1142 C 341 1122 317 1112 288 1112 C 259 1112 236 1122 218 1142 C 200 1162 192 1186 192 1214 C 192 1240 200 1264 218 1284 C 236 1304 259 1315 288 1315 C 317 1315 341 1304 359 1284 C 377 1264 386 1240 386 1214 Z M 782 1214 C 782 1186 773 1162 755 1142 C 737 1122 713 1112 685 1112 C 655 1112 631 1122 613 1142 C 594 1162 585 1186 585 1214 C 585 1240 594 1264 613 1284 C 631 1304 655 1315 685 1315 C 713 1315 737 1304 755 1284 C 773 1264 782 1240 782 1214 Z" unicode="ë" />
<glyph horiz-adv-x="428" d="M 281 0 L 154 0 L 154 928 L 281 954 L 281 0 Z M 274 1061 L 180 1061 L -132 1427 L 32 1427 L 274 1061 Z" unicode="ì" />
<glyph horiz-adv-x="428" d="M 281 0 L 154 0 L 154 928 L 281 954 L 281 0 Z M 565 1427 L 253 1061 L 159 1061 L 401 1427 L 565 1427 Z" unicode="í" />
<glyph horiz-adv-x="428" d="M 281 0 L 154 0 L 154 928 L 281 954 L 281 0 Z M 524 1061 L 427 1061 L 223 1337 L 221 1337 L 14 1061 L -83 1061 L 149 1434 L 292 1434 L 524 1061 Z" unicode="î" />
<glyph horiz-adv-x="428" d="M 281 0 L 154 0 L 154 928 L 281 954 L 281 0 Z M 120 1214 C 120 1186 111 1162 93 1142 C 75 1122 51 1112 22 1112 C -6 1112 -29 1122 -47 1142 C -65 1162 -74 1186 -74 1214 C -74 1240 -65 1264 -47 1284 C -29 1304 -6 1315 22 1315 C 51 1315 75 1304 93 1284 C 111 1264 120 1240 120 1214 Z M 516 1214 C 516 1186 507 1162 489 1142 C 471 1122 447 1112 419 1112 C 389 1112 365 1122 347 1142 C 328 1162 319 1186 319 1214 C 319 1240 328 1264 347 1284 C 365 1304 389 1315 419 1315 C 447 1315 471 1304 489 1284 C 507 1264 516 1240 516 1214 Z" unicode="ï" />
<glyph horiz-adv-x="1075" d="M 987 502 C 987 353 949 228 873 126 C 797 24 684 -27 535 -27 C 402 -27 294 15 211 101 C 127 187 86 294 86 424 C 86 572 130 686 218 767 C 306 848 402 889 508 889 C 572 889 628 878 676 856 C 724 834 765 808 799 778 L 801 778 C 777 835 740 898 688 966 C 636 1034 582 1097 526 1155 L 287 1090 L 262 1184 L 449 1235 C 420 1261 391 1288 361 1314 C 331 1340 300 1366 268 1391 C 268 1391 291 1396 338 1408 C 384 1419 408 1425 410 1425 C 440 1401 469 1377 498 1351 C 527 1325 556 1299 584 1272 L 799 1329 L 823 1235 C 823 1235 796 1227 742 1213 C 688 1199 660 1192 659 1192 C 754 1087 832 974 894 854 C 956 734 987 616 987 502 Z M 862 481 C 862 517 858 551 851 584 C 844 616 835 646 825 674 C 797 702 756 726 702 745 C 648 764 591 774 532 774 C 440 774 366 743 308 682 C 250 621 221 540 221 438 C 221 333 250 248 310 184 C 370 120 446 88 539 88 C 639 88 718 123 776 193 C 833 263 862 359 862 481 Z" unicode="ð" />
<glyph horiz-adv-x="1034" d="M 893 0 L 766 0 L 766 606 C 766 687 749 747 715 786 C 681 824 629 844 559 844 C 508 844 458 831 408 806 C 358 781 313 749 274 711 L 274 0 L 147 0 L 147 938 L 274 965 L 274 811 C 323 859 376 897 434 924 C 492 951 545 965 594 965 C 688 965 761 936 814 880 C 866 824 893 745 893 643 L 893 0 Z M 851 1305 C 840 1225 820 1165 791 1127 C 761 1088 721 1069 669 1069 C 609 1069 553 1093 499 1141 C 445 1189 399 1214 362 1214 C 341 1214 324 1204 310 1186 C 296 1168 283 1133 270 1081 L 186 1081 C 197 1161 217 1220 246 1259 C 275 1297 316 1317 368 1317 C 427 1317 484 1292 539 1243 C 594 1193 640 1169 677 1169 C 696 1169 713 1178 727 1197 C 741 1215 755 1251 767 1305 L 851 1305 Z" unicode="ñ" />
<glyph horiz-adv-x="1087" d="M 999 471 C 999 322 954 202 866 110 C 777 18 668 -27 539 -27 C 409 -27 301 17 215 107 C 129 197 86 317 86 467 C 86 615 130 735 219 827 C 308 919 418 965 549 965 C 679 965 786 920 871 830 C 956 740 999 621 999 471 Z M 874 467 C 874 581 843 673 782 744 C 721 814 641 850 543 850 C 443 850 363 814 303 743 C 243 671 213 581 213 471 C 213 357 243 264 305 194 C 366 123 446 88 545 88 C 643 88 723 123 783 195 C 843 266 874 357 874 467 Z M 637 1061 L 543 1061 L 231 1427 L 395 1427 L 637 1061 Z" unicode="ò" />
<glyph horiz-adv-x="1087" d="M 999 471 C 999 322 954 202 866 110 C 777 18 668 -27 539 -27 C 409 -27 301 17 215 107 C 129 197 86 317 86 467 C 86 615 130 735 219 827 C 308 919 418 965 549 965 C 679 965 786 920 871 830 C 956 740 999 621 999 471 Z M 874 467 C 874 581 843 673 782 744 C 721 814 641 850 543 850 C 443 850 363 814 303 743 C 243 671 213 581 213 471 C 213 357 243 264 305 194 C 366 123 446 88 545 88 C 643 88 723 123 783 195 C 843 266 874 357 874 467 Z M 864 1427 L 552 1061 L 458 1061 L 700 1427 L 864 1427 Z" unicode="ó" />
<glyph horiz-adv-x="1087" d="M 999 471 C 999 322 954 202 866 110 C 777 18 668 -27 539 -27 C 409 -27 301 17 215 107 C 129 197 86 317 86 467 C 86 615 130 735 219 827 C 308 919 418 965 549 965 C 679 965 786 920 871 830 C 956 740 999 621 999 471 Z M 874 467 C 874 581 843 673 782 744 C 721 814 641 850 543 850 C 443 850 363 814 303 743 C 243 671 213 581 213 471 C 213 357 243 264 305 194 C 366 123 446 88 545 88 C 643 88 723 123 783 195 C 843 266 874 357 874 467 Z M 850 1061 L 753 1061 L 549 1337 L 547 1337 L 340 1061 L 243 1061 L 475 1434 L 618 1434 L 850 1061 Z" unicode="ô" />
<glyph horiz-adv-x="1087" d="M 999 471 C 999 322 954 202 866 110 C 777 18 668 -27 539 -27 C 409 -27 301 17 215 107 C 129 197 86 317 86 467 C 86 615 130 735 219 827 C 308 919 418 965 549 965 C 679 965 786 920 871 830 C 956 740 999 621 999 471 Z M 874 467 C 874 581 843 673 782 744 C 721 814 641 850 543 850 C 443 850 363 814 303 743 C 243 671 213 581 213 471 C 213 357 243 264 305 194 C 366 123 446 88 545 88 C 643 88 723 123 783 195 C 843 266 874 357 874 467 Z M 878 1305 C 867 1225 847 1165 818 1127 C 788 1088 748 1069 696 1069 C 636 1069 580 1093 526 1141 C 472 1189 426 1214 389 1214 C 368 1214 351 1204 337 1186 C 323 1168 310 1133 297 1081 L 213 1081 C 224 1161 244 1220 273 1259 C 302 1297 343 1317 395 1317 C 454 1317 511 1292 566 1243 C 621 1193 667 1169 704 1169 C 723 1169 740 1178 754 1197 C 768 1215 782 1251 794 1305 L 878 1305 Z" unicode="õ" />
<glyph horiz-adv-x="1087" d="M 999 471 C 999 322 954 202 866 110 C 777 18 668 -27 539 -27 C 409 -27 301 17 215 107 C 129 197 86 317 86 467 C 86 615 130 735 219 827 C 308 919 418 965 549 965 C 679 965 786 920 871 830 C 956 740 999 621 999 471 Z M 874 467 C 874 581 843 673 782 744 C 721 814 641 850 543 850 C 443 850 363 814 303 743 C 243 671 213 581 213 471 C 213 357 243 264 305 194 C 366 123 446 88 545 88 C 643 88 723 123 783 195 C 843 266 874 357 874 467 Z M 446 1214 C 446 1186 437 1162 419 1142 C 401 1122 377 1112 348 1112 C 319 1112 296 1122 278 1142 C 260 1162 252 1186 252 1214 C 252 1240 260 1264 278 1284 C 296 1304 319 1315 348 1315 C 377 1315 401 1304 419 1284 C 437 1264 446 1240 446 1214 Z M 842 1214 C 842 1186 833 1162 815 1142 C 797 1122 773 1112 745 1112 C 715 1112 691 1122 673 1142 C 654 1162 645 1186 645 1214 C 645 1240 654 1264 673 1284 C 691 1304 715 1315 745 1315 C 773 1315 797 1304 815 1284 C 833 1264 842 1240 842 1214 Z" unicode="ö" />
<glyph horiz-adv-x="1024" d="M 621 193 C 621 165 611 140 591 118 C 571 96 546 86 516 86 C 485 86 460 96 440 118 C 420 140 410 165 410 193 C 410 220 420 244 440 265 C 460 286 485 297 516 297 C 546 297 571 286 591 265 C 611 244 621 220 621 193 Z M 621 768 C 621 740 610 716 590 694 C 570 672 544 661 514 661 C 483 661 458 672 439 694 C 419 716 410 740 410 768 C 410 794 419 817 439 839 C 458 861 483 872 514 872 C 544 872 570 861 590 839 C 610 817 621 794 621 768 Z M 928 426 L 98 426 L 104 537 L 922 537 L 928 426 Z" unicode="÷" />
<glyph horiz-adv-x="1087" d="M 1004 471 C 1004 322 959 202 870 110 C 781 18 672 -27 543 -27 C 507 -27 471 -23 437 -15 C 403 -7 371 4 342 18 L 252 -137 L 143 -137 C 143 -137 162 -102 202 -33 C 242 35 261 70 260 70 C 208 111 166 166 136 234 C 105 302 90 380 90 467 C 90 615 134 735 223 827 C 311 919 421 965 553 965 C 588 965 623 961 657 954 C 691 946 723 936 754 922 C 764 938 781 967 806 1011 C 831 1055 844 1077 844 1077 L 952 1077 L 834 870 C 885 827 926 771 957 703 C 988 635 1004 557 1004 471 Z M 694 817 C 672 828 649 836 624 842 C 598 847 572 850 545 850 C 446 850 366 814 306 743 C 245 671 215 581 215 471 C 215 407 224 349 244 299 C 263 248 290 206 324 174 L 694 817 Z M 879 467 C 879 530 869 587 849 637 C 829 687 803 730 770 764 L 399 121 C 421 111 445 103 470 97 C 495 91 521 88 549 88 C 647 88 727 123 788 195 C 848 266 879 357 879 467 Z" unicode="ø" />
<glyph horiz-adv-x="1032" d="M 139 938 L 266 938 L 266 332 C 266 250 282 190 316 152 C 350 113 401 94 469 94 C 523 94 575 106 625 131 C 675 156 720 188 758 227 L 758 938 L 885 938 L 885 0 L 758 -27 L 758 125 C 710 76 657 38 599 12 C 541 -13 486 -27 434 -27 C 343 -27 271 1 218 57 C 165 113 139 193 139 295 L 139 938 Z M 596 1061 L 502 1061 L 190 1427 L 354 1427 L 596 1061 Z" unicode="ù" />
<glyph horiz-adv-x="1032" d="M 139 938 L 266 938 L 266 332 C 266 250 282 190 316 152 C 350 113 401 94 469 94 C 523 94 575 106 625 131 C 675 156 720 188 758 227 L 758 938 L 885 938 L 885 0 L 758 -27 L 758 125 C 710 76 657 38 599 12 C 541 -13 486 -27 434 -27 C 343 -27 271 1 218 57 C 165 113 139 193 139 295 L 139 938 Z M 837 1427 L 525 1061 L 431 1061 L 673 1427 L 837 1427 Z" unicode="ú" />
<glyph horiz-adv-x="1032" d="M 139 938 L 266 938 L 266 332 C 266 250 282 190 316 152 C 350 113 401 94 469 94 C 523 94 575 106 625 131 C 675 156 720 188 758 227 L 758 938 L 885 938 L 885 0 L 758 -27 L 758 125 C 710 76 657 38 599 12 C 541 -13 486 -27 434 -27 C 343 -27 271 1 218 57 C 165 113 139 193 139 295 L 139 938 Z M 821 1061 L 724 1061 L 520 1337 L 518 1337 L 311 1061 L 214 1061 L 446 1434 L 589 1434 L 821 1061 Z" unicode="û" />
<glyph horiz-adv-x="1032" d="M 139 938 L 266 938 L 266 332 C 266 250 282 190 316 152 C 350 113 401 94 469 94 C 523 94 575 106 625 131 C 675 156 720 188 758 227 L 758 938 L 885 938 L 885 0 L 758 -27 L 758 125 C 710 76 657 38 599 12 C 541 -13 486 -27 434 -27 C 343 -27 271 1 218 57 C 165 113 139 193 139 295 L 139 938 Z M 409 1214 C 409 1186 400 1162 382 1142 C 364 1122 340 1112 311 1112 C 282 1112 259 1122 241 1142 C 223 1162 215 1186 215 1214 C 215 1240 223 1264 241 1284 C 259 1304 282 1315 311 1315 C 340 1315 364 1304 382 1284 C 400 1264 409 1240 409 1214 Z M 805 1214 C 805 1186 796 1162 778 1142 C 760 1122 736 1112 708 1112 C 678 1112 654 1122 636 1142 C 617 1162 608 1186 608 1214 C 608 1240 617 1264 636 1284 C 654 1304 678 1315 708 1315 C 736 1315 760 1304 778 1284 C 796 1264 805 1240 805 1214 Z" unicode="ü" />
<glyph horiz-adv-x="868" d="M 860 938 L 496 10 L 420 -193 C 377 -307 331 -384 283 -425 C 235 -466 179 -487 117 -487 C 81 -487 48 -483 20 -475 C -8 -467 -37 -456 -66 -444 L -27 -328 C -4 -340 19 -349 43 -357 C 67 -365 91 -369 117 -369 C 152 -369 184 -355 214 -327 C 244 -299 275 -240 309 -152 L 373 14 L 6 938 L 143 938 L 438 164 L 727 938 L 860 938 Z M 757 1427 L 445 1061 L 351 1061 L 593 1427 L 757 1427 Z" unicode="ý" />
<glyph horiz-adv-x="1049" d="M 274 23 L 274 -492 L 147 -492 L 147 1380 L 274 1407 L 274 850 C 306 876 345 901 391 924 C 437 946 487 958 543 958 C 671 958 773 912 851 822 C 928 731 967 615 967 473 C 967 328 923 208 836 114 C 749 20 638 -27 504 -27 C 467 -27 427 -22 384 -13 C 341 -3 304 8 274 23 Z M 274 737 L 274 162 C 302 139 338 121 380 108 C 422 94 465 88 510 88 C 610 88 689 124 748 197 C 806 269 836 361 836 471 C 836 579 808 667 752 737 C 696 807 620 842 526 842 C 478 842 433 832 390 812 C 346 792 308 767 274 737 Z" unicode="þ" />
<glyph horiz-adv-x="868" d="M 860 938 L 496 10 L 420 -193 C 377 -307 331 -384 283 -425 C 235 -466 179 -487 117 -487 C 81 -487 48 -483 20 -475 C -8 -467 -37 -456 -66 -444 L -27 -328 C -4 -340 19 -349 43 -357 C 67 -365 91 -369 117 -369 C 152 -369 184 -355 214 -327 C 244 -299 275 -240 309 -152 L 373 14 L 6 938 L 143 938 L 438 164 L 727 938 L 860 938 Z M 335 1214 C 335 1186 326 1162 308 1142 C 290 1122 266 1112 237 1112 C 208 1112 185 1122 167 1142 C 149 1162 141 1186 141 1214 C 141 1240 149 1264 167 1284 C 185 1304 208 1315 237 1315 C 266 1315 290 1304 308 1284 C 326 1264 335 1240 335 1214 Z M 731 1214 C 731 1186 722 1162 704 1142 C 686 1122 662 1112 634 1112 C 604 1112 580 1122 562 1142 C 543 1162 534 1186 534 1214 C 534 1240 543 1264 562 1284 C 580 1304 604 1315 634 1315 C 662 1315 686 1304 704 1284 C 722 1264 731 1240 731 1214 Z" unicode="ÿ" />
<glyph horiz-adv-x="1178" d="M 670 1280 L 1147 0 L 1014 0 L 879 367 L 299 367 L 164 0 L 31 0 L 516 1280 L 670 1280 Z M 834 485 L 590 1151 L 344 485 L 834 485 Z M 848 1440 L 326 1440 L 332 1532 L 840 1532 L 848 1440 Z" unicode="Ā" />
<glyph horiz-adv-x="899" d="M 645 113 L 639 113 C 607 74 567 41 519 14 C 471 -13 419 -27 365 -27 C 279 -27 208 -2 152 47 C 96 97 68 159 68 233 C 68 317 108 391 189 454 C 270 517 419 555 637 567 L 637 623 C 637 696 619 751 584 789 C 549 827 493 846 416 846 C 364 846 310 834 253 812 C 196 789 148 763 109 733 L 80 852 C 122 881 175 907 239 930 C 303 953 366 965 428 965 C 536 965 619 938 677 885 C 735 832 764 747 764 629 L 764 178 C 764 144 769 120 780 105 C 791 89 817 82 858 84 L 850 -20 C 788 -24 741 -15 707 8 C 673 32 652 67 645 113 Z M 637 207 L 637 481 C 477 463 364 435 299 397 C 233 359 201 310 201 248 C 201 198 219 158 256 128 C 292 98 338 84 393 84 C 443 84 489 96 531 121 C 573 145 608 174 637 207 Z M 690 1098 L 168 1098 L 174 1190 L 682 1190 L 690 1098 Z" unicode="ā" />
<glyph horiz-adv-x="1178" d="M 670 1280 L 1147 0 L 1014 0 L 879 367 L 299 367 L 164 0 L 31 0 L 516 1280 L 670 1280 Z M 834 485 L 590 1151 L 344 485 L 834 485 Z M 891 1774 C 874 1680 842 1594 795 1517 C 748 1439 678 1401 586 1401 C 493 1401 423 1439 376 1517 C 328 1594 296 1680 280 1774 L 381 1774 C 401 1687 427 1620 460 1572 C 492 1524 534 1501 586 1501 C 636 1501 678 1524 711 1572 C 744 1620 770 1687 790 1774 L 891 1774 Z" unicode="Ă" />
<glyph horiz-adv-x="899" d="M 645 113 L 639 113 C 607 74 567 41 519 14 C 471 -13 419 -27 365 -27 C 279 -27 208 -2 152 47 C 96 97 68 159 68 233 C 68 317 108 391 189 454 C 270 517 419 555 637 567 L 637 623 C 637 696 619 751 584 789 C 549 827 493 846 416 846 C 364 846 310 834 253 812 C 196 789 148 763 109 733 L 80 852 C 122 881 175 907 239 930 C 303 953 366 965 428 965 C 536 965 619 938 677 885 C 735 832 764 747 764 629 L 764 178 C 764 144 769 120 780 105 C 791 89 817 82 858 84 L 850 -20 C 788 -24 741 -15 707 8 C 673 32 652 67 645 113 Z M 637 207 L 637 481 C 477 463 364 435 299 397 C 233 359 201 310 201 248 C 201 198 219 158 256 128 C 292 98 338 84 393 84 C 443 84 489 96 531 121 C 573 145 608 174 637 207 Z M 749 1432 C 732 1338 700 1252 653 1175 C 606 1097 536 1059 444 1059 C 351 1059 281 1097 234 1175 C 186 1252 154 1338 138 1432 L 239 1432 C 259 1345 285 1278 318 1230 C 350 1182 392 1159 444 1159 C 494 1159 536 1182 569 1230 C 602 1278 628 1345 648 1432 L 749 1432 Z" unicode="ă" />
<glyph horiz-adv-x="1178" d="M 670 1280 L 1147 0 C 1084 -12 1030 -41 986 -87 C 942 -133 920 -177 920 -219 C 920 -251 928 -277 945 -297 C 962 -316 986 -326 1016 -326 C 1033 -326 1051 -322 1070 -315 C 1088 -308 1104 -300 1118 -291 L 1151 -387 C 1133 -401 1110 -413 1082 -423 C 1054 -433 1023 -438 989 -438 C 934 -438 888 -421 851 -388 C 813 -354 795 -310 795 -254 C 795 -188 817 -132 862 -84 C 907 -36 955 -1 1006 20 L 879 369 L 299 369 L 164 0 L 31 0 L 516 1280 L 670 1280 Z M 836 485 L 592 1153 L 344 485 L 836 485 Z" unicode="Ą" />
<glyph horiz-adv-x="899" d="M 645 115 L 641 115 C 608 75 567 41 519 14 C 470 -13 419 -27 365 -27 C 280 -27 210 -2 154 48 C 98 98 70 159 70 233 C 70 317 110 391 190 454 C 270 517 419 555 637 567 L 637 623 C 637 696 620 752 586 790 C 552 828 496 848 418 848 C 366 848 311 836 254 813 C 196 789 148 763 109 735 L 82 852 C 124 882 176 908 240 931 C 304 953 366 965 428 965 C 536 965 619 938 678 886 C 736 833 765 747 764 629 L 764 178 C 764 144 769 119 780 104 C 791 89 817 82 858 84 L 850 -20 C 786 -22 731 -41 687 -79 C 643 -116 621 -163 621 -219 C 621 -251 629 -277 646 -297 C 663 -316 687 -326 717 -326 C 734 -326 752 -322 771 -315 C 789 -308 805 -300 819 -291 L 852 -387 C 834 -401 811 -413 783 -423 C 755 -433 724 -438 690 -438 C 635 -438 589 -421 552 -388 C 514 -354 496 -310 496 -254 C 496 -192 516 -137 558 -87 C 600 -37 648 -3 702 14 C 687 24 674 37 664 54 C 654 71 647 91 645 115 Z M 637 207 L 637 483 C 477 465 364 437 299 399 C 233 361 201 310 201 248 C 201 197 219 157 256 128 C 292 98 338 84 393 84 C 443 84 490 96 532 121 C 574 145 609 174 637 207 Z" unicode="ą" />
<glyph horiz-adv-x="1200" d="M 903 1769 L 591 1403 L 497 1403 L 739 1769 L 903 1769 Z M 1110 1202 L 1069 1085 C 1018 1117 963 1143 903 1161 C 843 1179 780 1188 713 1188 C 574 1188 459 1140 367 1044 C 275 948 229 814 229 641 C 229 473 273 339 363 240 C 453 141 571 92 717 92 C 786 92 852 103 915 125 C 977 147 1031 174 1075 207 L 1100 78 C 1052 47 995 22 927 2 C 859 -17 789 -27 715 -27 C 530 -27 381 33 267 153 C 153 273 96 435 96 637 C 96 839 154 1002 271 1124 C 388 1246 536 1307 715 1307 C 792 1307 865 1296 935 1276 C 1005 1255 1063 1230 1110 1202 Z" unicode="Ć" />
<glyph horiz-adv-x="924" d="M 762 1427 L 450 1061 L 356 1061 L 598 1427 L 762 1427 Z M 836 53 C 796 29 751 9 701 -5 C 651 -19 599 -27 545 -27 C 404 -27 292 19 210 111 C 127 203 86 322 86 467 C 86 612 129 731 217 825 C 304 918 414 965 547 965 C 603 965 656 958 706 944 C 755 930 800 910 840 885 L 807 770 C 771 793 730 811 686 825 C 642 839 595 846 547 846 C 446 846 366 811 306 742 C 246 672 217 582 217 471 C 217 357 247 265 309 196 C 370 126 450 92 549 92 C 595 92 641 99 687 113 C 732 127 773 146 809 170 L 836 53 Z" unicode="ć" />
<glyph horiz-adv-x="1200" d="M 962 1403 L 865 1403 L 661 1679 L 659 1679 L 452 1403 L 355 1403 L 587 1776 L 730 1776 L 962 1403 Z M 1110 1202 L 1069 1085 C 1018 1117 963 1143 903 1161 C 843 1179 780 1188 713 1188 C 574 1188 459 1140 367 1044 C 275 948 229 814 229 641 C 229 473 273 339 363 240 C 453 141 571 92 717 92 C 786 92 852 103 915 125 C 977 147 1031 174 1075 207 L 1100 78 C 1052 47 995 22 927 2 C 859 -17 789 -27 715 -27 C 530 -27 381 33 267 153 C 153 273 96 435 96 637 C 96 839 154 1002 271 1124 C 388 1246 536 1307 715 1307 C 792 1307 865 1296 935 1276 C 1005 1255 1063 1230 1110 1202 Z" unicode="Ĉ" />
<glyph horiz-adv-x="924" d="M 819 1061 L 722 1061 L 518 1337 L 516 1337 L 309 1061 L 212 1061 L 444 1434 L 587 1434 L 819 1061 Z M 836 53 C 796 29 751 9 701 -5 C 651 -19 599 -27 545 -27 C 404 -27 292 19 210 111 C 127 203 86 322 86 467 C 86 612 129 731 217 825 C 304 918 414 965 547 965 C 603 965 656 958 706 944 C 755 930 800 910 840 885 L 807 770 C 771 793 730 811 686 825 C 642 839 595 846 547 846 C 446 846 366 811 306 742 C 246 672 217 582 217 471 C 217 357 247 265 309 196 C 370 126 450 92 549 92 C 595 92 641 99 687 113 C 732 127 773 146 809 170 L 836 53 Z" unicode="ĉ" />
<glyph horiz-adv-x="1200" d="M 1110 1202 L 1069 1085 C 1018 1117 963 1143 903 1161 C 843 1179 780 1188 713 1188 C 574 1188 459 1140 367 1044 C 275 948 229 814 229 641 C 229 473 273 339 363 240 C 453 141 571 92 717 92 C 786 92 852 103 915 125 C 977 147 1031 174 1075 207 L 1100 78 C 1052 47 995 22 927 2 C 859 -17 789 -27 715 -27 C 530 -27 381 33 267 153 C 153 273 96 435 96 637 C 96 839 154 1002 271 1124 C 388 1246 536 1307 715 1307 C 792 1307 865 1296 935 1276 C 1005 1255 1063 1230 1110 1202 Z M 772 1554 C 772 1528 763 1504 745 1484 C 727 1464 704 1454 676 1454 C 647 1454 624 1464 607 1484 C 589 1504 581 1528 581 1554 C 581 1580 589 1603 607 1623 C 624 1643 647 1653 676 1653 C 704 1653 727 1643 745 1623 C 763 1603 772 1580 772 1554 Z" unicode="Ċ" />
<glyph horiz-adv-x="924" d="M 836 53 C 796 29 751 9 701 -5 C 651 -19 599 -27 545 -27 C 404 -27 292 19 210 111 C 127 203 86 322 86 467 C 86 612 129 731 217 825 C 304 918 414 965 547 965 C 603 965 656 958 706 944 C 755 930 800 910 840 885 L 807 770 C 771 793 730 811 686 825 C 642 839 595 846 547 846 C 446 846 366 811 306 742 C 246 672 217 582 217 471 C 217 357 247 265 309 196 C 370 126 450 92 549 92 C 595 92 641 99 687 113 C 732 127 773 146 809 170 L 836 53 Z M 626 1212 C 626 1186 617 1162 599 1142 C 581 1122 558 1112 530 1112 C 501 1112 478 1122 461 1142 C 443 1162 435 1186 435 1212 C 435 1238 443 1261 461 1281 C 478 1301 501 1311 530 1311 C 558 1311 581 1301 599 1281 C 617 1261 626 1238 626 1212 Z" unicode="ċ" />
<glyph horiz-adv-x="1200" d="M 952 1765 L 720 1393 L 577 1393 L 345 1765 L 442 1765 L 647 1487 L 649 1487 L 855 1765 L 952 1765 Z M 1110 1202 L 1069 1085 C 1018 1117 963 1143 903 1161 C 843 1179 780 1188 713 1188 C 574 1188 459 1140 367 1044 C 275 948 229 814 229 641 C 229 473 273 339 363 240 C 453 141 571 92 717 92 C 786 92 852 103 915 125 C 977 147 1031 174 1075 207 L 1100 78 C 1052 47 995 22 927 2 C 859 -17 789 -27 715 -27 C 530 -27 381 33 267 153 C 153 273 96 435 96 637 C 96 839 154 1002 271 1124 C 388 1246 536 1307 715 1307 C 792 1307 865 1296 935 1276 C 1005 1255 1063 1230 1110 1202 Z" unicode="Č" />
<glyph horiz-adv-x="924" d="M 799 1423 L 567 1051 L 424 1051 L 192 1423 L 289 1423 L 494 1145 L 496 1145 L 702 1423 L 799 1423 Z M 836 53 C 796 29 751 9 701 -5 C 651 -19 599 -27 545 -27 C 404 -27 292 19 210 111 C 127 203 86 322 86 467 C 86 612 129 731 217 825 C 304 918 414 965 547 965 C 603 965 656 958 706 944 C 755 930 800 910 840 885 L 807 770 C 771 793 730 811 686 825 C 642 839 595 846 547 846 C 446 846 366 811 306 742 C 246 672 217 582 217 471 C 217 357 247 265 309 196 C 370 126 450 92 549 92 C 595 92 641 99 687 113 C 732 127 773 146 809 170 L 836 53 Z" unicode="č" />
<glyph horiz-adv-x="1286" d="M 864 1765 L 632 1393 L 489 1393 L 257 1765 L 354 1765 L 559 1487 L 561 1487 L 767 1765 L 864 1765 Z M 1190 649 C 1190 448 1129 290 1008 174 C 887 58 718 0 502 0 L 164 0 L 164 1280 L 512 1280 C 720 1280 885 1221 1007 1105 C 1129 988 1190 836 1190 649 Z M 1059 639 C 1059 801 1010 928 912 1020 C 814 1112 678 1159 504 1159 L 295 1159 L 295 121 L 508 121 C 670 121 803 163 905 249 C 1007 335 1059 465 1059 639 Z" unicode="Ď" />
<glyph horiz-adv-x="1436" d="M 1128 1314 C 1130 1340 1140 1364 1159 1385 C 1178 1406 1204 1417 1238 1417 C 1274 1417 1308 1402 1338 1372 C 1368 1342 1384 1303 1384 1255 C 1384 1186 1359 1121 1309 1061 C 1259 1000 1199 947 1130 903 L 1075 954 C 1139 1000 1185 1044 1213 1084 C 1241 1124 1255 1162 1255 1199 C 1255 1225 1245 1246 1225 1263 C 1205 1279 1172 1296 1128 1314 Z M 778 907 L 778 1380 L 905 1407 L 905 0 L 778 0 L 778 88 C 747 59 708 33 662 9 C 616 -15 564 -27 506 -27 C 380 -27 279 18 202 110 C 124 202 86 319 86 461 C 86 605 129 724 217 818 C 305 911 416 958 551 958 C 591 958 631 953 671 943 C 711 933 747 921 778 907 Z M 778 772 C 749 794 714 812 673 825 C 632 837 589 844 545 844 C 445 844 365 808 306 736 C 246 664 217 573 217 463 C 217 355 245 265 301 195 C 357 125 433 90 528 90 C 576 90 621 99 664 119 C 707 139 745 164 778 195 L 778 772 Z" unicode="ď" />
<glyph horiz-adv-x="1323" d="M 205 588 L 33 588 L 33 702 L 205 702 L 205 1280 L 553 1280 C 761 1280 926 1221 1048 1105 C 1170 988 1231 836 1231 649 C 1231 448 1170 290 1049 174 C 928 58 759 0 543 0 L 205 0 L 205 588 Z M 336 702 L 694 702 L 694 588 L 336 588 L 336 121 L 549 121 C 711 121 844 163 946 249 C 1048 335 1100 465 1100 639 C 1100 801 1051 928 953 1020 C 855 1112 719 1159 545 1159 L 336 1159 L 336 702 Z" unicode="Đ" />
<glyph horiz-adv-x="1053" d="M 778 907 L 778 1108 L 520 1108 L 528 1190 L 778 1190 L 778 1380 L 905 1407 L 905 1190 L 1036 1190 L 1042 1108 L 905 1108 L 905 0 L 778 0 L 778 88 C 747 59 708 33 662 9 C 616 -15 564 -27 506 -27 C 380 -27 279 18 202 110 C 124 202 86 319 86 461 C 86 605 129 724 217 818 C 305 911 416 958 551 958 C 591 958 631 953 671 943 C 711 933 747 921 778 907 Z M 778 772 C 749 794 714 812 673 825 C 632 837 589 844 545 844 C 445 844 365 808 306 736 C 246 664 217 573 217 463 C 217 355 245 265 301 195 C 357 125 433 90 528 90 C 576 90 621 99 664 119 C 707 139 745 164 778 195 L 778 772 Z" unicode="đ" />
<glyph horiz-adv-x="1038" d="M 938 0 L 164 0 L 164 1280 L 938 1280 L 938 1159 L 295 1159 L 295 700 L 831 700 L 831 582 L 295 582 L 295 121 L 938 121 L 938 0 Z M 815 1440 L 293 1440 L 299 1532 L 807 1532 L 815 1440 Z" unicode="Ē" />
<glyph horiz-adv-x="963" d="M 215 465 L 215 455 C 217 349 247 262 307 194 C 366 126 445 92 543 92 C 593 92 642 99 690 113 C 738 127 779 146 815 170 L 840 53 C 800 29 754 9 703 -5 C 651 -19 597 -27 539 -27 C 404 -27 295 18 211 110 C 127 202 86 319 86 461 C 86 607 128 728 212 823 C 296 917 402 965 528 965 C 631 965 714 933 776 870 C 838 807 870 723 870 618 C 870 594 868 568 864 541 C 860 513 856 489 850 469 L 215 465 Z M 223 565 L 743 567 C 744 572 745 579 745 588 C 745 596 745 603 745 608 C 745 679 725 737 687 782 C 649 827 593 850 520 850 C 436 850 369 821 317 765 C 265 709 233 642 223 565 Z M 768 1098 L 246 1098 L 252 1190 L 760 1190 L 768 1098 Z" unicode="ē" />
<glyph horiz-adv-x="1038" d="M 938 0 L 164 0 L 164 1280 L 938 1280 L 938 1159 L 295 1159 L 295 700 L 831 700 L 831 582 L 295 582 L 295 121 L 938 121 L 938 0 Z M 872 1774 C 855 1680 823 1594 776 1517 C 729 1439 659 1401 567 1401 C 474 1401 404 1439 357 1517 C 309 1594 277 1680 261 1774 L 362 1774 C 382 1687 408 1620 441 1572 C 473 1524 515 1501 567 1501 C 617 1501 659 1524 692 1572 C 725 1620 751 1687 771 1774 L 872 1774 Z" unicode="Ĕ" />
<glyph horiz-adv-x="963" d="M 215 465 L 215 455 C 217 349 247 262 307 194 C 366 126 445 92 543 92 C 593 92 642 99 690 113 C 738 127 779 146 815 170 L 840 53 C 800 29 754 9 703 -5 C 651 -19 597 -27 539 -27 C 404 -27 295 18 211 110 C 127 202 86 319 86 461 C 86 607 128 728 212 823 C 296 917 402 965 528 965 C 631 965 714 933 776 870 C 838 807 870 723 870 618 C 870 594 868 568 864 541 C 860 513 856 489 850 469 L 215 465 Z M 223 565 L 743 567 C 744 572 745 579 745 588 C 745 596 745 603 745 608 C 745 679 725 737 687 782 C 649 827 593 850 520 850 C 436 850 369 821 317 765 C 265 709 233 642 223 565 Z M 813 1432 C 796 1338 764 1252 717 1175 C 670 1097 600 1059 508 1059 C 415 1059 345 1097 298 1175 C 250 1252 218 1338 202 1432 L 303 1432 C 323 1345 349 1278 382 1230 C 414 1182 456 1159 508 1159 C 558 1159 600 1182 633 1230 C 666 1278 692 1345 712 1432 L 813 1432 Z" unicode="ĕ" />
<glyph horiz-adv-x="1038" d="M 938 0 L 164 0 L 164 1280 L 938 1280 L 938 1159 L 295 1159 L 295 700 L 831 700 L 831 582 L 295 582 L 295 121 L 938 121 L 938 0 Z M 659 1554 C 659 1528 650 1504 632 1484 C 614 1464 591 1454 563 1454 C 534 1454 511 1464 494 1484 C 476 1504 468 1528 468 1554 C 468 1580 476 1603 494 1623 C 511 1643 534 1653 563 1653 C 591 1653 614 1643 632 1623 C 650 1603 659 1580 659 1554 Z" unicode="Ė" />
<glyph horiz-adv-x="963" d="M 215 465 L 215 455 C 217 349 247 262 307 194 C 366 126 445 92 543 92 C 593 92 642 99 690 113 C 738 127 779 146 815 170 L 840 53 C 800 29 754 9 703 -5 C 651 -19 597 -27 539 -27 C 404 -27 295 18 211 110 C 127 202 86 319 86 461 C 86 607 128 728 212 823 C 296 917 402 965 528 965 C 631 965 714 933 776 870 C 838 807 870 723 870 618 C 870 594 868 568 864 541 C 860 513 856 489 850 469 L 215 465 Z M 223 565 L 743 567 C 744 572 745 579 745 588 C 745 596 745 603 745 608 C 745 679 725 737 687 782 C 649 827 593 850 520 850 C 436 850 369 821 317 765 C 265 709 233 642 223 565 Z M 612 1212 C 612 1186 603 1162 585 1142 C 567 1122 544 1112 516 1112 C 487 1112 464 1122 447 1142 C 429 1162 421 1186 421 1212 C 421 1238 429 1261 447 1281 C 464 1301 487 1311 516 1311 C 544 1311 567 1301 585 1281 C 603 1261 612 1238 612 1212 Z" unicode="ė" />
<glyph horiz-adv-x="1038" d="M 938 0 L 838 0 C 794 -34 761 -70 739 -106 C 717 -142 707 -179 707 -219 C 707 -251 715 -277 732 -297 C 749 -316 773 -326 803 -326 C 820 -326 838 -322 857 -316 C 875 -309 891 -301 905 -291 L 938 -387 C 919 -400 896 -412 869 -422 C 841 -432 810 -438 776 -438 C 721 -438 675 -421 638 -388 C 600 -354 582 -310 582 -254 C 582 -200 597 -152 628 -109 C 659 -65 696 -29 739 0 L 166 0 L 166 1280 L 938 1280 L 938 1161 L 295 1161 L 295 700 L 831 700 L 831 582 L 295 582 L 295 121 L 938 121 L 938 0 Z" unicode="Ę" />
<glyph horiz-adv-x="963" d="M 215 467 L 215 455 C 216 349 246 262 306 194 C 365 126 444 92 543 92 C 593 92 642 99 690 113 C 738 127 779 146 815 170 L 840 53 C 793 35 742 0 688 -54 C 633 -108 606 -163 606 -219 C 606 -251 614 -277 631 -297 C 648 -316 672 -326 702 -326 C 720 -326 738 -322 756 -315 C 774 -308 791 -300 805 -291 L 838 -387 C 820 -401 797 -413 769 -423 C 741 -433 710 -438 676 -438 C 621 -438 575 -421 537 -388 C 499 -354 481 -310 481 -254 C 481 -206 495 -161 524 -121 C 552 -81 585 -46 621 -18 C 611 -19 597 -21 579 -23 C 561 -25 548 -27 539 -27 C 403 -27 294 19 212 111 C 129 203 88 321 88 463 C 88 609 129 729 213 823 C 296 917 401 965 528 965 C 630 965 713 933 776 871 C 838 809 870 724 870 618 C 870 595 868 570 864 543 C 860 515 855 491 850 471 L 215 467 Z M 223 565 L 743 567 C 744 572 745 579 746 588 C 747 597 748 604 748 610 C 748 681 728 739 689 784 C 650 829 594 852 520 852 C 436 852 368 823 316 767 C 264 710 233 643 223 565 Z" unicode="ę" />
<glyph horiz-adv-x="1038" d="M 866 1765 L 634 1393 L 491 1393 L 259 1765 L 356 1765 L 561 1487 L 563 1487 L 769 1765 L 866 1765 Z M 938 0 L 164 0 L 164 1280 L 938 1280 L 938 1159 L 295 1159 L 295 700 L 831 700 L 831 582 L 295 582 L 295 121 L 938 121 L 938 0 Z" unicode="Ě" />
<glyph horiz-adv-x="963" d="M 809 1423 L 577 1051 L 434 1051 L 202 1423 L 299 1423 L 504 1145 L 506 1145 L 712 1423 L 809 1423 Z M 215 465 L 215 455 C 217 349 247 262 307 194 C 366 126 445 92 543 92 C 593 92 642 99 690 113 C 738 127 779 146 815 170 L 840 53 C 800 29 754 9 703 -5 C 651 -19 597 -27 539 -27 C 404 -27 295 18 211 110 C 127 202 86 319 86 461 C 86 607 128 728 212 823 C 296 917 402 965 528 965 C 631 965 714 933 776 870 C 838 807 870 723 870 618 C 870 594 868 568 864 541 C 860 513 856 489 850 469 L 215 465 Z M 223 565 L 743 567 C 744 572 745 579 745 588 C 745 596 745 603 745 608 C 745 679 725 737 687 782 C 649 827 593 850 520 850 C 436 850 369 821 317 765 C 265 709 233 642 223 565 Z" unicode="ě" />
<glyph horiz-adv-x="1280" d="M 956 1403 L 859 1403 L 655 1679 L 653 1679 L 446 1403 L 349 1403 L 581 1776 L 724 1776 L 956 1403 Z M 1151 100 C 1089 58 1018 27 940 5 C 862 -16 787 -27 715 -27 C 530 -27 381 33 267 153 C 153 273 96 435 96 637 C 96 839 154 1002 271 1124 C 388 1246 536 1307 715 1307 C 793 1307 868 1296 941 1275 C 1013 1253 1073 1228 1120 1200 L 1077 1081 C 1029 1111 972 1137 908 1157 C 844 1177 779 1188 713 1188 C 574 1188 459 1140 367 1044 C 275 948 229 814 229 641 C 229 473 273 339 363 240 C 453 141 571 92 717 92 C 777 92 833 99 885 114 C 937 128 983 147 1024 170 L 1024 518 L 653 518 L 653 637 L 1151 637 L 1151 100 Z" unicode="Ĝ" />
<glyph horiz-adv-x="958" d="M 756 1061 L 659 1061 L 455 1337 L 453 1337 L 246 1061 L 149 1061 L 381 1434 L 524 1434 L 756 1061 Z M 219 -2 C 179 12 148 32 126 58 C 103 84 92 113 92 147 C 92 186 107 221 137 253 C 167 285 203 309 246 326 C 201 353 164 391 136 441 C 108 491 94 548 94 612 C 94 711 128 795 196 863 C 264 931 353 965 463 965 C 511 965 554 959 591 948 C 627 936 658 923 684 909 L 944 930 L 950 803 L 743 823 C 765 801 784 769 798 729 C 812 689 819 650 819 612 C 819 513 784 431 715 366 C 645 300 559 268 455 268 C 429 268 405 270 383 275 C 361 280 339 287 315 295 C 291 285 267 270 245 251 C 222 231 211 208 211 182 C 211 152 225 129 255 112 C 284 94 340 86 424 86 L 545 86 C 680 86 779 64 841 20 C 903 -23 934 -83 934 -160 C 934 -262 884 -346 785 -411 C 685 -475 570 -508 440 -508 C 314 -508 212 -482 134 -432 C 55 -381 16 -315 16 -233 C 16 -180 34 -132 72 -89 C 110 -46 159 -17 219 -2 Z M 330 -27 C 274 -42 228 -66 192 -100 C 156 -134 139 -171 139 -211 C 139 -265 167 -311 225 -348 C 282 -384 360 -403 459 -403 C 555 -403 638 -382 707 -340 C 776 -298 811 -245 811 -182 C 811 -127 786 -88 738 -66 C 689 -44 618 -33 526 -33 C 494 -33 460 -32 424 -31 C 387 -30 356 -29 330 -27 Z M 219 610 C 219 542 240 486 283 440 C 326 394 385 371 461 371 C 532 371 589 394 631 440 C 673 486 694 544 694 616 C 694 685 673 743 633 790 C 592 836 533 860 455 860 C 382 860 324 836 282 789 C 240 742 219 682 219 610 Z" unicode="ĝ" />
<glyph horiz-adv-x="1280" d="M 1151 100 C 1089 58 1018 27 940 5 C 862 -16 787 -27 715 -27 C 530 -27 381 33 267 153 C 153 273 96 435 96 637 C 96 839 154 1002 271 1124 C 388 1246 536 1307 715 1307 C 793 1307 868 1296 941 1275 C 1013 1253 1073 1228 1120 1200 L 1077 1081 C 1029 1111 972 1137 908 1157 C 844 1177 779 1188 713 1188 C 574 1188 459 1140 367 1044 C 275 948 229 814 229 641 C 229 473 273 339 363 240 C 453 141 571 92 717 92 C 777 92 833 99 885 114 C 937 128 983 147 1024 170 L 1024 518 L 653 518 L 653 637 L 1151 637 L 1151 100 Z M 966 1774 C 949 1680 917 1594 870 1517 C 823 1439 753 1401 661 1401 C 568 1401 498 1439 451 1517 C 403 1594 371 1680 355 1774 L 456 1774 C 476 1687 502 1620 535 1572 C 567 1524 609 1501 661 1501 C 711 1501 753 1524 786 1572 C 819 1620 845 1687 865 1774 L 966 1774 Z" unicode="Ğ" />
<glyph horiz-adv-x="958" d="M 219 -2 C 179 12 148 32 126 58 C 103 84 92 113 92 147 C 92 186 107 221 137 253 C 167 285 203 309 246 326 C 201 353 164 391 136 441 C 108 491 94 548 94 612 C 94 711 128 795 196 863 C 264 931 353 965 463 965 C 511 965 554 959 591 948 C 627 936 658 923 684 909 L 944 930 L 950 803 L 743 823 C 765 801 784 769 798 729 C 812 689 819 650 819 612 C 819 513 784 431 715 366 C 645 300 559 268 455 268 C 429 268 405 270 383 275 C 361 280 339 287 315 295 C 291 285 267 270 245 251 C 222 231 211 208 211 182 C 211 152 225 129 255 112 C 284 94 340 86 424 86 L 545 86 C 680 86 779 64 841 20 C 903 -23 934 -83 934 -160 C 934 -262 884 -346 785 -411 C 685 -475 570 -508 440 -508 C 314 -508 212 -482 134 -432 C 55 -381 16 -315 16 -233 C 16 -180 34 -132 72 -89 C 110 -46 159 -17 219 -2 Z M 330 -27 C 274 -42 228 -66 192 -100 C 156 -134 139 -171 139 -211 C 139 -265 167 -311 225 -348 C 282 -384 360 -403 459 -403 C 555 -403 638 -382 707 -340 C 776 -298 811 -245 811 -182 C 811 -127 786 -88 738 -66 C 689 -44 618 -33 526 -33 C 494 -33 460 -32 424 -31 C 387 -30 356 -29 330 -27 Z M 219 610 C 219 542 240 486 283 440 C 326 394 385 371 461 371 C 532 371 589 394 631 440 C 673 486 694 544 694 616 C 694 685 673 743 633 790 C 592 836 533 860 455 860 C 382 860 324 836 282 789 C 240 742 219 682 219 610 Z M 782 1432 C 765 1338 733 1252 686 1175 C 639 1097 569 1059 477 1059 C 384 1059 314 1097 267 1175 C 219 1252 187 1338 171 1432 L 272 1432 C 292 1345 318 1278 351 1230 C 383 1182 425 1159 477 1159 C 527 1159 569 1182 602 1230 C 635 1278 661 1345 681 1432 L 782 1432 Z" unicode="ğ" />
<glyph horiz-adv-x="1280" d="M 1151 100 C 1089 58 1018 27 940 5 C 862 -16 787 -27 715 -27 C 530 -27 381 33 267 153 C 153 273 96 435 96 637 C 96 839 154 1002 271 1124 C 388 1246 536 1307 715 1307 C 793 1307 868 1296 941 1275 C 1013 1253 1073 1228 1120 1200 L 1077 1081 C 1029 1111 972 1137 908 1157 C 844 1177 779 1188 713 1188 C 574 1188 459 1140 367 1044 C 275 948 229 814 229 641 C 229 473 273 339 363 240 C 453 141 571 92 717 92 C 777 92 833 99 885 114 C 937 128 983 147 1024 170 L 1024 518 L 653 518 L 653 637 L 1151 637 L 1151 100 Z M 788 1554 C 788 1528 779 1504 761 1484 C 743 1464 720 1454 692 1454 C 663 1454 640 1464 623 1484 C 605 1504 597 1528 597 1554 C 597 1580 605 1603 623 1623 C 640 1643 663 1653 692 1653 C 720 1653 743 1643 761 1623 C 779 1603 788 1580 788 1554 Z" unicode="Ġ" />
<glyph horiz-adv-x="958" d="M 219 -2 C 179 12 148 32 126 58 C 103 84 92 113 92 147 C 92 186 107 221 137 253 C 167 285 203 309 246 326 C 201 353 164 391 136 441 C 108 491 94 548 94 612 C 94 711 128 795 196 863 C 264 931 353 965 463 965 C 511 965 554 959 591 948 C 627 936 658 923 684 909 L 944 930 L 950 803 L 743 823 C 765 801 784 769 798 729 C 812 689 819 650 819 612 C 819 513 784 431 715 366 C 645 300 559 268 455 268 C 429 268 405 270 383 275 C 361 280 339 287 315 295 C 291 285 267 270 245 251 C 222 231 211 208 211 182 C 211 152 225 129 255 112 C 284 94 340 86 424 86 L 545 86 C 680 86 779 64 841 20 C 903 -23 934 -83 934 -160 C 934 -262 884 -346 785 -411 C 685 -475 570 -508 440 -508 C 314 -508 212 -482 134 -432 C 55 -381 16 -315 16 -233 C 16 -180 34 -132 72 -89 C 110 -46 159 -17 219 -2 Z M 330 -27 C 274 -42 228 -66 192 -100 C 156 -134 139 -171 139 -211 C 139 -265 167 -311 225 -348 C 282 -384 360 -403 459 -403 C 555 -403 638 -382 707 -340 C 776 -298 811 -245 811 -182 C 811 -127 786 -88 738 -66 C 689 -44 618 -33 526 -33 C 494 -33 460 -32 424 -31 C 387 -30 356 -29 330 -27 Z M 219 610 C 219 542 240 486 283 440 C 326 394 385 371 461 371 C 532 371 589 394 631 440 C 673 486 694 544 694 616 C 694 685 673 743 633 790 C 592 836 533 860 455 860 C 382 860 324 836 282 789 C 240 742 219 682 219 610 Z M 563 1212 C 563 1186 554 1162 536 1142 C 518 1122 495 1112 467 1112 C 438 1112 415 1122 398 1142 C 380 1162 372 1186 372 1212 C 372 1238 380 1261 398 1281 C 415 1301 438 1311 467 1311 C 495 1311 518 1301 536 1281 C 554 1261 563 1238 563 1212 Z" unicode="ġ" />
<glyph horiz-adv-x="1280" d="M 602 -195 C 603 -173 612 -153 630 -136 C 647 -119 670 -111 700 -111 C 734 -111 763 -123 787 -149 C 811 -174 823 -206 823 -244 C 823 -296 805 -344 770 -390 C 734 -436 689 -476 635 -512 L 588 -471 C 638 -434 670 -402 685 -374 C 699 -346 707 -320 707 -297 C 707 -271 699 -251 683 -236 C 667 -221 640 -207 602 -195 Z M 1151 100 C 1089 58 1018 27 940 5 C 862 -16 787 -27 715 -27 C 530 -27 381 33 267 153 C 153 273 96 435 96 637 C 96 839 154 1002 271 1124 C 388 1246 536 1307 715 1307 C 793 1307 868 1296 941 1275 C 1013 1253 1073 1228 1120 1200 L 1077 1081 C 1029 1111 972 1137 908 1157 C 844 1177 779 1188 713 1188 C 574 1188 459 1140 367 1044 C 275 948 229 814 229 641 C 229 473 273 339 363 240 C 453 141 571 92 717 92 C 777 92 833 99 885 114 C 937 128 983 147 1024 170 L 1024 518 L 653 518 L 653 637 L 1151 637 L 1151 100 Z" unicode="Ģ" />
<glyph horiz-adv-x="958" d="M 557 1142 C 555 1120 546 1101 529 1084 C 511 1067 488 1058 459 1058 C 424 1058 395 1071 371 1096 C 347 1122 336 1153 336 1191 C 336 1243 353 1292 389 1338 C 424 1384 469 1424 524 1459 L 571 1418 C 521 1382 488 1349 474 1321 C 459 1293 452 1268 452 1244 C 452 1219 460 1199 476 1184 C 492 1169 519 1155 557 1142 Z M 219 -2 C 179 12 148 32 126 58 C 103 84 92 113 92 147 C 92 186 107 221 137 253 C 167 285 203 309 246 326 C 201 353 164 391 136 441 C 108 491 94 548 94 612 C 94 711 128 795 196 863 C 264 931 353 965 463 965 C 511 965 554 959 591 948 C 627 936 658 923 684 909 L 944 930 L 950 803 L 743 823 C 765 801 784 769 798 729 C 812 689 819 650 819 612 C 819 513 784 431 715 366 C 645 300 559 268 455 268 C 429 268 405 270 383 275 C 361 280 339 287 315 295 C 291 285 267 270 245 251 C 222 231 211 208 211 182 C 211 152 225 129 255 112 C 284 94 340 86 424 86 L 545 86 C 680 86 779 64 841 20 C 903 -23 934 -83 934 -160 C 934 -262 884 -346 785 -411 C 685 -475 570 -508 440 -508 C 314 -508 212 -482 134 -432 C 55 -381 16 -315 16 -233 C 16 -180 34 -132 72 -89 C 110 -46 159 -17 219 -2 Z M 330 -27 C 274 -42 228 -66 192 -100 C 156 -134 139 -171 139 -211 C 139 -265 167 -311 225 -348 C 282 -384 360 -403 459 -403 C 555 -403 638 -382 707 -340 C 776 -298 811 -245 811 -182 C 811 -127 786 -88 738 -66 C 689 -44 618 -33 526 -33 C 494 -33 460 -32 424 -31 C 387 -30 356 -29 330 -27 Z M 219 610 C 219 542 240 486 283 440 C 326 394 385 371 461 371 C 532 371 589 394 631 440 C 673 486 694 544 694 616 C 694 685 673 743 633 790 C 592 836 533 860 455 860 C 382 860 324 836 282 789 C 240 742 219 682 219 610 Z" unicode="ģ" />
<glyph horiz-adv-x="1339" d="M 975 1403 L 878 1403 L 674 1679 L 672 1679 L 465 1403 L 368 1403 L 600 1776 L 743 1776 L 975 1403 Z M 1176 0 L 1044 0 L 1044 584 L 295 584 L 295 0 L 164 0 L 164 1280 L 295 1280 L 295 702 L 1044 702 L 1044 1280 L 1176 1280 L 1176 0 Z" unicode="Ĥ" />
<glyph horiz-adv-x="1034" d="M 526 1403 L 429 1403 L 225 1679 L 223 1679 L 16 1403 L -81 1403 L 151 1776 L 294 1776 L 526 1403 Z M 893 0 L 766 0 L 766 606 C 766 687 749 747 716 786 C 682 824 632 844 565 844 C 511 844 458 831 408 806 C 358 781 313 749 274 711 L 274 0 L 147 0 L 147 1380 L 274 1407 L 274 815 C 323 863 377 900 435 926 C 493 952 548 965 600 965 C 690 965 762 936 814 880 C 866 824 893 745 893 643 L 893 0 Z" unicode="ĥ" />
<glyph horiz-adv-x="1339" d="M 1176 0 L 1047 0 L 1047 586 L 295 586 L 295 0 L 166 0 L 166 926 L -4 926 L 4 1014 L 166 1014 L 166 1280 L 295 1280 L 295 1014 L 1047 1014 L 1047 1280 L 1176 1280 L 1176 1014 L 1329 1014 L 1337 926 L 1176 926 L 1176 0 Z M 295 702 L 1047 702 L 1047 926 L 295 926 L 295 702 Z" unicode="Ħ" />
<glyph horiz-adv-x="1034" d="M 893 0 L 768 0 L 768 606 C 768 687 751 747 718 786 C 684 824 633 844 565 844 C 511 844 458 831 408 806 C 358 781 313 750 274 713 L 274 0 L 150 0 L 150 1108 L 12 1108 L 18 1190 L 150 1190 L 150 1380 L 274 1407 L 274 1190 L 526 1190 L 535 1108 L 274 1108 L 274 815 C 323 863 377 900 435 926 C 493 952 548 965 600 965 C 690 965 762 936 814 880 C 866 824 893 745 893 643 L 893 0 Z" unicode="ħ" />
<glyph horiz-adv-x="467" d="M 297 0 L 168 0 L 168 1280 L 297 1280 L 297 0 Z M 481 1438 L -8 1438 L -3 1524 L 474 1524 L 481 1438 Z" unicode="Ī" />
<glyph horiz-adv-x="428" d="M 281 0 L 154 0 L 154 928 L 281 954 L 281 0 Z M 458 1096 L -18 1096 L -13 1180 L 451 1180 L 458 1096 Z" unicode="ī" />
<glyph horiz-adv-x="467" d="M 297 0 L 168 0 L 168 1280 L 297 1280 L 297 0 Z M 542 1774 C 525 1680 493 1594 446 1517 C 399 1439 329 1401 237 1401 C 144 1401 74 1439 27 1517 C -20 1594 -52 1680 -69 1774 L 32 1774 C 52 1687 78 1620 111 1572 C 143 1524 185 1501 237 1501 C 287 1501 329 1524 362 1572 C 395 1620 421 1687 441 1774 L 542 1774 Z" unicode="Ĭ" />
<glyph horiz-adv-x="428" d="M 281 0 L 154 0 L 154 928 L 281 954 L 281 0 Z M 524 1432 C 507 1338 475 1252 428 1175 C 381 1097 311 1059 219 1059 C 126 1059 56 1097 9 1175 C -38 1252 -70 1338 -87 1432 L 14 1432 C 34 1345 60 1278 93 1230 C 125 1182 167 1159 219 1159 C 269 1159 311 1182 344 1230 C 377 1278 403 1345 423 1432 L 524 1432 Z" unicode="ĭ" />
<glyph horiz-adv-x="467" d="M 238 -438 C 182 -438 135 -421 98 -388 C 61 -354 43 -310 43 -254 C 43 -200 58 -152 89 -109 C 120 -65 157 -29 199 0 L 168 0 L 168 1280 L 297 1280 L 297 0 C 254 -35 221 -71 199 -107 C 177 -143 166 -180 166 -219 C 166 -251 174 -277 192 -297 C 209 -316 232 -326 262 -326 C 280 -326 299 -322 318 -316 C 337 -309 353 -301 367 -291 L 397 -387 C 379 -400 357 -412 330 -422 C 303 -432 272 -438 238 -438 Z" unicode="Į" />
<glyph horiz-adv-x="428" d="M 217 -438 C 161 -438 114 -421 78 -388 C 41 -354 23 -310 23 -254 C 23 -200 38 -152 68 -109 C 98 -65 135 -29 178 0 L 152 0 L 152 938 L 276 965 L 276 0 C 233 -35 200 -71 178 -107 C 156 -143 145 -180 145 -219 C 145 -251 153 -277 171 -297 C 188 -316 212 -326 242 -326 C 260 -326 278 -322 297 -316 C 316 -309 332 -301 346 -291 L 377 -387 C 359 -400 337 -412 310 -422 C 282 -432 251 -438 217 -438 Z M 299 1247 C 299 1223 291 1201 277 1182 C 263 1162 241 1153 213 1153 C 185 1153 164 1162 150 1182 C 136 1201 129 1223 129 1247 C 129 1270 136 1291 150 1309 C 164 1327 185 1337 213 1337 C 241 1337 263 1327 277 1309 C 291 1291 299 1270 299 1247 Z" unicode="į" />
<glyph horiz-adv-x="467" d="M 297 0 L 168 0 L 168 1280 L 297 1280 L 297 0 Z M 331 1554 C 331 1528 322 1504 304 1484 C 286 1464 263 1454 235 1454 C 206 1454 183 1464 166 1484 C 148 1504 140 1528 140 1554 C 140 1580 148 1603 166 1623 C 183 1643 206 1653 235 1653 C 263 1653 286 1643 304 1623 C 322 1603 331 1580 331 1554 Z" unicode="İ" />
<glyph horiz-adv-x="428" d="M 281 0 L 154 0 L 154 928 L 281 954 L 281 0 Z" unicode="ı" />
<glyph horiz-adv-x="848" d="M 930 1403 L 833 1403 L 629 1679 L 627 1679 L 420 1403 L 323 1403 L 555 1776 L 698 1776 L 930 1403 Z M 698 393 C 698 267 667 165 605 88 C 543 11 445 -27 313 -27 C 257 -27 203 -18 153 -2 C 103 14 61 33 29 53 L 51 180 C 91 154 134 133 178 117 C 222 100 267 92 315 92 C 399 92 462 118 505 170 C 547 222 569 297 569 397 L 569 1280 L 698 1280 L 698 393 Z" unicode="Ĵ" />
<glyph horiz-adv-x="424" d="M 55 -512 L -33 -424 C 36 -388 84 -344 111 -293 C 138 -241 152 -166 152 -68 L 152 938 L 276 965 L 276 -68 C 276 -186 259 -279 225 -347 C 191 -415 135 -470 55 -512 Z M 520 1061 L 423 1061 L 219 1337 L 217 1337 L 10 1061 L -87 1061 L 145 1434 L 288 1434 L 520 1061 Z" unicode="ĵ" />
<glyph horiz-adv-x="1100" d="M 473 -195 C 474 -173 483 -153 501 -136 C 518 -119 541 -111 571 -111 C 605 -111 634 -123 658 -149 C 682 -174 694 -206 694 -244 C 694 -296 676 -344 641 -390 C 605 -436 560 -476 506 -512 L 459 -471 C 509 -434 541 -402 556 -374 C 570 -346 578 -320 578 -297 C 578 -271 570 -251 554 -236 C 538 -221 511 -207 473 -195 Z M 295 666 L 297 666 L 889 1280 L 1057 1280 L 424 645 L 1067 0 L 897 0 L 297 612 L 295 612 L 295 0 L 164 0 L 164 1280 L 295 1280 L 295 666 Z" unicode="Ķ" />
<glyph horiz-adv-x="889" d="M 366 -195 C 367 -173 376 -153 394 -136 C 411 -119 434 -111 464 -111 C 498 -111 527 -123 551 -149 C 575 -174 587 -206 587 -244 C 587 -296 569 -344 534 -390 C 498 -436 453 -476 399 -512 L 352 -471 C 402 -434 434 -402 449 -374 C 463 -346 471 -320 471 -297 C 471 -271 463 -251 447 -236 C 431 -221 404 -207 366 -195 Z M 279 467 L 274 467 L 274 0 L 147 0 L 147 1380 L 274 1407 L 274 506 L 279 506 L 700 938 L 860 938 L 410 492 L 862 0 L 700 0 L 279 467 Z" unicode="ķ" />
<glyph horiz-adv-x="979" d="M 571 1769 L 259 1403 L 165 1403 L 407 1769 L 571 1769 Z M 928 0 L 164 0 L 164 1280 L 295 1280 L 295 123 L 928 123 L 928 0 Z" unicode="Ĺ" />
<glyph horiz-adv-x="422" d="M 553 1824 L 241 1458 L 147 1458 L 389 1824 L 553 1824 Z M 274 0 L 147 0 L 147 1380 L 274 1407 L 274 0 Z" unicode="ĺ" />
<glyph horiz-adv-x="979" d="M 427 -195 C 428 -173 437 -153 455 -136 C 472 -119 495 -111 525 -111 C 559 -111 588 -123 612 -149 C 636 -174 648 -206 648 -244 C 648 -296 630 -344 595 -390 C 559 -436 514 -476 460 -512 L 413 -471 C 463 -434 495 -402 510 -374 C 524 -346 532 -320 532 -297 C 532 -271 524 -251 508 -236 C 492 -221 465 -207 427 -195 Z M 928 0 L 164 0 L 164 1280 L 295 1280 L 295 123 L 928 123 L 928 0 Z" unicode="Ļ" />
<glyph horiz-adv-x="422" d="M 108 -195 C 109 -173 118 -153 136 -136 C 153 -119 176 -111 206 -111 C 240 -111 269 -123 293 -149 C 317 -174 329 -206 329 -244 C 329 -296 311 -344 276 -390 C 240 -436 195 -476 141 -512 L 94 -471 C 144 -434 176 -402 191 -374 C 205 -346 213 -320 213 -297 C 213 -271 205 -251 189 -236 C 173 -221 146 -207 108 -195 Z M 274 0 L 147 0 L 147 1380 L 274 1407 L 274 0 Z" unicode="ļ" />
<glyph horiz-adv-x="1169" d="M 921 1206 C 923 1232 933 1256 952 1277 C 971 1298 997 1309 1031 1309 C 1067 1309 1101 1294 1131 1264 C 1161 1234 1177 1195 1177 1147 C 1177 1078 1152 1013 1102 953 C 1052 892 992 839 923 795 L 868 846 C 932 892 978 936 1006 976 C 1034 1016 1048 1054 1048 1091 C 1048 1117 1038 1138 1018 1155 C 998 1171 965 1188 921 1206 Z M 928 0 L 164 0 L 164 1280 L 295 1280 L 295 123 L 928 123 L 928 0 Z" unicode="Ľ" />
<glyph horiz-adv-x="805" d="M 497 1312 C 499 1338 509 1362 528 1383 C 547 1404 573 1415 607 1415 C 643 1415 677 1400 707 1370 C 737 1340 753 1301 753 1253 C 753 1184 728 1119 678 1059 C 628 998 568 945 499 901 L 444 952 C 508 998 554 1042 582 1082 C 610 1122 624 1160 624 1197 C 624 1223 614 1244 594 1261 C 574 1277 541 1294 497 1312 Z M 274 0 L 147 0 L 147 1380 L 274 1407 L 274 0 Z" unicode="ľ" />
<glyph horiz-adv-x="1102" d="M 928 0 L 164 0 L 164 1280 L 295 1280 L 295 123 L 928 123 L 928 0 Z M 1187 641 C 1187 613 1177 589 1158 567 C 1138 545 1114 534 1085 534 C 1055 534 1030 545 1011 567 C 991 589 982 613 982 641 C 982 667 991 691 1011 711 C 1030 731 1055 741 1085 741 C 1114 741 1138 731 1158 711 C 1177 691 1187 667 1187 641 Z" unicode="Ŀ" />
<glyph horiz-adv-x="715" d="M 274 0 L 147 0 L 147 1380 L 274 1407 L 274 0 Z M 667 641 C 667 613 657 589 638 567 C 618 545 594 534 565 534 C 535 534 510 545 491 567 C 471 589 462 613 462 641 C 462 667 471 691 491 711 C 510 731 535 741 565 741 C 594 741 618 731 638 711 C 657 691 667 667 667 641 Z" unicode="ŀ" />
<glyph horiz-adv-x="1016" d="M 338 549 L 338 125 L 961 125 L 961 0 L 209 0 L 209 516 L 35 469 L 35 582 L 209 629 L 209 1280 L 338 1280 L 338 664 L 651 750 L 651 635 C 651 635 598 620 494 592 C 390 564 338 549 338 549 Z" unicode="Ł" />
<glyph horiz-adv-x="502" d="M 319 549 L 319 0 L 193 0 L 193 514 L 18 467 L 18 584 L 193 631 L 193 1380 L 319 1407 L 319 666 L 494 713 L 494 596 L 319 549 Z" unicode="ł" />
<glyph horiz-adv-x="1331" d="M 940 1769 L 628 1403 L 534 1403 L 776 1769 L 940 1769 Z M 1038 182 L 1038 1280 L 1165 1280 L 1165 -12 L 1024 -12 L 291 1096 L 291 0 L 164 0 L 164 1280 L 311 1280 L 1038 182 Z" unicode="Ń" />
<glyph horiz-adv-x="1034" d="M 784 1427 L 472 1061 L 378 1061 L 620 1427 L 784 1427 Z M 893 0 L 766 0 L 766 606 C 766 687 749 747 715 786 C 681 824 629 844 559 844 C 508 844 458 831 408 806 C 358 781 313 749 274 711 L 274 0 L 147 0 L 147 938 L 274 965 L 274 811 C 323 859 376 897 434 924 C 492 951 545 965 594 965 C 688 965 761 936 814 880 C 866 824 893 745 893 643 L 893 0 Z" unicode="ń" />
<glyph horiz-adv-x="1331" d="M 554 -195 C 555 -173 564 -153 582 -136 C 599 -119 622 -111 652 -111 C 686 -111 715 -123 739 -149 C 763 -174 775 -206 775 -244 C 775 -296 757 -344 722 -390 C 686 -436 641 -476 587 -512 L 540 -471 C 590 -434 622 -402 637 -374 C 651 -346 659 -320 659 -297 C 659 -271 651 -251 635 -236 C 619 -221 592 -207 554 -195 Z M 1038 182 L 1038 1280 L 1165 1280 L 1165 -12 L 1024 -12 L 291 1096 L 291 0 L 164 0 L 164 1280 L 311 1280 L 1038 182 Z" unicode="Ņ" />
<glyph horiz-adv-x="1034" d="M 413 -195 C 414 -173 423 -153 441 -136 C 458 -119 481 -111 511 -111 C 545 -111 574 -123 598 -149 C 622 -174 634 -206 634 -244 C 634 -296 616 -344 581 -390 C 545 -436 500 -476 446 -512 L 399 -471 C 449 -434 481 -402 496 -374 C 510 -346 518 -320 518 -297 C 518 -271 510 -251 494 -236 C 478 -221 451 -207 413 -195 Z M 893 0 L 766 0 L 766 606 C 766 687 749 747 715 786 C 681 824 629 844 559 844 C 508 844 458 831 408 806 C 358 781 313 749 274 711 L 274 0 L 147 0 L 147 938 L 274 965 L 274 811 C 323 859 376 897 434 924 C 492 951 545 965 594 965 C 688 965 761 936 814 880 C 866 824 893 745 893 643 L 893 0 Z" unicode="ņ" />
<glyph horiz-adv-x="1331" d="M 971 1765 L 739 1393 L 596 1393 L 364 1765 L 461 1765 L 666 1487 L 668 1487 L 874 1765 L 971 1765 Z M 1038 182 L 1038 1280 L 1165 1280 L 1165 -12 L 1024 -12 L 291 1096 L 291 0 L 164 0 L 164 1280 L 311 1280 L 1038 182 Z" unicode="Ň" />
<glyph horiz-adv-x="1034" d="M 831 1423 L 599 1051 L 456 1051 L 224 1423 L 321 1423 L 526 1145 L 528 1145 L 734 1423 L 831 1423 Z M 893 0 L 766 0 L 766 606 C 766 687 749 747 715 786 C 681 824 629 844 559 844 C 508 844 458 831 408 806 C 358 781 313 749 274 711 L 274 0 L 147 0 L 147 938 L 274 965 L 274 811 C 323 859 376 897 434 924 C 492 951 545 965 594 965 C 688 965 761 936 814 880 C 866 824 893 745 893 643 L 893 0 Z" unicode="ň" />
<glyph horiz-adv-x="1452" d="M 973 1440 L 451 1440 L 457 1532 L 965 1532 L 973 1440 Z M 1356 645 C 1356 450 1296 289 1177 163 C 1058 36 907 -27 725 -27 C 547 -27 398 34 277 157 C 156 280 96 440 96 637 C 96 831 155 992 274 1118 C 393 1244 544 1307 727 1307 C 904 1307 1053 1245 1174 1123 C 1295 1001 1356 841 1356 645 Z M 1223 637 C 1223 801 1175 934 1081 1036 C 987 1138 867 1190 723 1190 C 580 1190 462 1139 369 1038 C 275 937 229 806 229 645 C 229 481 276 347 371 244 C 466 141 586 90 731 90 C 873 90 990 140 1083 242 C 1176 344 1223 475 1223 637 Z" unicode="Ō" />
<glyph horiz-adv-x="1087" d="M 792 1098 L 270 1098 L 276 1190 L 784 1190 L 792 1098 Z M 999 471 C 999 322 954 202 866 110 C 777 18 668 -27 539 -27 C 409 -27 301 17 215 107 C 129 197 86 317 86 467 C 86 615 130 735 219 827 C 308 919 418 965 549 965 C 679 965 786 920 871 830 C 956 740 999 621 999 471 Z M 874 467 C 874 581 843 673 782 744 C 721 814 641 850 543 850 C 443 850 363 814 303 743 C 243 671 213 581 213 471 C 213 357 243 264 305 194 C 366 123 446 88 545 88 C 643 88 723 123 783 195 C 843 266 874 357 874 467 Z" unicode="ō" />
<glyph horiz-adv-x="1452" d="M 1356 645 C 1356 450 1296 289 1177 163 C 1058 36 907 -27 725 -27 C 547 -27 398 34 277 157 C 156 280 96 440 96 637 C 96 831 155 992 274 1118 C 393 1244 544 1307 727 1307 C 904 1307 1053 1245 1174 1123 C 1295 1001 1356 841 1356 645 Z M 1223 637 C 1223 801 1175 934 1081 1036 C 987 1138 867 1190 723 1190 C 580 1190 462 1139 369 1038 C 275 937 229 806 229 645 C 229 481 276 347 371 244 C 466 141 586 90 731 90 C 873 90 990 140 1083 242 C 1176 344 1223 475 1223 637 Z M 1014 1774 C 997 1680 965 1594 918 1517 C 871 1439 801 1401 709 1401 C 616 1401 546 1439 499 1517 C 451 1594 419 1680 403 1774 L 504 1774 C 524 1687 550 1620 583 1572 C 615 1524 657 1501 709 1501 C 759 1501 801 1524 834 1572 C 867 1620 893 1687 913 1774 L 1014 1774 Z" unicode="Ŏ" />
<glyph horiz-adv-x="1087" d="M 999 471 C 999 322 954 202 866 110 C 777 18 668 -27 539 -27 C 409 -27 301 17 215 107 C 129 197 86 317 86 467 C 86 615 130 735 219 827 C 308 919 418 965 549 965 C 679 965 786 920 871 830 C 956 740 999 621 999 471 Z M 874 467 C 874 581 843 673 782 744 C 721 814 641 850 543 850 C 443 850 363 814 303 743 C 243 671 213 581 213 471 C 213 357 243 264 305 194 C 366 123 446 88 545 88 C 643 88 723 123 783 195 C 843 266 874 357 874 467 Z M 837 1432 C 820 1338 788 1252 741 1175 C 694 1097 624 1059 532 1059 C 439 1059 369 1097 322 1175 C 274 1252 242 1338 226 1432 L 327 1432 C 347 1345 373 1278 406 1230 C 438 1182 480 1159 532 1159 C 582 1159 624 1182 657 1230 C 690 1278 716 1345 736 1432 L 837 1432 Z" unicode="ŏ" />
<glyph horiz-adv-x="1452" d="M 809 1755 L 545 1393 L 440 1393 L 674 1755 L 809 1755 Z M 1151 1755 L 862 1393 L 758 1393 L 1016 1755 L 1151 1755 Z M 1356 645 C 1356 450 1296 289 1177 163 C 1058 36 907 -27 725 -27 C 547 -27 398 34 277 157 C 156 280 96 440 96 637 C 96 831 155 992 274 1118 C 393 1244 544 1307 727 1307 C 904 1307 1053 1245 1174 1123 C 1295 1001 1356 841 1356 645 Z M 1223 637 C 1223 801 1175 934 1081 1036 C 987 1138 867 1190 723 1190 C 580 1190 462 1139 369 1038 C 275 937 229 806 229 645 C 229 481 276 347 371 244 C 466 141 586 90 731 90 C 873 90 990 140 1083 242 C 1176 344 1223 475 1223 637 Z" unicode="Ő" />
<glyph horiz-adv-x="1087" d="M 630 1413 L 366 1051 L 261 1051 L 495 1413 L 630 1413 Z M 972 1413 L 683 1051 L 579 1051 L 837 1413 L 972 1413 Z M 999 471 C 999 322 954 202 866 110 C 777 18 668 -27 539 -27 C 409 -27 301 17 215 107 C 129 197 86 317 86 467 C 86 615 130 735 219 827 C 308 919 418 965 549 965 C 679 965 786 920 871 830 C 956 740 999 621 999 471 Z M 874 467 C 874 581 843 673 782 744 C 721 814 641 850 543 850 C 443 850 363 814 303 743 C 243 671 213 581 213 471 C 213 357 243 264 305 194 C 366 123 446 88 545 88 C 643 88 723 123 783 195 C 843 266 874 357 874 467 Z" unicode="ő" />
<glyph horiz-adv-x="1864" d="M 1767 1280 L 1767 1159 L 1126 1159 L 1126 702 L 1661 702 L 1661 582 L 1126 582 L 1126 121 L 1767 121 L 1767 0 L 778 0 C 569 0 404 58 282 175 C 160 291 100 443 100 631 C 100 831 160 990 281 1106 C 402 1222 571 1280 788 1280 L 1767 1280 Z M 231 641 C 231 479 280 351 379 259 C 477 167 613 121 786 121 L 995 121 L 995 1159 L 782 1159 C 619 1159 486 1116 384 1030 C 282 944 231 815 231 641 Z" unicode="Œ" />
<glyph horiz-adv-x="1755" d="M 936 217 C 898 141 844 82 774 38 C 704 -5 626 -27 539 -27 C 409 -27 301 17 215 107 C 129 197 86 317 86 467 C 86 615 130 735 219 827 C 308 919 418 965 549 965 C 637 965 716 943 784 900 C 852 857 904 797 940 721 C 976 795 1028 854 1094 898 C 1160 942 1236 965 1321 965 C 1423 965 1506 933 1569 870 C 1631 807 1663 723 1663 618 C 1663 594 1661 568 1657 541 C 1653 513 1648 489 1642 469 C 1641 469 1535 468 1324 467 C 1113 465 1008 465 1008 465 L 1008 455 C 1010 349 1040 262 1100 194 C 1159 126 1237 92 1335 92 C 1386 92 1435 99 1482 113 C 1528 127 1570 146 1606 170 L 1632 53 C 1591 29 1545 9 1493 -5 C 1441 -19 1387 -27 1329 -27 C 1238 -27 1159 -4 1091 39 C 1023 83 971 143 936 217 Z M 213 471 C 213 357 243 264 305 194 C 366 123 446 88 545 88 C 643 88 723 123 783 195 C 843 266 874 357 874 467 C 874 581 843 673 782 744 C 721 814 641 850 543 850 C 443 850 363 814 303 743 C 243 671 213 581 213 471 Z M 1016 565 L 1536 567 C 1537 572 1538 579 1538 588 C 1538 596 1538 603 1538 608 C 1538 679 1518 737 1480 782 C 1441 827 1385 850 1311 850 C 1228 850 1161 821 1109 765 C 1057 709 1026 642 1016 565 Z" unicode="œ" />
<glyph horiz-adv-x="1083" d="M 762 1769 L 450 1403 L 356 1403 L 598 1769 L 762 1769 Z M 295 512 L 295 0 L 164 0 L 164 1280 L 508 1280 C 664 1280 781 1246 858 1179 C 934 1111 973 1022 973 911 C 973 815 944 738 886 678 C 828 618 758 576 676 551 L 1030 0 L 879 0 L 551 528 L 295 512 Z M 295 629 L 524 637 C 608 640 682 665 746 711 C 810 757 842 821 842 905 C 842 989 811 1052 751 1096 C 690 1139 604 1161 494 1161 L 295 1161 L 295 629 Z" unicode="Ŕ" />
<glyph horiz-adv-x="729" d="M 698 1427 L 386 1061 L 292 1061 L 534 1427 L 698 1427 Z M 274 602 L 274 0 L 147 0 L 147 938 L 274 965 L 274 764 C 304 824 343 872 389 909 C 435 946 489 965 551 965 C 581 965 611 960 640 952 C 668 944 693 934 715 922 L 682 803 C 661 815 638 824 614 832 C 590 840 565 844 539 844 C 489 844 442 824 397 785 C 351 746 310 685 274 602 Z" unicode="ŕ" />
<glyph horiz-adv-x="1083" d="M 448 -195 C 449 -173 458 -153 476 -136 C 493 -119 516 -111 546 -111 C 580 -111 609 -123 633 -149 C 657 -174 669 -206 669 -244 C 669 -296 651 -344 616 -390 C 580 -436 535 -476 481 -512 L 434 -471 C 484 -434 516 -402 531 -374 C 545 -346 553 -320 553 -297 C 553 -271 545 -251 529 -236 C 513 -221 486 -207 448 -195 Z M 295 512 L 295 0 L 164 0 L 164 1280 L 508 1280 C 664 1280 781 1246 858 1179 C 934 1111 973 1022 973 911 C 973 815 944 738 886 678 C 828 618 758 576 676 551 L 1030 0 L 879 0 L 551 528 L 295 512 Z M 295 629 L 524 637 C 608 640 682 665 746 711 C 810 757 842 821 842 905 C 842 989 811 1052 751 1096 C 690 1139 604 1161 494 1161 L 295 1161 L 295 629 Z" unicode="Ŗ" />
<glyph horiz-adv-x="729" d="M 112 -195 C 113 -173 122 -153 140 -136 C 157 -119 180 -111 210 -111 C 244 -111 273 -123 297 -149 C 321 -174 333 -206 333 -244 C 333 -296 315 -344 280 -390 C 244 -436 199 -476 145 -512 L 98 -471 C 148 -434 180 -402 195 -374 C 209 -346 217 -320 217 -297 C 217 -271 209 -251 193 -236 C 177 -221 150 -207 112 -195 Z M 274 602 L 274 0 L 147 0 L 147 938 L 274 965 L 274 764 C 304 824 343 872 389 909 C 435 946 489 965 551 965 C 581 965 611 960 640 952 C 668 944 693 934 715 922 L 682 803 C 661 815 638 824 614 832 C 590 840 565 844 539 844 C 489 844 442 824 397 785 C 351 746 310 685 274 602 Z" unicode="ŗ" />
<glyph horiz-adv-x="1083" d="M 809 1765 L 577 1393 L 434 1393 L 202 1765 L 299 1765 L 504 1487 L 506 1487 L 712 1765 L 809 1765 Z M 295 512 L 295 0 L 164 0 L 164 1280 L 508 1280 C 664 1280 781 1246 858 1179 C 934 1111 973 1022 973 911 C 973 815 944 738 886 678 C 828 618 758 576 676 551 L 1030 0 L 879 0 L 551 528 L 295 512 Z M 295 629 L 524 637 C 608 640 682 665 746 711 C 810 757 842 821 842 905 C 842 989 811 1052 751 1096 C 690 1139 604 1161 494 1161 L 295 1161 L 295 629 Z" unicode="Ř" />
<glyph horiz-adv-x="729" d="M 704 1423 L 472 1051 L 329 1051 L 97 1423 L 194 1423 L 399 1145 L 401 1145 L 607 1423 L 704 1423 Z M 274 602 L 274 0 L 147 0 L 147 938 L 274 965 L 274 764 C 304 824 343 872 389 909 C 435 946 489 965 551 965 C 581 965 611 960 640 952 C 668 944 693 934 715 922 L 682 803 C 661 815 638 824 614 832 C 590 840 565 844 539 844 C 489 844 442 824 397 785 C 351 746 310 685 274 602 Z" unicode="ř" />
<glyph horiz-adv-x="1004" d="M 768 1769 L 456 1403 L 362 1403 L 604 1769 L 768 1769 Z M 489 90 C 577 90 650 113 707 160 C 764 207 793 264 793 332 C 793 406 764 461 706 499 C 648 537 569 570 469 600 C 379 626 294 664 215 714 C 135 764 96 845 96 958 C 96 1059 134 1142 212 1208 C 290 1274 388 1307 506 1307 C 579 1307 648 1297 713 1277 C 777 1257 837 1230 891 1196 L 844 1081 C 796 1113 742 1139 682 1159 C 622 1178 564 1188 508 1188 C 412 1188 340 1166 293 1122 C 246 1078 223 1027 223 969 C 223 898 252 845 311 811 C 370 776 449 743 547 713 C 638 685 723 645 801 593 C 879 541 918 457 918 342 C 918 237 877 149 797 79 C 716 8 612 -27 485 -27 C 409 -27 336 -16 266 5 C 196 26 132 55 74 92 L 121 209 C 171 174 227 145 289 123 C 350 101 417 90 489 90 Z" unicode="Ś" />
<glyph horiz-adv-x="793" d="M 678 1427 L 366 1061 L 272 1061 L 514 1427 L 678 1427 Z M 711 256 C 711 170 678 102 613 50 C 547 -1 468 -27 375 -27 C 319 -27 264 -19 209 -4 C 154 11 107 31 68 57 L 102 174 C 142 147 186 126 234 111 C 282 95 331 88 379 88 C 435 88 484 101 526 128 C 568 155 590 194 590 246 C 590 302 565 341 515 365 C 465 389 412 410 354 428 C 290 447 228 476 170 514 C 111 552 82 612 82 694 C 82 778 113 845 175 893 C 237 941 311 965 399 965 C 450 965 500 958 550 945 C 599 932 644 915 684 895 L 647 780 C 608 801 566 818 520 831 C 474 843 431 850 391 850 C 334 850 288 837 254 812 C 220 786 203 751 203 707 C 203 653 226 615 273 592 C 320 569 374 548 434 530 C 500 510 563 481 622 443 C 681 405 711 342 711 256 Z" unicode="ś" />
<glyph horiz-adv-x="1004" d="M 796 1403 L 699 1403 L 495 1679 L 493 1679 L 286 1403 L 189 1403 L 421 1776 L 564 1776 L 796 1403 Z M 489 90 C 577 90 650 113 707 160 C 764 207 793 264 793 332 C 793 406 764 461 706 499 C 648 537 569 570 469 600 C 379 626 294 664 215 714 C 135 764 96 845 96 958 C 96 1059 134 1142 212 1208 C 290 1274 388 1307 506 1307 C 579 1307 648 1297 713 1277 C 777 1257 837 1230 891 1196 L 844 1081 C 796 1113 742 1139 682 1159 C 622 1178 564 1188 508 1188 C 412 1188 340 1166 293 1122 C 246 1078 223 1027 223 969 C 223 898 252 845 311 811 C 370 776 449 743 547 713 C 638 685 723 645 801 593 C 879 541 918 457 918 342 C 918 237 877 149 797 79 C 716 8 612 -27 485 -27 C 409 -27 336 -16 266 5 C 196 26 132 55 74 92 L 121 209 C 171 174 227 145 289 123 C 350 101 417 90 489 90 Z" unicode="Ŝ" />
<glyph horiz-adv-x="793" d="M 704 1061 L 607 1061 L 403 1337 L 401 1337 L 194 1061 L 97 1061 L 329 1434 L 472 1434 L 704 1061 Z M 711 256 C 711 170 678 102 613 50 C 547 -1 468 -27 375 -27 C 319 -27 264 -19 209 -4 C 154 11 107 31 68 57 L 102 174 C 142 147 186 126 234 111 C 282 95 331 88 379 88 C 435 88 484 101 526 128 C 568 155 590 194 590 246 C 590 302 565 341 515 365 C 465 389 412 410 354 428 C 290 447 228 476 170 514 C 111 552 82 612 82 694 C 82 778 113 845 175 893 C 237 941 311 965 399 965 C 450 965 500 958 550 945 C 599 932 644 915 684 895 L 647 780 C 608 801 566 818 520 831 C 474 843 431 850 391 850 C 334 850 288 837 254 812 C 220 786 203 751 203 707 C 203 653 226 615 273 592 C 320 569 374 548 434 530 C 500 510 563 481 622 443 C 681 405 711 342 711 256 Z" unicode="ŝ" />
<glyph horiz-adv-x="1004" d="M 461 -139 C 533 -136 592 -149 640 -178 C 687 -207 711 -250 711 -307 C 711 -363 684 -411 630 -452 C 576 -493 494 -520 383 -532 L 373 -446 C 451 -442 509 -428 549 -405 C 588 -382 608 -353 608 -317 C 608 -273 584 -244 536 -230 C 488 -215 423 -215 340 -231 L 328 -170 L 473 -27 C 399 -25 328 -14 260 7 C 192 28 130 56 74 92 L 121 209 C 171 174 227 145 289 123 C 350 101 417 90 489 90 C 577 90 650 113 707 160 C 764 207 793 264 793 332 C 793 406 764 461 706 499 C 648 537 569 570 469 600 C 379 626 294 664 215 714 C 135 764 96 845 96 958 C 96 1059 134 1142 212 1208 C 290 1274 388 1307 506 1307 C 579 1307 648 1297 713 1277 C 777 1257 837 1230 891 1196 L 844 1081 C 796 1113 742 1139 682 1159 C 622 1178 564 1188 508 1188 C 412 1188 340 1166 293 1122 C 246 1078 223 1027 223 969 C 223 898 252 845 311 811 C 370 776 449 743 547 713 C 638 685 723 645 801 593 C 879 541 918 457 918 342 C 918 251 887 173 825 107 C 763 41 683 0 584 -18 L 461 -139 Z" unicode="Ş" />
<glyph horiz-adv-x="793" d="M 317 -139 C 389 -136 449 -149 496 -178 C 543 -207 567 -250 567 -307 C 567 -363 540 -411 486 -452 C 432 -493 350 -520 240 -532 L 229 -446 C 307 -442 366 -428 406 -405 C 445 -382 465 -353 465 -317 C 465 -273 441 -244 393 -230 C 345 -215 280 -215 197 -231 L 184 -170 L 332 -25 C 282 -21 235 -12 189 2 C 143 16 102 35 68 57 L 102 174 C 142 147 186 126 234 111 C 282 95 331 88 379 88 C 435 88 484 101 526 128 C 568 155 590 194 590 246 C 590 302 565 341 515 365 C 465 389 412 410 354 428 C 290 447 228 476 170 514 C 111 552 82 612 82 694 C 82 778 113 845 175 893 C 237 941 311 965 399 965 C 450 965 500 958 550 945 C 599 932 644 915 684 895 L 647 780 C 608 801 566 818 520 831 C 474 843 431 850 391 850 C 334 850 288 837 254 812 C 220 786 203 751 203 707 C 203 653 226 615 273 592 C 320 569 374 548 434 530 C 500 510 563 481 622 443 C 681 405 711 342 711 256 C 711 179 684 116 632 67 C 580 18 514 -11 436 -23 L 317 -139 Z" unicode="ş" />
<glyph horiz-adv-x="1004" d="M 489 90 C 577 90 650 113 707 160 C 764 207 793 264 793 332 C 793 406 764 461 706 499 C 648 537 569 570 469 600 C 379 626 294 664 215 714 C 135 764 96 845 96 958 C 96 1059 134 1142 212 1208 C 290 1274 388 1307 506 1307 C 579 1307 648 1297 713 1277 C 777 1257 837 1230 891 1196 L 844 1081 C 796 1113 742 1139 682 1159 C 622 1178 564 1188 508 1188 C 412 1188 340 1166 293 1122 C 246 1078 223 1027 223 969 C 223 898 252 845 311 811 C 370 776 449 743 547 713 C 638 685 723 645 801 593 C 879 541 918 457 918 342 C 918 237 877 149 797 79 C 716 8 612 -27 485 -27 C 409 -27 336 -16 266 5 C 196 26 132 55 74 92 L 121 209 C 171 174 227 145 289 123 C 350 101 417 90 489 90 Z M 807 1765 L 575 1393 L 432 1393 L 200 1765 L 297 1765 L 502 1487 L 504 1487 L 710 1765 L 807 1765 Z" unicode="Š" />
<glyph horiz-adv-x="793" d="M 711 256 C 711 170 678 102 613 50 C 547 -1 468 -27 375 -27 C 319 -27 264 -19 209 -4 C 154 11 107 31 68 57 L 102 174 C 142 147 186 126 234 111 C 282 95 331 88 379 88 C 435 88 484 101 526 128 C 568 155 590 194 590 246 C 590 302 565 341 515 365 C 465 389 412 410 354 428 C 290 447 228 476 170 514 C 111 552 82 612 82 694 C 82 778 113 845 175 893 C 237 941 311 965 399 965 C 450 965 500 958 550 945 C 599 932 644 915 684 895 L 647 780 C 608 801 566 818 520 831 C 474 843 431 850 391 850 C 334 850 288 837 254 812 C 220 786 203 751 203 707 C 203 653 226 615 273 592 C 320 569 374 548 434 530 C 500 510 563 481 622 443 C 681 405 711 342 711 256 Z M 700 1423 L 468 1051 L 325 1051 L 93 1423 L 190 1423 L 395 1145 L 397 1145 L 603 1423 L 700 1423 Z" unicode="š" />
<glyph horiz-adv-x="1126" d="M 456 -195 C 457 -173 466 -153 484 -136 C 501 -119 524 -111 554 -111 C 588 -111 617 -123 641 -149 C 665 -174 677 -206 677 -244 C 677 -296 659 -344 624 -390 C 588 -436 543 -476 489 -512 L 442 -471 C 492 -434 524 -402 539 -374 C 553 -346 561 -320 561 -297 C 561 -271 553 -251 537 -236 C 521 -221 494 -207 456 -195 Z M 1079 1157 L 629 1157 L 629 0 L 498 0 L 498 1157 L 47 1157 L 47 1280 L 1079 1280 L 1079 1157 Z" unicode="Ţ" />
<glyph horiz-adv-x="674" d="M 280 -195 C 281 -173 290 -153 308 -136 C 325 -119 348 -111 378 -111 C 412 -111 441 -123 465 -149 C 489 -174 501 -206 501 -244 C 501 -296 483 -344 448 -390 C 412 -436 367 -476 313 -512 L 266 -471 C 316 -434 348 -402 363 -374 C 377 -346 385 -320 385 -297 C 385 -271 377 -251 361 -236 C 345 -221 318 -207 280 -195 Z M 614 18 C 581 3 546 -8 510 -17 C 474 -26 439 -31 406 -31 C 317 -31 252 -6 211 43 C 169 92 150 166 154 264 L 168 819 L 25 827 L 31 907 L 172 940 L 178 1153 L 299 1153 L 293 934 L 606 934 L 600 821 L 289 821 L 274 260 C 272 200 282 156 304 127 C 326 98 362 84 412 84 C 442 84 472 88 503 97 C 533 106 563 117 592 129 L 614 18 Z" unicode="ţ" />
<glyph horiz-adv-x="1126" d="M 868 1765 L 636 1393 L 493 1393 L 261 1765 L 358 1765 L 563 1487 L 565 1487 L 771 1765 L 868 1765 Z M 1079 1157 L 629 1157 L 629 0 L 498 0 L 498 1157 L 47 1157 L 47 1280 L 1079 1280 L 1079 1157 Z" unicode="Ť" />
<glyph horiz-adv-x="674" d="M 415 1386 C 417 1412 427 1436 446 1457 C 465 1478 491 1489 525 1489 C 561 1489 595 1474 625 1444 C 655 1414 671 1375 671 1327 C 671 1258 646 1193 596 1133 C 546 1072 486 1019 417 975 L 362 1026 C 426 1072 472 1116 500 1156 C 528 1196 542 1234 542 1271 C 542 1297 532 1318 512 1335 C 492 1351 459 1368 415 1386 Z M 614 18 C 581 3 546 -8 510 -17 C 474 -26 439 -31 406 -31 C 317 -31 252 -6 211 43 C 169 92 150 166 154 264 L 168 819 L 25 827 L 31 907 L 172 940 L 178 1153 L 299 1153 L 293 934 L 606 934 L 600 821 L 289 821 L 274 260 C 272 200 282 156 304 127 C 326 98 362 84 412 84 C 442 84 472 88 503 97 C 533 106 563 117 592 129 L 614 18 Z" unicode="ť" />
<glyph horiz-adv-x="1262" d="M 1114 489 C 1114 331 1072 206 990 113 C 908 19 787 -27 629 -27 C 475 -27 357 18 274 108 C 191 198 150 318 150 469 L 150 1280 L 276 1280 L 276 485 C 276 364 306 269 367 199 C 427 129 517 94 635 94 C 748 94 835 127 895 195 C 955 262 985 359 985 487 L 985 1280 L 1114 1280 L 1114 489 Z M 895 1440 L 373 1440 L 379 1532 L 887 1532 L 895 1440 Z" unicode="Ū" />
<glyph horiz-adv-x="1032" d="M 139 938 L 266 938 L 266 332 C 266 250 282 190 316 152 C 350 113 401 94 469 94 C 523 94 575 106 625 131 C 675 156 720 188 758 227 L 758 938 L 885 938 L 885 0 L 758 -27 L 758 125 C 710 76 657 38 599 12 C 541 -13 486 -27 434 -27 C 343 -27 271 1 218 57 C 165 113 139 193 139 295 L 139 938 Z M 770 1098 L 248 1098 L 254 1190 L 762 1190 L 770 1098 Z" unicode="ū" />
<glyph horiz-adv-x="1262" d="M 1114 489 C 1114 331 1072 206 990 113 C 908 19 787 -27 629 -27 C 475 -27 357 18 274 108 C 191 198 150 318 150 469 L 150 1280 L 276 1280 L 276 485 C 276 364 306 269 367 199 C 427 129 517 94 635 94 C 748 94 835 127 895 195 C 955 262 985 359 985 487 L 985 1280 L 1114 1280 L 1114 489 Z M 940 1774 C 923 1680 891 1594 844 1517 C 797 1439 727 1401 635 1401 C 542 1401 472 1439 425 1517 C 377 1594 345 1680 329 1774 L 430 1774 C 450 1687 476 1620 509 1572 C 541 1524 583 1501 635 1501 C 685 1501 727 1524 760 1572 C 793 1620 819 1687 839 1774 L 940 1774 Z" unicode="Ŭ" />
<glyph horiz-adv-x="1032" d="M 139 938 L 266 938 L 266 332 C 266 250 282 190 316 152 C 350 113 401 94 469 94 C 523 94 575 106 625 131 C 675 156 720 188 758 227 L 758 938 L 885 938 L 885 0 L 758 -27 L 758 125 C 710 76 657 38 599 12 C 541 -13 486 -27 434 -27 C 343 -27 271 1 218 57 C 165 113 139 193 139 295 L 139 938 Z M 809 1432 C 792 1338 760 1252 713 1175 C 666 1097 596 1059 504 1059 C 411 1059 341 1097 294 1175 C 246 1252 214 1338 198 1432 L 299 1432 C 319 1345 345 1278 378 1230 C 410 1182 452 1159 504 1159 C 554 1159 596 1182 629 1230 C 662 1278 688 1345 708 1432 L 809 1432 Z" unicode="ŭ" />
<glyph horiz-adv-x="1262" d="M 876 1587 C 876 1529 854 1479 811 1438 C 767 1396 708 1376 633 1376 C 558 1376 499 1396 456 1438 C 412 1479 391 1529 391 1587 C 391 1643 412 1693 456 1736 C 499 1778 558 1800 633 1800 C 708 1800 767 1778 810 1736 C 853 1693 875 1643 876 1587 Z M 786 1585 C 786 1622 772 1655 744 1683 C 716 1711 679 1726 633 1726 C 587 1726 551 1712 524 1685 C 496 1657 483 1625 483 1589 C 483 1551 496 1518 524 1490 C 551 1462 587 1449 633 1449 C 679 1449 716 1462 744 1489 C 772 1516 786 1548 786 1585 Z M 1114 489 C 1114 331 1072 206 990 113 C 908 19 787 -27 629 -27 C 475 -27 357 18 274 108 C 191 198 150 318 150 469 L 150 1280 L 276 1280 L 276 485 C 276 364 306 269 367 199 C 427 129 517 94 635 94 C 748 94 835 127 895 195 C 955 262 985 359 985 487 L 985 1280 L 1114 1280 L 1114 489 Z" unicode="Ů" />
<glyph horiz-adv-x="1032" d="M 751 1266 C 751 1208 729 1158 686 1117 C 642 1075 583 1055 508 1055 C 433 1055 374 1075 331 1117 C 287 1158 266 1208 266 1266 C 266 1322 287 1372 331 1415 C 374 1457 433 1479 508 1479 C 583 1479 642 1457 685 1415 C 728 1372 750 1322 751 1266 Z M 661 1264 C 661 1301 647 1334 619 1362 C 591 1390 554 1405 508 1405 C 462 1405 426 1391 399 1364 C 371 1336 358 1304 358 1268 C 358 1230 371 1197 399 1169 C 426 1141 462 1128 508 1128 C 554 1128 591 1141 619 1168 C 647 1195 661 1227 661 1264 Z M 139 938 L 266 938 L 266 332 C 266 250 282 190 316 152 C 350 113 401 94 469 94 C 523 94 575 106 625 131 C 675 156 720 188 758 227 L 758 938 L 885 938 L 885 0 L 758 -27 L 758 125 C 710 76 657 38 599 12 C 541 -13 486 -27 434 -27 C 343 -27 271 1 218 57 C 165 113 139 193 139 295 L 139 938 Z" unicode="ů" />
<glyph horiz-adv-x="1262" d="M 1114 489 C 1114 331 1072 206 990 113 C 908 19 787 -27 629 -27 C 475 -27 357 18 274 108 C 191 198 150 318 150 469 L 150 1280 L 276 1280 L 276 485 C 276 364 306 269 367 199 C 427 129 517 94 635 94 C 748 94 835 127 895 195 C 955 262 985 359 985 487 L 985 1280 L 1114 1280 L 1114 489 Z M 727 1755 L 463 1393 L 358 1393 L 592 1755 L 727 1755 Z M 1069 1755 L 780 1393 L 676 1393 L 934 1755 L 1069 1755 Z" unicode="Ű" />
<glyph horiz-adv-x="1032" d="M 139 938 L 266 938 L 266 332 C 266 250 282 190 316 152 C 350 113 401 94 469 94 C 523 94 575 106 625 131 C 675 156 720 188 758 227 L 758 938 L 885 938 L 885 0 L 758 -27 L 758 125 C 710 76 657 38 599 12 C 541 -13 486 -27 434 -27 C 343 -27 271 1 218 57 C 165 113 139 193 139 295 L 139 938 Z M 606 1413 L 342 1051 L 237 1051 L 471 1413 L 606 1413 Z M 948 1413 L 659 1051 L 555 1051 L 813 1413 L 948 1413 Z" unicode="ű" />
<glyph horiz-adv-x="1262" d="M 1114 489 C 1114 377 1094 282 1054 206 C 1014 129 956 68 881 23 C 825 -11 782 -48 753 -90 C 723 -132 709 -175 709 -219 C 709 -251 717 -277 735 -297 C 752 -316 775 -326 805 -326 C 822 -326 840 -322 859 -316 C 877 -309 893 -301 907 -291 L 940 -387 C 922 -400 899 -412 871 -422 C 843 -432 812 -438 778 -438 C 723 -438 677 -421 640 -388 C 602 -354 584 -310 584 -254 C 584 -206 596 -162 621 -122 C 646 -82 677 -48 713 -20 C 699 -21 686 -22 672 -24 C 658 -26 644 -27 629 -27 C 475 -27 357 18 274 108 C 191 198 150 318 150 469 L 150 1280 L 276 1280 L 276 485 C 276 364 306 269 367 199 C 427 129 517 94 635 94 C 748 94 835 127 895 195 C 955 262 985 359 985 487 L 985 1280 L 1114 1280 L 1114 489 Z" unicode="Ų" />
<glyph horiz-adv-x="1032" d="M 141 938 L 266 938 L 266 332 C 266 250 282 190 316 152 C 350 113 401 94 469 94 C 523 94 575 106 626 131 C 676 156 721 188 760 227 L 760 938 L 885 938 L 885 2 C 825 -13 770 -43 720 -89 C 670 -135 645 -178 645 -219 C 645 -251 653 -277 671 -297 C 688 -316 711 -326 741 -326 C 758 -326 776 -322 795 -316 C 814 -309 830 -301 844 -291 L 877 -387 C 858 -400 835 -412 808 -422 C 780 -432 749 -438 715 -438 C 659 -438 613 -421 576 -388 C 538 -354 520 -310 520 -254 C 520 -184 545 -125 596 -75 C 647 -25 702 12 760 39 L 760 127 C 710 78 657 40 599 13 C 541 -13 486 -27 434 -27 C 343 -27 271 1 219 57 C 167 113 141 193 141 295 L 141 938 Z" unicode="ų" />
<glyph horiz-adv-x="1833" d="M 1225 1403 L 1128 1403 L 924 1679 L 922 1679 L 715 1403 L 618 1403 L 850 1776 L 993 1776 L 1225 1403 Z M 920 1126 L 573 0 L 449 0 L 84 1280 L 219 1280 L 518 186 L 844 1280 L 999 1280 L 1331 186 L 1618 1280 L 1749 1280 L 1391 0 L 1264 0 L 920 1126 Z" unicode="Ŵ" />
<glyph horiz-adv-x="1356" d="M 991 1061 L 894 1061 L 690 1337 L 688 1337 L 481 1061 L 384 1061 L 616 1434 L 759 1434 L 991 1061 Z M 428 -4 L 317 -4 L 31 938 L 166 938 L 383 190 L 627 936 L 741 936 L 997 186 L 1192 938 L 1331 938 L 1053 -4 L 940 -4 L 684 754 L 428 -4 Z" unicode="ŵ" />
<glyph horiz-adv-x="1073" d="M 1049 1280 L 602 514 L 602 0 L 471 0 L 471 514 L 25 1280 L 172 1280 L 541 643 L 903 1280 L 1049 1280 Z M 844 1403 L 747 1403 L 543 1679 L 541 1679 L 334 1403 L 237 1403 L 469 1776 L 612 1776 L 844 1403 Z" unicode="Ŷ" />
<glyph horiz-adv-x="868" d="M 860 938 L 496 10 L 420 -193 C 377 -307 331 -384 283 -425 C 235 -466 179 -487 117 -487 C 81 -487 48 -483 20 -475 C -8 -467 -37 -456 -66 -444 L -27 -328 C -4 -340 19 -349 43 -357 C 67 -365 91 -369 117 -369 C 152 -369 184 -355 214 -327 C 244 -299 275 -240 309 -152 L 373 14 L 6 938 L 143 938 L 438 164 L 727 938 L 860 938 Z M 741 1061 L 644 1061 L 440 1337 L 438 1337 L 231 1061 L 134 1061 L 366 1434 L 509 1434 L 741 1061 Z" unicode="ŷ" />
<glyph horiz-adv-x="1073" d="M 1049 1280 L 602 514 L 602 0 L 471 0 L 471 514 L 25 1280 L 172 1280 L 541 643 L 903 1280 L 1049 1280 Z M 438 1556 C 438 1528 429 1504 411 1484 C 393 1464 369 1454 340 1454 C 311 1454 288 1464 270 1484 C 252 1504 244 1528 244 1556 C 244 1582 252 1606 270 1626 C 288 1646 311 1657 340 1657 C 369 1657 393 1646 411 1626 C 429 1606 438 1582 438 1556 Z M 834 1556 C 834 1528 825 1504 807 1484 C 789 1464 765 1454 737 1454 C 707 1454 683 1464 665 1484 C 646 1504 637 1528 637 1556 C 637 1582 646 1606 665 1626 C 683 1646 707 1657 737 1657 C 765 1657 789 1646 807 1626 C 825 1606 834 1582 834 1556 Z" unicode="Ÿ" />
<glyph horiz-adv-x="1044" d="M 790 1769 L 478 1403 L 384 1403 L 626 1769 L 790 1769 Z M 971 0 L 49 0 L 49 96 L 809 1161 L 72 1161 L 72 1280 L 973 1280 L 973 1182 L 213 119 L 971 119 L 971 0 Z" unicode="Ź" />
<glyph horiz-adv-x="803" d="M 694 1427 L 382 1061 L 288 1061 L 530 1427 L 694 1427 Z M 754 0 L 43 0 L 43 100 L 602 825 L 61 825 L 61 938 L 754 938 L 754 840 L 195 113 L 754 113 L 754 0 Z" unicode="ź" />
<glyph horiz-adv-x="1044" d="M 971 0 L 49 0 L 49 96 L 809 1161 L 72 1161 L 72 1280 L 973 1280 L 973 1182 L 213 119 L 971 119 L 971 0 Z M 608 1554 C 608 1528 599 1504 581 1484 C 563 1464 540 1454 512 1454 C 483 1454 460 1464 443 1484 C 425 1504 417 1528 417 1554 C 417 1580 425 1603 443 1623 C 460 1643 483 1653 512 1653 C 540 1653 563 1643 581 1623 C 599 1603 608 1580 608 1554 Z" unicode="Ż" />
<glyph horiz-adv-x="803" d="M 754 0 L 43 0 L 43 100 L 602 825 L 61 825 L 61 938 L 754 938 L 754 840 L 195 113 L 754 113 L 754 0 Z M 503 1212 C 503 1186 494 1162 476 1142 C 458 1122 435 1112 407 1112 C 378 1112 355 1122 338 1142 C 320 1162 312 1186 312 1212 C 312 1238 320 1261 338 1281 C 355 1301 378 1311 407 1311 C 435 1311 458 1301 476 1281 C 494 1261 503 1238 503 1212 Z" unicode="ż" />
<glyph horiz-adv-x="1044" d="M 971 0 L 49 0 L 49 96 L 809 1161 L 72 1161 L 72 1280 L 973 1280 L 973 1182 L 213 119 L 971 119 L 971 0 Z M 821 1765 L 589 1393 L 446 1393 L 214 1765 L 311 1765 L 516 1487 L 518 1487 L 724 1765 L 821 1765 Z" unicode="Ž" />
<glyph horiz-adv-x="803" d="M 754 0 L 43 0 L 43 100 L 602 825 L 61 825 L 61 938 L 754 938 L 754 840 L 195 113 L 754 113 L 754 0 Z M 700 1423 L 468 1051 L 325 1051 L 93 1423 L 190 1423 L 395 1145 L 397 1145 L 603 1423 L 700 1423 Z" unicode="ž" />
<glyph horiz-adv-x="735" d="M 178 268 L 262 702 L 53 713 L 72 793 L 285 823 L 319 993 C 341 1095 375 1170 423 1219 C 470 1267 532 1292 608 1292 C 648 1292 685 1285 720 1273 C 754 1260 784 1245 809 1227 C 809 1225 800 1207 782 1172 C 764 1137 756 1120 756 1120 C 733 1135 709 1148 684 1158 C 659 1168 633 1174 606 1174 C 561 1174 525 1158 499 1126 C 473 1094 453 1046 440 981 L 406 817 L 649 817 L 635 705 L 385 705 L 297 256 C 281 169 251 103 207 57 C 163 11 98 -20 14 -37 L -14 80 C 46 90 91 110 120 142 C 149 173 168 215 178 268 Z" unicode="ƒ" />
<glyph horiz-adv-x="1178" d="M 809 2033 L 497 1667 L 403 1667 L 645 2033 L 809 2033 Z M 489 1214 C 447 1230 413 1256 388 1291 C 362 1325 350 1364 350 1407 C 350 1464 371 1514 415 1556 C 459 1598 518 1620 592 1620 C 665 1620 723 1598 766 1556 C 809 1514 832 1464 834 1407 C 834 1364 821 1325 797 1291 C 772 1256 738 1230 694 1214 L 1147 0 L 1014 0 L 879 367 L 301 367 L 164 0 L 31 0 L 489 1214 Z M 745 1405 C 745 1443 731 1476 703 1504 C 675 1532 638 1546 592 1546 C 545 1546 508 1532 481 1505 C 453 1477 440 1445 440 1409 C 440 1371 453 1338 481 1311 C 508 1283 545 1270 592 1270 C 638 1270 675 1283 703 1310 C 731 1336 745 1368 745 1405 Z M 836 485 L 592 1151 L 344 485 L 836 485 Z" unicode="Ǻ" />
<glyph horiz-adv-x="899" d="M 645 113 L 639 113 C 607 74 567 41 519 14 C 471 -13 419 -27 365 -27 C 279 -27 208 -2 152 47 C 96 97 68 159 68 233 C 68 317 108 391 189 454 C 270 517 419 555 637 567 L 637 623 C 637 696 619 751 584 789 C 549 827 493 846 416 846 C 364 846 310 834 253 812 C 196 789 148 763 109 733 L 80 852 C 122 881 175 907 239 930 C 303 953 366 965 428 965 C 536 965 619 938 677 885 C 735 832 764 747 764 629 L 764 178 C 764 144 769 120 780 105 C 791 89 817 82 858 84 L 850 -20 C 788 -24 741 -15 707 8 C 673 32 652 67 645 113 Z M 637 207 L 637 481 C 477 463 364 435 299 397 C 233 359 201 310 201 248 C 201 198 219 158 256 128 C 292 98 338 84 393 84 C 443 84 489 96 531 121 C 573 145 608 174 637 207 Z M 682 1885 L 370 1519 L 276 1519 L 518 1885 L 682 1885 Z M 671 1266 C 671 1208 649 1158 606 1117 C 562 1075 503 1055 428 1055 C 353 1055 294 1075 251 1117 C 207 1158 186 1208 186 1266 C 186 1322 207 1372 251 1415 C 294 1457 353 1479 428 1479 C 503 1479 562 1457 605 1415 C 648 1372 670 1322 671 1266 Z M 581 1264 C 581 1301 567 1334 539 1362 C 511 1390 474 1405 428 1405 C 382 1405 346 1391 319 1364 C 291 1336 278 1304 278 1268 C 278 1230 291 1197 319 1169 C 346 1141 382 1128 428 1128 C 474 1128 511 1141 539 1168 C 567 1195 581 1227 581 1264 Z" unicode="ǻ" />
<glyph horiz-adv-x="1675" d="M 1364 1769 L 1052 1403 L 958 1403 L 1200 1769 L 1364 1769 Z M 344 356 L 141 0 L 2 0 L 735 1280 L 1581 1280 L 1581 1159 L 938 1159 L 938 702 L 1475 702 L 1475 582 L 938 582 L 938 121 L 1581 121 L 1581 0 L 807 0 L 807 356 L 344 356 Z M 414 477 L 807 477 L 807 1165 L 414 477 Z" unicode="Ǽ" />
<glyph horiz-adv-x="1509" d="M 1052 1427 L 740 1061 L 646 1061 L 888 1427 L 1052 1427 Z M 709 174 C 671 118 619 70 553 31 C 487 -7 418 -27 348 -27 C 263 -27 195 -2 144 47 C 93 97 68 157 68 227 C 68 317 110 392 195 453 C 279 514 427 549 637 557 L 639 608 C 641 690 623 749 585 787 C 547 825 490 844 412 844 C 360 844 307 833 254 811 C 200 789 153 763 113 733 L 78 846 C 118 875 169 902 231 927 C 293 952 356 965 422 965 C 505 965 572 949 624 919 C 676 888 711 843 729 784 C 765 838 813 881 873 915 C 933 948 999 965 1073 965 C 1176 965 1259 933 1321 870 C 1383 807 1415 723 1415 618 C 1415 594 1413 568 1409 541 C 1405 513 1401 489 1395 469 L 760 465 L 760 455 C 762 349 792 262 852 194 C 911 126 989 92 1087 92 C 1138 92 1187 99 1235 113 C 1282 127 1324 146 1360 170 L 1384 53 C 1344 29 1299 9 1248 -5 C 1196 -19 1141 -27 1083 -27 C 1001 -27 927 -8 862 27 C 797 63 746 112 709 174 Z M 635 469 C 473 457 359 432 295 392 C 231 352 199 302 199 242 C 199 192 215 154 249 128 C 283 101 327 88 381 88 C 427 88 477 101 532 129 C 586 157 633 196 672 246 C 661 272 652 307 645 352 C 638 397 635 436 635 469 Z M 768 565 L 1288 567 C 1289 572 1290 579 1291 588 C 1291 596 1292 603 1292 608 C 1292 679 1272 737 1233 782 C 1194 827 1138 850 1065 850 C 981 850 913 821 861 765 C 809 709 778 642 768 565 Z" unicode="ǽ" />
<glyph horiz-adv-x="1452" d="M 1358 645 C 1358 451 1298 291 1179 164 C 1060 36 910 -27 729 -27 C 676 -27 625 -20 575 -8 C 525 4 478 21 436 43 L 334 -137 L 227 -137 C 227 -137 248 -99 292 -23 C 336 52 358 89 358 88 C 280 146 217 222 170 316 C 123 410 100 517 100 637 C 100 831 159 992 279 1118 C 398 1244 549 1307 731 1307 C 784 1307 835 1300 884 1288 C 933 1275 979 1258 1022 1237 L 1126 1417 L 1233 1417 L 1102 1192 C 1179 1134 1241 1059 1288 965 C 1334 871 1358 764 1358 645 Z M 963 1133 C 928 1151 891 1165 851 1175 C 811 1185 769 1190 725 1190 C 582 1190 464 1139 371 1038 C 277 937 231 806 231 645 C 231 549 248 462 283 386 C 317 310 364 247 422 199 L 963 1133 Z M 1038 1081 L 496 147 C 531 129 568 115 608 105 C 647 95 689 90 733 90 C 875 90 993 140 1086 242 C 1178 344 1225 475 1225 637 C 1225 731 1208 817 1174 894 C 1140 971 1095 1033 1038 1081 Z M 1071 1769 L 759 1403 L 665 1403 L 907 1769 L 1071 1769 Z" unicode="Ǿ" />
<glyph horiz-adv-x="1087" d="M 1004 471 C 1004 322 959 202 870 110 C 781 18 672 -27 543 -27 C 507 -27 471 -23 437 -15 C 403 -7 371 4 342 18 L 252 -137 L 143 -137 C 143 -137 162 -102 202 -33 C 242 35 261 70 260 70 C 208 111 166 166 136 234 C 105 302 90 380 90 467 C 90 615 134 735 223 827 C 311 919 421 965 553 965 C 588 965 623 961 657 954 C 691 946 723 936 754 922 C 764 938 781 967 806 1011 C 831 1055 844 1077 844 1077 L 952 1077 L 834 870 C 885 827 926 771 957 703 C 988 635 1004 557 1004 471 Z M 694 817 C 672 828 649 836 624 842 C 598 847 572 850 545 850 C 446 850 366 814 306 743 C 245 671 215 581 215 471 C 215 407 224 349 244 299 C 263 248 290 206 324 174 L 694 817 Z M 879 467 C 879 530 869 587 849 637 C 829 687 803 730 770 764 L 399 121 C 421 111 445 103 470 97 C 495 91 521 88 549 88 C 647 88 727 123 788 195 C 848 266 879 357 879 467 Z M 829 1427 L 517 1061 L 423 1061 L 665 1427 L 829 1427 Z" unicode="ǿ" />
<glyph horiz-adv-x="1004" d="M 395 -195 C 396 -173 405 -153 423 -136 C 440 -119 463 -111 493 -111 C 527 -111 556 -123 580 -149 C 604 -174 616 -206 616 -244 C 616 -296 598 -344 563 -390 C 527 -436 482 -476 428 -512 L 381 -471 C 431 -434 463 -402 478 -374 C 492 -346 500 -320 500 -297 C 500 -271 492 -251 476 -236 C 460 -221 433 -207 395 -195 Z M 489 90 C 577 90 650 113 707 160 C 764 207 793 264 793 332 C 793 406 764 461 706 499 C 648 537 569 570 469 600 C 379 626 294 664 215 714 C 135 764 96 845 96 958 C 96 1059 134 1142 212 1208 C 290 1274 388 1307 506 1307 C 579 1307 648 1297 713 1277 C 777 1257 837 1230 891 1196 L 844 1081 C 796 1113 742 1139 682 1159 C 622 1178 564 1188 508 1188 C 412 1188 340 1166 293 1122 C 246 1078 223 1027 223 969 C 223 898 252 845 311 811 C 370 776 449 743 547 713 C 638 685 723 645 801 593 C 879 541 918 457 918 342 C 918 237 877 149 797 79 C 716 8 612 -27 485 -27 C 409 -27 336 -16 266 5 C 196 26 132 55 74 92 L 121 209 C 171 174 227 145 289 123 C 350 101 417 90 489 90 Z" unicode="Ș" />
<glyph horiz-adv-x="793" d="M 282 -195 C 283 -173 292 -153 310 -136 C 327 -119 350 -111 380 -111 C 414 -111 443 -123 467 -149 C 491 -174 503 -206 503 -244 C 503 -296 485 -344 450 -390 C 414 -436 369 -476 315 -512 L 268 -471 C 318 -434 350 -402 365 -374 C 379 -346 387 -320 387 -297 C 387 -271 379 -251 363 -236 C 347 -221 320 -207 282 -195 Z M 711 256 C 711 170 678 102 613 50 C 547 -1 468 -27 375 -27 C 319 -27 264 -19 209 -4 C 154 11 107 31 68 57 L 102 174 C 142 147 186 126 234 111 C 282 95 331 88 379 88 C 435 88 484 101 526 128 C 568 155 590 194 590 246 C 590 302 565 341 515 365 C 465 389 412 410 354 428 C 290 447 228 476 170 514 C 111 552 82 612 82 694 C 82 778 113 845 175 893 C 237 941 311 965 399 965 C 450 965 500 958 550 945 C 599 932 644 915 684 895 L 647 780 C 608 801 566 818 520 831 C 474 843 431 850 391 850 C 334 850 288 837 254 812 C 220 786 203 751 203 707 C 203 653 226 615 273 592 C 320 569 374 548 434 530 C 500 510 563 481 622 443 C 681 405 711 342 711 256 Z" unicode="ș" />
<glyph horiz-adv-x="1126" d="M 456 -195 C 457 -173 466 -153 484 -136 C 501 -119 524 -111 554 -111 C 588 -111 617 -123 641 -149 C 665 -174 677 -206 677 -244 C 677 -296 659 -344 624 -390 C 588 -436 543 -476 489 -512 L 442 -471 C 492 -434 524 -402 539 -374 C 553 -346 561 -320 561 -297 C 561 -271 553 -251 537 -236 C 521 -221 494 -207 456 -195 Z M 1079 1157 L 629 1157 L 629 0 L 498 0 L 498 1157 L 47 1157 L 47 1280 L 1079 1280 L 1079 1157 Z" unicode="Ț" />
<glyph horiz-adv-x="674" d="M 280 -195 C 281 -173 290 -153 308 -136 C 325 -119 348 -111 378 -111 C 412 -111 441 -123 465 -149 C 489 -174 501 -206 501 -244 C 501 -296 483 -344 448 -390 C 412 -436 367 -476 313 -512 L 266 -471 C 316 -434 348 -402 363 -374 C 377 -346 385 -320 385 -297 C 385 -271 377 -251 361 -236 C 345 -221 318 -207 280 -195 Z M 614 18 C 581 3 546 -8 510 -17 C 474 -26 439 -31 406 -31 C 317 -31 252 -6 211 43 C 169 92 150 166 154 264 L 168 819 L 25 827 L 31 907 L 172 940 L 178 1153 L 299 1153 L 293 934 L 606 934 L 600 821 L 289 821 L 274 260 C 272 200 282 156 304 127 C 326 98 362 84 412 84 C 442 84 472 88 503 97 C 533 106 563 117 592 129 L 614 18 Z" unicode="ț" />
<glyph horiz-adv-x="424" d="M 55 -512 L -33 -424 C 36 -388 84 -344 111 -293 C 138 -241 152 -166 152 -68 L 152 938 L 276 965 L 276 -68 C 276 -186 259 -279 225 -347 C 191 -415 135 -470 55 -512 Z" unicode="ȷ" />
<glyph horiz-adv-x="813" d="M 713 1061 L 616 1061 L 412 1337 L 410 1337 L 203 1061 L 106 1061 L 338 1434 L 481 1434 L 713 1061 Z" unicode="ˆ" />
<glyph horiz-adv-x="813" d="M 713 1423 L 481 1051 L 338 1051 L 106 1423 L 203 1423 L 408 1145 L 410 1145 L 616 1423 L 713 1423 Z" unicode="ˇ" />
<glyph horiz-adv-x="813" d="M 715 1432 C 698 1338 666 1252 619 1175 C 572 1097 502 1059 410 1059 C 317 1059 247 1097 200 1175 C 152 1252 120 1338 104 1432 L 205 1432 C 225 1345 251 1278 284 1230 C 316 1182 358 1159 410 1159 C 460 1159 502 1182 535 1230 C 568 1278 594 1345 614 1432 L 715 1432 Z" unicode="˘" />
<glyph horiz-adv-x="813" d="M 504 1212 C 504 1186 495 1162 477 1142 C 459 1122 436 1112 408 1112 C 379 1112 356 1122 339 1142 C 321 1162 313 1186 313 1212 C 313 1238 321 1261 339 1281 C 356 1301 379 1311 408 1311 C 436 1311 459 1301 477 1281 C 495 1261 504 1238 504 1212 Z" unicode="˙" />
<glyph horiz-adv-x="813" d="M 653 1266 C 653 1208 631 1158 588 1117 C 544 1075 485 1055 410 1055 C 335 1055 276 1075 233 1117 C 189 1158 168 1208 168 1266 C 168 1322 189 1372 233 1415 C 276 1457 335 1479 410 1479 C 485 1479 544 1457 587 1415 C 630 1372 652 1322 653 1266 Z M 563 1264 C 563 1301 549 1334 521 1362 C 493 1390 456 1405 410 1405 C 364 1405 328 1391 301 1364 C 273 1336 260 1304 260 1268 C 260 1230 273 1197 301 1169 C 328 1141 364 1128 410 1128 C 456 1128 493 1141 521 1168 C 549 1195 563 1227 563 1264 Z" unicode="˚" />
<glyph horiz-adv-x="813" d="M 623 -436 C 595 -456 563 -473 528 -486 C 493 -499 457 -506 420 -506 C 356 -506 302 -486 256 -447 C 210 -408 188 -358 188 -297 C 188 -225 219 -158 281 -94 C 343 -30 421 16 516 47 L 629 47 C 519 -1 436 -54 380 -112 C 323 -170 295 -229 295 -289 C 295 -327 308 -358 334 -381 C 360 -404 393 -416 434 -416 C 463 -416 492 -410 521 -400 C 549 -390 578 -376 608 -360 L 623 -436 Z" unicode="˛" />
<glyph horiz-adv-x="813" d="M 741 1305 C 730 1225 710 1165 681 1127 C 651 1088 611 1069 559 1069 C 499 1069 443 1093 389 1141 C 335 1189 289 1214 252 1214 C 231 1214 214 1204 200 1186 C 186 1168 173 1133 160 1081 L 76 1081 C 87 1161 107 1220 136 1259 C 165 1297 206 1317 258 1317 C 317 1317 374 1292 429 1243 C 484 1193 530 1169 567 1169 C 586 1169 603 1178 617 1197 C 631 1215 645 1251 657 1305 L 741 1305 Z" unicode="˜" />
<glyph horiz-adv-x="813" d="M 506 1413 L 242 1051 L 137 1051 L 371 1413 L 506 1413 Z M 848 1413 L 559 1051 L 455 1051 L 713 1413 L 848 1413 Z" unicode="˝" />
<glyph horiz-adv-x="1040" d="M 274 938 L 274 340 C 274 253 299 190 351 152 C 403 113 461 94 526 94 C 579 94 632 111 686 146 C 739 181 766 245 766 338 L 766 938 L 893 938 L 893 0 L 766 0 L 766 111 C 733 61 696 25 654 5 C 612 -14 569 -25 524 -25 C 479 -25 435 -16 393 2 C 350 20 310 55 274 109 L 274 -477 L 147 -477 L 147 938 L 274 938 Z" unicode="μ" />
<glyph horiz-adv-x="1833" d="M 920 1126 L 573 0 L 449 0 L 84 1280 L 219 1280 L 518 186 L 844 1280 L 999 1280 L 1331 186 L 1618 1280 L 1749 1280 L 1391 0 L 1264 0 L 920 1126 Z M 997 1382 L 903 1382 L 591 1748 L 755 1748 L 997 1382 Z" unicode="Ẁ" />
<glyph horiz-adv-x="1356" d="M 428 -4 L 317 -4 L 31 938 L 166 938 L 383 190 L 627 936 L 741 936 L 997 186 L 1192 938 L 1331 938 L 1053 -4 L 940 -4 L 684 754 L 428 -4 Z M 735 1061 L 641 1061 L 329 1427 L 493 1427 L 735 1061 Z" unicode="ẁ" />
<glyph horiz-adv-x="1833" d="M 1263 1769 L 951 1403 L 857 1403 L 1099 1769 L 1263 1769 Z M 920 1126 L 573 0 L 449 0 L 84 1280 L 219 1280 L 518 186 L 844 1280 L 999 1280 L 1331 186 L 1618 1280 L 1749 1280 L 1391 0 L 1264 0 L 920 1126 Z" unicode="Ẃ" />
<glyph horiz-adv-x="1356" d="M 1018 1427 L 706 1061 L 612 1061 L 854 1427 L 1018 1427 Z M 428 -4 L 317 -4 L 31 938 L 166 938 L 383 190 L 627 936 L 741 936 L 997 186 L 1192 938 L 1331 938 L 1053 -4 L 940 -4 L 684 754 L 428 -4 Z" unicode="ẃ" />
<glyph horiz-adv-x="1833" d="M 821 1556 C 821 1528 812 1504 794 1484 C 776 1464 752 1454 723 1454 C 694 1454 671 1464 653 1484 C 635 1504 627 1528 627 1556 C 627 1582 635 1606 653 1626 C 671 1646 694 1657 723 1657 C 752 1657 776 1646 794 1626 C 812 1606 821 1582 821 1556 Z M 1217 1556 C 1217 1528 1208 1504 1190 1484 C 1172 1464 1148 1454 1120 1454 C 1090 1454 1066 1464 1048 1484 C 1029 1504 1020 1528 1020 1556 C 1020 1582 1029 1606 1048 1626 C 1066 1646 1090 1657 1120 1657 C 1148 1657 1172 1646 1190 1626 C 1208 1606 1217 1582 1217 1556 Z M 920 1126 L 573 0 L 449 0 L 84 1280 L 219 1280 L 518 186 L 844 1280 L 999 1280 L 1331 186 L 1618 1280 L 1749 1280 L 1391 0 L 1264 0 L 920 1126 Z" unicode="Ẅ" />
<glyph horiz-adv-x="1356" d="M 585 1214 C 585 1186 576 1162 558 1142 C 540 1122 516 1112 487 1112 C 458 1112 435 1122 417 1142 C 399 1162 391 1186 391 1214 C 391 1240 399 1264 417 1284 C 435 1304 458 1315 487 1315 C 516 1315 540 1304 558 1284 C 576 1264 585 1240 585 1214 Z M 981 1214 C 981 1186 972 1162 954 1142 C 936 1122 912 1112 884 1112 C 854 1112 830 1122 812 1142 C 793 1162 784 1186 784 1214 C 784 1240 793 1264 812 1284 C 830 1304 854 1315 884 1315 C 912 1315 936 1304 954 1284 C 972 1264 981 1240 981 1214 Z M 428 -4 L 317 -4 L 31 938 L 166 938 L 383 190 L 627 936 L 741 936 L 997 186 L 1192 938 L 1331 938 L 1053 -4 L 940 -4 L 684 754 L 428 -4 Z" unicode="ẅ" />
<glyph horiz-adv-x="156" d="" unicode=" " />
<glyph horiz-adv-x="911" d="M 850 440 L 63 440 L 70 541 L 844 541 L 850 440 Z" unicode="–" />
<glyph horiz-adv-x="1874" d="M 1812 440 L 63 440 L 70 541 L 1806 541 L 1812 440 Z" unicode="—" />
<glyph horiz-adv-x="383" d="M 307 930 C 305 904 294 881 275 860 C 256 839 230 829 197 829 C 160 829 126 844 96 874 C 66 904 51 943 51 991 C 51 1059 76 1124 126 1185 C 176 1245 235 1298 305 1343 L 360 1292 C 296 1245 250 1201 222 1161 C 194 1120 180 1082 180 1047 C 180 1020 190 998 210 981 C 230 964 262 947 307 930 Z" unicode="‘" />
<glyph horiz-adv-x="383" d="M 76 1245 C 78 1271 88 1295 107 1316 C 126 1337 152 1348 186 1348 C 222 1348 256 1333 286 1303 C 316 1273 332 1234 332 1186 C 332 1117 307 1052 257 992 C 207 931 147 878 78 834 L 23 885 C 87 931 133 975 161 1015 C 189 1055 203 1093 203 1130 C 203 1156 193 1177 173 1194 C 153 1210 120 1227 76 1245 Z" unicode="’" />
<glyph horiz-adv-x="383" d="M 76 102 C 78 128 88 152 107 173 C 126 194 152 205 186 205 C 222 205 256 190 286 160 C 316 130 332 91 332 43 C 332 -25 307 -89 257 -150 C 207 -211 147 -264 78 -309 L 23 -258 C 87 -211 133 -167 161 -127 C 189 -87 203 -48 203 -12 C 203 13 193 34 173 51 C 153 67 120 84 76 102 Z" unicode="‚" />
<glyph horiz-adv-x="786" d="M 307 930 C 305 904 294 881 275 860 C 256 839 230 829 197 829 C 160 829 126 844 96 874 C 66 904 51 943 51 991 C 51 1059 76 1124 126 1185 C 176 1245 235 1298 305 1343 L 360 1292 C 296 1245 250 1201 222 1161 C 194 1120 180 1082 180 1047 C 180 1020 190 998 210 981 C 230 964 262 947 307 930 Z M 711 930 C 709 904 698 881 679 860 C 659 839 633 829 600 829 C 563 829 530 844 500 874 C 470 904 455 943 455 991 C 455 1059 480 1124 530 1185 C 580 1245 639 1298 709 1343 L 764 1292 C 700 1245 654 1201 626 1161 C 598 1120 584 1082 584 1047 C 584 1020 593 998 613 981 C 633 964 665 947 711 930 Z" unicode="“" />
<glyph horiz-adv-x="786" d="M 76 1245 C 78 1271 88 1295 107 1316 C 126 1337 152 1348 186 1348 C 222 1348 256 1333 286 1303 C 316 1273 332 1234 332 1186 C 332 1117 307 1052 257 992 C 207 931 147 878 78 834 L 23 885 C 87 931 133 975 161 1015 C 189 1055 203 1093 203 1130 C 203 1156 193 1177 173 1194 C 153 1210 120 1227 76 1245 Z M 479 1245 C 481 1271 491 1295 510 1316 C 529 1337 556 1348 590 1348 C 626 1348 660 1333 690 1303 C 720 1273 735 1234 735 1186 C 735 1117 710 1052 660 992 C 610 931 550 878 481 834 L 426 885 C 490 931 536 975 564 1015 C 592 1055 606 1093 606 1130 C 606 1156 596 1177 576 1194 C 556 1210 523 1227 479 1245 Z" unicode="”" />
<glyph horiz-adv-x="772" d="M 76 102 C 78 128 88 152 107 173 C 126 194 152 205 186 205 C 222 205 256 190 286 160 C 316 130 332 91 332 43 C 332 -25 307 -89 257 -150 C 207 -211 147 -264 78 -309 L 23 -258 C 87 -211 133 -167 161 -127 C 189 -87 203 -48 203 -12 C 203 13 193 34 173 51 C 153 67 120 84 76 102 Z M 479 102 C 481 128 491 152 510 173 C 529 194 556 205 590 205 C 626 205 660 190 690 160 C 720 130 735 91 735 43 C 735 -25 710 -89 660 -150 C 610 -211 550 -264 481 -309 L 426 -258 C 490 -211 536 -167 564 -127 C 592 -87 606 -48 606 -12 C 606 13 596 34 576 51 C 556 67 523 84 479 102 Z" unicode="„" />
<glyph horiz-adv-x="954" d="M 424 801 L 74 801 L 68 897 L 424 897 L 424 1280 L 528 1280 L 528 897 L 885 897 L 879 801 L 528 801 L 528 -258 L 424 -258 L 424 801 Z" unicode="†" />
<glyph horiz-adv-x="954" d="M 424 831 L 74 831 L 68 928 L 424 928 L 424 1280 L 528 1280 L 528 928 L 885 928 L 879 831 L 528 831 L 528 188 L 879 188 L 885 92 L 528 92 L 528 -258 L 424 -258 L 424 92 L 68 92 L 74 188 L 424 188 L 424 831 Z" unicode="‡" />
<glyph horiz-adv-x="1024" d="M 905 475 C 905 445 891 397 864 329 C 836 261 812 216 791 195 C 770 174 725 150 657 122 C 588 94 539 80 510 80 C 481 80 433 94 365 122 C 297 150 253 174 233 195 C 213 216 188 261 160 329 C 131 397 117 445 117 475 C 117 504 131 553 160 621 C 188 689 213 733 233 754 C 253 774 298 798 366 826 C 434 854 483 868 512 868 C 541 868 590 854 658 826 C 726 798 770 774 791 754 C 811 733 835 689 863 621 C 891 553 905 504 905 475 Z" unicode="•" />
<glyph horiz-adv-x="1159" d="M 295 80 C 295 52 285 28 266 6 C 246 -16 222 -27 193 -27 C 163 -27 138 -16 119 6 C 99 28 90 52 90 80 C 90 107 99 131 119 151 C 138 171 163 182 193 182 C 222 182 246 171 266 151 C 285 131 295 107 295 80 Z M 682 80 C 682 52 672 28 654 6 C 635 -16 611 -27 582 -27 C 551 -27 526 -16 506 6 C 486 28 477 52 477 80 C 477 107 486 131 506 151 C 526 171 551 182 582 182 C 611 182 635 171 654 151 C 672 131 682 107 682 80 Z M 1071 80 C 1071 52 1061 28 1042 6 C 1022 -16 998 -27 969 -27 C 939 -27 914 -16 895 6 C 875 28 866 52 866 80 C 866 107 875 131 895 151 C 914 171 939 182 969 182 C 998 182 1022 171 1042 151 C 1061 131 1071 107 1071 80 Z" unicode="…" />
<glyph horiz-adv-x="2292" d="M 711 987 C 711 896 680 817 619 750 C 558 682 475 649 371 649 C 267 649 184 682 123 750 C 61 817 31 896 31 987 C 31 1079 61 1159 123 1227 C 184 1295 267 1329 371 1329 C 475 1329 558 1295 619 1227 C 680 1159 711 1079 711 987 Z M 618 987 C 618 1057 596 1117 552 1167 C 508 1216 448 1241 371 1241 C 294 1241 234 1216 190 1167 C 146 1117 125 1057 125 987 C 125 921 146 862 190 812 C 234 762 294 737 371 737 C 448 737 508 762 552 812 C 596 862 618 921 618 987 Z M 1489 291 C 1489 198 1458 118 1397 50 C 1335 -17 1253 -51 1149 -51 C 1044 -51 961 -17 900 50 C 839 118 809 198 809 291 C 809 381 839 460 900 528 C 961 595 1044 629 1149 629 C 1253 629 1335 595 1397 528 C 1458 460 1489 381 1489 291 Z M 1397 291 C 1397 357 1375 415 1331 465 C 1287 515 1226 541 1149 541 C 1072 541 1012 515 968 465 C 924 415 903 357 903 291 C 903 220 924 160 968 111 C 1012 61 1072 37 1149 37 C 1226 37 1287 61 1331 111 C 1375 160 1397 220 1397 291 Z M 2259 291 C 2259 198 2228 118 2167 50 C 2105 -17 2023 -51 1919 -51 C 1814 -51 1731 -17 1670 50 C 1609 118 1579 198 1579 291 C 1579 381 1609 460 1670 528 C 1731 595 1814 629 1919 629 C 2023 629 2105 595 2167 528 C 2228 460 2259 381 2259 291 Z M 2167 291 C 2167 357 2144 415 2100 465 C 2056 515 1995 541 1919 541 C 1842 541 1781 515 1737 465 C 1693 415 1671 357 1671 291 C 1671 220 1693 160 1737 111 C 1781 61 1842 37 1919 37 C 1995 37 2056 61 2100 111 C 2144 160 2167 220 2167 291 Z M 1335 1309 L 299 -31 L 186 -31 L 1225 1309 L 1335 1309 Z" unicode="‰" />
<glyph horiz-adv-x="672" d="M 582 152 L 565 53 L 63 412 L 63 547 L 565 905 L 582 807 L 174 481 L 174 477 L 582 152 Z" unicode="‹" />
<glyph horiz-adv-x="672" d="M 608 412 L 104 53 L 88 152 L 498 477 L 498 481 L 88 807 L 104 905 L 608 547 L 608 412 Z" unicode="›" />
<glyph horiz-adv-x="1184" d="M 1165 1309 L 129 -31 L 16 -31 L 1057 1309 L 1165 1309 Z" unicode="⁄" />
<glyph horiz-adv-x="676" d="M 633 946 C 633 822 605 724 551 652 C 496 579 424 543 336 543 C 246 543 174 579 122 651 C 69 723 43 820 43 944 C 43 1067 70 1165 124 1238 C 178 1311 250 1348 340 1348 C 428 1348 499 1312 553 1240 C 606 1168 633 1070 633 946 Z M 522 942 C 522 1055 504 1137 468 1189 C 432 1240 388 1266 336 1266 C 284 1266 240 1240 206 1190 C 171 1139 154 1057 154 944 C 154 835 172 756 208 706 C 244 656 288 631 340 631 C 392 631 435 655 470 705 C 504 754 522 833 522 942 Z" unicode="⁰" />
<glyph horiz-adv-x="676" d="M 657 754 L 530 754 L 530 557 L 432 557 L 432 754 L 43 754 L 33 825 L 412 1337 L 530 1337 L 530 838 L 653 838 L 657 754 Z M 432 838 L 432 1229 L 143 838 L 432 838 Z" unicode="⁴" />
<glyph horiz-adv-x="676" d="M 203 1014 C 216 1016 231 1018 247 1020 C 263 1022 283 1024 307 1024 C 391 1024 460 1003 514 963 C 567 922 594 866 594 795 C 594 721 567 661 514 613 C 460 565 389 541 299 541 C 258 541 217 545 175 555 C 133 565 99 577 72 592 L 90 686 C 116 670 148 657 185 647 C 221 636 259 631 297 631 C 351 631 397 644 433 672 C 469 699 487 739 487 791 C 487 835 469 871 435 899 C 401 926 353 940 291 940 C 254 940 221 937 191 931 C 161 925 137 918 117 911 L 92 932 L 147 1331 L 578 1331 L 582 1241 L 236 1241 L 203 1014 Z" unicode="⁵" />
<glyph horiz-adv-x="676" d="M 55 860 C 55 965 93 1065 171 1159 C 248 1253 366 1317 524 1350 L 551 1266 C 445 1243 360 1204 294 1149 C 228 1093 185 1028 166 954 L 170 952 C 197 975 230 994 268 1010 C 306 1026 347 1034 389 1034 C 453 1034 509 1013 557 973 C 605 933 629 876 629 803 C 629 728 603 666 551 617 C 499 567 430 543 346 543 C 251 543 179 574 129 636 C 79 698 55 772 55 860 Z M 164 836 C 164 780 179 732 211 691 C 243 649 290 629 352 629 C 402 629 442 644 473 675 C 504 706 520 747 520 797 C 520 845 504 883 474 909 C 444 935 406 948 360 948 C 322 948 287 941 253 928 C 219 914 190 898 168 879 C 166 871 164 864 164 857 C 164 849 164 842 164 836 Z" unicode="⁶" />
<glyph horiz-adv-x="676" d="M 502 1239 L 51 1239 L 55 1331 L 602 1331 L 612 1253 L 242 559 L 135 559 L 502 1239 Z" unicode="⁷" />
<glyph horiz-adv-x="676" d="M 621 764 C 621 704 596 652 548 608 C 500 564 429 543 336 543 C 240 543 169 563 123 604 C 77 644 55 694 55 754 C 55 806 74 848 113 880 C 151 911 189 934 227 948 C 185 966 148 990 116 1018 C 84 1046 68 1082 68 1128 C 68 1193 92 1246 142 1288 C 192 1329 258 1350 342 1350 C 426 1350 491 1330 537 1290 C 583 1250 606 1199 606 1139 C 606 1091 589 1052 556 1021 C 522 990 487 967 451 952 C 494 932 533 907 568 879 C 603 850 621 812 621 764 Z M 514 754 C 514 797 492 832 450 858 C 407 884 358 904 303 920 C 264 905 230 884 202 858 C 174 832 160 800 160 764 C 160 722 176 688 208 663 C 240 637 284 625 340 625 C 398 625 441 636 470 660 C 499 684 514 715 514 754 Z M 502 1130 C 502 1171 486 1204 456 1230 C 425 1255 386 1268 340 1268 C 286 1268 245 1255 217 1229 C 189 1203 176 1173 176 1139 C 176 1099 195 1066 235 1040 C 274 1014 321 995 377 981 C 411 995 441 1014 465 1040 C 489 1066 502 1096 502 1130 Z" unicode="⁸" />
<glyph horiz-adv-x="676" d="M 621 1032 C 621 926 582 825 504 731 C 426 637 308 573 152 541 L 125 627 C 229 649 315 687 381 743 C 447 798 490 863 510 938 L 506 938 C 477 914 443 895 405 879 C 367 863 327 856 287 856 C 222 856 166 876 118 917 C 70 958 47 1015 47 1087 C 47 1163 72 1225 124 1275 C 175 1325 243 1350 328 1350 C 423 1350 496 1319 546 1257 C 596 1195 621 1120 621 1032 Z M 512 1057 C 512 1111 495 1159 463 1201 C 431 1243 384 1264 324 1264 C 272 1264 231 1248 201 1216 C 171 1184 156 1144 156 1096 C 156 1048 170 1010 200 983 C 230 955 268 942 315 942 C 353 942 388 948 422 962 C 456 976 484 992 508 1012 C 510 1018 511 1026 511 1034 C 511 1042 512 1049 512 1057 Z" unicode="⁹" />
<glyph horiz-adv-x="676" d="M 614 911 L 393 911 L 393 684 L 324 684 L 324 911 L 102 911 L 104 981 L 324 981 L 324 1206 L 393 1206 L 393 981 L 610 981 L 614 911 Z" unicode="⁺" />
<glyph horiz-adv-x="676" d="M 614 911 L 102 911 L 104 979 L 610 979 L 614 911 Z" unicode="⁻" />
<glyph horiz-adv-x="676" d="M 633 94 C 633 -29 605 -127 551 -200 C 496 -272 424 -309 336 -309 C 246 -309 174 -273 122 -201 C 69 -129 43 -31 43 92 C 43 215 70 313 124 386 C 178 459 250 496 340 496 C 428 496 499 460 553 388 C 606 316 633 218 633 94 Z M 522 90 C 522 203 504 285 468 337 C 432 388 388 414 336 414 C 284 414 240 388 206 338 C 171 287 154 205 154 92 C 154 -16 172 -96 208 -146 C 244 -196 288 -221 340 -221 C 392 -221 435 -196 470 -147 C 504 -97 522 -18 522 90 Z" unicode="₀" />
<glyph horiz-adv-x="676" d="M 338 -293 L 338 369 L 133 317 L 129 410 L 444 489 L 444 -293 L 338 -293 Z" unicode="₁" />
<glyph horiz-adv-x="676" d="M 604 -293 L 61 -293 L 57 -201 C 189 -84 290 6 361 70 C 431 134 467 198 467 264 C 467 308 451 342 421 368 C 391 393 351 406 303 406 C 267 406 232 397 197 381 C 161 365 130 346 104 324 L 66 408 C 93 431 129 451 174 469 C 218 487 266 496 317 496 C 395 496 458 475 505 433 C 551 391 575 337 575 270 C 575 196 541 127 475 62 C 408 -2 309 -91 178 -203 C 177 -203 247 -203 388 -203 C 529 -203 600 -203 600 -203 L 604 -293 Z" unicode="₂" />
<glyph horiz-adv-x="676" d="M 356 115 C 438 115 500 96 542 58 C 583 20 604 -24 604 -74 C 604 -147 574 -204 514 -246 C 454 -288 381 -309 297 -309 C 257 -309 215 -304 173 -295 C 130 -285 95 -273 68 -258 L 88 -170 C 114 -183 146 -195 184 -205 C 221 -215 260 -221 301 -221 C 351 -221 396 -209 436 -185 C 476 -161 496 -126 496 -80 C 496 -41 479 -9 445 16 C 411 42 362 55 299 55 C 280 54 260 53 238 51 C 216 49 197 46 180 43 L 180 123 C 268 142 337 165 388 192 C 439 219 465 254 465 297 C 465 331 451 358 423 378 C 395 398 357 408 309 408 C 275 408 240 401 204 387 C 168 373 136 355 109 334 L 68 418 C 98 439 135 457 180 473 C 224 488 269 496 315 496 C 393 496 455 479 502 446 C 549 412 573 367 573 309 C 573 263 554 223 518 191 C 481 158 427 133 356 115 Z" unicode="₃" />
<glyph horiz-adv-x="676" d="M 657 -98 L 530 -98 L 530 -295 L 432 -295 L 432 -98 L 43 -98 L 33 -27 L 412 485 L 530 485 L 530 -14 L 653 -14 L 657 -98 Z M 432 -14 L 432 377 L 143 -14 L 432 -14 Z" unicode="₄" />
<glyph horiz-adv-x="676" d="M 203 162 C 216 164 231 166 247 168 C 263 170 283 172 307 172 C 391 172 460 151 514 111 C 567 70 594 14 594 -57 C 594 -130 567 -191 514 -239 C 460 -287 389 -311 299 -311 C 258 -311 217 -306 175 -296 C 133 -286 99 -274 72 -260 L 90 -166 C 116 -181 148 -194 185 -205 C 221 -215 259 -221 297 -221 C 351 -221 397 -207 433 -180 C 469 -152 487 -113 487 -61 C 487 -16 469 19 435 47 C 401 74 353 88 291 88 C 254 88 221 85 191 79 C 161 73 137 66 117 59 L 92 80 L 147 479 L 578 479 L 582 389 L 236 389 L 203 162 Z" unicode="₅" />
<glyph horiz-adv-x="676" d="M 55 8 C 55 113 93 213 171 307 C 248 401 366 465 524 498 L 551 414 C 445 391 360 352 294 297 C 228 241 185 176 166 102 L 170 100 C 197 124 230 143 268 159 C 306 174 347 182 389 182 C 453 182 509 161 557 121 C 605 81 629 24 629 -49 C 629 -123 603 -185 551 -235 C 499 -284 430 -309 346 -309 C 251 -309 179 -278 129 -216 C 79 -154 55 -79 55 8 Z M 164 -16 C 164 -71 179 -119 211 -161 C 243 -202 290 -223 352 -223 C 402 -223 442 -207 473 -176 C 504 -145 520 -105 520 -55 C 520 -6 504 31 474 57 C 444 83 406 96 360 96 C 322 96 287 89 253 76 C 219 62 190 46 168 27 C 166 19 164 12 164 5 C 164 -2 164 -9 164 -16 Z" unicode="₆" />
<glyph horiz-adv-x="676" d="M 502 387 L 51 387 L 55 479 L 602 479 L 612 401 L 242 -293 L 135 -293 L 502 387 Z" unicode="₇" />
<glyph horiz-adv-x="676" d="M 621 -88 C 621 -148 596 -199 548 -243 C 500 -287 429 -309 336 -309 C 240 -309 169 -288 123 -248 C 77 -207 55 -157 55 -98 C 55 -45 74 -3 113 28 C 151 59 189 82 227 96 C 185 114 148 138 116 166 C 84 194 68 230 68 276 C 68 341 92 394 142 436 C 192 477 258 498 342 498 C 426 498 491 478 537 438 C 583 398 606 347 606 287 C 606 239 589 200 556 169 C 522 138 487 115 451 100 C 494 80 533 55 568 27 C 603 -1 621 -40 621 -88 Z M 514 -98 C 514 -54 492 -20 450 6 C 407 32 358 52 303 68 C 264 53 230 32 202 6 C 174 -19 160 -51 160 -88 C 160 -130 176 -163 208 -189 C 240 -214 284 -227 340 -227 C 398 -227 441 -215 470 -191 C 499 -167 514 -136 514 -98 Z M 502 279 C 502 319 486 352 456 378 C 425 403 386 416 340 416 C 286 416 245 403 217 377 C 189 351 176 321 176 287 C 176 247 195 214 235 188 C 274 162 321 143 377 129 C 411 143 441 162 465 188 C 489 214 502 244 502 279 Z" unicode="₈" />
<glyph horiz-adv-x="676" d="M 621 180 C 621 74 582 -26 504 -120 C 426 -214 308 -278 152 -311 L 125 -225 C 229 -203 315 -164 381 -109 C 447 -53 490 11 510 86 L 506 86 C 477 62 443 43 405 27 C 367 11 327 4 287 4 C 222 4 166 24 118 65 C 70 106 47 163 47 236 C 47 311 72 373 124 423 C 175 473 243 498 328 498 C 423 498 496 467 546 405 C 596 343 621 268 621 180 Z M 512 205 C 512 259 495 307 463 349 C 431 391 384 412 324 412 C 272 412 231 396 201 364 C 171 332 156 292 156 244 C 156 196 170 158 200 131 C 230 103 268 90 315 90 C 353 90 388 96 422 110 C 456 124 484 140 508 160 C 510 166 511 174 511 182 C 511 190 512 197 512 205 Z" unicode="₉" />
<glyph horiz-adv-x="1032" d="M 215 762 L 74 762 L 68 854 L 229 854 C 255 1006 309 1120 391 1196 C 473 1272 574 1311 694 1311 C 753 1311 808 1305 858 1293 C 908 1281 951 1263 989 1241 L 961 1128 C 923 1150 881 1168 836 1180 C 790 1192 743 1198 694 1198 C 601 1198 526 1169 470 1111 C 413 1053 374 968 354 854 L 836 854 L 829 762 L 344 762 C 343 743 342 724 341 705 C 340 685 340 666 340 647 C 340 625 340 604 341 583 C 342 561 343 541 344 522 L 768 522 L 774 430 L 356 430 C 377 314 416 227 472 169 C 528 111 600 82 688 82 C 742 82 792 87 838 99 C 884 111 927 128 965 150 L 985 37 C 946 15 902 -1 852 -13 C 802 -25 746 -31 684 -31 C 560 -31 459 6 379 82 C 299 158 248 274 225 430 L 68 430 L 74 522 L 215 522 C 214 540 213 559 212 578 C 211 596 211 615 211 635 C 211 656 211 677 212 699 C 213 720 214 741 215 762 Z" unicode="€" />
<glyph horiz-adv-x="1860" d="M 1696 516 L 1595 516 L 1577 1165 L 1563 1165 L 1323 526 L 1208 526 L 993 1165 L 979 1165 L 956 516 L 862 516 L 893 1282 L 1063 1282 L 1266 637 L 1280 637 L 1505 1282 L 1667 1282 L 1696 516 Z M 754 1186 L 455 1186 L 455 516 L 356 516 L 356 1186 L 68 1186 L 68 1282 L 754 1282 L 754 1186 Z" unicode="™" />
<glyph horiz-adv-x="1024" d="M 926 426 L 96 426 L 102 537 L 920 537 L 926 426 Z" unicode="−" />
<glyph horiz-adv-x="1184" d="M 1165 1309 L 129 -31 L 16 -31 L 1057 1309 L 1165 1309 Z" unicode="∕" />
<glyph horiz-adv-x="1024" d="M 866 430 C 852 358 828 304 794 269 C 760 234 722 217 680 217 C 626 217 567 236 505 274 C 443 312 394 332 358 332 C 336 332 315 325 296 312 C 276 299 261 271 250 227 L 158 227 C 171 299 195 353 229 388 C 263 422 302 440 344 440 C 398 440 457 421 522 383 C 587 345 635 326 666 326 C 695 326 718 333 734 348 C 750 362 764 390 776 430 L 866 430 Z M 866 733 C 852 661 828 607 794 572 C 760 537 722 520 680 520 C 626 520 567 539 505 577 C 443 615 394 635 358 635 C 336 635 315 628 296 615 C 276 602 261 574 250 530 L 158 530 C 171 602 195 656 229 691 C 263 725 302 743 344 743 C 398 743 457 724 522 686 C 587 648 635 629 666 629 C 695 629 718 636 734 651 C 750 666 764 693 776 733 L 866 733 Z" unicode="≈" />
<glyph horiz-adv-x="1024" d="M 342 -47 L 418 244 L 125 244 L 133 356 L 446 356 L 512 604 L 133 604 L 125 717 L 541 717 L 612 987 L 709 987 L 637 717 L 899 717 L 891 604 L 608 604 L 543 356 L 891 356 L 899 244 L 514 244 L 438 -47 L 342 -47 Z" unicode="≠" />
<glyph horiz-adv-x="1024" d="M 881 303 L 881 182 L 141 494 L 141 633 L 881 944 L 881 821 L 276 571 L 276 553 L 881 303 Z M 883 18 L 156 18 L 162 129 L 877 129 L 883 18 Z" unicode="≤" />
<glyph horiz-adv-x="1024" d="M 143 182 L 143 303 L 748 553 L 748 571 L 143 821 L 143 944 L 883 633 L 883 494 L 143 182 Z M 868 18 L 141 18 L 147 129 L 862 129 L 868 18 Z" unicode="≥" />
<glyph horiz-adv-x="1493" d="M 748 -33 C 563 -33 405 32 274 163 C 143 294 78 452 78 637 C 78 821 143 979 274 1111 C 405 1243 563 1309 748 1309 C 932 1309 1089 1243 1220 1111 C 1351 979 1417 821 1417 637 C 1417 452 1351 294 1220 163 C 1089 32 932 -33 748 -33 Z M 1358 637 C 1358 804 1298 948 1179 1070 C 1059 1192 916 1253 748 1253 C 579 1253 435 1192 316 1070 C 196 948 137 804 137 637 C 137 469 196 325 316 205 C 435 85 579 25 748 25 C 916 25 1059 85 1179 205 C 1298 325 1358 469 1358 637 Z M 1053 754 C 1053 671 1026 609 973 567 C 919 525 846 504 754 504 L 647 504 L 647 262 L 545 262 L 545 987 L 764 987 C 862 987 934 965 982 921 C 1029 877 1053 822 1053 754 Z M 948 750 C 948 796 932 832 900 857 C 868 882 821 895 760 895 L 647 895 L 647 596 L 762 596 C 823 596 869 610 901 636 C 932 662 948 700 948 750 Z" unicode="ⓟ" />
<glyph horiz-adv-x="813" d="M 301 -195 C 302 -173 311 -153 329 -136 C 346 -119 369 -111 399 -111 C 433 -111 462 -123 486 -149 C 510 -174 522 -206 522 -244 C 522 -296 504 -344 469 -390 C 433 -436 388 -476 334 -512 L 287 -471 C 337 -434 369 -402 384 -374 C 398 -346 406 -320 406 -297 C 406 -271 398 -251 382 -236 C 366 -221 339 -207 301 -195 Z" unicode="" />
<glyph horiz-adv-x="1231" d="M 299 819 L 299 0 L 174 0 L 174 819 L 23 829 L 31 907 L 172 940 L 174 1067 C 176 1190 203 1277 255 1328 C 307 1379 375 1405 457 1405 C 488 1405 519 1400 550 1392 C 581 1383 607 1374 629 1364 C 629 1362 623 1343 613 1305 C 603 1267 598 1248 598 1249 C 576 1259 553 1268 529 1276 C 505 1284 480 1288 455 1288 C 403 1288 364 1270 338 1235 C 312 1199 299 1144 299 1069 L 299 934 L 793 934 L 795 1087 C 797 1210 824 1297 876 1348 C 928 1399 995 1425 1077 1425 C 1109 1425 1141 1420 1172 1412 C 1203 1404 1229 1394 1251 1384 C 1251 1383 1246 1363 1236 1325 C 1226 1287 1221 1268 1221 1270 C 1199 1280 1176 1289 1152 1297 C 1127 1305 1101 1309 1075 1309 C 1024 1309 986 1291 960 1256 C 934 1220 922 1165 922 1090 L 922 934 L 1214 934 L 1208 819 L 922 819 L 922 0 L 795 0 L 795 819 L 299 819 Z" unicode="ﬀ" />
<glyph horiz-adv-x="1022" d="M 629 1384 C 629 1383 623 1363 613 1325 C 603 1287 598 1268 598 1270 C 576 1280 553 1289 529 1297 C 505 1305 480 1309 455 1309 C 403 1309 364 1291 338 1256 C 312 1220 299 1165 299 1090 L 299 934 L 594 934 L 588 821 L 299 821 L 299 0 L 174 0 L 174 817 L 23 827 L 31 907 L 172 940 L 174 1087 C 176 1210 203 1297 255 1348 C 307 1399 375 1425 457 1425 C 488 1425 519 1420 550 1412 C 581 1404 607 1394 629 1384 Z M 897 1247 C 897 1223 889 1201 875 1182 C 861 1162 839 1153 811 1153 C 782 1153 760 1162 746 1182 C 732 1201 725 1223 725 1247 C 725 1270 732 1291 746 1309 C 760 1327 782 1337 811 1337 C 839 1337 861 1327 875 1309 C 889 1291 897 1270 897 1247 Z M 874 0 L 748 0 L 748 938 L 874 965 L 874 0 Z" unicode="ﬁ" />
<glyph horiz-adv-x="1022" d="M 629 1384 C 629 1383 623 1363 613 1325 C 603 1287 598 1268 598 1270 C 576 1280 553 1289 529 1297 C 505 1305 480 1309 455 1309 C 403 1309 364 1291 338 1256 C 312 1220 299 1165 299 1090 L 299 934 L 594 934 L 588 821 L 299 821 L 299 0 L 174 0 L 174 817 L 23 827 L 31 907 L 172 940 L 174 1087 C 176 1210 203 1297 255 1348 C 307 1399 375 1425 457 1425 C 488 1425 519 1420 550 1412 C 581 1404 607 1394 629 1384 Z M 874 0 L 747 0 L 747 1380 L 874 1407 L 874 0 Z" unicode="ﬂ" />
<glyph horiz-adv-x="1642" d="M 299 819 L 299 0 L 174 0 L 174 819 L 23 829 L 31 907 L 172 940 L 174 1067 C 176 1190 203 1277 255 1328 C 307 1379 375 1405 457 1405 C 488 1405 519 1400 550 1392 C 581 1383 607 1374 629 1364 C 629 1362 623 1343 613 1305 C 603 1267 598 1248 598 1249 C 576 1259 553 1268 529 1276 C 505 1284 480 1288 455 1288 C 403 1288 364 1270 338 1235 C 312 1199 299 1144 299 1069 L 299 934 L 793 934 L 795 1087 C 797 1210 824 1297 876 1348 C 928 1399 995 1425 1077 1425 C 1109 1425 1141 1420 1172 1412 C 1203 1404 1229 1394 1251 1384 C 1251 1383 1246 1363 1236 1325 C 1226 1287 1221 1268 1221 1270 C 1199 1280 1176 1289 1152 1297 C 1127 1305 1101 1309 1075 1309 C 1024 1309 986 1291 960 1256 C 934 1220 922 1165 922 1090 L 922 934 L 1214 934 L 1208 819 L 922 819 L 922 0 L 795 0 L 795 819 L 299 819 Z M 1518 1247 C 1518 1223 1510 1201 1496 1182 C 1482 1162 1460 1153 1432 1153 C 1403 1153 1381 1162 1367 1182 C 1353 1201 1346 1223 1346 1247 C 1346 1270 1353 1291 1367 1309 C 1381 1327 1403 1337 1432 1337 C 1460 1337 1482 1327 1496 1309 C 1510 1291 1518 1270 1518 1247 Z M 1495 0 L 1369 0 L 1369 938 L 1495 965 L 1495 0 Z" unicode="ﬃ" />
<glyph horiz-adv-x="1642" d="M 299 819 L 299 0 L 174 0 L 174 819 L 23 829 L 31 907 L 172 940 L 174 1067 C 176 1190 203 1277 255 1328 C 307 1379 375 1405 457 1405 C 488 1405 519 1400 550 1392 C 581 1383 607 1374 629 1364 C 629 1362 623 1343 613 1305 C 603 1267 598 1248 598 1249 C 576 1259 553 1268 529 1276 C 505 1284 480 1288 455 1288 C 403 1288 364 1270 338 1235 C 312 1199 299 1144 299 1069 L 299 934 L 793 934 L 795 1087 C 797 1210 824 1297 876 1348 C 928 1399 995 1425 1077 1425 C 1109 1425 1141 1420 1172 1412 C 1203 1404 1229 1394 1251 1384 C 1251 1383 1246 1363 1236 1325 C 1226 1287 1221 1268 1221 1270 C 1199 1280 1176 1289 1152 1297 C 1127 1305 1101 1309 1075 1309 C 1024 1309 986 1291 960 1256 C 934 1220 922 1165 922 1090 L 922 934 L 1214 934 L 1208 819 L 922 819 L 922 0 L 795 0 L 795 819 L 299 819 Z M 1495 0 L 1370 0 L 1370 1380 L 1495 1407 L 1495 0 Z" unicode="ﬄ" />
</font>
</defs>
</svg>
