<?xml version="1.0" encoding="utf-8" ?><svg version="1.1" xmlns = 'http://www.w3.org/2000/svg'><defs><font id='web' horiz-adv-x="1000">
<font-face font-family="web" descent="-420" cap-height="1280" units-per-em="2048" bbox="-397,-578,2408,2087" x-height="952" ascent="1393" />
<missing-glyph horiz-adv-x="993" d="" /><glyph horiz-adv-x="369" d="" unicode=" " />
<glyph horiz-adv-x="608" d="M 422 145 C 422 90 404 47 370 16 C 336 -15 294 -31 244 -31 C 192 -31 149 -15 114 16 C 78 47 61 90 61 145 C 61 200 79 243 115 273 C 151 303 194 319 244 319 C 294 319 336 303 370 273 C 404 243 422 200 422 145 Z M 653 1298 L 403 426 L 193 463 L 299 1348 L 653 1298 Z" unicode="!" />
<glyph horiz-adv-x="963" d="M 651 1247 L 301 815 L 111 815 L 410 1321 L 651 1247 Z M 1059 1247 L 711 815 L 520 815 L 819 1321 L 1059 1247 Z" unicode="&#x22;" />
<glyph horiz-adv-x="1176" d="M 1290 1315 C 1284 1301 1256 1241 1208 1133 C 1160 1025 1132 965 1126 952 L 1237 952 L 1237 723 L 1026 723 L 911 467 L 1094 467 L 1094 238 L 813 238 C 783 172 754 107 724 43 C 694 -21 665 -86 637 -152 L 401 -152 C 431 -86 460 -21 490 43 C 520 107 549 172 578 238 L 340 238 L 164 -152 L -68 -152 C -61 -138 -32 -74 19 42 C 71 158 100 223 106 238 L -4 238 L -4 467 L 207 467 C 211 475 229 517 263 595 C 297 672 316 715 322 723 L 137 723 L 137 952 L 420 952 C 432 982 459 1042 501 1134 C 543 1226 571 1286 584 1315 L 817 1315 C 803 1282 776 1221 736 1133 C 695 1045 667 984 653 952 L 885 952 L 1055 1315 L 1290 1315 Z M 795 729 L 559 729 L 438 463 L 676 463 L 795 729 Z" unicode="#" />
<glyph horiz-adv-x="963" d="M 1001 1167 L 922 918 C 901 937 873 958 839 980 C 805 1002 767 1020 727 1034 L 629 743 C 704 701 767 653 817 598 C 867 543 893 474 893 391 C 893 273 851 172 769 90 C 686 8 574 -33 434 -33 C 422 -33 411 -32 399 -31 C 387 -30 375 -29 365 -29 L 287 -254 L 160 -254 L 246 -4 C 198 10 154 28 112 51 C 70 74 32 99 0 127 L 80 395 C 107 365 143 337 189 309 C 235 281 280 258 324 240 L 426 547 C 345 591 280 639 232 690 C 184 740 160 806 160 887 C 160 1008 199 1109 278 1190 C 356 1270 461 1311 592 1311 C 608 1311 624 1310 640 1309 C 656 1307 672 1305 688 1303 L 754 1497 L 881 1497 L 807 1276 C 844 1264 880 1248 914 1230 C 948 1212 977 1191 1001 1167 Z M 631 352 C 631 377 623 401 608 423 C 593 445 568 468 532 492 L 436 209 C 438 207 441 207 447 207 C 452 207 455 207 457 207 C 505 207 546 219 580 245 C 614 270 631 306 631 352 Z M 612 1061 C 606 1061 599 1062 593 1062 C 586 1062 579 1063 573 1063 C 530 1063 495 1050 468 1025 C 441 999 428 967 428 928 C 428 896 437 870 455 852 C 473 833 496 816 524 801 L 612 1061 Z" unicode="$" />
<glyph horiz-adv-x="1536" d="M 768 1030 C 768 918 736 821 672 739 C 608 657 522 616 412 616 C 324 616 252 642 198 696 C 144 750 117 821 117 911 C 117 1023 148 1120 212 1202 C 276 1284 362 1325 471 1325 C 558 1325 629 1298 685 1245 C 740 1191 768 1120 768 1030 Z M 565 1022 C 565 1068 556 1104 539 1130 C 521 1156 496 1169 463 1169 C 420 1169 385 1142 359 1089 C 332 1036 319 980 319 922 C 319 876 327 839 343 812 C 359 785 384 772 418 772 C 462 772 497 798 524 852 C 551 906 565 962 565 1022 Z M 1485 369 C 1485 257 1453 160 1389 78 C 1325 -4 1239 -45 1130 -45 C 1042 -45 971 -18 916 35 C 861 88 834 160 834 250 C 834 362 866 459 931 541 C 995 623 1082 664 1190 664 C 1278 664 1350 637 1404 583 C 1458 529 1485 458 1485 369 Z M 1282 358 C 1282 404 1273 440 1257 467 C 1240 494 1215 508 1182 508 C 1140 508 1105 481 1077 427 C 1049 373 1036 318 1036 260 C 1036 213 1044 176 1061 150 C 1077 124 1103 111 1137 111 C 1180 111 1215 137 1242 191 C 1268 244 1282 300 1282 358 Z M 1485 1309 L 326 -31 L 115 -31 L 1274 1309 L 1485 1309 Z" unicode="%" />
<glyph horiz-adv-x="1165" d="M 1247 797 L 901 385 L 1071 31 L 780 -31 L 688 195 C 635 126 577 71 514 30 C 450 -10 383 -31 313 -31 C 213 -31 134 0 76 59 C 17 119 -12 196 -12 289 C -12 383 21 462 89 526 C 156 590 231 633 315 657 C 275 687 243 726 219 772 C 194 818 182 868 182 924 C 182 1026 218 1117 292 1195 C 365 1273 464 1313 590 1313 C 690 1313 775 1285 843 1230 C 911 1175 946 1103 946 1014 C 946 924 917 853 859 801 C 801 749 735 714 659 698 C 681 680 705 657 730 631 C 755 605 777 577 797 549 L 958 797 L 1247 797 Z M 625 332 C 595 386 561 434 525 476 C 489 518 453 552 418 578 C 374 554 337 524 308 489 C 278 453 264 410 264 358 C 264 311 278 273 307 243 C 335 213 371 199 414 199 C 457 199 496 212 531 238 C 565 264 597 295 625 332 Z M 700 983 C 700 1016 689 1045 668 1070 C 646 1095 618 1108 584 1108 C 544 1108 511 1091 486 1059 C 461 1026 449 988 449 946 C 449 909 458 878 476 852 C 494 826 522 799 559 772 C 601 796 635 825 661 858 C 687 890 700 932 700 983 Z" unicode="&#x26;" />
<glyph horiz-adv-x="481" d="M 621 1247 L 270 815 L 80 815 L 379 1321 L 621 1247 Z" unicode="'" />
<glyph horiz-adv-x="963" d="M 895 -326 L 743 -539 C 577 -421 449 -272 359 -92 C 269 87 225 279 225 483 C 225 693 270 887 362 1065 C 454 1243 581 1389 743 1503 L 895 1290 C 802 1228 712 1127 624 987 C 536 847 492 679 492 483 C 492 286 536 118 624 -21 C 712 -161 802 -262 895 -326 Z" unicode="(" />
<glyph horiz-adv-x="963" d="M 874 483 C 874 279 829 87 739 -92 C 649 -272 522 -421 356 -539 L 205 -326 C 297 -262 388 -161 476 -21 C 564 118 608 286 608 483 C 608 679 564 847 476 987 C 388 1127 297 1228 205 1290 L 356 1503 C 518 1389 644 1243 736 1065 C 828 887 874 693 874 483 Z" unicode=")" />
<glyph horiz-adv-x="963" d="M 502 850 L 250 641 L 145 874 L 469 924 L 473 942 L 201 1118 L 389 1290 L 532 995 L 549 999 L 641 1313 L 860 1186 L 621 956 L 629 942 L 950 963 L 897 713 L 612 862 L 600 850 L 719 543 L 467 518 L 518 842 L 502 850 Z" unicode="*" />
<glyph horiz-adv-x="963" d="M 909 375 L 612 375 L 612 20 L 371 20 L 371 375 L 76 375 L 82 606 L 371 606 L 371 956 L 612 956 L 612 606 L 903 606 L 909 375 Z" unicode="+" />
<glyph horiz-adv-x="481" d="M 403 115 C 403 11 359 -79 273 -158 C 186 -237 92 -298 -8 -340 L -113 -213 C -71 -191 -21 -157 35 -109 C 92 -61 121 -13 121 35 C 121 70 109 99 87 122 C 64 144 34 164 -2 182 C 9 233 32 274 66 305 C 100 336 143 352 197 352 C 257 352 307 328 345 282 C 383 236 403 180 403 115 Z" unicode="," />
<glyph horiz-adv-x="664" d="M 618 371 L 49 371 L 49 621 L 618 621 L 618 371 Z" unicode="-" />
<glyph horiz-adv-x="481" d="M 379 160 C 379 102 362 56 328 21 C 294 -13 249 -31 195 -31 C 139 -31 94 -13 60 21 C 25 56 8 102 8 160 C 8 216 25 262 60 296 C 94 330 139 348 195 348 C 249 348 294 330 328 296 C 362 262 379 216 379 160 Z" unicode="." />
<glyph horiz-adv-x="518" d="M 774 1438 L -4 -408 L -262 -408 L 516 1438 L 774 1438 Z" unicode="/" />
<glyph horiz-adv-x="963" d="M 973 850 C 973 672 932 481 850 275 C 768 69 632 -33 444 -33 C 308 -33 208 11 145 99 C 82 187 51 297 51 430 C 51 605 92 796 175 1003 C 257 1209 393 1313 582 1313 C 718 1313 817 1269 879 1181 C 941 1093 973 982 973 850 Z M 688 868 C 688 913 681 959 667 1005 C 653 1051 623 1075 575 1075 C 493 1075 432 983 394 801 C 355 619 336 489 336 412 C 336 366 342 320 356 274 C 370 228 401 205 449 205 C 532 205 593 295 631 477 C 669 658 688 788 688 868 Z" unicode="0" />
<glyph horiz-adv-x="963" d="M 881 1300 L 600 0 L 289 0 L 496 956 L 215 899 L 252 1174 L 881 1300 Z" unicode="1" />
<glyph horiz-adv-x="963" d="M 928 977 C 928 871 887 764 807 658 C 727 552 581 419 369 260 L 848 260 C 840 217 834 174 828 130 C 822 86 816 42 809 0 L 35 0 C 39 40 44 82 49 124 C 54 166 59 207 63 248 C 280 439 425 578 499 664 C 573 750 610 831 610 905 C 610 952 596 988 570 1012 C 544 1036 511 1049 473 1049 C 432 1049 392 1039 354 1020 C 315 1001 278 978 244 952 L 195 1188 C 249 1226 307 1257 370 1279 C 433 1301 495 1313 557 1313 C 647 1313 732 1286 810 1234 C 888 1182 928 1096 928 977 Z" unicode="2" />
<glyph horiz-adv-x="963" d="M 922 1014 C 922 918 891 840 830 781 C 768 722 690 681 594 659 C 662 656 724 631 780 584 C 836 536 864 466 864 373 C 864 241 819 141 730 71 C 641 1 531 -33 399 -33 C 334 -33 269 -23 205 -5 C 141 13 81 42 27 80 L 104 326 C 145 298 191 273 242 253 C 292 233 342 223 391 223 C 442 223 486 237 523 267 C 559 296 578 338 578 393 C 578 442 558 477 518 499 C 478 521 421 532 348 532 C 328 532 307 531 287 531 C 267 531 245 530 223 528 L 256 739 C 370 750 458 772 522 804 C 586 836 618 882 618 942 C 618 982 605 1010 579 1027 C 553 1044 521 1053 481 1053 C 440 1053 399 1045 358 1030 C 317 1014 279 996 244 975 L 205 1219 C 257 1248 313 1271 374 1288 C 434 1304 493 1313 551 1313 C 657 1313 745 1287 816 1235 C 886 1183 922 1109 922 1014 Z" unicode="3" />
<glyph horiz-adv-x="963" d="M 963 1280 L 821 537 L 938 537 C 932 497 925 457 918 417 C 911 377 904 337 897 297 L 772 297 L 713 0 L 438 0 C 447 48 457 97 467 147 C 477 197 487 247 498 297 L 18 297 C 19 332 21 368 23 404 C 25 440 27 476 29 512 C 116 639 204 767 293 896 C 381 1025 470 1153 559 1280 L 963 1280 Z M 651 1049 L 295 526 L 549 526 C 565 612 581 699 599 787 C 616 875 633 962 651 1049 Z" unicode="4" />
<glyph horiz-adv-x="963" d="M 963 1280 L 920 1020 L 512 1020 L 446 786 L 487 786 C 575 786 661 759 743 707 C 825 655 866 567 866 444 C 866 310 825 197 745 105 C 664 13 553 -33 412 -33 C 352 -33 286 -23 214 -3 C 141 17 81 46 35 84 L 98 334 C 134 305 180 278 235 252 C 289 226 341 213 389 213 C 449 213 495 230 527 266 C 559 302 575 349 575 408 C 575 472 550 517 500 542 C 450 567 395 580 336 580 C 299 580 267 577 240 571 C 212 565 187 559 164 551 L 137 612 L 319 1280 L 963 1280 Z" unicode="5" />
<glyph horiz-adv-x="963" d="M 61 426 C 61 647 130 841 270 1007 C 410 1173 608 1274 866 1309 L 918 1067 C 824 1049 729 1018 631 973 C 533 927 454 852 395 748 L 395 741 C 435 767 476 786 518 798 C 560 810 600 817 639 817 C 717 817 782 787 834 728 C 885 669 911 589 911 487 C 911 355 869 235 787 128 C 705 20 595 -33 459 -33 C 326 -33 226 12 160 102 C 94 192 61 300 61 426 Z M 330 393 C 330 335 341 288 365 252 C 389 216 422 199 465 199 C 521 199 562 227 589 283 C 615 339 629 395 629 451 C 629 503 617 543 595 570 C 573 596 542 610 504 610 C 479 610 453 605 426 597 C 398 589 374 576 354 559 C 347 533 341 506 337 477 C 332 448 330 420 330 393 Z" unicode="6" />
<glyph horiz-adv-x="963" d="M 1004 1280 L 975 1049 L 362 0 L 59 0 L 666 1022 L 160 1022 L 205 1280 L 1004 1280 Z" unicode="7" />
<glyph horiz-adv-x="963" d="M 983 987 C 983 902 961 832 917 778 C 873 723 810 683 729 657 C 771 627 810 589 846 542 C 881 495 899 440 899 377 C 899 250 855 150 769 77 C 682 3 574 -33 444 -33 C 318 -33 215 -5 135 51 C 55 107 16 187 16 293 C 16 375 39 447 85 507 C 131 567 198 609 287 635 C 245 663 208 700 178 746 C 148 791 133 844 133 905 C 133 1030 175 1129 261 1203 C 346 1276 451 1313 575 1313 C 697 1313 796 1284 871 1227 C 945 1170 983 1090 983 987 Z M 616 360 C 616 413 596 456 556 490 C 516 523 478 547 444 563 C 399 541 366 511 344 473 C 322 435 311 392 311 344 C 311 291 325 251 354 225 C 383 199 418 186 459 186 C 509 186 547 202 575 236 C 602 270 616 311 616 360 Z M 696 956 C 696 1001 685 1037 663 1064 C 641 1090 611 1104 573 1104 C 528 1104 492 1085 465 1049 C 437 1013 424 971 424 924 C 424 874 440 835 472 806 C 504 776 537 753 571 737 C 612 762 643 793 664 830 C 685 866 696 908 696 956 Z" unicode="8" />
<glyph horiz-adv-x="963" d="M 961 854 C 961 632 891 438 751 272 C 611 106 413 5 156 -29 L 104 213 C 197 230 293 261 391 307 C 489 352 567 427 627 532 L 627 539 C 587 513 546 493 504 481 C 462 469 421 463 383 463 C 304 463 239 492 188 551 C 136 610 111 691 111 793 C 111 925 152 1044 234 1152 C 316 1259 426 1313 563 1313 C 695 1313 795 1267 861 1177 C 927 1087 961 979 961 854 Z M 692 887 C 692 945 680 991 656 1027 C 632 1063 599 1081 557 1081 C 501 1081 459 1053 433 997 C 406 941 393 885 393 829 C 393 776 404 736 426 710 C 448 683 479 670 518 670 C 542 670 568 674 596 682 C 623 690 647 703 668 721 C 674 746 680 773 685 802 C 689 831 692 859 692 887 Z" unicode="9" />
<glyph horiz-adv-x="481" d="M 369 160 C 369 102 352 56 318 21 C 284 -13 239 -31 184 -31 C 129 -31 84 -13 50 21 C 15 56 -2 102 -2 160 C -2 216 15 262 50 296 C 84 330 129 348 184 348 C 239 348 284 330 318 296 C 352 262 369 216 369 160 Z M 481 733 C 481 676 464 630 430 595 C 396 560 351 543 295 543 C 239 543 195 560 161 595 C 127 630 111 676 111 733 C 111 790 127 836 161 870 C 195 904 239 922 295 922 C 351 922 396 904 430 870 C 464 836 481 790 481 733 Z" unicode=":" />
<glyph horiz-adv-x="481" d="M 393 115 C 393 11 349 -79 263 -158 C 176 -237 82 -298 -18 -340 L -123 -213 C -81 -191 -31 -157 25 -109 C 82 -61 111 -13 111 35 C 111 70 99 99 77 122 C 54 144 24 164 -12 182 C 0 233 22 274 56 305 C 90 336 133 352 186 352 C 247 352 297 328 335 282 C 373 236 393 180 393 115 Z M 481 733 C 481 676 464 630 430 595 C 396 560 351 543 295 543 C 239 543 195 560 161 595 C 127 630 111 676 111 733 C 111 790 127 836 161 870 C 195 904 239 922 295 922 C 351 922 396 904 430 870 C 464 836 481 790 481 733 Z" unicode=";" />
<glyph horiz-adv-x="963" d="M 856 20 L 150 391 L 150 590 L 856 963 L 856 721 L 422 500 L 422 481 L 856 262 L 856 20 Z" unicode="&#x3C;" />
<glyph horiz-adv-x="963" d="M 877 137 L 150 137 L 160 367 L 866 367 L 877 137 Z M 866 592 L 160 592 L 150 823 L 877 823 L 866 592 Z" unicode="=" />
<glyph horiz-adv-x="963" d="M 891 391 L 182 20 L 182 260 L 618 481 L 618 500 L 182 719 L 182 963 L 891 592 L 891 391 Z" unicode="&#x3E;" />
<glyph horiz-adv-x="754" d="M 815 963 C 815 871 791 799 743 748 C 695 696 629 657 545 631 C 495 615 458 600 432 585 C 406 570 393 557 393 545 C 393 534 403 518 425 496 C 446 474 463 456 477 442 L 252 418 C 218 442 190 470 169 503 C 147 535 137 568 137 602 C 137 722 199 791 324 810 C 449 829 512 872 512 940 C 512 980 492 1006 453 1018 C 414 1030 378 1036 346 1036 C 311 1036 277 1033 243 1027 C 209 1021 181 1016 160 1010 L 225 1282 C 253 1293 287 1300 328 1303 C 368 1305 402 1307 430 1307 C 528 1307 616 1276 696 1216 C 775 1156 815 1071 815 963 Z M 446 145 C 446 90 428 47 394 16 C 360 -15 318 -31 268 -31 C 217 -31 174 -15 139 16 C 103 47 86 90 86 145 C 86 199 103 241 139 272 C 175 303 218 319 268 319 C 318 319 360 303 394 272 C 428 241 446 199 446 145 Z" unicode="?" />
<glyph horiz-adv-x="1761" d="M 1708 631 C 1708 447 1662 309 1571 216 C 1480 122 1378 76 1264 76 C 1194 76 1136 90 1088 119 C 1040 148 1006 190 987 246 C 952 204 913 172 869 152 C 825 131 783 121 741 121 C 661 121 594 151 539 213 C 484 274 457 357 457 461 C 457 598 498 710 580 798 C 662 886 766 930 891 930 C 917 930 945 926 975 918 C 1004 910 1032 900 1059 889 L 1339 932 L 1235 408 C 1221 341 1224 291 1242 259 C 1260 227 1296 211 1350 211 C 1414 211 1474 247 1530 320 C 1586 392 1614 496 1614 631 C 1614 818 1543 968 1402 1082 C 1261 1196 1103 1253 928 1253 C 724 1253 550 1177 408 1026 C 266 875 195 699 195 498 C 195 306 257 141 383 4 C 509 -132 669 -201 864 -201 C 909 -201 953 -197 997 -189 C 1040 -181 1082 -171 1124 -158 L 1149 -236 C 1101 -252 1053 -264 1007 -272 C 961 -280 912 -285 860 -285 C 641 -285 460 -209 317 -57 C 173 94 102 278 102 496 C 102 722 182 919 342 1085 C 502 1251 697 1335 928 1335 C 1134 1335 1316 1271 1473 1144 C 1629 1016 1708 845 1708 631 Z M 1036 688 C 1020 703 1002 716 982 728 C 961 739 937 745 909 745 C 851 745 804 717 769 663 C 734 609 717 548 717 481 C 717 429 729 388 755 359 C 780 329 811 315 848 315 C 874 315 897 319 917 329 C 936 339 953 350 969 362 L 1036 688 Z" unicode="@" />
<glyph horiz-adv-x="1120" d="M 1057 0 L 750 0 L 731 270 L 330 270 L 199 0 L -121 0 L 535 1280 L 936 1280 L 1057 0 Z M 721 520 L 688 1008 L 449 520 L 721 520 Z" unicode="A" />
<glyph horiz-adv-x="1135" d="M 1122 975 C 1122 894 1100 825 1058 767 C 1015 709 957 666 883 639 C 935 616 974 581 1002 534 C 1030 486 1044 435 1044 379 C 1044 248 997 152 905 91 C 812 30 692 0 545 0 L 31 0 L 279 1280 L 754 1280 C 892 1280 988 1249 1042 1189 C 1095 1129 1122 1057 1122 975 Z M 733 401 C 733 449 717 484 685 506 C 653 528 613 539 565 539 L 444 539 L 387 244 L 524 244 C 593 244 645 255 680 277 C 715 299 733 340 733 401 Z M 811 913 C 811 949 799 978 777 1001 C 755 1024 716 1036 662 1036 L 541 1036 L 483 743 L 592 743 C 655 743 707 755 749 781 C 790 807 811 851 811 913 Z" unicode="B" />
<glyph horiz-adv-x="1071" d="M 1116 1241 L 1059 961 C 1003 987 952 1007 904 1021 C 856 1035 810 1042 764 1042 C 642 1042 550 994 487 900 C 424 806 393 695 393 569 C 393 457 417 373 467 318 C 516 263 584 236 670 236 C 714 236 757 243 797 257 C 837 271 878 289 920 311 L 954 47 C 904 19 851 0 797 -13 C 743 -26 691 -33 641 -33 C 458 -33 319 17 223 118 C 127 219 80 355 80 526 C 80 738 138 922 255 1078 C 371 1234 542 1313 768 1313 C 831 1313 891 1306 947 1294 C 1003 1281 1059 1263 1116 1241 Z" unicode="C" />
<glyph horiz-adv-x="1223" d="M 1206 750 C 1206 538 1146 360 1026 216 C 906 72 725 0 483 0 L 31 0 L 279 1280 L 672 1280 C 828 1280 956 1234 1056 1143 C 1156 1051 1206 920 1206 750 Z M 893 731 C 893 829 869 903 821 953 C 773 1003 706 1028 618 1028 L 541 1028 L 391 252 L 506 252 C 635 252 732 299 796 393 C 860 487 893 599 893 731 Z" unicode="D" />
<glyph horiz-adv-x="1049" d="M 1090 1280 L 1040 1026 L 539 1026 L 487 766 L 903 766 L 854 514 L 438 514 L 389 254 L 891 254 L 842 0 L 31 0 L 279 1280 L 1090 1280 Z" unicode="E" />
<glyph horiz-adv-x="958" d="M 1069 1280 L 1020 1018 L 539 1018 L 485 743 L 870 743 L 817 485 L 436 485 L 344 0 L 31 0 L 279 1280 L 1069 1280 Z" unicode="F" />
<glyph horiz-adv-x="1184" d="M 1128 715 C 1106 603 1085 491 1063 379 C 1041 267 1019 155 997 43 C 939 19 878 1 815 -12 C 752 -26 689 -33 625 -33 C 459 -33 327 16 227 115 C 127 213 78 350 78 526 C 78 735 137 918 257 1076 C 376 1234 546 1313 766 1313 C 839 1313 906 1306 968 1294 C 1030 1282 1091 1263 1151 1239 C 1139 1193 1128 1147 1118 1101 C 1108 1055 1097 1009 1087 963 C 1033 988 980 1007 928 1021 C 876 1035 824 1042 772 1042 C 642 1042 546 992 483 892 C 420 792 389 678 389 549 C 389 452 410 373 453 312 C 495 251 561 221 651 221 C 671 221 690 222 708 225 C 726 228 743 233 760 240 L 807 461 L 565 461 L 616 715 L 1128 715 Z" unicode="G" />
<glyph horiz-adv-x="1264" d="M 1292 1280 L 1044 0 L 731 0 L 831 512 L 442 512 L 344 0 L 31 0 L 279 1280 L 592 1280 L 494 778 L 883 778 L 979 1280 L 1292 1280 Z" unicode="H" />
<glyph horiz-adv-x="567" d="M 594 1280 L 346 0 L 33 0 L 281 1280 L 594 1280 Z" unicode="I" />
<glyph horiz-adv-x="821" d="M 872 1280 L 705 403 C 679 267 630 161 559 84 C 488 7 392 -31 272 -31 C 209 -31 145 -19 81 2 C 17 24 -35 55 -76 94 L 29 340 C 56 308 87 282 123 262 C 158 241 193 231 229 231 C 273 231 308 246 336 278 C 363 310 383 358 395 422 L 559 1280 L 872 1280 Z" unicode="J" />
<glyph horiz-adv-x="1149" d="M 1303 1280 L 752 629 L 1028 0 L 690 0 L 455 565 L 453 565 L 344 0 L 31 0 L 279 1280 L 592 1280 L 481 713 L 483 713 L 940 1280 L 1303 1280 Z" unicode="K" />
<glyph horiz-adv-x="897" d="M 827 264 L 776 0 L 31 0 L 279 1280 L 592 1280 L 395 264 L 827 264 Z" unicode="L" />
<glyph horiz-adv-x="1550" d="M 1585 1280 L 1370 0 L 1067 0 L 1229 893 L 836 18 L 532 18 L 487 889 L 297 0 L -10 0 L 283 1280 L 705 1280 L 750 379 L 1155 1280 L 1585 1280 Z" unicode="M" />
<glyph horiz-adv-x="1298" d="M 1327 1280 L 1077 -12 L 752 -12 L 489 807 L 338 0 L 31 0 L 279 1280 L 610 1280 L 868 469 L 1022 1280 L 1327 1280 Z" unicode="N" />
<glyph horiz-adv-x="1280" d="M 1264 743 C 1264 534 1203 352 1083 198 C 963 44 802 -33 600 -33 C 448 -33 323 17 226 118 C 128 219 80 358 80 535 C 80 743 139 925 258 1080 C 377 1235 538 1313 741 1313 C 892 1313 1017 1262 1116 1161 C 1214 1059 1264 920 1264 743 Z M 950 729 C 950 823 930 902 892 965 C 853 1027 795 1059 717 1059 C 613 1059 533 1003 476 892 C 419 780 391 667 391 551 C 391 455 410 376 449 314 C 487 252 546 221 625 221 C 725 221 805 276 863 388 C 921 499 950 613 950 729 Z" unicode="O" />
<glyph horiz-adv-x="1087" d="M 1108 885 C 1108 736 1062 616 971 524 C 880 432 748 383 575 375 L 412 367 L 344 0 L 31 0 L 279 1280 L 688 1280 C 826 1280 931 1240 1002 1160 C 1072 1080 1108 989 1108 885 Z M 795 856 C 795 906 780 947 750 979 C 720 1011 673 1028 610 1028 L 541 1028 L 461 614 L 573 618 C 646 620 701 645 739 691 C 776 737 795 792 795 856 Z" unicode="P" />
<glyph horiz-adv-x="1284" d="M 1262 743 C 1262 593 1230 455 1168 329 C 1105 203 1017 108 903 45 C 947 17 991 -10 1035 -38 C 1079 -66 1124 -96 1169 -127 L 1012 -365 L 604 -33 C 452 -33 326 17 227 117 C 127 217 78 356 78 535 C 78 742 137 923 257 1079 C 377 1235 538 1313 741 1313 C 892 1313 1017 1262 1115 1161 C 1213 1059 1262 920 1262 743 Z M 948 729 C 948 823 929 902 891 965 C 853 1027 794 1059 715 1059 C 613 1059 533 1003 476 892 C 419 780 391 666 391 549 C 391 454 410 376 448 314 C 486 252 545 221 623 221 C 724 221 803 276 861 387 C 919 497 948 611 948 729 Z" unicode="Q" />
<glyph horiz-adv-x="1112" d="M 1120 918 C 1120 818 1095 730 1045 655 C 995 580 924 527 831 496 L 989 0 L 666 0 L 535 434 L 426 426 L 344 0 L 31 0 L 279 1280 L 727 1280 C 852 1280 949 1245 1017 1176 C 1085 1106 1120 1020 1120 918 Z M 809 872 C 809 926 793 965 761 991 C 729 1017 689 1030 641 1030 L 541 1030 L 469 664 L 573 666 C 643 666 700 683 744 716 C 787 748 809 800 809 872 Z" unicode="R" />
<glyph horiz-adv-x="987" d="M 997 1210 L 938 934 C 882 966 822 994 760 1016 C 697 1038 640 1049 590 1049 C 538 1049 501 1037 478 1013 C 455 989 444 959 444 924 C 444 891 458 863 488 840 C 518 816 566 789 633 758 C 725 713 796 662 845 604 C 893 546 918 479 918 403 C 918 265 872 157 782 81 C 691 5 574 -33 432 -33 C 347 -33 269 -22 198 0 C 127 22 66 49 14 82 L 76 358 C 139 320 204 289 270 265 C 336 241 393 229 442 229 C 500 229 542 240 570 263 C 598 286 612 317 612 356 C 612 388 598 418 572 446 C 545 473 497 502 428 532 C 338 572 268 620 216 677 C 164 734 139 808 139 899 C 139 1019 179 1118 261 1196 C 342 1274 453 1313 594 1313 C 683 1313 760 1302 825 1282 C 889 1262 947 1238 997 1210 Z" unicode="S" />
<glyph horiz-adv-x="981" d="M 1116 1280 L 1065 1016 L 750 1016 L 553 0 L 240 0 L 436 1016 L 121 1016 L 170 1280 L 1116 1280 Z" unicode="T" />
<glyph horiz-adv-x="1206" d="M 1257 1280 L 1100 463 C 1068 297 1005 173 912 91 C 818 8 701 -33 559 -33 C 404 -33 288 4 211 80 C 134 155 96 256 96 383 C 96 409 98 437 102 466 C 106 494 111 524 117 555 L 256 1280 L 569 1280 L 422 522 C 418 500 414 480 412 460 C 409 440 408 421 408 403 C 408 350 420 308 445 276 C 470 244 514 229 578 229 C 638 229 684 252 717 298 C 750 344 774 403 788 477 L 944 1280 L 1257 1280 Z" unicode="U" />
<glyph horiz-adv-x="1108" d="M 1284 1280 L 637 0 L 252 0 L 133 1280 L 449 1280 L 502 330 L 948 1280 L 1284 1280 Z" unicode="V" />
<glyph horiz-adv-x="1661" d="M 1800 1280 L 1270 0 L 934 0 L 907 881 L 524 0 L 205 0 L 170 1280 L 487 1280 L 461 424 L 813 1280 L 1139 1280 L 1163 424 L 1460 1280 L 1800 1280 Z" unicode="W" />
<glyph horiz-adv-x="1137" d="M 1280 1280 L 786 651 L 1042 0 L 711 0 L 563 428 L 254 0 L -82 0 L 422 643 L 176 1280 L 508 1280 L 645 872 L 940 1280 L 1280 1280 Z" unicode="X" />
<glyph horiz-adv-x="1026" d="M 1186 1280 L 655 469 L 565 0 L 250 0 L 346 496 L 135 1280 L 442 1280 L 553 782 L 860 1280 L 1186 1280 Z" unicode="Y" />
<glyph horiz-adv-x="1012" d="M 1114 1280 L 1073 1065 L 393 260 L 915 260 L 864 0 L -41 0 L -2 211 L 686 1022 L 166 1022 L 219 1280 L 1114 1280 Z" unicode="Z" />
<glyph horiz-adv-x="963" d="M 887 -418 L 307 -418 L 307 1419 L 887 1419 L 887 1182 L 578 1182 L 578 -180 L 887 -180 L 887 -418 Z" unicode="[" />
<glyph horiz-adv-x="571" d="M 137 1438 L 381 1438 L 518 -408 L 274 -408 L 137 1438 Z" unicode="\" />
<glyph horiz-adv-x="963" d="M 797 -418 L 217 -418 L 217 -180 L 526 -180 L 526 1182 L 217 1182 L 217 1419 L 797 1419 L 797 -418 Z" unicode="]" />
<glyph horiz-adv-x="721" d="M 819 1079 L 596 1079 L 520 1305 L 518 1305 L 360 1079 L 123 1079 L 397 1462 L 688 1462 L 819 1079 Z" unicode="^" />
<glyph horiz-adv-x="750" d="M 750 -248 L -188 -248 L -188 0 L 750 0 L 750 -248 Z" unicode="_" />
<glyph horiz-adv-x="725" d="M 643 1079 L 465 1079 L 225 1458 L 545 1458 L 643 1079 Z" unicode="`" />
<glyph horiz-adv-x="924" d="M 10 225 C 10 373 66 468 180 511 C 294 553 415 569 545 557 L 551 592 C 559 636 554 672 537 701 C 519 730 480 745 418 745 C 375 745 333 738 291 724 C 249 710 210 694 174 676 L 158 909 C 197 929 245 946 302 960 C 359 974 418 981 479 981 C 649 981 757 932 805 834 C 852 736 857 613 821 463 L 780 295 C 774 270 773 249 779 231 C 784 213 801 203 829 203 L 766 -20 C 710 -31 650 -28 586 -12 C 522 4 485 48 475 119 L 471 119 C 442 78 412 43 380 14 C 348 -14 302 -29 240 -29 C 167 -29 110 -3 70 48 C 30 100 10 159 10 225 Z M 299 274 C 299 244 305 219 318 201 C 331 183 351 174 379 174 C 410 174 436 186 458 210 C 480 234 494 264 500 299 L 520 424 C 460 427 408 416 364 390 C 320 364 299 325 299 274 Z" unicode="a" />
<glyph horiz-adv-x="1042" d="M 993 582 C 993 420 951 278 868 156 C 784 34 668 -27 520 -27 C 482 -27 446 -20 410 -8 C 374 3 341 19 311 39 L 20 -20 L 289 1366 L 590 1393 L 489 877 C 519 907 553 931 590 951 C 626 971 669 981 717 981 C 799 981 866 945 917 874 C 967 802 993 705 993 582 Z M 700 551 C 700 614 689 663 667 698 C 645 732 615 750 575 750 C 547 750 524 743 506 731 C 487 719 469 704 451 688 L 369 260 C 384 242 401 226 421 214 C 441 201 466 195 496 195 C 562 195 612 233 647 309 C 682 385 700 466 700 551 Z" unicode="b" />
<glyph horiz-adv-x="852" d="M 862 887 L 780 662 C 743 688 709 708 677 723 C 645 737 611 745 573 745 C 495 745 437 710 399 641 C 361 572 342 499 342 422 C 342 352 357 299 387 262 C 417 225 462 207 520 207 C 550 207 579 211 607 221 C 634 230 663 242 694 256 L 721 31 C 688 13 650 -1 606 -13 C 562 -25 511 -31 455 -31 C 335 -31 238 6 162 82 C 86 158 49 266 49 406 C 49 560 92 695 179 810 C 266 925 387 983 541 983 C 605 983 664 974 718 958 C 772 942 820 918 862 887 Z" unicode="c" />
<glyph horiz-adv-x="1042" d="M 1104 1393 L 834 0 L 539 0 L 555 78 C 523 45 488 19 449 -1 C 409 -21 366 -31 319 -31 C 237 -31 171 4 122 76 C 73 148 49 245 49 369 C 49 529 89 671 171 793 C 252 915 367 977 516 977 C 550 977 584 971 619 961 C 653 951 686 938 717 922 L 803 1366 L 1104 1393 Z M 674 690 C 657 710 638 726 618 738 C 598 750 574 756 547 756 C 478 756 427 716 393 637 C 359 558 342 479 342 399 C 342 336 352 287 374 253 C 396 218 427 201 467 201 C 491 201 514 206 535 218 C 555 230 574 244 592 262 L 674 690 Z" unicode="d" />
<glyph horiz-adv-x="930" d="M 893 657 C 893 618 888 577 879 534 C 869 490 859 452 848 420 L 340 412 L 340 393 C 340 327 355 277 386 244 C 416 211 461 195 520 195 C 569 195 613 201 651 215 C 689 228 722 242 750 258 L 782 33 C 749 15 706 0 652 -12 C 598 -24 543 -31 487 -31 C 340 -31 230 6 158 82 C 85 157 49 263 49 401 C 49 559 96 695 192 810 C 287 925 406 983 549 983 C 653 983 736 954 799 898 C 861 841 893 761 893 657 Z M 616 659 C 616 698 608 728 593 750 C 578 771 554 782 522 782 C 484 782 452 762 426 722 C 400 682 379 628 365 561 L 600 565 C 604 577 607 593 611 612 C 614 630 616 646 616 659 Z" unicode="e" />
<glyph horiz-adv-x="698" d="M 862 1346 L 772 1112 C 748 1132 727 1147 708 1156 C 688 1164 668 1169 647 1169 C 614 1169 590 1156 575 1131 C 560 1106 549 1076 543 1040 L 524 940 L 707 940 L 694 700 L 479 700 L 344 0 L 49 0 L 184 700 L 53 711 L 68 903 L 231 948 L 254 1055 C 278 1165 318 1255 374 1323 C 429 1391 513 1425 627 1425 C 677 1425 721 1417 761 1401 C 801 1385 834 1367 862 1346 Z" unicode="f" />
<glyph horiz-adv-x="895" d="M 997 709 L 838 733 C 842 719 845 704 847 690 C 849 676 850 662 850 649 C 850 550 816 461 749 382 C 682 303 585 264 457 264 C 430 264 405 265 381 268 C 357 271 336 276 317 283 C 304 276 293 268 284 258 C 274 248 270 237 270 225 C 270 207 280 192 302 181 C 324 169 362 158 418 147 C 576 115 682 77 736 31 C 790 -15 817 -77 817 -156 C 817 -268 769 -354 674 -414 C 578 -474 459 -504 317 -504 C 169 -504 58 -480 -16 -434 C -91 -387 -129 -323 -129 -242 C -129 -186 -107 -138 -63 -96 C -19 -54 35 -26 102 -14 C 67 -3 42 14 26 40 C 10 66 2 95 2 129 C 2 171 19 212 53 251 C 87 290 139 316 211 330 C 164 361 130 401 110 450 C 90 498 80 548 80 598 C 80 694 115 781 186 861 C 256 941 361 981 500 981 C 550 981 593 974 629 962 C 665 949 698 931 727 909 L 997 938 L 997 709 Z M 535 -217 C 535 -188 526 -166 509 -151 C 491 -135 462 -123 420 -113 C 396 -106 368 -100 334 -94 C 300 -88 263 -78 225 -66 C 203 -72 182 -86 163 -110 C 144 -134 135 -160 135 -188 C 135 -234 153 -269 190 -295 C 227 -321 276 -334 338 -334 C 399 -334 447 -323 482 -301 C 517 -279 535 -251 535 -217 Z M 586 645 C 586 687 578 721 563 749 C 548 777 521 791 481 791 C 442 791 411 771 387 731 C 363 691 352 644 352 590 C 352 550 359 514 375 484 C 391 453 419 438 459 438 C 502 438 534 459 555 502 C 575 544 586 592 586 645 Z" unicode="g" />
<glyph horiz-adv-x="1055" d="M 25 0 L 289 1366 L 590 1393 L 477 819 C 519 870 564 910 611 939 C 657 968 706 983 758 983 C 854 983 920 947 954 877 C 988 806 997 723 979 629 L 856 0 L 561 0 L 668 553 C 676 599 677 639 669 674 C 661 709 634 727 588 727 C 560 727 533 715 507 693 C 480 671 457 646 438 618 L 319 0 L 25 0 Z" unicode="h" />
<glyph horiz-adv-x="537" d="M 594 1257 C 594 1205 577 1165 545 1135 C 513 1105 470 1090 416 1090 C 362 1090 320 1104 290 1132 C 259 1160 244 1201 244 1255 C 244 1307 260 1348 293 1378 C 325 1408 368 1423 422 1423 C 476 1423 518 1408 548 1380 C 578 1352 594 1311 594 1257 Z M 512 969 L 324 0 L 29 0 L 211 942 L 512 969 Z" unicode="i" />
<glyph horiz-adv-x="537" d="M 512 969 L 342 98 C 313 -50 272 -174 220 -272 C 167 -370 83 -446 -33 -498 L -178 -301 C -116 -269 -69 -227 -38 -174 C -7 -121 16 -55 33 25 C 33 25 45 89 69 217 C 93 345 140 586 211 942 L 512 969 Z M 594 1260 C 594 1206 577 1165 545 1135 C 513 1105 470 1090 416 1090 C 362 1090 320 1104 290 1132 C 259 1160 244 1201 244 1255 C 244 1307 260 1348 293 1378 C 325 1408 368 1423 422 1423 C 476 1423 518 1409 548 1381 C 578 1353 594 1312 594 1260 Z" unicode="j" />
<glyph horiz-adv-x="997" d="M 1069 952 L 702 502 L 893 0 L 571 0 L 414 465 L 410 465 L 319 0 L 25 0 L 289 1366 L 590 1393 L 428 561 L 432 561 L 731 952 L 1069 952 Z" unicode="k" />
<glyph horiz-adv-x="528" d="M 590 1393 L 319 0 L 25 0 L 289 1366 L 590 1393 Z" unicode="l" />
<glyph horiz-adv-x="1565" d="M 1270 983 C 1366 983 1431 947 1464 877 C 1497 806 1505 723 1487 629 L 1364 0 L 1069 0 L 1176 553 C 1184 599 1185 638 1179 672 C 1173 706 1146 723 1100 723 C 1073 723 1048 712 1026 692 C 1003 672 983 649 965 623 L 842 0 L 547 0 L 653 553 C 662 599 663 638 657 672 C 651 706 624 723 578 723 C 550 723 524 712 501 691 C 478 670 457 646 438 618 L 319 0 L 25 0 L 207 942 L 508 969 L 477 819 C 519 870 562 910 606 939 C 649 968 696 983 748 983 C 816 983 869 964 905 927 C 941 890 963 842 971 784 C 1017 847 1065 896 1115 931 C 1165 965 1216 983 1270 983 Z" unicode="m" />
<glyph horiz-adv-x="1055" d="M 25 0 L 207 942 L 508 969 L 477 819 C 519 870 564 910 611 939 C 657 968 706 983 758 983 C 854 983 920 947 954 877 C 988 806 997 723 979 629 L 856 0 L 561 0 L 668 553 C 676 599 677 639 669 674 C 661 709 634 727 588 727 C 560 727 533 715 507 693 C 480 671 457 646 438 618 L 319 0 L 25 0 Z" unicode="n" />
<glyph horiz-adv-x="999" d="M 950 549 C 950 393 905 257 815 142 C 725 26 604 -31 451 -31 C 328 -31 230 8 158 86 C 85 164 49 269 49 401 C 49 556 93 692 183 808 C 273 924 395 983 549 983 C 671 983 768 943 841 864 C 913 785 950 680 950 549 Z M 655 561 C 655 621 646 669 628 705 C 610 741 579 760 537 760 C 471 760 422 717 390 633 C 358 548 342 467 342 391 C 342 329 351 280 370 244 C 389 208 420 190 463 190 C 527 190 575 232 607 317 C 639 402 655 483 655 561 Z" unicode="o" />
<glyph horiz-adv-x="1040" d="M 991 578 C 991 416 950 274 869 152 C 787 30 672 -31 524 -31 C 490 -31 456 -25 421 -15 C 386 -5 354 8 324 25 L 238 -420 L -57 -420 L 207 942 L 508 969 L 487 868 C 519 900 554 927 593 948 C 631 968 674 979 721 979 C 803 979 869 942 918 870 C 966 798 991 700 991 578 Z M 698 547 C 698 610 687 659 665 693 C 643 727 613 745 573 745 C 549 745 526 739 505 727 C 484 715 465 701 449 684 L 367 256 C 383 235 401 219 421 207 C 441 195 466 190 494 190 C 562 190 613 229 647 309 C 681 388 698 467 698 547 Z" unicode="p" />
<glyph horiz-adv-x="1026" d="M 1022 971 L 754 -420 L 457 -420 L 553 74 C 522 43 488 18 452 -1 C 415 -21 373 -31 326 -31 C 243 -31 176 4 125 76 C 74 148 49 245 49 369 C 49 529 90 671 174 793 C 257 915 373 977 522 977 C 560 977 596 970 632 958 C 667 946 700 930 731 911 L 1022 971 Z M 674 690 C 658 708 641 724 621 737 C 601 749 576 756 547 756 C 480 756 429 717 394 641 C 359 564 342 483 342 399 C 342 336 352 287 374 253 C 396 218 427 201 467 201 C 494 201 517 207 536 219 C 554 231 573 246 592 262 L 674 690 Z" unicode="q" />
<glyph horiz-adv-x="752" d="M 801 940 L 737 653 C 719 665 700 675 679 682 C 658 688 636 692 614 692 C 579 692 547 682 517 662 C 487 642 458 613 430 573 L 319 0 L 25 0 L 207 942 L 508 969 L 481 836 C 509 881 541 917 576 943 C 611 969 647 983 684 983 C 706 983 727 979 746 972 C 765 964 783 954 801 940 Z" unicode="r" />
<glyph horiz-adv-x="817" d="M 817 887 L 756 647 C 700 681 649 708 602 726 C 555 744 509 754 463 754 C 439 754 419 748 401 736 C 383 724 375 706 375 684 C 375 662 383 645 401 631 C 419 617 452 601 500 584 C 588 552 650 513 684 469 C 718 424 735 368 735 301 C 735 193 697 110 622 54 C 547 -2 455 -31 346 -31 C 282 -31 220 -22 160 -5 C 100 11 46 35 0 66 L 57 303 C 106 269 155 243 205 225 C 255 206 303 197 350 197 C 378 197 403 203 424 217 C 444 230 455 250 455 276 C 455 296 446 314 430 330 C 414 346 382 361 336 377 C 250 406 188 443 150 487 C 112 531 94 589 94 659 C 94 763 130 842 204 898 C 277 953 367 981 473 981 C 533 981 592 972 652 956 C 711 939 766 916 817 887 Z" unicode="s" />
<glyph horiz-adv-x="707" d="M 713 938 C 711 932 708 892 703 819 C 698 746 696 706 696 700 L 473 700 L 397 352 C 389 313 388 280 396 253 C 403 226 428 213 471 213 C 484 213 498 214 514 218 C 530 222 545 226 561 231 L 586 2 C 557 -7 525 -14 489 -20 C 453 -26 413 -29 371 -29 C 263 -29 185 2 137 66 C 89 129 78 222 104 344 L 182 702 L 74 713 L 86 905 L 238 942 L 285 1167 L 590 1167 L 543 938 L 713 938 Z" unicode="t" />
<glyph horiz-adv-x="1055" d="M 1030 952 L 848 10 L 547 -16 L 578 133 C 534 82 489 42 443 13 C 396 -16 347 -31 297 -31 C 200 -31 134 4 100 75 C 65 145 57 228 76 324 L 199 952 L 494 952 L 387 399 C 377 353 377 313 385 278 C 393 242 420 225 467 225 C 494 225 521 236 547 259 C 573 281 596 306 616 334 L 735 952 L 1030 952 Z" unicode="u" />
<glyph horiz-adv-x="940" d="M 1026 952 L 532 -4 L 205 -4 L 92 952 L 387 952 L 430 336 L 719 952 L 1026 952 Z" unicode="v" />
<glyph horiz-adv-x="1356" d="M 1438 952 L 1022 -4 L 721 -4 L 698 588 L 436 -4 L 141 -4 L 102 952 L 395 952 L 381 383 L 629 952 L 915 952 L 932 395 L 1133 952 L 1438 952 Z" unicode="w" />
<glyph horiz-adv-x="920" d="M 1001 952 L 649 481 L 821 0 L 520 0 L 432 315 L 231 0 L -92 0 L 276 489 L 111 952 L 408 952 L 492 666 L 682 952 L 1001 952 Z" unicode="x" />
<glyph horiz-adv-x="930" d="M 1016 952 L 485 -123 C 426 -243 367 -327 307 -377 C 247 -426 173 -451 84 -451 C 36 -451 -10 -441 -55 -422 C -99 -403 -137 -382 -168 -358 L -57 -137 C -37 -154 -19 -168 -3 -178 C 12 -188 29 -193 49 -193 C 75 -193 97 -186 115 -173 C 132 -160 153 -128 178 -76 L 213 -2 L 92 952 L 391 952 L 434 334 L 707 952 L 1016 952 Z" unicode="y" />
<glyph horiz-adv-x="850" d="M 885 952 L 850 772 L 379 244 L 748 244 L 698 0 L -39 0 L 0 182 L 471 709 L 115 709 L 164 952 L 885 952 Z" unicode="z" />
<glyph horiz-adv-x="963" d="M 813 -442 C 660 -438 539 -419 449 -387 C 359 -354 315 -281 315 -168 C 315 -84 324 -13 343 45 C 361 104 371 160 371 213 C 371 261 353 296 319 319 C 284 342 231 357 160 365 L 154 500 L 160 635 C 231 641 284 654 319 675 C 353 696 371 731 371 780 C 371 833 361 890 343 950 C 324 1010 315 1081 315 1165 C 315 1278 359 1351 449 1385 C 539 1418 660 1438 813 1444 L 813 1247 C 730 1239 675 1225 648 1205 C 621 1185 608 1154 608 1112 C 608 1069 614 1020 628 966 C 642 911 649 842 649 760 C 649 691 627 633 584 587 C 541 541 485 515 416 510 L 416 489 C 485 484 541 458 584 410 C 627 362 649 304 649 238 C 649 156 642 89 628 38 C 614 -13 608 -61 608 -106 C 608 -151 621 -184 648 -206 C 675 -228 730 -242 813 -250 L 813 -442 Z" unicode="{" />
<glyph horiz-adv-x="481" d="M 373 -410 L 111 -410 L 111 1436 L 373 1436 L 373 -410 Z" unicode="|" />
<glyph horiz-adv-x="963" d="M 872 500 L 866 365 C 794 357 741 342 707 319 C 672 296 655 261 655 213 C 655 160 664 104 683 45 C 701 -13 711 -84 711 -168 C 711 -281 666 -354 576 -387 C 486 -419 365 -438 213 -442 L 213 -250 C 295 -242 350 -228 377 -206 C 404 -184 418 -151 418 -106 C 418 -61 411 -13 397 38 C 383 89 377 156 377 238 C 377 304 398 362 441 410 C 484 458 540 484 610 489 L 610 510 C 540 515 484 541 441 587 C 398 633 377 691 377 760 C 377 842 383 911 397 966 C 411 1020 418 1069 418 1112 C 418 1154 404 1185 377 1205 C 350 1225 295 1239 213 1247 L 213 1444 C 365 1438 486 1418 576 1385 C 666 1351 711 1278 711 1165 C 711 1081 701 1010 683 950 C 664 890 655 833 655 780 C 655 731 672 696 707 675 C 741 654 794 641 866 635 L 872 500 Z" unicode="}" />
<glyph horiz-adv-x="963" d="M 883 694 C 854 588 819 509 778 457 C 736 405 687 379 631 379 C 563 379 508 399 465 441 C 422 483 384 504 352 504 C 330 504 314 490 304 462 C 293 434 287 412 287 397 L 109 397 C 138 503 172 582 212 634 C 251 686 299 713 356 713 C 424 713 480 692 524 650 C 567 608 605 588 639 588 C 659 588 675 600 685 626 C 695 651 702 674 705 694 L 883 694 Z" unicode="~" />
<glyph horiz-adv-x="369" d="" unicode=" " />
<glyph horiz-adv-x="608" d="M 252 1133 C 252 1187 269 1230 303 1262 C 337 1293 380 1308 430 1308 C 481 1308 524 1293 560 1262 C 595 1230 613 1187 613 1133 C 613 1077 595 1034 559 1004 C 523 974 480 959 430 959 C 380 959 337 974 303 1004 C 269 1034 252 1077 252 1133 Z M 21 -19 L 271 852 L 481 815 L 375 -69 L 21 -19 Z" unicode="¡" />
<glyph horiz-adv-x="963" d="M 926 883 L 836 662 C 818 674 801 685 783 695 C 765 705 748 713 731 721 L 559 209 C 587 211 620 216 656 224 C 692 232 726 242 756 256 L 774 29 C 741 11 699 -2 648 -12 C 597 -22 548 -27 500 -27 L 477 -27 L 391 -274 L 262 -274 L 352 -6 C 268 16 200 62 148 132 C 96 202 70 292 70 403 C 70 557 116 692 209 809 C 302 926 426 985 580 985 C 598 985 616 984 634 982 C 652 980 670 979 688 977 L 758 1180 L 887 1180 L 809 946 C 830 938 851 929 871 919 C 891 909 909 897 926 883 Z M 610 745 C 528 745 466 711 423 645 C 379 578 358 504 358 424 C 358 378 365 339 379 308 C 393 277 412 253 438 236 L 610 745 Z" unicode="¢" />
<glyph horiz-adv-x="963" d="M 993 1188 L 899 967 C 870 993 837 1015 799 1035 C 761 1055 722 1065 684 1065 C 612 1065 562 1039 534 988 C 506 936 490 872 485 795 L 479 700 L 766 700 L 756 563 L 477 563 L 469 457 C 467 429 464 402 460 378 C 456 354 449 328 440 301 C 464 276 490 256 517 240 C 544 224 570 217 596 217 C 626 217 652 229 673 253 C 694 277 715 325 735 397 L 942 338 C 914 206 869 112 805 56 C 741 0 674 -29 606 -29 C 549 -29 497 -15 450 13 C 403 41 364 74 334 113 C 302 74 259 42 205 18 C 151 -5 83 -22 2 -31 L 2 195 C 98 211 160 247 187 304 C 214 360 229 447 231 563 L 84 563 C 82 584 82 606 82 630 C 82 653 82 676 82 700 L 229 700 L 229 729 C 233 927 277 1072 362 1166 C 446 1260 550 1307 674 1307 C 734 1307 792 1295 848 1272 C 903 1249 951 1221 993 1188 Z" unicode="£" />
<glyph horiz-adv-x="991" d="M 940 1026 L 811 897 C 822 873 831 846 838 816 C 844 785 848 758 848 735 C 848 707 845 679 839 650 C 833 620 824 593 813 569 L 950 432 L 801 283 L 666 416 C 641 403 615 394 587 388 C 559 382 529 379 498 379 C 465 379 434 382 406 388 C 377 394 351 402 328 414 L 205 291 L 57 438 L 180 563 C 166 589 156 617 151 645 C 145 673 143 703 143 735 C 143 769 145 799 150 825 C 154 851 164 877 180 903 L 51 1032 L 201 1182 L 328 1055 C 351 1067 377 1076 406 1082 C 435 1088 466 1092 498 1092 C 527 1092 556 1088 586 1081 C 616 1073 643 1063 668 1051 L 793 1174 L 940 1026 Z M 651 735 C 651 777 637 815 610 847 C 582 879 545 895 498 895 C 448 895 409 879 381 847 C 353 815 340 777 340 735 C 340 692 353 655 381 623 C 409 591 448 575 498 575 C 545 575 582 591 610 623 C 637 655 651 692 651 735 Z" unicode="¤" />
<glyph horiz-adv-x="963" d="M 1133 1280 L 729 692 L 926 692 L 907 549 L 651 549 L 625 416 L 864 416 L 860 274 L 604 274 L 549 0 L 250 0 L 305 274 L 63 274 L 84 416 L 336 416 L 362 549 L 125 549 L 129 692 L 344 692 L 162 1280 L 469 1280 L 559 831 L 817 1280 L 1133 1280 Z" unicode="¥" />
<glyph horiz-adv-x="481" d="M 371 -285 L 109 -285 L 109 401 L 371 401 L 371 -285 Z M 371 629 L 109 629 L 109 1311 L 371 1311 L 371 629 Z" unicode="¦" />
<glyph horiz-adv-x="963" d="M 987 1190 L 885 985 C 837 1019 792 1046 749 1067 C 706 1087 662 1098 616 1098 C 592 1098 572 1091 556 1079 C 540 1067 532 1049 532 1026 C 532 1002 546 980 575 959 C 604 938 648 915 707 891 C 771 863 828 827 878 783 C 927 739 952 681 952 610 C 952 546 932 490 892 443 C 852 395 801 362 739 344 C 757 323 773 300 785 275 C 797 249 803 220 803 186 C 803 87 765 9 690 -48 C 614 -106 530 -135 438 -135 C 377 -135 308 -123 231 -101 C 154 -78 93 -46 47 -4 L 145 203 C 193 165 241 135 289 115 C 337 94 386 84 436 84 C 460 84 482 90 500 104 C 518 117 528 136 528 162 C 528 189 511 213 477 235 C 443 256 401 277 352 299 C 290 325 230 358 172 397 C 114 435 86 493 86 571 C 86 642 107 702 150 750 C 192 798 247 831 313 848 C 297 868 283 890 273 915 C 263 939 258 967 258 999 C 258 1098 292 1176 361 1232 C 430 1288 512 1317 608 1317 C 666 1317 733 1306 809 1284 C 885 1262 945 1230 987 1190 Z M 725 541 C 725 581 695 617 637 647 C 579 677 536 699 510 713 C 490 723 471 732 452 742 C 432 751 414 762 397 776 C 373 760 353 742 335 722 C 317 702 309 679 309 653 C 309 611 339 575 400 544 C 460 512 504 490 530 477 C 548 467 568 457 589 447 C 609 437 629 427 647 416 C 669 431 688 449 703 471 C 717 493 725 516 725 541 Z" unicode="§" />
<glyph horiz-adv-x="725" d="M 440 1247 C 440 1196 425 1157 397 1129 C 369 1101 331 1087 285 1087 C 239 1087 201 1101 172 1129 C 143 1157 129 1196 129 1247 C 129 1299 143 1338 172 1366 C 201 1393 239 1407 285 1407 C 331 1407 369 1393 397 1366 C 425 1338 440 1299 440 1247 Z M 874 1247 C 874 1196 860 1157 832 1129 C 804 1101 767 1087 721 1087 C 675 1087 637 1101 608 1129 C 579 1157 565 1196 565 1247 C 565 1299 579 1338 608 1366 C 637 1393 675 1407 721 1407 C 767 1407 804 1393 832 1366 C 860 1338 874 1299 874 1247 Z" unicode="¨" />
<glyph horiz-adv-x="1636" d="M 1128 993 L 1053 786 C 1028 800 999 812 966 822 C 932 831 900 836 870 836 C 814 836 769 818 737 783 C 704 747 688 701 688 643 C 688 581 703 532 734 496 C 764 460 810 442 870 442 C 906 442 939 447 971 457 C 1003 467 1034 480 1065 498 L 1118 285 C 1089 270 1050 258 1001 248 C 951 238 904 233 858 233 C 730 233 627 267 551 335 C 474 403 436 503 436 637 C 436 761 474 860 550 935 C 626 1009 732 1047 868 1047 C 917 1047 963 1041 1007 1031 C 1051 1020 1091 1007 1128 993 Z M 817 -121 C 608 -121 429 -46 281 102 C 133 250 59 429 59 637 C 59 845 133 1024 281 1174 C 429 1324 608 1399 817 1399 C 1025 1399 1204 1324 1353 1174 C 1502 1024 1577 845 1577 637 C 1577 429 1502 250 1353 102 C 1204 -46 1025 -121 817 -121 Z M 1507 637 C 1507 826 1439 989 1304 1127 C 1168 1264 1006 1333 817 1333 C 627 1333 465 1264 331 1127 C 196 989 129 826 129 637 C 129 447 196 284 331 148 C 465 11 627 -57 817 -57 C 1006 -57 1168 11 1304 148 C 1439 284 1507 447 1507 637 Z" unicode="©" />
<glyph horiz-adv-x="748" d="M 90 696 C 90 798 131 871 215 916 C 299 960 400 979 518 971 L 524 997 C 526 1005 527 1013 527 1020 C 527 1027 528 1034 528 1040 C 528 1064 520 1083 506 1096 C 491 1109 468 1116 438 1116 C 407 1116 369 1108 324 1093 C 278 1077 239 1058 207 1036 L 180 1225 C 216 1248 263 1268 322 1286 C 380 1304 438 1313 494 1313 C 585 1313 653 1291 697 1249 C 741 1206 764 1148 764 1075 C 764 1059 763 1043 762 1025 C 760 1007 758 991 756 975 L 713 768 C 711 756 709 745 707 734 C 705 723 705 713 705 705 C 705 673 708 644 716 620 C 723 595 731 573 739 555 L 496 500 C 485 515 476 532 469 550 C 462 568 459 592 459 621 L 455 621 C 429 588 399 560 367 538 C 334 515 298 504 260 504 C 211 504 170 520 138 554 C 106 588 90 635 90 696 Z M 311 737 C 311 717 316 700 328 686 C 340 672 355 666 375 666 C 427 666 459 689 470 735 C 481 781 490 824 498 866 C 446 865 402 854 366 833 C 329 811 311 779 311 737 Z" unicode="ª" />
<glyph horiz-adv-x="1178" d="M 610 721 L 270 471 L 270 461 L 506 217 L 428 29 L 12 356 L 61 608 L 604 936 L 610 721 Z M 1169 721 L 829 471 L 829 461 L 1067 217 L 987 29 L 571 356 L 623 608 L 1163 936 L 1169 721 Z" unicode="«" />
<glyph horiz-adv-x="963" d="M 870 694 L 870 184 L 639 184 L 639 463 L 84 463 L 90 694 L 870 694 Z" unicode="¬" />
<glyph horiz-adv-x="664" d="M 618 371 L 49 371 L 49 621 L 618 621 L 618 371 Z" unicode="­" />
<glyph horiz-adv-x="1636" d="M 731 506 L 731 264 L 487 264 L 487 1030 L 858 1030 C 965 1030 1046 1007 1102 962 C 1158 916 1186 855 1186 778 C 1186 732 1174 689 1150 650 C 1126 611 1089 581 1040 561 L 1217 264 L 954 264 L 821 512 L 731 506 Z M 817 -121 C 608 -121 429 -46 281 102 C 133 250 59 429 59 637 C 59 845 133 1024 281 1174 C 429 1324 608 1399 817 1399 C 1025 1399 1204 1324 1353 1174 C 1502 1024 1577 845 1577 637 C 1577 429 1502 250 1353 102 C 1204 -46 1025 -121 817 -121 Z M 1507 637 C 1507 826 1439 989 1304 1127 C 1168 1264 1006 1333 817 1333 C 627 1333 465 1264 331 1127 C 196 989 129 826 129 637 C 129 447 196 284 331 148 C 465 11 627 -57 817 -57 C 1006 -57 1168 11 1304 148 C 1439 284 1507 447 1507 637 Z M 729 655 L 813 657 C 853 658 883 667 905 685 C 927 703 938 729 938 764 C 938 795 927 819 907 836 C 886 853 853 862 809 862 L 729 862 L 729 655 Z" unicode="®" />
<glyph horiz-adv-x="725" d="M 842 1124 L 193 1124 L 215 1307 L 829 1307 C 831 1276 832 1245 834 1215 C 836 1185 838 1154 842 1124 Z" unicode="¯" />
<glyph horiz-adv-x="963" d="M 899 1001 C 899 900 862 814 789 743 C 716 672 628 637 524 637 C 432 637 359 665 304 722 C 248 779 221 853 221 944 C 221 1042 257 1127 331 1200 C 404 1272 492 1309 594 1309 C 685 1309 759 1280 815 1224 C 871 1167 899 1093 899 1001 Z M 766 993 C 766 1052 748 1098 714 1132 C 679 1165 634 1182 580 1182 C 516 1182 463 1159 419 1113 C 375 1067 354 1013 354 950 C 354 894 371 849 405 815 C 439 781 485 764 543 764 C 605 764 658 787 701 833 C 744 879 766 932 766 993 Z" unicode="°" />
<glyph horiz-adv-x="963" d="M 909 567 L 612 567 L 612 276 L 369 276 L 369 567 L 74 567 L 80 799 L 369 799 L 369 1090 L 612 1090 L 612 799 L 903 799 L 909 567 Z M 909 0 L 74 0 L 80 231 L 903 231 L 909 0 Z" unicode="±" />
<glyph horiz-adv-x="635" d="M 690 1145 C 690 1073 660 1005 601 940 C 541 875 465 814 373 756 L 631 756 L 594 559 L 82 559 L 106 737 C 234 838 322 912 370 959 C 418 1006 443 1050 444 1092 C 444 1116 435 1132 418 1142 C 400 1152 382 1157 362 1157 C 338 1157 313 1152 288 1142 C 263 1132 239 1120 217 1106 L 178 1280 C 216 1302 257 1320 301 1334 C 344 1347 388 1354 432 1354 C 510 1354 573 1336 620 1300 C 666 1264 690 1213 690 1145 Z" unicode="²" />
<glyph horiz-adv-x="635" d="M 668 1167 C 668 1107 649 1058 613 1021 C 577 984 531 961 475 952 C 519 945 555 927 585 898 C 614 869 629 828 629 774 C 629 698 598 640 536 600 C 474 560 403 541 322 541 C 276 541 230 547 184 559 C 138 571 100 588 68 608 L 129 774 C 155 758 186 746 222 736 C 257 726 291 721 324 721 C 338 721 357 728 381 742 C 405 756 418 775 418 801 C 418 823 408 838 390 848 C 372 858 350 864 324 866 C 311 866 298 865 284 865 C 270 865 255 864 238 862 C 242 887 247 912 251 938 C 255 964 260 989 264 1014 C 308 1014 348 1022 383 1037 C 418 1052 436 1076 436 1110 C 436 1126 429 1139 417 1150 C 405 1161 388 1167 367 1167 C 343 1167 317 1163 291 1155 C 264 1147 240 1137 219 1126 L 186 1294 C 222 1310 261 1324 301 1334 C 341 1344 379 1350 416 1350 C 470 1350 526 1337 583 1312 C 639 1286 668 1238 668 1167 Z" unicode="³" />
<glyph horiz-adv-x="725" d="M 868 1458 L 494 1079 L 287 1079 L 532 1458 L 868 1458 Z" unicode="´" />
<glyph horiz-adv-x="1032" d="M 934 0 L 633 0 L 633 86 C 625 52 610 27 590 10 C 569 -7 540 -16 504 -16 C 480 -16 460 -12 442 -5 C 424 2 409 13 399 29 L 399 -477 L 98 -477 L 98 952 L 399 952 L 399 379 C 399 319 411 280 435 262 C 459 244 486 236 516 236 C 542 236 568 246 594 266 C 620 286 633 327 633 389 L 633 952 L 934 952 L 934 0 Z" unicode="µ" />
<glyph horiz-adv-x="963" d="M 1012 1280 L 731 -143 L 473 -143 L 586 420 C 575 418 560 416 542 415 C 523 414 504 414 485 414 C 394 414 306 442 221 500 C 136 558 94 660 94 807 C 94 937 140 1049 233 1141 C 325 1233 455 1280 623 1280 L 1012 1280 Z" unicode="¶" />
<glyph horiz-adv-x="481" d="M 436 528 C 436 471 419 425 385 390 C 351 355 306 338 250 338 C 194 338 150 355 116 390 C 82 425 66 471 66 528 C 66 585 82 631 116 665 C 150 699 194 717 250 717 C 306 717 351 699 385 665 C 419 631 436 585 436 528 Z" unicode="·" />
<glyph horiz-adv-x="725" d="M 508 80 L 276 -104 C 336 -112 384 -133 419 -166 C 453 -198 471 -241 471 -293 C 471 -377 433 -444 359 -492 C 285 -540 181 -564 49 -563 L 63 -418 C 129 -418 183 -410 223 -393 C 263 -375 283 -349 283 -315 C 283 -283 267 -260 236 -246 C 204 -231 159 -224 100 -225 L 104 -119 L 350 80 L 508 80 Z" unicode="¸" />
<glyph horiz-adv-x="635" d="M 657 1333 L 465 559 L 213 559 L 348 1085 L 170 1055 L 197 1257 L 657 1333 Z" unicode="¹" />
<glyph horiz-adv-x="809" d="M 868 952 C 868 830 830 724 756 636 C 681 548 583 504 461 504 C 359 504 277 536 216 602 C 155 668 125 754 125 860 C 125 982 162 1088 237 1177 C 311 1266 409 1311 530 1311 C 632 1311 713 1277 775 1210 C 837 1143 868 1057 868 952 Z M 629 971 C 629 1021 621 1060 605 1089 C 589 1118 562 1133 526 1133 C 472 1133 431 1100 403 1034 C 375 968 362 904 362 842 C 362 792 370 752 386 722 C 402 692 428 678 465 678 C 519 678 560 711 588 778 C 615 844 629 909 629 971 Z" unicode="º" />
<glyph horiz-adv-x="1178" d="M 8 244 L 348 494 L 348 504 L 111 748 L 190 936 L 606 608 L 555 356 L 14 29 L 8 244 Z M 567 244 L 907 494 L 907 504 L 672 748 L 750 936 L 1165 608 L 1116 356 L 573 29 L 567 244 Z" unicode="»" />
<glyph horiz-adv-x="1313" d="M 1284 473 L 1196 51 L 1264 51 L 1231 -123 L 1159 -123 L 1124 -293 L 905 -293 L 938 -123 L 655 -123 L 664 39 L 965 473 L 1284 473 Z M 633 1333 L 438 559 L 186 559 L 322 1085 L 143 1055 L 170 1257 L 633 1333 Z M 1407 1280 L 133 -238 L -92 -238 L 1182 1280 L 1407 1280 Z M 1040 322 L 852 43 L 981 43 L 1040 322 Z" unicode="¼" />
<glyph horiz-adv-x="1313" d="M 1278 293 C 1278 221 1248 153 1189 88 C 1129 23 1053 -38 961 -96 L 1219 -96 L 1182 -293 L 670 -293 L 692 -115 C 820 -13 907 60 953 107 C 999 154 1022 198 1024 240 C 1024 264 1015 280 999 290 C 983 300 965 305 946 305 C 922 305 898 300 874 290 C 850 280 827 268 805 254 L 766 428 C 804 450 844 468 888 482 C 932 495 976 502 1020 502 C 1098 502 1161 484 1208 448 C 1254 412 1278 361 1278 293 Z M 657 1333 L 465 559 L 211 559 L 346 1085 L 170 1055 L 197 1257 L 657 1333 Z M 1411 1280 L 137 -238 L -90 -238 L 1184 1280 L 1411 1280 Z" unicode="½" />
<glyph horiz-adv-x="1313" d="M 639 1167 C 639 1107 620 1058 584 1021 C 548 984 501 961 444 952 C 488 945 524 927 554 898 C 583 869 598 828 598 774 C 598 698 567 640 506 600 C 445 560 373 541 291 541 C 246 541 201 547 155 559 C 109 571 70 588 37 608 C 48 636 58 663 68 691 C 78 719 88 746 98 774 C 126 758 157 746 193 736 C 228 726 262 721 295 721 C 307 721 325 727 350 740 C 374 753 387 773 387 801 C 387 823 378 838 361 848 C 343 858 321 864 295 866 C 283 866 269 865 255 865 C 240 865 225 864 209 862 C 213 887 217 912 221 938 C 225 964 230 989 236 1014 C 279 1014 318 1022 353 1037 C 388 1051 406 1076 406 1112 C 406 1127 399 1140 387 1151 C 375 1161 358 1167 336 1167 C 313 1167 288 1163 261 1155 C 234 1147 210 1137 188 1126 L 158 1294 C 194 1310 232 1324 272 1334 C 311 1344 349 1350 387 1350 C 442 1350 498 1337 554 1312 C 610 1286 639 1238 639 1167 Z M 1253 471 C 1237 401 1222 331 1208 261 C 1194 190 1179 120 1165 51 L 1233 51 C 1227 22 1221 -6 1216 -35 C 1210 -64 1205 -93 1200 -123 L 1128 -123 C 1122 -150 1116 -178 1110 -207 C 1104 -235 1098 -264 1094 -293 L 874 -293 L 907 -123 L 625 -123 L 633 37 L 934 471 L 1253 471 Z M 1010 319 C 979 273 948 227 916 181 C 884 135 853 89 821 43 L 950 43 C 960 89 971 135 981 181 C 991 227 1000 273 1010 319 Z M 1407 1280 L 133 -238 L -90 -238 C 120 14 331 267 544 521 C 757 775 970 1028 1182 1280 L 1407 1280 Z" unicode="¾" />
<glyph horiz-adv-x="754" d="M 13 315 C 13 407 36 478 84 530 C 132 581 198 620 283 647 C 332 662 370 677 396 692 C 422 707 435 721 435 733 C 435 743 424 759 403 781 C 381 803 364 821 351 836 L 576 860 C 610 836 637 807 659 775 C 680 742 691 709 691 676 C 691 556 628 486 503 467 C 378 448 316 405 316 338 C 316 297 335 271 374 259 C 413 247 449 242 482 242 C 516 242 551 244 585 250 C 619 256 646 262 668 268 L 603 -3 C 575 -15 540 -22 500 -24 C 459 -27 425 -28 398 -28 C 300 -28 211 1 132 61 C 52 121 13 206 13 315 Z M 382 1133 C 382 1187 399 1230 433 1262 C 467 1293 510 1308 560 1308 C 610 1308 653 1293 689 1262 C 724 1230 742 1187 742 1133 C 742 1079 724 1036 688 1005 C 652 974 610 959 560 959 C 510 959 467 974 433 1005 C 399 1036 382 1079 382 1133 Z" unicode="¿" />
<glyph horiz-adv-x="1120" d="M 1057 0 L 750 0 L 731 270 L 330 270 L 199 0 L -121 0 L 535 1280 L 936 1280 L 1057 0 Z M 721 520 L 688 1008 L 449 520 L 721 520 Z M 843 1392 L 665 1392 L 425 1771 L 745 1771 L 843 1392 Z" unicode="À" />
<glyph horiz-adv-x="1120" d="M 1057 0 L 750 0 L 731 270 L 330 270 L 199 0 L -121 0 L 535 1280 L 936 1280 L 1057 0 Z M 721 520 L 688 1008 L 449 520 L 721 520 Z M 1238 1771 L 864 1392 L 657 1392 L 902 1771 L 1238 1771 Z" unicode="Á" />
<glyph horiz-adv-x="1120" d="M 1057 0 L 750 0 L 731 270 L 330 270 L 199 0 L -121 0 L 535 1280 L 936 1280 L 1057 0 Z M 721 520 L 688 1008 L 449 520 L 721 520 Z M 1089 1392 L 866 1392 L 790 1618 L 788 1618 L 630 1392 L 393 1392 L 667 1775 L 958 1775 L 1089 1392 Z" unicode="Â" />
<glyph horiz-adv-x="1120" d="M 1057 0 L 750 0 L 731 270 L 330 270 L 199 0 L -121 0 L 535 1280 L 936 1280 L 1057 0 Z M 721 520 L 688 1008 L 449 520 L 721 520 Z M 1169 1714 C 1140 1608 1105 1528 1064 1476 C 1023 1424 974 1398 917 1398 C 849 1398 794 1418 752 1460 C 709 1502 671 1523 639 1523 C 617 1523 601 1509 591 1481 C 580 1453 574 1432 573 1417 L 395 1417 C 424 1523 458 1602 498 1654 C 537 1706 585 1732 643 1732 C 711 1732 766 1711 810 1669 C 853 1627 891 1607 925 1607 C 945 1607 961 1619 972 1645 C 982 1670 989 1693 991 1714 L 1169 1714 Z" unicode="Ã" />
<glyph horiz-adv-x="1120" d="M 1057 0 L 750 0 L 731 270 L 330 270 L 199 0 L -121 0 L 535 1280 L 936 1280 L 1057 0 Z M 721 520 L 688 1008 L 449 520 L 721 520 Z M 702 1560 C 702 1509 687 1470 659 1442 C 631 1414 593 1400 547 1400 C 501 1400 463 1414 434 1442 C 405 1470 391 1509 391 1560 C 391 1612 405 1651 434 1679 C 463 1706 501 1720 547 1720 C 593 1720 631 1706 659 1679 C 687 1651 702 1612 702 1560 Z M 1136 1560 C 1136 1509 1122 1470 1094 1442 C 1066 1414 1029 1400 983 1400 C 937 1400 899 1414 870 1442 C 841 1470 827 1509 827 1560 C 827 1612 841 1651 870 1679 C 899 1706 937 1720 983 1720 C 1029 1720 1066 1706 1094 1679 C 1122 1651 1136 1612 1136 1560 Z" unicode="Ä" />
<glyph horiz-adv-x="1120" d="M 1204 0 L 897 0 L 879 270 L 477 270 L 346 0 L 27 0 L 676 1272 C 666 1285 659 1301 654 1321 C 649 1340 647 1360 647 1382 C 647 1456 672 1520 723 1574 C 773 1628 839 1655 920 1655 C 988 1655 1044 1636 1090 1598 C 1136 1560 1159 1508 1159 1442 C 1159 1404 1152 1370 1138 1338 C 1124 1306 1107 1278 1085 1255 L 1204 0 Z M 1038 1438 C 1038 1476 1026 1505 1002 1525 C 978 1545 949 1556 915 1556 C 870 1556 834 1539 808 1506 C 781 1472 768 1434 768 1391 C 768 1353 779 1324 803 1303 C 826 1282 855 1272 889 1272 C 935 1272 971 1289 998 1323 C 1024 1357 1038 1395 1038 1438 Z M 868 520 L 836 1008 L 596 520 L 868 520 Z" unicode="Å" />
<glyph horiz-adv-x="1616" d="M 1698 1280 L 1649 1026 L 1147 1026 L 1096 766 L 1511 766 L 1462 514 L 1047 514 L 997 254 L 1499 254 L 1450 0 L 639 0 L 690 264 L 375 264 L 215 0 L -123 0 L 659 1280 L 1698 1280 Z M 840 1040 L 524 514 L 737 514 L 840 1040 Z" unicode="Æ" />
<glyph horiz-adv-x="1071" d="M 1116 1241 L 1059 961 C 1003 987 952 1007 904 1021 C 856 1035 810 1042 764 1042 C 642 1042 550 994 487 900 C 424 806 393 695 393 569 C 393 457 417 373 467 318 C 516 263 584 236 670 236 C 714 236 757 243 797 257 C 837 271 878 289 920 311 L 954 47 C 910 23 865 5 817 -8 C 769 -21 722 -29 678 -31 L 588 -104 C 648 -112 695 -133 730 -166 C 764 -198 782 -241 782 -293 C 782 -377 744 -444 670 -492 C 596 -540 492 -564 360 -563 L 375 -418 C 441 -418 494 -410 534 -393 C 574 -375 594 -349 594 -315 C 594 -283 578 -260 547 -246 C 515 -231 470 -224 412 -225 L 416 -119 L 530 -25 C 383 -5 271 52 195 150 C 118 248 80 373 80 526 C 80 738 138 922 255 1078 C 371 1234 542 1313 768 1313 C 831 1313 891 1306 947 1294 C 1003 1281 1059 1263 1116 1241 Z" unicode="Ç" />
<glyph horiz-adv-x="1049" d="M 1090 1280 L 1040 1026 L 539 1026 L 487 766 L 903 766 L 854 514 L 438 514 L 389 254 L 891 254 L 842 0 L 31 0 L 279 1280 L 1090 1280 Z M 890 1392 L 712 1392 L 472 1771 L 792 1771 L 890 1392 Z" unicode="È" />
<glyph horiz-adv-x="1049" d="M 1090 1280 L 1040 1026 L 539 1026 L 487 766 L 903 766 L 854 514 L 438 514 L 389 254 L 891 254 L 842 0 L 31 0 L 279 1280 L 1090 1280 Z M 1177 1771 L 803 1392 L 596 1392 L 841 1771 L 1177 1771 Z" unicode="É" />
<glyph horiz-adv-x="1049" d="M 1090 1280 L 1040 1026 L 539 1026 L 487 766 L 903 766 L 854 514 L 438 514 L 389 254 L 891 254 L 842 0 L 31 0 L 279 1280 L 1090 1280 Z M 1040 1392 L 817 1392 L 741 1618 L 739 1618 L 581 1392 L 344 1392 L 618 1775 L 909 1775 L 1040 1392 Z" unicode="Ê" />
<glyph horiz-adv-x="1049" d="M 1090 1280 L 1040 1026 L 539 1026 L 487 766 L 903 766 L 854 514 L 438 514 L 389 254 L 891 254 L 842 0 L 31 0 L 279 1280 L 1090 1280 Z M 650 1560 C 650 1509 635 1470 607 1442 C 579 1414 541 1400 495 1400 C 449 1400 411 1414 382 1442 C 353 1470 339 1509 339 1560 C 339 1612 353 1651 382 1679 C 411 1706 449 1720 495 1720 C 541 1720 579 1706 607 1679 C 635 1651 650 1612 650 1560 Z M 1084 1560 C 1084 1509 1070 1470 1042 1442 C 1014 1414 977 1400 931 1400 C 885 1400 847 1414 818 1442 C 789 1470 775 1509 775 1560 C 775 1612 789 1651 818 1679 C 847 1706 885 1720 931 1720 C 977 1720 1014 1706 1042 1679 C 1070 1651 1084 1612 1084 1560 Z" unicode="Ë" />
<glyph horiz-adv-x="567" d="M 594 1280 L 346 0 L 33 0 L 281 1280 L 594 1280 Z M 569 1392 L 391 1392 L 151 1771 L 471 1771 L 569 1392 Z" unicode="Ì" />
<glyph horiz-adv-x="567" d="M 594 1280 L 346 0 L 33 0 L 281 1280 L 594 1280 Z M 935 1771 L 561 1392 L 354 1392 L 599 1771 L 935 1771 Z" unicode="Í" />
<glyph horiz-adv-x="567" d="M 594 1280 L 346 0 L 33 0 L 281 1280 L 594 1280 Z M 821 1392 L 598 1392 L 522 1618 L 520 1618 L 362 1392 L 125 1392 L 399 1775 L 690 1775 L 821 1392 Z" unicode="Î" />
<glyph horiz-adv-x="567" d="M 594 1280 L 346 0 L 33 0 L 281 1280 L 594 1280 Z M 413 1560 C 413 1509 398 1470 370 1442 C 342 1414 304 1400 258 1400 C 212 1400 174 1414 145 1442 C 116 1470 102 1509 102 1560 C 102 1612 116 1651 145 1679 C 174 1706 212 1720 258 1720 C 304 1720 342 1706 370 1679 C 398 1651 413 1612 413 1560 Z M 847 1560 C 847 1509 833 1470 805 1442 C 777 1414 740 1400 694 1400 C 648 1400 610 1414 581 1442 C 552 1470 538 1509 538 1560 C 538 1612 552 1651 581 1679 C 610 1706 648 1720 694 1720 C 740 1720 777 1706 805 1679 C 833 1651 847 1612 847 1560 Z" unicode="Ï" />
<glyph horiz-adv-x="1251" d="M 1235 750 C 1235 538 1174 360 1054 216 C 934 72 753 0 512 0 L 59 0 L 160 520 L 45 520 L 45 772 L 209 772 L 307 1280 L 700 1280 C 856 1280 984 1234 1084 1143 C 1184 1051 1235 920 1235 750 Z M 922 731 C 922 829 898 903 850 953 C 802 1003 735 1028 647 1028 L 569 1028 L 520 772 L 702 772 L 702 520 L 471 520 L 420 252 L 535 252 C 664 252 761 299 825 393 C 889 487 922 599 922 731 Z" unicode="Ð" />
<glyph horiz-adv-x="1298" d="M 1327 1280 L 1077 -12 L 752 -12 L 489 807 L 338 0 L 31 0 L 279 1280 L 610 1280 L 868 469 L 1022 1280 L 1327 1280 Z M 1228 1714 C 1199 1608 1164 1528 1123 1476 C 1082 1424 1033 1398 976 1398 C 908 1398 853 1418 811 1460 C 768 1502 730 1523 698 1523 C 676 1523 660 1509 650 1481 C 639 1453 633 1432 632 1417 L 454 1417 C 483 1523 517 1602 557 1654 C 596 1706 644 1732 702 1732 C 770 1732 825 1711 869 1669 C 912 1627 950 1607 984 1607 C 1004 1607 1020 1619 1031 1645 C 1041 1670 1048 1693 1050 1714 L 1228 1714 Z" unicode="Ñ" />
<glyph horiz-adv-x="1280" d="M 1264 743 C 1264 534 1203 352 1083 198 C 963 44 802 -33 600 -33 C 448 -33 323 17 226 118 C 128 219 80 358 80 535 C 80 743 139 925 258 1080 C 377 1235 538 1313 741 1313 C 892 1313 1017 1262 1116 1161 C 1214 1059 1264 920 1264 743 Z M 950 729 C 950 823 930 902 892 965 C 853 1027 795 1059 717 1059 C 613 1059 533 1003 476 892 C 419 780 391 667 391 551 C 391 455 410 376 449 314 C 487 252 546 221 625 221 C 725 221 805 276 863 388 C 921 499 950 613 950 729 Z M 958 1392 L 780 1392 L 540 1771 L 860 1771 L 958 1392 Z" unicode="Ò" />
<glyph horiz-adv-x="1280" d="M 1264 743 C 1264 534 1203 352 1083 198 C 963 44 802 -33 600 -33 C 448 -33 323 17 226 118 C 128 219 80 358 80 535 C 80 743 139 925 258 1080 C 377 1235 538 1313 741 1313 C 892 1313 1017 1262 1116 1161 C 1214 1059 1264 920 1264 743 Z M 950 729 C 950 823 930 902 892 965 C 853 1027 795 1059 717 1059 C 613 1059 533 1003 476 892 C 419 780 391 667 391 551 C 391 455 410 376 449 314 C 487 252 546 221 625 221 C 725 221 805 276 863 388 C 921 499 950 613 950 729 Z M 1154 1771 L 780 1392 L 573 1392 L 818 1771 L 1154 1771 Z" unicode="Ó" />
<glyph horiz-adv-x="1280" d="M 1264 743 C 1264 534 1203 352 1083 198 C 963 44 802 -33 600 -33 C 448 -33 323 17 226 118 C 128 219 80 358 80 535 C 80 743 139 925 258 1080 C 377 1235 538 1313 741 1313 C 892 1313 1017 1262 1116 1161 C 1214 1059 1264 920 1264 743 Z M 950 729 C 950 823 930 902 892 965 C 853 1027 795 1059 717 1059 C 613 1059 533 1003 476 892 C 419 780 391 667 391 551 C 391 455 410 376 449 314 C 487 252 546 221 625 221 C 725 221 805 276 863 388 C 921 499 950 613 950 729 Z M 1128 1392 L 905 1392 L 829 1618 L 827 1618 L 669 1392 L 432 1392 L 706 1775 L 997 1775 L 1128 1392 Z" unicode="Ô" />
<glyph horiz-adv-x="1280" d="M 1264 743 C 1264 534 1203 352 1083 198 C 963 44 802 -33 600 -33 C 448 -33 323 17 226 118 C 128 219 80 358 80 535 C 80 743 139 925 258 1080 C 377 1235 538 1313 741 1313 C 892 1313 1017 1262 1116 1161 C 1214 1059 1264 920 1264 743 Z M 950 729 C 950 823 930 902 892 965 C 853 1027 795 1059 717 1059 C 613 1059 533 1003 476 892 C 419 780 391 667 391 551 C 391 455 410 376 449 314 C 487 252 546 221 625 221 C 725 221 805 276 863 388 C 921 499 950 613 950 729 Z M 1200 1714 C 1171 1608 1136 1528 1095 1476 C 1054 1424 1005 1398 948 1398 C 880 1398 825 1418 783 1460 C 740 1502 702 1523 670 1523 C 648 1523 632 1509 622 1481 C 611 1453 605 1432 604 1417 L 426 1417 C 455 1523 489 1602 529 1654 C 568 1706 616 1732 674 1732 C 742 1732 797 1711 841 1669 C 884 1627 922 1607 956 1607 C 976 1607 992 1619 1003 1645 C 1013 1670 1020 1693 1022 1714 L 1200 1714 Z" unicode="Õ" />
<glyph horiz-adv-x="1280" d="M 1264 743 C 1264 534 1203 352 1083 198 C 963 44 802 -33 600 -33 C 448 -33 323 17 226 118 C 128 219 80 358 80 535 C 80 743 139 925 258 1080 C 377 1235 538 1313 741 1313 C 892 1313 1017 1262 1116 1161 C 1214 1059 1264 920 1264 743 Z M 950 729 C 950 823 930 902 892 965 C 853 1027 795 1059 717 1059 C 613 1059 533 1003 476 892 C 419 780 391 667 391 551 C 391 455 410 376 449 314 C 487 252 546 221 625 221 C 725 221 805 276 863 388 C 921 499 950 613 950 729 Z M 728 1560 C 728 1509 713 1470 685 1442 C 657 1414 619 1400 573 1400 C 527 1400 489 1414 460 1442 C 431 1470 417 1509 417 1560 C 417 1612 431 1651 460 1679 C 489 1706 527 1720 573 1720 C 619 1720 657 1706 685 1679 C 713 1651 728 1612 728 1560 Z M 1162 1560 C 1162 1509 1148 1470 1120 1442 C 1092 1414 1055 1400 1009 1400 C 963 1400 925 1414 896 1442 C 867 1470 853 1509 853 1560 C 853 1612 867 1651 896 1679 C 925 1706 963 1720 1009 1720 C 1055 1720 1092 1706 1120 1679 C 1148 1651 1162 1612 1162 1560 Z" unicode="Ö" />
<glyph horiz-adv-x="963" d="M 909 172 L 741 29 L 494 322 L 246 29 L 76 172 L 348 492 L 80 803 L 248 948 L 494 659 L 737 948 L 905 803 L 637 492 L 909 172 Z" unicode="×" />
<glyph horiz-adv-x="1280" d="M 1321 1415 L 1124 1151 C 1168 1103 1202 1044 1227 975 C 1251 906 1264 829 1264 743 C 1264 534 1203 352 1083 198 C 963 44 802 -33 600 -33 C 544 -33 491 -26 441 -12 C 391 2 347 22 307 49 L 164 -143 L 23 -143 L 219 123 C 175 171 140 230 116 300 C 92 370 80 448 80 535 C 80 743 139 925 258 1080 C 377 1235 538 1313 741 1313 C 797 1313 850 1305 901 1290 C 951 1275 997 1254 1038 1227 L 1180 1415 L 1321 1415 Z M 389 551 C 389 520 391 490 395 462 C 399 434 405 407 414 383 L 868 997 C 850 1017 828 1033 802 1045 C 776 1057 748 1063 717 1063 C 613 1063 533 1006 475 894 C 417 781 389 667 389 551 Z M 952 729 C 952 758 950 786 946 813 C 942 840 936 865 930 889 L 475 276 C 493 258 515 243 541 233 C 566 222 594 217 625 217 C 725 217 805 273 864 386 C 922 498 952 613 952 729 Z" unicode="Ø" />
<glyph horiz-adv-x="1206" d="M 1257 1280 L 1100 463 C 1068 297 1005 173 912 91 C 818 8 701 -33 559 -33 C 404 -33 288 4 211 80 C 134 155 96 256 96 383 C 96 409 98 437 102 466 C 106 494 111 524 117 555 L 256 1280 L 569 1280 L 422 522 C 418 500 414 480 412 460 C 409 440 408 421 408 403 C 408 350 420 308 445 276 C 470 244 514 229 578 229 C 638 229 684 252 717 298 C 750 344 774 403 788 477 L 944 1280 L 1257 1280 Z M 896 1392 L 718 1392 L 478 1771 L 798 1771 L 896 1392 Z" unicode="Ù" />
<glyph horiz-adv-x="1206" d="M 1257 1280 L 1100 463 C 1068 297 1005 173 912 91 C 818 8 701 -33 559 -33 C 404 -33 288 4 211 80 C 134 155 96 256 96 383 C 96 409 98 437 102 466 C 106 494 111 524 117 555 L 256 1280 L 569 1280 L 422 522 C 418 500 414 480 412 460 C 409 440 408 421 408 403 C 408 350 420 308 445 276 C 470 244 514 229 578 229 C 638 229 684 252 717 298 C 750 344 774 403 788 477 L 944 1280 L 1257 1280 Z M 1261 1771 L 887 1392 L 680 1392 L 925 1771 L 1261 1771 Z" unicode="Ú" />
<glyph horiz-adv-x="1206" d="M 1257 1280 L 1100 463 C 1068 297 1005 173 912 91 C 818 8 701 -33 559 -33 C 404 -33 288 4 211 80 C 134 155 96 256 96 383 C 96 409 98 437 102 466 C 106 494 111 524 117 555 L 256 1280 L 569 1280 L 422 522 C 418 500 414 480 412 460 C 409 440 408 421 408 403 C 408 350 420 308 445 276 C 470 244 514 229 578 229 C 638 229 684 252 717 298 C 750 344 774 403 788 477 L 944 1280 L 1257 1280 Z M 1130 1392 L 907 1392 L 831 1618 L 829 1618 L 671 1392 L 434 1392 L 708 1775 L 999 1775 L 1130 1392 Z" unicode="Û" />
<glyph horiz-adv-x="1206" d="M 1257 1280 L 1100 463 C 1068 297 1005 173 912 91 C 818 8 701 -33 559 -33 C 404 -33 288 4 211 80 C 134 155 96 256 96 383 C 96 409 98 437 102 466 C 106 494 111 524 117 555 L 256 1280 L 569 1280 L 422 522 C 418 500 414 480 412 460 C 409 440 408 421 408 403 C 408 350 420 308 445 276 C 470 244 514 229 578 229 C 638 229 684 252 717 298 C 750 344 774 403 788 477 L 944 1280 L 1257 1280 Z M 755 1560 C 755 1509 740 1470 712 1442 C 684 1414 646 1400 600 1400 C 554 1400 516 1414 487 1442 C 458 1470 444 1509 444 1560 C 444 1612 458 1651 487 1679 C 516 1706 554 1720 600 1720 C 646 1720 684 1706 712 1679 C 740 1651 755 1612 755 1560 Z M 1189 1560 C 1189 1509 1175 1470 1147 1442 C 1119 1414 1082 1400 1036 1400 C 990 1400 952 1414 923 1442 C 894 1470 880 1509 880 1560 C 880 1612 894 1651 923 1679 C 952 1706 990 1720 1036 1720 C 1082 1720 1119 1706 1147 1679 C 1175 1651 1189 1612 1189 1560 Z" unicode="Ü" />
<glyph horiz-adv-x="1026" d="M 1186 1280 L 655 469 L 565 0 L 250 0 L 346 496 L 135 1280 L 442 1280 L 553 782 L 860 1280 L 1186 1280 Z M 1103 1771 L 729 1392 L 522 1392 L 767 1771 L 1103 1771 Z" unicode="Ý" />
<glyph horiz-adv-x="1067" d="M 1067 707 C 1067 557 1021 437 930 346 C 839 254 707 205 535 197 L 381 190 L 344 0 L 31 0 L 279 1280 L 592 1280 L 557 1102 L 647 1102 C 785 1102 890 1062 961 982 C 1031 902 1067 810 1067 707 Z M 754 678 C 754 728 739 769 709 801 C 679 833 632 850 569 850 L 510 850 L 430 436 L 532 440 C 606 442 661 466 698 512 C 735 558 754 614 754 678 Z" unicode="Þ" />
<glyph horiz-adv-x="1180" d="M 1112 334 C 1112 230 1078 142 1011 72 C 943 2 860 -33 760 -33 C 694 -33 636 -25 586 -11 C 536 2 488 24 442 53 L 516 281 C 552 251 584 230 611 220 C 638 210 668 205 700 205 C 736 205 765 217 787 241 C 808 265 819 294 819 328 C 819 396 787 450 724 490 C 660 530 629 594 629 682 C 629 790 660 861 722 897 C 784 933 815 989 815 1067 C 815 1101 805 1130 785 1154 C 765 1178 736 1190 698 1190 C 661 1190 628 1175 600 1146 C 572 1117 553 1076 543 1024 L 342 0 L 49 0 L 184 700 L 53 711 L 68 903 L 240 950 L 266 1057 C 298 1185 353 1278 433 1337 C 513 1395 605 1425 711 1425 C 835 1425 930 1395 996 1335 C 1062 1275 1096 1198 1096 1104 C 1096 975 1060 892 988 854 C 916 816 879 773 879 725 C 879 684 917 641 995 595 C 1073 549 1112 462 1112 334 Z" unicode="ß" />
<glyph horiz-adv-x="924" d="M 10 225 C 10 373 66 468 180 511 C 294 553 415 569 545 557 L 551 592 C 559 636 554 672 537 701 C 519 730 480 745 418 745 C 375 745 333 738 291 724 C 249 710 210 694 174 676 L 158 909 C 197 929 245 946 302 960 C 359 974 418 981 479 981 C 649 981 757 932 805 834 C 852 736 857 613 821 463 L 780 295 C 774 270 773 249 779 231 C 784 213 801 203 829 203 L 766 -20 C 710 -31 650 -28 586 -12 C 522 4 485 48 475 119 L 471 119 C 442 78 412 43 380 14 C 348 -14 302 -29 240 -29 C 167 -29 110 -3 70 48 C 30 100 10 159 10 225 Z M 299 274 C 299 244 305 219 318 201 C 331 183 351 174 379 174 C 410 174 436 186 458 210 C 480 234 494 264 500 299 L 520 424 C 460 427 408 416 364 390 C 320 364 299 325 299 274 Z M 599 1079 L 421 1079 L 181 1458 L 501 1458 L 599 1079 Z" unicode="à" />
<glyph horiz-adv-x="924" d="M 10 225 C 10 373 66 468 180 511 C 294 553 415 569 545 557 L 551 592 C 559 636 554 672 537 701 C 519 730 480 745 418 745 C 375 745 333 738 291 724 C 249 710 210 694 174 676 L 158 909 C 197 929 245 946 302 960 C 359 974 418 981 479 981 C 649 981 757 932 805 834 C 852 736 857 613 821 463 L 780 295 C 774 270 773 249 779 231 C 784 213 801 203 829 203 L 766 -20 C 710 -31 650 -28 586 -12 C 522 4 485 48 475 119 L 471 119 C 442 78 412 43 380 14 C 348 -14 302 -29 240 -29 C 167 -29 110 -3 70 48 C 30 100 10 159 10 225 Z M 299 274 C 299 244 305 219 318 201 C 331 183 351 174 379 174 C 410 174 436 186 458 210 C 480 234 494 264 500 299 L 520 424 C 460 427 408 416 364 390 C 320 364 299 325 299 274 Z M 954 1458 L 580 1079 L 373 1079 L 618 1458 L 954 1458 Z" unicode="á" />
<glyph horiz-adv-x="924" d="M 10 225 C 10 373 66 468 180 511 C 294 553 415 569 545 557 L 551 592 C 559 636 554 672 537 701 C 519 730 480 745 418 745 C 375 745 333 738 291 724 C 249 710 210 694 174 676 L 158 909 C 197 929 245 946 302 960 C 359 974 418 981 479 981 C 649 981 757 932 805 834 C 852 736 857 613 821 463 L 780 295 C 774 270 773 249 779 231 C 784 213 801 203 829 203 L 766 -20 C 710 -31 650 -28 586 -12 C 522 4 485 48 475 119 L 471 119 C 442 78 412 43 380 14 C 348 -14 302 -29 240 -29 C 167 -29 110 -3 70 48 C 30 100 10 159 10 225 Z M 299 274 C 299 244 305 219 318 201 C 331 183 351 174 379 174 C 410 174 436 186 458 210 C 480 234 494 264 500 299 L 520 424 C 460 427 408 416 364 390 C 320 364 299 325 299 274 Z M 878 1079 L 655 1079 L 579 1305 L 577 1305 L 419 1079 L 182 1079 L 456 1462 L 747 1462 L 878 1079 Z" unicode="â" />
<glyph horiz-adv-x="924" d="M 10 225 C 10 373 66 468 180 511 C 294 553 415 569 545 557 L 551 592 C 559 636 554 672 537 701 C 519 730 480 745 418 745 C 375 745 333 738 291 724 C 249 710 210 694 174 676 L 158 909 C 197 929 245 946 302 960 C 359 974 418 981 479 981 C 649 981 757 932 805 834 C 852 736 857 613 821 463 L 780 295 C 774 270 773 249 779 231 C 784 213 801 203 829 203 L 766 -20 C 710 -31 650 -28 586 -12 C 522 4 485 48 475 119 L 471 119 C 442 78 412 43 380 14 C 348 -14 302 -29 240 -29 C 167 -29 110 -3 70 48 C 30 100 10 159 10 225 Z M 299 274 C 299 244 305 219 318 201 C 331 183 351 174 379 174 C 410 174 436 186 458 210 C 480 234 494 264 500 299 L 520 424 C 460 427 408 416 364 390 C 320 364 299 325 299 274 Z M 937 1401 C 908 1295 873 1215 832 1163 C 791 1111 742 1085 685 1085 C 617 1085 562 1105 520 1147 C 477 1189 439 1210 407 1210 C 385 1210 369 1196 359 1168 C 348 1140 342 1119 341 1104 L 163 1104 C 192 1210 226 1289 266 1341 C 305 1393 353 1419 411 1419 C 479 1419 534 1398 578 1356 C 621 1314 659 1294 693 1294 C 713 1294 729 1306 740 1332 C 750 1357 757 1380 759 1401 L 937 1401 Z" unicode="ã" />
<glyph horiz-adv-x="924" d="M 10 225 C 10 373 66 468 180 511 C 294 553 415 569 545 557 L 551 592 C 559 636 554 672 537 701 C 519 730 480 745 418 745 C 375 745 333 738 291 724 C 249 710 210 694 174 676 L 158 909 C 197 929 245 946 302 960 C 359 974 418 981 479 981 C 649 981 757 932 805 834 C 852 736 857 613 821 463 L 780 295 C 774 270 773 249 779 231 C 784 213 801 203 829 203 L 766 -20 C 710 -31 650 -28 586 -12 C 522 4 485 48 475 119 L 471 119 C 442 78 412 43 380 14 C 348 -14 302 -29 240 -29 C 167 -29 110 -3 70 48 C 30 100 10 159 10 225 Z M 299 274 C 299 244 305 219 318 201 C 331 183 351 174 379 174 C 410 174 436 186 458 210 C 480 234 494 264 500 299 L 520 424 C 460 427 408 416 364 390 C 320 364 299 325 299 274 Z M 489 1247 C 489 1196 474 1157 446 1129 C 418 1101 380 1087 334 1087 C 288 1087 250 1101 221 1129 C 192 1157 178 1196 178 1247 C 178 1299 192 1338 221 1366 C 250 1393 288 1407 334 1407 C 380 1407 418 1393 446 1366 C 474 1338 489 1299 489 1247 Z M 923 1247 C 923 1196 909 1157 881 1129 C 853 1101 816 1087 770 1087 C 724 1087 686 1101 657 1129 C 628 1157 614 1196 614 1247 C 614 1299 628 1338 657 1366 C 686 1393 724 1407 770 1407 C 816 1407 853 1393 881 1366 C 909 1338 923 1299 923 1247 Z" unicode="ä" />
<glyph horiz-adv-x="924" d="M 10 225 C 10 373 66 468 180 511 C 294 553 415 569 545 557 L 551 592 C 559 636 554 672 537 701 C 519 730 480 745 418 745 C 375 745 333 738 291 724 C 249 710 210 694 174 676 L 158 909 C 197 929 245 946 302 960 C 359 974 418 981 479 981 C 649 981 757 932 805 834 C 852 736 857 613 821 463 L 780 295 C 774 270 773 249 779 231 C 784 213 801 203 829 203 L 766 -20 C 710 -31 650 -28 586 -12 C 522 4 485 48 475 119 L 471 119 C 442 78 412 43 380 14 C 348 -14 302 -29 240 -29 C 167 -29 110 -3 70 48 C 30 100 10 159 10 225 Z M 299 274 C 299 244 305 219 318 201 C 331 183 351 174 379 174 C 410 174 436 186 458 210 C 480 234 494 264 500 299 L 520 424 C 460 427 408 416 364 390 C 320 364 299 325 299 274 Z M 831 1339 C 831 1265 805 1201 753 1148 C 701 1095 634 1069 553 1069 C 484 1069 426 1087 380 1124 C 334 1160 311 1212 311 1280 C 311 1353 336 1417 387 1472 C 438 1526 505 1554 588 1554 C 657 1554 715 1535 761 1498 C 807 1460 831 1407 831 1339 Z M 708 1335 C 708 1373 695 1402 671 1423 C 647 1443 618 1454 584 1454 C 538 1454 501 1437 474 1403 C 447 1369 434 1330 434 1288 C 434 1251 445 1222 469 1201 C 493 1179 522 1169 557 1169 C 603 1169 640 1186 667 1220 C 694 1254 708 1292 708 1335 Z" unicode="å" />
<glyph horiz-adv-x="1389" d="M 1352 657 C 1352 618 1347 577 1337 534 C 1327 490 1317 452 1307 420 L 799 412 L 799 393 C 799 327 814 277 844 244 C 874 211 919 195 979 195 C 1027 195 1071 201 1109 215 C 1147 228 1180 242 1208 258 L 1241 33 C 1208 15 1165 0 1111 -12 C 1057 -24 1002 -31 946 -31 C 850 -31 772 -14 710 17 C 648 49 601 96 571 158 C 532 95 483 48 424 17 C 365 -13 300 -29 229 -29 C 157 -29 100 -3 60 48 C 20 100 0 159 0 225 C 0 373 58 468 175 511 C 292 553 415 569 545 557 L 551 592 C 559 636 553 672 535 701 C 516 730 476 745 414 745 C 371 745 328 738 285 724 C 242 710 202 694 166 676 L 150 909 C 189 929 238 946 296 960 C 354 974 413 981 475 981 C 536 981 588 973 631 957 C 673 941 707 920 733 893 C 769 921 811 943 857 959 C 903 975 954 983 1008 983 C 1112 983 1195 954 1258 898 C 1320 841 1352 761 1352 657 Z M 535 270 C 530 290 527 311 525 333 C 523 355 522 377 522 401 C 522 405 522 409 522 413 C 522 416 523 420 524 424 C 461 427 406 415 359 389 C 312 362 289 324 289 274 C 289 244 296 219 311 201 C 326 183 347 174 375 174 C 404 174 432 181 458 197 C 484 213 510 237 535 270 Z M 1075 659 C 1075 698 1067 728 1052 750 C 1037 771 1013 782 981 782 C 943 782 911 762 885 722 C 859 682 838 628 823 561 L 1059 565 C 1063 577 1066 593 1070 612 C 1073 630 1075 646 1075 659 Z" unicode="æ" />
<glyph horiz-adv-x="852" d="M 862 887 L 780 662 C 743 688 709 708 677 723 C 645 737 611 745 573 745 C 495 745 437 710 399 641 C 361 572 342 499 342 422 C 342 352 357 299 387 262 C 417 225 462 207 520 207 C 550 207 579 211 607 221 C 634 230 663 242 694 256 L 721 31 C 692 15 659 2 623 -8 C 586 -18 545 -25 500 -29 L 406 -104 C 466 -112 513 -133 548 -166 C 582 -198 600 -241 600 -293 C 600 -377 562 -444 488 -492 C 414 -540 310 -564 178 -563 L 193 -418 C 259 -418 312 -410 352 -393 C 392 -375 412 -349 412 -315 C 412 -283 396 -260 365 -246 C 333 -231 288 -224 229 -225 L 233 -119 L 354 -20 C 262 0 189 45 133 118 C 77 190 49 286 49 406 C 49 560 92 695 179 810 C 266 925 387 983 541 983 C 605 983 664 974 718 958 C 772 942 820 918 862 887 Z" unicode="ç" />
<glyph horiz-adv-x="930" d="M 893 657 C 893 618 888 577 879 534 C 869 490 859 452 848 420 L 340 412 L 340 393 C 340 327 355 277 386 244 C 416 211 461 195 520 195 C 569 195 613 201 651 215 C 689 228 722 242 750 258 L 782 33 C 749 15 706 0 652 -12 C 598 -24 543 -31 487 -31 C 340 -31 230 6 158 82 C 85 157 49 263 49 401 C 49 559 96 695 192 810 C 287 925 406 983 549 983 C 653 983 736 954 799 898 C 861 841 893 761 893 657 Z M 616 659 C 616 698 608 728 593 750 C 578 771 554 782 522 782 C 484 782 452 762 426 722 C 400 682 379 628 365 561 L 600 565 C 604 577 607 593 611 612 C 614 630 616 646 616 659 Z M 708 1079 L 530 1079 L 290 1458 L 610 1458 L 708 1079 Z" unicode="è" />
<glyph horiz-adv-x="930" d="M 893 657 C 893 618 888 577 879 534 C 869 490 859 452 848 420 L 340 412 L 340 393 C 340 327 355 277 386 244 C 416 211 461 195 520 195 C 569 195 613 201 651 215 C 689 228 722 242 750 258 L 782 33 C 749 15 706 0 652 -12 C 598 -24 543 -31 487 -31 C 340 -31 230 6 158 82 C 85 157 49 263 49 401 C 49 559 96 695 192 810 C 287 925 406 983 549 983 C 653 983 736 954 799 898 C 861 841 893 761 893 657 Z M 616 659 C 616 698 608 728 593 750 C 578 771 554 782 522 782 C 484 782 452 762 426 722 C 400 682 379 628 365 561 L 600 565 C 604 577 607 593 611 612 C 614 630 616 646 616 659 Z M 982 1458 L 608 1079 L 401 1079 L 646 1458 L 982 1458 Z" unicode="é" />
<glyph horiz-adv-x="930" d="M 893 657 C 893 618 888 577 879 534 C 869 490 859 452 848 420 L 340 412 L 340 393 C 340 327 355 277 386 244 C 416 211 461 195 520 195 C 569 195 613 201 651 215 C 689 228 722 242 750 258 L 782 33 C 749 15 706 0 652 -12 C 598 -24 543 -31 487 -31 C 340 -31 230 6 158 82 C 85 157 49 263 49 401 C 49 559 96 695 192 810 C 287 925 406 983 549 983 C 653 983 736 954 799 898 C 861 841 893 761 893 657 Z M 616 659 C 616 698 608 728 593 750 C 578 771 554 782 522 782 C 484 782 452 762 426 722 C 400 682 379 628 365 561 L 600 565 C 604 577 607 593 611 612 C 614 630 616 646 616 659 Z M 907 1079 L 684 1079 L 608 1305 L 606 1305 L 448 1079 L 211 1079 L 485 1462 L 776 1462 L 907 1079 Z" unicode="ê" />
<glyph horiz-adv-x="930" d="M 893 657 C 893 618 888 577 879 534 C 869 490 859 452 848 420 L 340 412 L 340 393 C 340 327 355 277 386 244 C 416 211 461 195 520 195 C 569 195 613 201 651 215 C 689 228 722 242 750 258 L 782 33 C 749 15 706 0 652 -12 C 598 -24 543 -31 487 -31 C 340 -31 230 6 158 82 C 85 157 49 263 49 401 C 49 559 96 695 192 810 C 287 925 406 983 549 983 C 653 983 736 954 799 898 C 861 841 893 761 893 657 Z M 616 659 C 616 698 608 728 593 750 C 578 771 554 782 522 782 C 484 782 452 762 426 722 C 400 682 379 628 365 561 L 600 565 C 604 577 607 593 611 612 C 614 630 616 646 616 659 Z M 519 1247 C 519 1196 504 1157 476 1129 C 448 1101 410 1087 364 1087 C 318 1087 280 1101 251 1129 C 222 1157 208 1196 208 1247 C 208 1299 222 1338 251 1366 C 280 1393 318 1407 364 1407 C 410 1407 448 1393 476 1366 C 504 1338 519 1299 519 1247 Z M 953 1247 C 953 1196 939 1157 911 1129 C 883 1101 846 1087 800 1087 C 754 1087 716 1101 687 1129 C 658 1157 644 1196 644 1247 C 644 1299 658 1338 687 1366 C 716 1393 754 1407 800 1407 C 846 1407 883 1393 911 1366 C 939 1338 953 1299 953 1247 Z" unicode="ë" />
<glyph horiz-adv-x="537" d="M 512 969 L 324 0 L 29 0 L 211 942 L 512 969 Z M 483 1079 L 305 1079 L 65 1458 L 385 1458 L 483 1079 Z" unicode="ì" />
<glyph horiz-adv-x="537" d="M 512 969 L 324 0 L 29 0 L 211 942 L 512 969 Z M 851 1458 L 477 1079 L 270 1079 L 515 1458 L 851 1458 Z" unicode="í" />
<glyph horiz-adv-x="537" d="M 512 969 L 324 0 L 29 0 L 211 942 L 512 969 Z M 728 1079 L 505 1079 L 429 1305 L 427 1305 L 269 1079 L 32 1079 L 306 1462 L 597 1462 L 728 1079 Z" unicode="î" />
<glyph horiz-adv-x="537" d="M 520 969 L 332 0 L 37 0 L 219 942 L 520 969 Z M 341 1247 C 341 1196 326 1157 298 1129 C 270 1101 232 1087 186 1087 C 140 1087 102 1101 73 1129 C 44 1157 30 1196 30 1247 C 30 1299 44 1338 73 1366 C 102 1393 140 1407 186 1407 C 232 1407 270 1393 298 1366 C 326 1338 341 1299 341 1247 Z M 775 1247 C 775 1196 761 1157 733 1129 C 705 1101 668 1087 622 1087 C 576 1087 538 1101 509 1129 C 480 1157 466 1196 466 1247 C 466 1299 480 1338 509 1366 C 538 1393 576 1407 622 1407 C 668 1407 705 1393 733 1366 C 761 1338 775 1299 775 1247 Z" unicode="ï" />
<glyph horiz-adv-x="1032" d="M 987 627 C 987 446 937 291 838 162 C 738 33 609 -31 451 -31 C 328 -31 230 8 158 86 C 85 164 49 263 49 385 C 49 549 93 681 182 781 C 271 881 367 932 469 932 C 515 932 555 921 590 901 C 625 880 654 853 678 819 L 680 821 C 670 857 655 900 633 949 C 611 998 585 1048 555 1100 L 344 1036 L 319 1192 L 469 1237 C 450 1263 431 1289 411 1314 C 391 1339 372 1362 354 1382 L 694 1415 C 706 1399 718 1384 729 1369 C 739 1353 750 1338 760 1323 L 956 1382 L 983 1227 L 842 1184 C 888 1095 924 1004 949 911 C 974 818 987 723 987 627 Z M 680 580 C 680 588 679 597 679 607 C 679 616 678 625 678 635 C 666 659 649 680 625 696 C 601 712 572 721 539 721 C 487 721 441 684 402 612 C 363 539 344 464 344 387 C 344 325 356 277 380 245 C 404 213 437 197 481 197 C 545 197 595 239 629 322 C 663 405 680 491 680 580 Z" unicode="ð" />
<glyph horiz-adv-x="1055" d="M 25 0 L 207 942 L 508 969 L 477 819 C 519 870 564 910 611 939 C 657 968 706 983 758 983 C 854 983 920 947 954 877 C 988 806 997 723 979 629 L 856 0 L 561 0 L 668 553 C 676 599 677 639 669 674 C 661 709 634 727 588 727 C 560 727 533 715 507 693 C 480 671 457 646 438 618 L 319 0 L 25 0 Z M 1050 1401 C 1021 1295 986 1215 945 1163 C 904 1111 855 1085 798 1085 C 730 1085 675 1105 633 1147 C 590 1189 552 1210 520 1210 C 498 1210 482 1196 472 1168 C 461 1140 455 1119 454 1104 L 276 1104 C 305 1210 339 1289 379 1341 C 418 1393 466 1419 524 1419 C 592 1419 647 1398 691 1356 C 734 1314 772 1294 806 1294 C 826 1294 842 1306 853 1332 C 863 1357 870 1380 872 1401 L 1050 1401 Z" unicode="ñ" />
<glyph horiz-adv-x="999" d="M 950 549 C 950 393 905 257 815 142 C 725 26 604 -31 451 -31 C 328 -31 230 8 158 86 C 85 164 49 269 49 401 C 49 556 93 692 183 808 C 273 924 395 983 549 983 C 671 983 768 943 841 864 C 913 785 950 680 950 549 Z M 655 561 C 655 621 646 669 628 705 C 610 741 579 760 537 760 C 471 760 422 717 390 633 C 358 548 342 467 342 391 C 342 329 351 280 370 244 C 389 208 420 190 463 190 C 527 190 575 232 607 317 C 639 402 655 483 655 561 Z M 722 1079 L 544 1079 L 304 1458 L 624 1458 L 722 1079 Z" unicode="ò" />
<glyph horiz-adv-x="999" d="M 950 549 C 950 393 905 257 815 142 C 725 26 604 -31 451 -31 C 328 -31 230 8 158 86 C 85 164 49 269 49 401 C 49 556 93 692 183 808 C 273 924 395 983 549 983 C 671 983 768 943 841 864 C 913 785 950 680 950 549 Z M 655 561 C 655 621 646 669 628 705 C 610 741 579 760 537 760 C 471 760 422 717 390 633 C 358 548 342 467 342 391 C 342 329 351 280 370 244 C 389 208 420 190 463 190 C 527 190 575 232 607 317 C 639 402 655 483 655 561 Z M 968 1458 L 594 1079 L 387 1079 L 632 1458 L 968 1458 Z" unicode="ó" />
<glyph horiz-adv-x="999" d="M 950 549 C 950 393 905 257 815 142 C 725 26 604 -31 451 -31 C 328 -31 230 8 158 86 C 85 164 49 269 49 401 C 49 556 93 692 183 808 C 273 924 395 983 549 983 C 671 983 768 943 841 864 C 913 785 950 680 950 549 Z M 655 561 C 655 621 646 669 628 705 C 610 741 579 760 537 760 C 471 760 422 717 390 633 C 358 548 342 467 342 391 C 342 329 351 280 370 244 C 389 208 420 190 463 190 C 527 190 575 232 607 317 C 639 402 655 483 655 561 Z M 896 1079 L 673 1079 L 597 1305 L 595 1305 L 437 1079 L 200 1079 L 474 1462 L 765 1462 L 896 1079 Z" unicode="ô" />
<glyph horiz-adv-x="999" d="M 950 549 C 950 393 905 257 815 142 C 725 26 604 -31 451 -31 C 328 -31 230 8 158 86 C 85 164 49 269 49 401 C 49 556 93 692 183 808 C 273 924 395 983 549 983 C 671 983 768 943 841 864 C 913 785 950 680 950 549 Z M 655 561 C 655 621 646 669 628 705 C 610 741 579 760 537 760 C 471 760 422 717 390 633 C 358 548 342 467 342 391 C 342 329 351 280 370 244 C 389 208 420 190 463 190 C 527 190 575 232 607 317 C 639 402 655 483 655 561 Z M 960 1401 C 931 1295 896 1215 855 1163 C 814 1111 765 1085 708 1085 C 640 1085 585 1105 543 1147 C 500 1189 462 1210 430 1210 C 408 1210 392 1196 382 1168 C 371 1140 365 1119 364 1104 L 186 1104 C 215 1210 249 1289 289 1341 C 328 1393 376 1419 434 1419 C 502 1419 557 1398 601 1356 C 644 1314 682 1294 716 1294 C 736 1294 752 1306 763 1332 C 773 1357 780 1380 782 1401 L 960 1401 Z" unicode="õ" />
<glyph horiz-adv-x="999" d="M 950 549 C 950 393 905 257 815 142 C 725 26 604 -31 451 -31 C 328 -31 230 8 158 86 C 85 164 49 269 49 401 C 49 556 93 692 183 808 C 273 924 395 983 549 983 C 671 983 768 943 841 864 C 913 785 950 680 950 549 Z M 655 561 C 655 621 646 669 628 705 C 610 741 579 760 537 760 C 471 760 422 717 390 633 C 358 548 342 467 342 391 C 342 329 351 280 370 244 C 389 208 420 190 463 190 C 527 190 575 232 607 317 C 639 402 655 483 655 561 Z M 548 1247 C 548 1196 533 1157 505 1129 C 477 1101 439 1087 393 1087 C 347 1087 309 1101 280 1129 C 251 1157 237 1196 237 1247 C 237 1299 251 1338 280 1366 C 309 1393 347 1407 393 1407 C 439 1407 477 1393 505 1366 C 533 1338 548 1299 548 1247 Z M 982 1247 C 982 1196 968 1157 940 1129 C 912 1101 875 1087 829 1087 C 783 1087 745 1101 716 1129 C 687 1157 673 1196 673 1247 C 673 1299 687 1338 716 1366 C 745 1393 783 1407 829 1407 C 875 1407 912 1393 940 1366 C 968 1338 982 1299 982 1247 Z" unicode="ö" />
<glyph horiz-adv-x="963" d="M 649 107 C 649 59 634 20 604 -10 C 574 -40 536 -55 489 -55 C 443 -55 406 -40 376 -10 C 346 20 332 59 332 107 C 332 154 346 192 376 222 C 406 252 443 267 489 267 C 536 267 574 252 604 222 C 634 192 649 154 649 107 Z M 649 871 C 649 823 634 785 604 755 C 574 725 536 710 489 710 C 442 710 404 725 375 755 C 346 785 332 823 332 871 C 332 918 346 957 375 987 C 404 1017 442 1032 489 1032 C 536 1032 574 1017 604 987 C 634 957 649 918 649 871 Z M 907 373 L 74 373 L 80 604 L 901 604 L 907 373 Z" unicode="÷" />
<glyph horiz-adv-x="999" d="M 1020 1077 L 854 852 C 884 814 908 769 925 718 C 941 667 950 611 950 549 C 950 393 905 257 815 142 C 725 26 604 -31 451 -31 C 411 -31 373 -26 338 -18 C 303 -10 271 2 242 18 L 127 -137 L -20 -137 L 150 94 C 118 130 93 175 75 227 C 57 279 49 337 49 401 C 49 556 93 692 183 808 C 273 924 395 983 549 983 C 589 983 628 978 665 969 C 701 959 734 946 764 928 L 872 1077 L 1020 1077 Z M 618 729 C 609 741 598 750 585 757 C 571 764 556 768 539 768 C 473 768 423 724 389 637 C 355 549 338 467 338 391 C 338 383 338 376 338 369 C 338 362 338 355 340 348 L 618 729 Z M 659 561 L 659 588 L 385 215 C 394 205 405 197 417 191 C 429 185 444 182 461 182 C 525 182 574 225 608 313 C 642 401 659 483 659 561 Z" unicode="ø" />
<glyph horiz-adv-x="1055" d="M 1030 952 L 848 10 L 547 -16 L 578 133 C 534 82 489 42 443 13 C 396 -16 347 -31 297 -31 C 200 -31 134 4 100 75 C 65 145 57 228 76 324 L 199 952 L 494 952 L 387 399 C 377 353 377 313 385 278 C 393 242 420 225 467 225 C 494 225 521 236 547 259 C 573 281 596 306 616 334 L 735 952 L 1030 952 Z M 733 1079 L 555 1079 L 315 1458 L 635 1458 L 733 1079 Z" unicode="ù" />
<glyph horiz-adv-x="1055" d="M 1030 952 L 848 10 L 547 -16 L 578 133 C 534 82 489 42 443 13 C 396 -16 347 -31 297 -31 C 200 -31 134 4 100 75 C 65 145 57 228 76 324 L 199 952 L 494 952 L 387 399 C 377 353 377 313 385 278 C 393 242 420 225 467 225 C 494 225 521 236 547 259 C 573 281 596 306 616 334 L 735 952 L 1030 952 Z M 1085 1458 L 711 1079 L 504 1079 L 749 1458 L 1085 1458 Z" unicode="ú" />
<glyph horiz-adv-x="1055" d="M 1030 952 L 848 10 L 547 -16 L 578 133 C 534 82 489 42 443 13 C 396 -16 347 -31 297 -31 C 200 -31 134 4 100 75 C 65 145 57 228 76 324 L 199 952 L 494 952 L 387 399 C 377 353 377 313 385 278 C 393 242 420 225 467 225 C 494 225 521 236 547 259 C 573 281 596 306 616 334 L 735 952 L 1030 952 Z M 986 1079 L 763 1079 L 687 1305 L 685 1305 L 527 1079 L 290 1079 L 564 1462 L 855 1462 L 986 1079 Z" unicode="û" />
<glyph horiz-adv-x="1055" d="M 1030 952 L 848 10 L 547 -16 L 578 133 C 534 82 489 42 443 13 C 396 -16 347 -31 297 -31 C 200 -31 134 4 100 75 C 65 145 57 228 76 324 L 199 952 L 494 952 L 387 399 C 377 353 377 313 385 278 C 393 242 420 225 467 225 C 494 225 521 236 547 259 C 573 281 596 306 616 334 L 735 952 L 1030 952 Z M 603 1247 C 603 1196 588 1157 560 1129 C 532 1101 494 1087 448 1087 C 402 1087 364 1101 335 1129 C 306 1157 292 1196 292 1247 C 292 1299 306 1338 335 1366 C 364 1393 402 1407 448 1407 C 494 1407 532 1393 560 1366 C 588 1338 603 1299 603 1247 Z M 1037 1247 C 1037 1196 1023 1157 995 1129 C 967 1101 930 1087 884 1087 C 838 1087 800 1101 771 1129 C 742 1157 728 1196 728 1247 C 728 1299 742 1338 771 1366 C 800 1393 838 1407 884 1407 C 930 1407 967 1393 995 1366 C 1023 1338 1037 1299 1037 1247 Z" unicode="ü" />
<glyph horiz-adv-x="930" d="M 1016 952 L 485 -123 C 426 -243 367 -327 307 -377 C 247 -426 173 -451 84 -451 C 36 -451 -10 -441 -55 -422 C -99 -403 -137 -382 -168 -358 L -57 -137 C -37 -154 -19 -168 -3 -178 C 12 -188 29 -193 49 -193 C 75 -193 97 -186 115 -173 C 132 -160 153 -128 178 -76 L 213 -2 L 92 952 L 391 952 L 434 334 L 707 952 L 1016 952 Z M 1021 1458 L 647 1079 L 440 1079 L 685 1458 L 1021 1458 Z" unicode="ý" />
<glyph horiz-adv-x="1040" d="M 991 578 C 991 416 950 274 869 152 C 787 30 672 -31 524 -31 C 490 -31 456 -25 421 -15 C 386 -5 354 8 324 25 L 238 -420 L -57 -420 L 289 1366 L 590 1393 L 487 868 C 519 900 554 927 593 948 C 631 968 674 979 721 979 C 803 979 869 942 918 870 C 966 798 991 700 991 578 Z M 698 547 C 698 610 687 659 665 693 C 643 727 613 745 573 745 C 549 745 526 739 505 727 C 484 715 465 701 449 684 L 367 256 C 383 235 401 219 421 207 C 441 195 466 190 494 190 C 562 190 613 229 647 309 C 681 388 698 467 698 547 Z" unicode="þ" />
<glyph horiz-adv-x="930" d="M 1016 952 L 485 -123 C 426 -243 367 -327 307 -377 C 247 -426 173 -451 84 -451 C 36 -451 -10 -441 -55 -422 C -99 -403 -137 -382 -168 -358 L -57 -137 C -37 -154 -19 -168 -3 -178 C 12 -188 29 -193 49 -193 C 75 -193 97 -186 115 -173 C 132 -160 153 -128 178 -76 L 213 -2 L 92 952 L 391 952 L 434 334 L 707 952 L 1016 952 Z M 523 1247 C 523 1196 508 1157 480 1129 C 452 1101 414 1087 368 1087 C 322 1087 284 1101 255 1129 C 226 1157 212 1196 212 1247 C 212 1299 226 1338 255 1366 C 284 1393 322 1407 368 1407 C 414 1407 452 1393 480 1366 C 508 1338 523 1299 523 1247 Z M 957 1247 C 957 1196 943 1157 915 1129 C 887 1101 850 1087 804 1087 C 758 1087 720 1101 691 1129 C 662 1157 648 1196 648 1247 C 648 1299 662 1338 691 1366 C 720 1393 758 1407 804 1407 C 850 1407 887 1393 915 1366 C 943 1338 957 1299 957 1247 Z" unicode="ÿ" />
<glyph horiz-adv-x="1120" d="M 1075 1438 L 426 1438 L 449 1620 L 1063 1620 C 1065 1589 1066 1559 1068 1529 C 1070 1499 1072 1468 1075 1438 Z M 1057 0 L 750 0 L 731 270 L 330 270 L 199 0 L -121 0 L 535 1280 L 936 1280 L 1057 0 Z M 721 520 L 688 1008 L 449 520 L 721 520 Z" unicode="Ā" />
<glyph horiz-adv-x="924" d="M 870 1124 L 221 1124 L 244 1307 L 858 1307 C 860 1276 861 1245 863 1215 C 865 1185 867 1154 870 1124 Z M 10 225 C 10 373 66 468 180 511 C 294 553 415 569 545 557 L 551 592 C 559 636 554 672 537 701 C 519 730 480 745 418 745 C 375 745 333 738 291 724 C 249 710 210 694 174 676 L 158 909 C 197 929 245 946 302 960 C 359 974 418 981 479 981 C 649 981 757 932 805 834 C 852 736 857 613 821 463 L 780 295 C 774 270 773 249 779 231 C 784 213 801 203 829 203 L 766 -20 C 710 -31 650 -28 586 -12 C 522 4 485 48 475 119 L 471 119 C 442 78 412 43 380 14 C 348 -14 302 -29 240 -29 C 167 -29 110 -3 70 48 C 30 100 10 159 10 225 Z M 299 274 C 299 244 305 219 318 201 C 331 183 351 174 379 174 C 410 174 436 186 458 210 C 480 234 494 264 500 299 L 520 424 C 460 427 408 416 364 390 C 320 364 299 325 299 274 Z" unicode="ā" />
<glyph horiz-adv-x="1120" d="M 1141 1767 C 1104 1631 1048 1531 974 1469 C 900 1407 821 1376 737 1376 C 657 1376 589 1407 535 1469 C 480 1531 459 1631 473 1767 L 645 1765 C 639 1703 645 1653 662 1616 C 678 1579 708 1561 752 1561 C 802 1561 843 1580 876 1618 C 908 1656 934 1705 954 1765 L 1141 1767 Z M 1057 0 L 750 0 L 731 270 L 330 270 L 199 0 L -121 0 L 535 1280 L 936 1280 L 1057 0 Z M 721 520 L 688 1008 L 449 520 L 721 520 Z" unicode="Ă" />
<glyph horiz-adv-x="924" d="M 936 1454 C 899 1317 843 1218 769 1156 C 695 1094 616 1063 532 1063 C 452 1063 384 1094 330 1156 C 275 1218 254 1317 268 1454 L 440 1452 C 435 1390 441 1340 458 1303 C 474 1265 504 1247 547 1247 C 597 1247 638 1266 671 1304 C 704 1342 730 1392 750 1452 L 936 1454 Z M 10 225 C 10 373 66 468 180 511 C 294 553 415 569 545 557 L 551 592 C 559 636 554 672 537 701 C 519 730 480 745 418 745 C 375 745 333 738 291 724 C 249 710 210 694 174 676 L 158 909 C 197 929 245 946 302 960 C 359 974 418 981 479 981 C 649 981 757 932 805 834 C 852 736 857 613 821 463 L 780 295 C 774 270 773 249 779 231 C 784 213 801 203 829 203 L 766 -20 C 710 -31 650 -28 586 -12 C 522 4 485 48 475 119 L 471 119 C 442 78 412 43 380 14 C 348 -14 302 -29 240 -29 C 167 -29 110 -3 70 48 C 30 100 10 159 10 225 Z M 299 274 C 299 244 305 219 318 201 C 331 183 351 174 379 174 C 410 174 436 186 458 210 C 480 234 494 264 500 299 L 520 424 C 460 427 408 416 364 390 C 320 364 299 325 299 274 Z" unicode="ă" />
<glyph horiz-adv-x="1120" d="M 1264 0 C 1187 -6 1125 -28 1078 -66 C 1031 -104 1008 -148 1008 -199 C 1008 -219 1013 -234 1024 -245 C 1034 -256 1050 -262 1071 -262 C 1086 -262 1101 -260 1117 -256 C 1133 -252 1147 -246 1159 -238 L 1165 -399 C 1139 -414 1111 -426 1082 -436 C 1052 -446 1017 -451 975 -451 C 920 -451 876 -434 843 -401 C 809 -368 793 -326 793 -274 C 793 -220 808 -168 840 -119 C 871 -69 910 -30 956 0 L 938 270 L 537 270 L 406 0 L 86 0 L 741 1280 L 1143 1280 L 1264 0 Z M 928 520 L 895 1008 L 655 520 L 928 520 Z" unicode="Ą" />
<glyph horiz-adv-x="924" d="M 780 295 C 774 270 774 249 779 231 C 783 213 800 204 829 203 L 766 -20 C 708 -30 661 -52 623 -86 C 585 -120 567 -157 567 -197 C 567 -217 572 -232 583 -244 C 594 -256 610 -262 631 -262 C 645 -262 660 -259 676 -255 C 692 -250 706 -244 719 -238 L 725 -397 C 699 -412 671 -425 642 -435 C 612 -445 577 -451 535 -451 C 480 -451 436 -434 402 -400 C 368 -366 352 -324 352 -274 C 352 -215 370 -162 406 -114 C 442 -66 492 -28 555 2 C 534 14 516 29 502 49 C 488 68 479 91 475 119 L 471 119 C 442 77 410 42 376 14 C 341 -14 292 -29 229 -29 C 157 -29 100 -3 60 48 C 20 99 0 158 0 225 C 0 372 58 467 175 510 C 291 553 415 569 545 557 L 551 592 C 559 635 553 671 535 701 C 517 730 476 745 414 745 C 371 745 328 737 285 723 C 242 709 202 693 166 676 L 150 909 C 189 929 238 946 296 960 C 354 974 413 981 475 981 C 645 981 755 932 804 834 C 852 736 858 613 821 463 L 780 295 Z M 289 274 C 289 244 296 219 311 201 C 326 183 347 174 375 174 C 406 174 433 186 457 211 C 480 235 494 265 500 299 L 520 424 C 460 426 406 415 359 389 C 312 363 289 324 289 274 Z" unicode="ą" />
<glyph horiz-adv-x="1071" d="M 1116 1241 L 1059 961 C 1003 987 952 1007 904 1021 C 856 1035 810 1042 764 1042 C 642 1042 550 994 487 900 C 424 806 393 695 393 569 C 393 457 417 373 467 318 C 516 263 584 236 670 236 C 714 236 757 243 797 257 C 837 271 878 289 920 311 L 954 47 C 904 19 851 0 797 -13 C 743 -26 691 -33 641 -33 C 458 -33 319 17 223 118 C 127 219 80 355 80 526 C 80 738 138 922 255 1078 C 371 1234 542 1313 768 1313 C 831 1313 891 1306 947 1294 C 1003 1281 1059 1263 1116 1241 Z M 1210 1771 L 836 1392 L 629 1392 L 874 1771 L 1210 1771 Z" unicode="Ć" />
<glyph horiz-adv-x="852" d="M 862 887 L 780 662 C 743 688 709 708 677 723 C 645 737 611 745 573 745 C 495 745 437 710 399 641 C 361 572 342 499 342 422 C 342 352 357 299 387 262 C 417 225 462 207 520 207 C 550 207 579 211 607 221 C 634 230 663 242 694 256 L 721 31 C 688 13 650 -1 606 -13 C 562 -25 511 -31 455 -31 C 335 -31 238 6 162 82 C 86 158 49 266 49 406 C 49 560 92 695 179 810 C 266 925 387 983 541 983 C 605 983 664 974 718 958 C 772 942 820 918 862 887 Z M 994 1458 L 620 1079 L 413 1079 L 658 1458 L 994 1458 Z" unicode="ć" />
<glyph horiz-adv-x="1071" d="M 1116 1241 L 1059 961 C 1003 987 952 1007 904 1021 C 856 1035 810 1042 764 1042 C 642 1042 550 994 487 900 C 424 806 393 695 393 569 C 393 457 417 373 467 318 C 516 263 584 236 670 236 C 714 236 757 243 797 257 C 837 271 878 289 920 311 L 954 47 C 904 19 851 0 797 -13 C 743 -26 691 -33 641 -33 C 458 -33 319 17 223 118 C 127 219 80 355 80 526 C 80 738 138 922 255 1078 C 371 1234 542 1313 768 1313 C 831 1313 891 1306 947 1294 C 1003 1281 1059 1263 1116 1241 Z M 1120 1392 L 897 1392 L 821 1618 L 819 1618 L 661 1392 L 424 1392 L 698 1775 L 989 1775 L 1120 1392 Z" unicode="Ĉ" />
<glyph horiz-adv-x="852" d="M 862 887 L 780 662 C 743 688 709 708 677 723 C 645 737 611 745 573 745 C 495 745 437 710 399 641 C 361 572 342 499 342 422 C 342 352 357 299 387 262 C 417 225 462 207 520 207 C 550 207 579 211 607 221 C 634 230 663 242 694 256 L 721 31 C 688 13 650 -1 606 -13 C 562 -25 511 -31 455 -31 C 335 -31 238 6 162 82 C 86 158 49 266 49 406 C 49 560 92 695 179 810 C 266 925 387 983 541 983 C 605 983 664 974 718 958 C 772 942 820 918 862 887 Z M 927 1079 L 704 1079 L 628 1305 L 626 1305 L 468 1079 L 231 1079 L 505 1462 L 796 1462 L 927 1079 Z" unicode="ĉ" />
<glyph horiz-adv-x="1071" d="M 1116 1241 L 1059 961 C 1003 987 952 1007 904 1021 C 856 1035 810 1042 764 1042 C 642 1042 550 994 487 900 C 424 806 393 695 393 569 C 393 457 417 373 467 318 C 516 263 584 236 670 236 C 714 236 757 243 797 257 C 837 271 878 289 920 311 L 954 47 C 904 19 851 0 797 -13 C 743 -26 691 -33 641 -33 C 458 -33 319 17 223 118 C 127 219 80 355 80 526 C 80 738 138 922 255 1078 C 371 1234 542 1313 768 1313 C 831 1313 891 1306 947 1294 C 1003 1281 1059 1263 1116 1241 Z M 994 1560 C 994 1509 979 1470 951 1442 C 922 1414 885 1400 839 1400 C 791 1400 753 1414 725 1442 C 697 1470 683 1509 683 1560 C 683 1612 697 1651 725 1679 C 753 1706 791 1720 839 1720 C 885 1720 922 1706 951 1679 C 979 1651 994 1612 994 1560 Z" unicode="Ċ" />
<glyph horiz-adv-x="852" d="M 862 887 L 780 662 C 743 688 709 708 677 723 C 645 737 611 745 573 745 C 495 745 437 710 399 641 C 361 572 342 499 342 422 C 342 352 357 299 387 262 C 417 225 462 207 520 207 C 550 207 579 211 607 221 C 634 230 663 242 694 256 L 721 31 C 688 13 650 -1 606 -13 C 562 -25 511 -31 455 -31 C 335 -31 238 6 162 82 C 86 158 49 266 49 406 C 49 560 92 695 179 810 C 266 925 387 983 541 983 C 605 983 664 974 718 958 C 772 942 820 918 862 887 Z M 775 1247 C 775 1196 760 1157 732 1129 C 703 1101 666 1087 620 1087 C 572 1087 534 1101 506 1129 C 478 1157 464 1196 464 1247 C 464 1299 478 1338 506 1366 C 534 1393 572 1407 620 1407 C 666 1407 703 1393 732 1366 C 760 1338 775 1299 775 1247 Z" unicode="ċ" />
<glyph horiz-adv-x="1071" d="M 1116 1241 L 1059 961 C 1003 987 952 1007 904 1021 C 856 1035 810 1042 764 1042 C 642 1042 550 994 487 900 C 424 806 393 695 393 569 C 393 457 417 373 467 318 C 516 263 584 236 670 236 C 714 236 757 243 797 257 C 837 271 878 289 920 311 L 954 47 C 904 19 851 0 797 -13 C 743 -26 691 -33 641 -33 C 458 -33 319 17 223 118 C 127 219 80 355 80 526 C 80 738 138 922 255 1078 C 371 1234 542 1313 768 1313 C 831 1313 891 1306 947 1294 C 1003 1281 1059 1263 1116 1241 Z M 1240 1775 C 1195 1712 1150 1648 1105 1584 C 1059 1519 1014 1455 968 1392 L 677 1392 L 546 1775 L 769 1775 L 845 1548 C 871 1584 898 1622 925 1661 C 952 1699 979 1737 1005 1775 L 1240 1775 Z" unicode="Č" />
<glyph horiz-adv-x="852" d="M 862 887 L 780 662 C 743 688 709 708 677 723 C 645 737 611 745 573 745 C 495 745 437 710 399 641 C 361 572 342 499 342 422 C 342 352 357 299 387 262 C 417 225 462 207 520 207 C 550 207 579 211 607 221 C 634 230 663 242 694 256 L 721 31 C 688 13 650 -1 606 -13 C 562 -25 511 -31 455 -31 C 335 -31 238 6 162 82 C 86 158 49 266 49 406 C 49 560 92 695 179 810 C 266 925 387 983 541 983 C 605 983 664 974 718 958 C 772 942 820 918 862 887 Z M 1042 1462 C 997 1399 952 1335 907 1271 C 861 1206 816 1142 770 1079 L 479 1079 L 348 1462 L 571 1462 L 647 1235 C 673 1271 700 1309 727 1348 C 754 1386 781 1424 807 1462 L 1042 1462 Z" unicode="č" />
<glyph horiz-adv-x="1223" d="M 1206 750 C 1206 538 1146 360 1026 216 C 906 72 725 0 483 0 L 31 0 L 279 1280 L 672 1280 C 828 1280 956 1234 1056 1143 C 1156 1051 1206 920 1206 750 Z M 893 731 C 893 829 869 903 821 953 C 773 1003 706 1028 618 1028 L 541 1028 L 391 252 L 506 252 C 635 252 732 299 796 393 C 860 487 893 599 893 731 Z M 1124 1775 C 1079 1712 1034 1648 989 1584 C 943 1519 898 1455 852 1392 L 561 1392 L 430 1775 L 653 1775 L 729 1548 C 755 1584 782 1622 809 1661 C 836 1699 863 1737 889 1775 L 1124 1775 Z" unicode="Ď" />
<glyph horiz-adv-x="1552" d="M 1634 1157 C 1634 1054 1590 963 1504 884 C 1417 804 1323 744 1223 702 L 1118 829 C 1160 851 1209 885 1266 933 C 1323 981 1352 1029 1352 1077 C 1352 1113 1340 1142 1318 1165 C 1295 1187 1265 1207 1229 1225 C 1240 1275 1263 1316 1297 1348 C 1331 1379 1374 1395 1427 1395 C 1488 1395 1538 1371 1576 1325 C 1614 1278 1634 1222 1634 1157 Z M 1104 1393 L 834 0 L 539 0 L 555 78 C 523 45 488 19 449 -1 C 409 -21 366 -31 319 -31 C 237 -31 171 4 122 76 C 73 148 49 245 49 369 C 49 529 89 671 171 793 C 252 915 367 977 516 977 C 550 977 584 971 619 961 C 653 951 686 938 717 922 L 803 1366 L 1104 1393 Z M 674 690 C 657 710 638 726 618 738 C 598 750 574 756 547 756 C 478 756 427 716 393 637 C 359 558 342 479 342 399 C 342 336 352 287 374 253 C 396 218 427 201 467 201 C 491 201 514 206 535 218 C 555 230 574 244 592 262 L 674 690 Z" unicode="ď" />
<glyph horiz-adv-x="1251" d="M 1235 750 C 1235 538 1174 360 1054 216 C 934 72 753 0 512 0 L 59 0 L 160 520 L 45 520 L 45 772 L 209 772 L 307 1280 L 700 1280 C 856 1280 984 1234 1084 1143 C 1184 1051 1235 920 1235 750 Z M 922 731 C 922 829 898 903 850 953 C 802 1003 735 1028 647 1028 L 569 1028 L 520 772 L 702 772 L 702 520 L 471 520 L 420 252 L 535 252 C 664 252 761 299 825 393 C 889 487 922 599 922 731 Z" unicode="Đ" />
<glyph horiz-adv-x="1051" d="M 1194 1067 L 1040 1067 L 834 0 L 539 0 L 555 78 C 523 45 488 19 449 -1 C 409 -21 366 -31 319 -31 C 237 -31 171 4 122 76 C 73 148 49 245 49 369 C 49 529 89 671 171 793 C 252 915 367 977 516 977 C 550 977 584 971 619 961 C 653 951 686 938 717 922 L 743 1067 L 565 1067 L 602 1237 L 776 1237 L 803 1368 L 1106 1395 L 1073 1237 L 1190 1237 L 1194 1067 Z M 674 690 C 657 710 638 726 618 738 C 598 750 574 756 547 756 C 478 756 427 716 393 637 C 359 558 342 479 342 399 C 342 336 352 287 374 253 C 396 218 427 201 467 201 C 491 201 514 206 535 218 C 555 230 574 244 592 262 L 674 690 Z" unicode="đ" />
<glyph horiz-adv-x="1049" d="M 1026 1438 L 377 1438 L 399 1620 L 1014 1620 C 1016 1589 1017 1559 1019 1529 C 1020 1499 1022 1468 1026 1438 Z M 1090 1280 L 1040 1026 L 539 1026 L 487 766 L 903 766 L 854 514 L 438 514 L 389 254 L 891 254 L 842 0 L 31 0 L 279 1280 L 1090 1280 Z" unicode="Ē" />
<glyph horiz-adv-x="930" d="M 899 1124 L 250 1124 L 272 1307 L 887 1307 C 889 1276 890 1245 892 1215 C 893 1185 895 1154 899 1124 Z M 893 657 C 893 618 888 577 879 534 C 869 490 859 452 848 420 L 340 412 L 340 393 C 340 327 355 277 386 244 C 416 211 461 195 520 195 C 569 195 613 201 651 215 C 689 228 722 242 750 258 L 782 33 C 749 15 706 0 652 -12 C 598 -24 543 -31 487 -31 C 340 -31 230 6 158 82 C 85 157 49 263 49 401 C 49 559 96 695 192 810 C 287 925 406 983 549 983 C 653 983 736 954 799 898 C 861 841 893 761 893 657 Z M 616 659 C 616 698 608 728 593 750 C 578 771 554 782 522 782 C 484 782 452 762 426 722 C 400 682 379 628 365 561 L 600 565 C 604 577 607 593 611 612 C 614 630 616 646 616 659 Z" unicode="ē" />
<glyph horiz-adv-x="1049" d="M 1098 1767 C 1061 1631 1005 1531 931 1469 C 857 1407 778 1376 694 1376 C 614 1376 546 1407 492 1469 C 437 1531 416 1631 430 1767 L 602 1765 C 596 1703 602 1653 619 1616 C 635 1579 665 1561 709 1561 C 758 1561 799 1580 832 1618 C 865 1656 891 1705 911 1765 L 1098 1767 Z M 1090 1280 L 1040 1026 L 539 1026 L 487 766 L 903 766 L 854 514 L 438 514 L 389 254 L 891 254 L 842 0 L 31 0 L 279 1280 L 1090 1280 Z" unicode="Ĕ" />
<glyph horiz-adv-x="930" d="M 997 1454 C 960 1317 904 1218 830 1156 C 756 1094 677 1063 594 1063 C 513 1063 445 1094 391 1156 C 337 1218 316 1317 330 1454 L 502 1452 C 496 1390 502 1340 519 1303 C 535 1265 565 1247 608 1247 C 658 1247 699 1266 732 1304 C 765 1342 791 1392 811 1452 L 997 1454 Z M 893 657 C 893 618 888 577 879 534 C 869 490 859 452 848 420 L 340 412 L 340 393 C 340 327 355 277 386 244 C 416 211 461 195 520 195 C 569 195 613 201 651 215 C 689 228 722 242 750 258 L 782 33 C 749 15 706 0 652 -12 C 598 -24 543 -31 487 -31 C 340 -31 230 6 158 82 C 85 157 49 263 49 401 C 49 559 96 695 192 810 C 287 925 406 983 549 983 C 653 983 736 954 799 898 C 861 841 893 761 893 657 Z M 616 659 C 616 698 608 728 593 750 C 578 771 554 782 522 782 C 484 782 452 762 426 722 C 400 682 379 628 365 561 L 600 565 C 604 577 607 593 611 612 C 614 630 616 646 616 659 Z" unicode="ĕ" />
<glyph horiz-adv-x="1049" d="M 1090 1280 L 1040 1026 L 539 1026 L 487 766 L 903 766 L 854 514 L 438 514 L 389 254 L 891 254 L 842 0 L 31 0 L 279 1280 L 1090 1280 Z M 882 1560 C 882 1509 867 1470 839 1442 C 810 1414 773 1400 727 1400 C 679 1400 641 1414 613 1442 C 585 1470 571 1509 571 1560 C 571 1612 585 1651 613 1679 C 641 1706 679 1720 727 1720 C 773 1720 810 1706 839 1679 C 867 1651 882 1612 882 1560 Z" unicode="Ė" />
<glyph horiz-adv-x="930" d="M 893 657 C 893 618 888 577 879 534 C 869 490 859 452 848 420 L 340 412 L 340 393 C 340 327 355 277 386 244 C 416 211 461 195 520 195 C 569 195 613 201 651 215 C 689 228 722 242 750 258 L 782 33 C 749 15 706 0 652 -12 C 598 -24 543 -31 487 -31 C 340 -31 230 6 158 82 C 85 157 49 263 49 401 C 49 559 96 695 192 810 C 287 925 406 983 549 983 C 653 983 736 954 799 898 C 861 841 893 761 893 657 Z M 616 659 C 616 698 608 728 593 750 C 578 771 554 782 522 782 C 484 782 452 762 426 722 C 400 682 379 628 365 561 L 600 565 C 604 577 607 593 611 612 C 614 630 616 646 616 659 Z M 790 1247 C 790 1196 775 1157 747 1129 C 718 1101 681 1087 635 1087 C 587 1087 549 1101 521 1129 C 493 1157 479 1196 479 1247 C 479 1299 493 1338 521 1366 C 549 1393 587 1407 635 1407 C 681 1407 718 1393 747 1366 C 775 1338 790 1299 790 1247 Z" unicode="ė" />
<glyph horiz-adv-x="1049" d="M 1090 1280 L 1040 1026 L 539 1026 L 487 766 L 903 766 L 854 514 L 438 514 L 389 254 L 891 254 L 842 0 L 768 0 C 732 -25 701 -54 675 -88 C 648 -122 635 -159 635 -199 C 635 -219 640 -234 651 -245 C 662 -256 678 -262 698 -262 C 713 -262 728 -260 744 -256 C 760 -252 774 -246 786 -238 L 793 -399 C 767 -414 739 -426 710 -436 C 681 -446 646 -451 604 -451 C 549 -451 505 -434 471 -401 C 437 -368 420 -326 420 -274 C 420 -214 439 -160 477 -113 C 515 -66 562 -28 616 0 L 31 0 L 279 1280 L 1090 1280 Z" unicode="Ę" />
<glyph horiz-adv-x="930" d="M 893 657 C 893 619 888 578 878 534 C 868 490 858 452 848 420 L 340 412 L 340 393 C 340 326 355 276 386 244 C 416 211 461 195 520 195 C 569 195 613 201 651 215 C 689 229 722 243 750 258 L 782 33 C 722 7 674 -24 638 -62 C 602 -100 584 -145 584 -199 C 584 -219 589 -234 600 -245 C 610 -256 626 -262 647 -262 C 662 -262 677 -260 693 -256 C 709 -252 723 -246 735 -238 L 741 -399 C 715 -414 687 -426 659 -436 C 630 -446 595 -451 553 -451 C 498 -451 454 -434 420 -401 C 386 -368 369 -326 369 -274 C 369 -221 382 -174 410 -132 C 437 -90 472 -57 516 -31 L 487 -31 C 341 -31 231 6 158 82 C 85 157 49 263 49 401 C 49 559 94 696 186 811 C 278 925 399 983 549 983 C 653 983 736 954 799 898 C 861 841 893 761 893 657 Z M 616 659 C 616 697 608 727 593 749 C 578 771 554 782 522 782 C 484 782 452 762 426 722 C 400 682 379 628 365 561 L 600 565 C 604 577 607 593 611 611 C 614 629 616 645 616 659 Z" unicode="ę" />
<glyph horiz-adv-x="1049" d="M 1090 1280 L 1040 1026 L 539 1026 L 487 766 L 903 766 L 854 514 L 438 514 L 389 254 L 891 254 L 842 0 L 31 0 L 279 1280 L 1090 1280 Z M 1105 1775 C 1060 1712 1015 1648 970 1584 C 924 1519 879 1455 833 1392 L 542 1392 L 411 1775 L 634 1775 L 710 1548 C 736 1584 763 1622 790 1661 C 817 1699 844 1737 870 1775 L 1105 1775 Z" unicode="Ě" />
<glyph horiz-adv-x="930" d="M 893 657 C 893 618 888 577 879 534 C 869 490 859 452 848 420 L 340 412 L 340 393 C 340 327 355 277 386 244 C 416 211 461 195 520 195 C 569 195 613 201 651 215 C 689 228 722 242 750 258 L 782 33 C 749 15 706 0 652 -12 C 598 -24 543 -31 487 -31 C 340 -31 230 6 158 82 C 85 157 49 263 49 401 C 49 559 96 695 192 810 C 287 925 406 983 549 983 C 653 983 736 954 799 898 C 861 841 893 761 893 657 Z M 616 659 C 616 698 608 728 593 750 C 578 771 554 782 522 782 C 484 782 452 762 426 722 C 400 682 379 628 365 561 L 600 565 C 604 577 607 593 611 612 C 614 630 616 646 616 659 Z M 997 1462 C 952 1399 907 1335 862 1271 C 816 1206 771 1142 725 1079 L 434 1079 L 303 1462 L 526 1462 L 602 1235 C 628 1271 655 1309 682 1348 C 709 1386 736 1424 762 1462 L 997 1462 Z" unicode="ě" />
<glyph horiz-adv-x="1184" d="M 1128 715 C 1106 603 1085 491 1063 379 C 1041 267 1019 155 997 43 C 939 19 878 1 815 -12 C 752 -26 689 -33 625 -33 C 459 -33 327 16 227 115 C 127 213 78 350 78 526 C 78 735 137 918 257 1076 C 376 1234 546 1313 766 1313 C 839 1313 906 1306 968 1294 C 1030 1282 1091 1263 1151 1239 C 1139 1193 1128 1147 1118 1101 C 1108 1055 1097 1009 1087 963 C 1033 988 980 1007 928 1021 C 876 1035 824 1042 772 1042 C 642 1042 546 992 483 892 C 420 792 389 678 389 549 C 389 452 410 373 453 312 C 495 251 561 221 651 221 C 671 221 690 222 708 225 C 726 228 743 233 760 240 L 807 461 L 565 461 L 616 715 L 1128 715 Z M 1156 1392 L 933 1392 L 857 1618 L 855 1618 L 697 1392 L 460 1392 L 734 1775 L 1025 1775 L 1156 1392 Z" unicode="Ĝ" />
<glyph horiz-adv-x="895" d="M 997 709 L 838 733 C 842 719 845 704 847 690 C 849 676 850 662 850 649 C 850 550 816 461 749 382 C 682 303 585 264 457 264 C 430 264 405 265 381 268 C 357 271 336 276 317 283 C 304 276 293 268 284 258 C 274 248 270 237 270 225 C 270 207 280 192 302 181 C 324 169 362 158 418 147 C 576 115 682 77 736 31 C 790 -15 817 -77 817 -156 C 817 -268 769 -354 674 -414 C 578 -474 459 -504 317 -504 C 169 -504 58 -480 -16 -434 C -91 -387 -129 -323 -129 -242 C -129 -186 -107 -138 -63 -96 C -19 -54 35 -26 102 -14 C 67 -3 42 14 26 40 C 10 66 2 95 2 129 C 2 171 19 212 53 251 C 87 290 139 316 211 330 C 164 361 130 401 110 450 C 90 498 80 548 80 598 C 80 694 115 781 186 861 C 256 941 361 981 500 981 C 550 981 593 974 629 962 C 665 949 698 931 727 909 L 997 938 L 997 709 Z M 535 -217 C 535 -188 526 -166 509 -151 C 491 -135 462 -123 420 -113 C 396 -106 368 -100 334 -94 C 300 -88 263 -78 225 -66 C 203 -72 182 -86 163 -110 C 144 -134 135 -160 135 -188 C 135 -234 153 -269 190 -295 C 227 -321 276 -334 338 -334 C 399 -334 447 -323 482 -301 C 517 -279 535 -251 535 -217 Z M 586 645 C 586 687 578 721 563 749 C 548 777 521 791 481 791 C 442 791 411 771 387 731 C 363 691 352 644 352 590 C 352 550 359 514 375 484 C 391 453 419 438 459 438 C 502 438 534 459 555 502 C 575 544 586 592 586 645 Z M 894 1079 L 671 1079 L 595 1305 L 593 1305 L 435 1079 L 198 1079 L 472 1462 L 763 1462 L 894 1079 Z" unicode="ĝ" />
<glyph horiz-adv-x="1184" d="M 1202 1767 C 1165 1631 1109 1531 1035 1469 C 961 1407 882 1376 799 1376 C 718 1376 650 1407 596 1469 C 542 1531 521 1631 535 1767 L 707 1765 C 701 1703 707 1653 724 1616 C 740 1579 770 1561 813 1561 C 863 1561 904 1580 937 1618 C 970 1656 996 1705 1016 1765 L 1202 1767 Z M 1128 715 C 1106 603 1085 491 1063 379 C 1041 267 1019 155 997 43 C 939 19 878 1 815 -12 C 752 -26 689 -33 625 -33 C 459 -33 327 16 227 115 C 127 213 78 350 78 526 C 78 735 137 918 257 1076 C 376 1234 546 1313 766 1313 C 839 1313 906 1306 968 1294 C 1030 1282 1091 1263 1151 1239 C 1139 1193 1128 1147 1118 1101 C 1108 1055 1097 1009 1087 963 C 1033 988 980 1007 928 1021 C 876 1035 824 1042 772 1042 C 642 1042 546 992 483 892 C 420 792 389 678 389 549 C 389 452 410 373 453 312 C 495 251 561 221 651 221 C 671 221 690 222 708 225 C 726 228 743 233 760 240 L 807 461 L 565 461 L 616 715 L 1128 715 Z" unicode="Ğ" />
<glyph horiz-adv-x="895" d="M 973 1454 C 936 1317 880 1218 806 1156 C 732 1094 653 1063 569 1063 C 489 1063 421 1094 367 1156 C 312 1218 291 1317 305 1454 L 477 1452 C 472 1390 478 1340 494 1303 C 510 1265 540 1247 584 1247 C 634 1247 675 1266 708 1304 C 740 1342 766 1392 786 1452 L 973 1454 Z M 997 709 L 838 733 C 842 719 845 704 847 690 C 849 676 850 662 850 649 C 850 550 816 461 749 382 C 682 303 585 264 457 264 C 430 264 405 265 381 268 C 357 271 336 276 317 283 C 304 276 293 268 284 258 C 274 248 270 237 270 225 C 270 207 280 192 302 181 C 324 169 362 158 418 147 C 576 115 682 77 736 31 C 790 -15 817 -77 817 -156 C 817 -268 769 -354 674 -414 C 578 -474 459 -504 317 -504 C 169 -504 58 -480 -16 -434 C -91 -387 -129 -323 -129 -242 C -129 -186 -107 -138 -63 -96 C -19 -54 35 -26 102 -14 C 67 -3 42 14 26 40 C 10 66 2 95 2 129 C 2 171 19 212 53 251 C 87 290 139 316 211 330 C 164 361 130 401 110 450 C 90 498 80 548 80 598 C 80 694 115 781 186 861 C 256 941 361 981 500 981 C 550 981 593 974 629 962 C 665 949 698 931 727 909 L 997 938 L 997 709 Z M 535 -217 C 535 -188 526 -166 509 -151 C 491 -135 462 -123 420 -113 C 396 -106 368 -100 334 -94 C 300 -88 263 -78 225 -66 C 203 -72 182 -86 163 -110 C 144 -134 135 -160 135 -188 C 135 -234 153 -269 190 -295 C 227 -321 276 -334 338 -334 C 399 -334 447 -323 482 -301 C 517 -279 535 -251 535 -217 Z M 586 645 C 586 687 578 721 563 749 C 548 777 521 791 481 791 C 442 791 411 771 387 731 C 363 691 352 644 352 590 C 352 550 359 514 375 484 C 391 453 419 438 459 438 C 502 438 534 459 555 502 C 575 544 586 592 586 645 Z" unicode="ğ" />
<glyph horiz-adv-x="1184" d="M 1128 715 C 1106 603 1085 491 1063 379 C 1041 267 1019 155 997 43 C 939 19 878 1 815 -12 C 752 -26 689 -33 625 -33 C 459 -33 327 16 227 115 C 127 213 78 350 78 526 C 78 735 137 918 257 1076 C 376 1234 546 1313 766 1313 C 839 1313 906 1306 968 1294 C 1030 1282 1091 1263 1151 1239 C 1139 1193 1128 1147 1118 1101 C 1108 1055 1097 1009 1087 963 C 1033 988 980 1007 928 1021 C 876 1035 824 1042 772 1042 C 642 1042 546 992 483 892 C 420 792 389 678 389 549 C 389 452 410 373 453 312 C 495 251 561 221 651 221 C 671 221 690 222 708 225 C 726 228 743 233 760 240 L 807 461 L 565 461 L 616 715 L 1128 715 Z M 999 1560 C 999 1509 984 1470 956 1442 C 927 1414 890 1400 844 1400 C 796 1400 758 1414 730 1442 C 702 1470 688 1509 688 1560 C 688 1612 702 1651 730 1679 C 758 1706 796 1720 844 1720 C 890 1720 927 1706 956 1679 C 984 1651 999 1612 999 1560 Z" unicode="Ġ" />
<glyph horiz-adv-x="895" d="M 997 709 L 838 733 C 842 719 845 704 847 690 C 849 676 850 662 850 649 C 850 550 816 461 749 382 C 682 303 585 264 457 264 C 430 264 405 265 381 268 C 357 271 336 276 317 283 C 304 276 293 268 284 258 C 274 248 270 237 270 225 C 270 207 280 192 302 181 C 324 169 362 158 418 147 C 576 115 682 77 736 31 C 790 -15 817 -77 817 -156 C 817 -268 769 -354 674 -414 C 578 -474 459 -504 317 -504 C 169 -504 58 -480 -16 -434 C -91 -387 -129 -323 -129 -242 C -129 -186 -107 -138 -63 -96 C -19 -54 35 -26 102 -14 C 67 -3 42 14 26 40 C 10 66 2 95 2 129 C 2 171 19 212 53 251 C 87 290 139 316 211 330 C 164 361 130 401 110 450 C 90 498 80 548 80 598 C 80 694 115 781 186 861 C 256 941 361 981 500 981 C 550 981 593 974 629 962 C 665 949 698 931 727 909 L 997 938 L 997 709 Z M 535 -217 C 535 -188 526 -166 509 -151 C 491 -135 462 -123 420 -113 C 396 -106 368 -100 334 -94 C 300 -88 263 -78 225 -66 C 203 -72 182 -86 163 -110 C 144 -134 135 -160 135 -188 C 135 -234 153 -269 190 -295 C 227 -321 276 -334 338 -334 C 399 -334 447 -323 482 -301 C 517 -279 535 -251 535 -217 Z M 586 645 C 586 687 578 721 563 749 C 548 777 521 791 481 791 C 442 791 411 771 387 731 C 363 691 352 644 352 590 C 352 550 359 514 375 484 C 391 453 419 438 459 438 C 502 438 534 459 555 502 C 575 544 586 592 586 645 Z M 765 1247 C 765 1196 750 1157 722 1129 C 693 1101 656 1087 610 1087 C 562 1087 524 1101 496 1129 C 468 1157 454 1196 454 1247 C 454 1299 468 1338 496 1366 C 524 1393 562 1407 610 1407 C 656 1407 693 1393 722 1366 C 750 1338 765 1299 765 1247 Z" unicode="ġ" />
<glyph horiz-adv-x="1184" d="M 776 -266 C 776 -350 741 -419 671 -472 C 601 -525 522 -560 434 -578 L 385 -498 C 425 -479 461 -457 494 -432 C 526 -406 543 -376 543 -342 C 543 -326 536 -309 524 -292 C 511 -274 484 -257 442 -240 C 449 -203 469 -171 501 -145 C 533 -119 570 -106 612 -106 C 657 -106 696 -120 728 -149 C 760 -178 776 -217 776 -266 Z M 1128 715 C 1106 603 1085 491 1063 379 C 1041 267 1019 155 997 43 C 939 19 878 1 815 -12 C 752 -26 689 -33 625 -33 C 459 -33 327 16 227 115 C 127 213 78 350 78 526 C 78 735 137 918 257 1076 C 376 1234 546 1313 766 1313 C 839 1313 906 1306 968 1294 C 1030 1282 1091 1263 1151 1239 C 1139 1193 1128 1147 1118 1101 C 1108 1055 1097 1009 1087 963 C 1033 988 980 1007 928 1021 C 876 1035 824 1042 772 1042 C 642 1042 546 992 483 892 C 420 792 389 678 389 549 C 389 452 410 373 453 312 C 495 251 561 221 651 221 C 671 221 690 222 708 225 C 726 228 743 233 760 240 L 807 461 L 565 461 L 616 715 L 1128 715 Z" unicode="Ģ" />
<glyph horiz-adv-x="895" d="M 477 1217 C 477 1301 512 1369 582 1422 C 652 1475 731 1510 819 1528 L 868 1448 C 828 1429 792 1407 760 1382 C 727 1356 711 1326 711 1292 C 711 1276 717 1259 729 1242 C 741 1224 769 1207 811 1190 C 803 1153 784 1122 752 1096 C 720 1070 683 1057 641 1057 C 596 1057 557 1071 525 1100 C 493 1128 477 1167 477 1217 Z M 997 709 L 838 733 C 842 719 845 704 847 690 C 849 676 850 662 850 649 C 850 550 816 461 749 382 C 682 303 585 264 457 264 C 430 264 405 265 381 268 C 357 271 336 276 317 283 C 304 276 293 268 284 258 C 274 248 270 237 270 225 C 270 207 280 192 302 181 C 324 169 362 158 418 147 C 576 115 682 77 736 31 C 790 -15 817 -77 817 -156 C 817 -268 769 -354 674 -414 C 578 -474 459 -504 317 -504 C 169 -504 58 -480 -16 -434 C -91 -387 -129 -323 -129 -242 C -129 -186 -107 -138 -63 -96 C -19 -54 35 -26 102 -14 C 67 -3 42 14 26 40 C 10 66 2 95 2 129 C 2 171 19 212 53 251 C 87 290 139 316 211 330 C 164 361 130 401 110 450 C 90 498 80 548 80 598 C 80 694 115 781 186 861 C 256 941 361 981 500 981 C 550 981 593 974 629 962 C 665 949 698 931 727 909 L 997 938 L 997 709 Z M 535 -217 C 535 -188 526 -166 509 -151 C 491 -135 462 -123 420 -113 C 396 -106 368 -100 334 -94 C 300 -88 263 -78 225 -66 C 203 -72 182 -86 163 -110 C 144 -134 135 -160 135 -188 C 135 -234 153 -269 190 -295 C 227 -321 276 -334 338 -334 C 399 -334 447 -323 482 -301 C 517 -279 535 -251 535 -217 Z M 586 645 C 586 687 578 721 563 749 C 548 777 521 791 481 791 C 442 791 411 771 387 731 C 363 691 352 644 352 590 C 352 550 359 514 375 484 C 391 453 419 438 459 438 C 502 438 534 459 555 502 C 575 544 586 592 586 645 Z" unicode="ģ" />
<glyph horiz-adv-x="1264" d="M 1292 1280 L 1044 0 L 731 0 L 831 512 L 442 512 L 344 0 L 31 0 L 279 1280 L 592 1280 L 494 778 L 883 778 L 979 1280 L 1292 1280 Z M 1163 1392 L 940 1392 L 864 1618 L 862 1618 L 704 1392 L 467 1392 L 741 1775 L 1032 1775 L 1163 1392 Z" unicode="Ĥ" />
<glyph horiz-adv-x="1055" d="M 25 0 L 289 1366 L 590 1393 L 477 819 C 519 870 564 910 611 939 C 657 968 706 983 758 983 C 854 983 920 947 954 877 C 988 806 997 723 979 629 L 856 0 L 561 0 L 668 553 C 676 599 677 639 669 674 C 661 709 634 727 588 727 C 560 727 533 715 507 693 C 480 671 457 646 438 618 L 319 0 L 25 0 Z M 821 1421 L 598 1421 L 522 1647 L 520 1647 L 362 1421 L 125 1421 L 399 1804 L 690 1804 L 821 1421 Z" unicode="ĥ" />
<glyph horiz-adv-x="1264" d="M 1399 1096 L 1366 918 L 1221 918 L 1044 0 L 731 0 L 829 512 L 442 512 L 344 0 L 31 0 L 207 918 L 57 918 L 94 1096 L 242 1096 L 279 1280 L 592 1280 L 555 1096 L 944 1096 L 979 1280 L 1292 1280 L 1255 1096 L 1399 1096 Z M 909 918 L 520 918 L 494 778 L 883 778 L 909 918 Z" unicode="Ħ" />
<glyph horiz-adv-x="1065" d="M 121 1065 L 152 1237 L 274 1237 L 299 1366 L 600 1393 L 569 1237 L 778 1237 L 788 1065 L 535 1065 L 487 819 C 530 870 575 910 622 939 C 668 968 717 983 768 983 C 864 983 930 947 965 877 C 999 806 1007 723 989 629 L 866 0 L 571 0 L 678 553 C 687 599 688 639 680 674 C 672 709 644 727 598 727 C 570 727 543 715 517 693 C 491 671 468 646 449 618 L 330 0 L 35 0 L 240 1065 L 121 1065 Z" unicode="ħ" />
<glyph horiz-adv-x="567" d="M 793 1438 L 143 1438 L 166 1620 L 780 1620 C 782 1589 783 1559 785 1529 C 787 1499 789 1468 793 1438 Z M 594 1280 L 346 0 L 33 0 L 281 1280 L 594 1280 Z" unicode="Ī" />
<glyph horiz-adv-x="537" d="M 727 1124 L 78 1124 L 100 1307 L 715 1307 C 717 1276 718 1245 720 1215 C 721 1185 723 1154 727 1124 Z M 512 969 L 324 0 L 29 0 L 211 942 L 512 969 Z" unicode="ī" />
<glyph horiz-adv-x="567" d="M 594 1280 L 346 0 L 33 0 L 281 1280 L 594 1280 Z M 879 1767 C 842 1630 786 1531 712 1469 C 637 1407 558 1376 475 1376 C 394 1376 326 1407 272 1469 C 218 1531 197 1630 211 1767 L 383 1765 C 377 1703 383 1653 400 1616 C 416 1578 446 1560 489 1560 C 539 1560 580 1579 613 1617 C 646 1655 672 1705 692 1765 L 879 1767 Z" unicode="Ĭ" />
<glyph horiz-adv-x="537" d="M 512 969 L 324 0 L 29 0 L 211 942 L 512 969 Z M 784 1454 C 747 1317 691 1218 617 1156 C 542 1094 463 1063 380 1063 C 299 1063 231 1094 177 1156 C 123 1218 102 1317 116 1454 L 288 1452 C 282 1390 288 1340 305 1303 C 321 1265 351 1247 394 1247 C 444 1247 485 1266 518 1304 C 551 1342 577 1392 597 1452 L 784 1454 Z" unicode="ĭ" />
<glyph horiz-adv-x="567" d="M 594 1280 L 346 0 C 293 -20 248 -46 212 -76 C 176 -106 158 -147 158 -199 C 158 -219 164 -234 176 -245 C 188 -256 205 -262 225 -262 C 240 -262 256 -260 272 -256 C 288 -252 303 -246 315 -238 L 322 -399 C 296 -414 268 -426 239 -436 C 209 -446 173 -451 131 -451 C 76 -451 31 -434 -4 -401 C -39 -368 -57 -326 -57 -274 C -57 -222 -40 -171 -7 -121 C 25 -71 75 -31 143 0 L 33 0 L 281 1280 L 594 1280 Z" unicode="Į" />
<glyph horiz-adv-x="537" d="M 512 969 L 324 0 C 258 -31 213 -63 188 -96 C 162 -128 150 -163 150 -199 C 150 -219 155 -234 166 -245 C 176 -256 192 -262 213 -262 C 228 -262 243 -260 259 -256 C 275 -252 289 -246 301 -238 L 307 -399 C 281 -414 254 -426 225 -436 C 195 -446 160 -451 119 -451 C 63 -451 19 -434 -15 -401 C -49 -368 -66 -326 -66 -274 C -66 -219 -48 -168 -13 -121 C 21 -73 75 -33 147 0 L 29 0 L 211 942 L 512 969 Z M 594 1257 C 594 1205 577 1165 545 1135 C 513 1105 470 1090 416 1090 C 362 1090 320 1104 290 1132 C 259 1160 244 1201 244 1255 C 244 1307 260 1348 293 1378 C 325 1408 368 1423 422 1423 C 476 1423 518 1408 548 1380 C 578 1352 594 1311 594 1257 Z" unicode="į" />
<glyph horiz-adv-x="567" d="M 594 1280 L 346 0 L 33 0 L 281 1280 L 594 1280 Z M 642 1560 C 642 1509 627 1470 599 1442 C 570 1414 533 1400 487 1400 C 439 1400 401 1414 373 1442 C 345 1470 331 1509 331 1560 C 331 1612 345 1651 373 1679 C 401 1706 439 1720 487 1720 C 533 1720 570 1706 599 1679 C 627 1651 642 1612 642 1560 Z" unicode="İ" />
<glyph horiz-adv-x="537" d="M 512 969 L 324 0 L 29 0 L 211 942 L 512 969 Z" unicode="ı" />
<glyph horiz-adv-x="821" d="M 872 1280 L 705 403 C 679 267 630 161 559 84 C 488 7 392 -31 272 -31 C 209 -31 145 -19 81 2 C 17 24 -35 55 -76 94 L 29 340 C 56 308 87 282 123 262 C 158 241 193 231 229 231 C 273 231 308 246 336 278 C 363 310 383 358 395 422 L 559 1280 L 872 1280 Z M 1074 1392 L 851 1392 L 775 1618 L 773 1618 L 615 1392 L 378 1392 L 652 1775 L 943 1775 L 1074 1392 Z" unicode="Ĵ" />
<glyph horiz-adv-x="537" d="M 718 1079 L 495 1079 L 419 1305 L 417 1305 L 259 1079 L 22 1079 L 296 1462 L 587 1462 L 718 1079 Z M 512 969 L 342 98 C 313 -50 272 -174 220 -272 C 167 -370 83 -446 -33 -498 L -178 -301 C -116 -269 -69 -227 -38 -174 C -7 -121 16 -55 33 25 C 33 25 45 89 69 217 C 93 345 140 586 211 942 L 512 969 Z" unicode="ĵ" />
<glyph horiz-adv-x="1149" d="M 647 -266 C 647 -350 612 -419 542 -472 C 472 -525 393 -560 305 -578 L 256 -498 C 296 -479 332 -457 365 -432 C 397 -406 414 -376 414 -342 C 414 -326 407 -309 395 -292 C 382 -274 355 -257 313 -240 C 320 -203 340 -171 372 -145 C 404 -119 441 -106 483 -106 C 528 -106 567 -120 599 -149 C 631 -178 647 -217 647 -266 Z M 1307 1280 L 756 629 L 1032 0 L 694 0 L 459 565 L 457 565 L 348 0 L 35 0 L 283 1280 L 596 1280 L 485 713 L 487 713 L 944 1280 L 1307 1280 Z" unicode="Ķ" />
<glyph horiz-adv-x="997" d="M 592 -266 C 592 -350 556 -419 486 -472 C 416 -525 337 -560 250 -578 L 201 -498 C 240 -479 276 -457 309 -432 C 341 -406 358 -376 358 -342 C 358 -326 351 -309 339 -292 C 327 -274 300 -257 258 -240 C 265 -203 285 -171 317 -145 C 349 -119 386 -106 428 -106 C 472 -106 511 -120 543 -149 C 575 -178 592 -217 592 -266 Z M 1069 952 L 702 502 L 893 0 L 571 0 L 414 465 L 410 465 L 319 0 L 25 0 L 289 1366 L 590 1393 L 428 561 L 432 561 L 731 952 L 1069 952 Z" unicode="ķ" />
<glyph horiz-adv-x="897" d="M 827 264 L 776 0 L 31 0 L 279 1280 L 592 1280 L 395 264 L 827 264 Z M 925 1771 L 551 1392 L 344 1392 L 589 1771 L 925 1771 Z" unicode="Ĺ" />
<glyph horiz-adv-x="567" d="M 598 1393 L 327 0 L 33 0 L 297 1366 L 598 1393 Z M 939 1828 L 565 1449 L 358 1449 L 603 1828 L 939 1828 Z" unicode="ĺ" />
<glyph horiz-adv-x="897" d="M 569 -266 C 569 -350 534 -419 464 -472 C 394 -525 315 -560 227 -578 L 178 -498 C 218 -479 254 -457 287 -432 C 319 -406 336 -376 336 -342 C 336 -326 329 -309 317 -292 C 304 -274 277 -257 236 -240 C 242 -203 262 -171 294 -145 C 326 -119 364 -106 406 -106 C 450 -106 489 -120 521 -149 C 553 -178 569 -217 569 -266 Z M 827 264 L 776 0 L 31 0 L 279 1280 L 592 1280 L 395 264 L 827 264 Z" unicode="Ļ" />
<glyph horiz-adv-x="528" d="M 309 -266 C 309 -350 274 -419 204 -472 C 134 -525 55 -560 -33 -578 L -82 -498 C -42 -479 -5 -457 27 -432 C 59 -406 76 -376 76 -342 C 76 -326 69 -309 57 -292 C 44 -274 17 -257 -25 -240 C -17 -203 2 -171 34 -145 C 66 -119 103 -106 145 -106 C 190 -106 229 -120 261 -149 C 293 -178 309 -217 309 -266 Z M 590 1393 L 319 0 L 25 0 L 289 1366 L 590 1393 Z" unicode="ļ" />
<glyph horiz-adv-x="1155" d="M 1266 1116 C 1266 1013 1222 922 1135 843 C 1048 763 954 703 854 662 L 750 788 C 791 810 840 844 897 892 C 954 940 983 988 983 1036 C 983 1072 971 1101 949 1124 C 926 1146 896 1166 860 1184 C 871 1234 894 1275 928 1307 C 962 1338 1005 1354 1059 1354 C 1120 1354 1170 1330 1208 1284 C 1246 1237 1266 1181 1266 1116 Z M 827 264 L 776 0 L 31 0 L 279 1280 L 592 1280 L 395 264 L 827 264 Z" unicode="Ľ" />
<glyph horiz-adv-x="1022" d="M 1104 1155 C 1104 1052 1060 961 974 882 C 887 802 793 742 692 700 L 588 827 C 629 848 678 883 735 931 C 792 979 821 1027 821 1075 C 821 1111 809 1140 787 1163 C 764 1185 734 1205 698 1223 C 709 1273 732 1314 766 1346 C 800 1377 844 1393 897 1393 C 958 1393 1008 1369 1046 1323 C 1084 1276 1104 1220 1104 1155 Z M 590 1393 L 319 0 L 25 0 L 289 1366 L 590 1393 Z" unicode="ľ" />
<glyph horiz-adv-x="1083" d="M 1147 639 C 1147 581 1130 535 1096 501 C 1062 466 1017 449 961 449 C 905 449 861 466 827 501 C 793 535 776 581 776 639 C 776 696 793 742 827 776 C 861 810 905 827 961 827 C 1017 827 1062 810 1096 776 C 1130 742 1147 696 1147 639 Z M 827 264 L 776 0 L 31 0 L 279 1280 L 592 1280 L 395 264 L 827 264 Z" unicode="Ŀ" />
<glyph horiz-adv-x="965" d="M 944 639 C 944 581 927 535 893 501 C 859 466 814 449 758 449 C 702 449 658 466 624 501 C 590 535 573 581 573 639 C 573 696 590 742 624 776 C 658 810 702 827 758 827 C 814 827 859 810 893 776 C 927 742 944 696 944 639 Z M 590 1393 L 319 0 L 25 0 L 289 1366 L 590 1393 Z" unicode="ŀ" />
<glyph horiz-adv-x="926" d="M 856 264 L 803 0 L 57 0 L 143 442 L 33 410 L 41 657 L 193 702 L 305 1280 L 618 1280 L 526 805 L 750 870 L 741 623 L 477 543 L 422 264 L 856 264 Z" unicode="Ł" />
<glyph horiz-adv-x="549" d="M 600 1393 L 485 799 L 592 829 L 590 578 L 432 532 L 330 0 L 35 0 L 121 444 L 16 414 L 18 668 L 172 711 L 299 1366 L 600 1393 Z" unicode="ł" />
<glyph horiz-adv-x="1298" d="M 1327 1280 L 1077 -12 L 752 -12 L 489 807 L 338 0 L 31 0 L 279 1280 L 610 1280 L 868 469 L 1022 1280 L 1327 1280 Z M 1255 1771 L 881 1392 L 674 1392 L 919 1771 L 1255 1771 Z" unicode="Ń" />
<glyph horiz-adv-x="1055" d="M 25 0 L 207 942 L 508 969 L 477 819 C 519 870 564 910 611 939 C 657 968 706 983 758 983 C 854 983 920 947 954 877 C 988 806 997 723 979 629 L 856 0 L 561 0 L 668 553 C 676 599 677 639 669 674 C 661 709 634 727 588 727 C 560 727 533 715 507 693 C 480 671 457 646 438 618 L 319 0 L 25 0 Z M 1091 1458 L 717 1079 L 510 1079 L 755 1458 L 1091 1458 Z" unicode="ń" />
<glyph horiz-adv-x="1298" d="M 692 -266 C 692 -350 657 -419 587 -472 C 517 -525 438 -560 350 -578 L 301 -498 C 341 -479 377 -457 410 -432 C 442 -406 459 -376 459 -342 C 459 -326 452 -309 440 -292 C 427 -274 400 -257 358 -240 C 365 -203 385 -171 417 -145 C 449 -119 486 -106 528 -106 C 573 -106 612 -120 644 -149 C 676 -178 692 -217 692 -266 Z M 1327 1280 L 1077 -12 L 752 -12 L 489 807 L 338 0 L 31 0 L 279 1280 L 610 1280 L 868 469 L 1022 1280 L 1327 1280 Z" unicode="Ņ" />
<glyph horiz-adv-x="1055" d="M 553 -266 C 553 -350 517 -419 447 -472 C 377 -525 298 -560 211 -578 L 162 -498 C 201 -479 237 -457 270 -432 C 302 -406 319 -376 319 -342 C 319 -326 312 -309 300 -292 C 288 -274 261 -257 219 -240 C 226 -203 246 -171 278 -145 C 310 -119 347 -106 389 -106 C 433 -106 472 -120 504 -149 C 536 -178 553 -217 553 -266 Z M 25 0 L 207 942 L 508 969 L 477 819 C 519 870 564 910 611 939 C 657 968 706 983 758 983 C 854 983 920 947 954 877 C 988 806 997 723 979 629 L 856 0 L 561 0 L 668 553 C 676 599 677 639 669 674 C 661 709 634 727 588 727 C 560 727 533 715 507 693 C 480 671 457 646 438 618 L 319 0 L 25 0 Z" unicode="ņ" />
<glyph horiz-adv-x="1298" d="M 1327 1280 L 1077 -12 L 752 -12 L 489 807 L 338 0 L 31 0 L 279 1280 L 610 1280 L 868 469 L 1022 1280 L 1327 1280 Z M 1240 1775 C 1195 1712 1150 1648 1105 1584 C 1059 1519 1014 1455 968 1392 L 677 1392 L 546 1775 L 769 1775 L 845 1548 C 871 1584 898 1622 925 1661 C 952 1699 979 1737 1005 1775 L 1240 1775 Z" unicode="Ň" />
<glyph horiz-adv-x="1055" d="M 25 0 L 207 942 L 508 969 L 477 819 C 519 870 564 910 611 939 C 657 968 706 983 758 983 C 854 983 920 947 954 877 C 988 806 997 723 979 629 L 856 0 L 561 0 L 668 553 C 676 599 677 639 669 674 C 661 709 634 727 588 727 C 560 727 533 715 507 693 C 480 671 457 646 438 618 L 319 0 L 25 0 Z M 1056 1462 C 1011 1399 966 1335 921 1271 C 875 1206 830 1142 784 1079 L 493 1079 L 362 1462 L 585 1462 L 661 1235 C 687 1271 714 1309 741 1348 C 768 1386 795 1424 821 1462 L 1056 1462 Z" unicode="ň" />
<glyph horiz-adv-x="1280" d="M 1104 1438 L 455 1438 L 477 1620 L 1092 1620 C 1094 1589 1095 1559 1097 1529 C 1098 1499 1100 1468 1104 1438 Z M 1264 743 C 1264 534 1203 352 1083 198 C 963 44 802 -33 600 -33 C 448 -33 323 17 226 118 C 128 219 80 358 80 535 C 80 743 139 925 258 1080 C 377 1235 538 1313 741 1313 C 892 1313 1017 1262 1116 1161 C 1214 1059 1264 920 1264 743 Z M 950 729 C 950 823 930 902 892 965 C 853 1027 795 1059 717 1059 C 613 1059 533 1003 476 892 C 419 780 391 667 391 551 C 391 455 410 376 449 314 C 487 252 546 221 625 221 C 725 221 805 276 863 388 C 921 499 950 613 950 729 Z" unicode="Ō" />
<glyph horiz-adv-x="999" d="M 909 1124 L 260 1124 L 283 1307 L 897 1307 C 899 1276 900 1245 902 1215 C 904 1185 906 1154 909 1124 Z M 950 549 C 950 393 905 257 815 142 C 725 26 604 -31 451 -31 C 328 -31 230 8 158 86 C 85 164 49 269 49 401 C 49 556 93 692 183 808 C 273 924 395 983 549 983 C 671 983 768 943 841 864 C 913 785 950 680 950 549 Z M 655 561 C 655 621 646 669 628 705 C 610 741 579 760 537 760 C 471 760 422 717 390 633 C 358 548 342 467 342 391 C 342 329 351 280 370 244 C 389 208 420 190 463 190 C 527 190 575 232 607 317 C 639 402 655 483 655 561 Z" unicode="ō" />
<glyph horiz-adv-x="1280" d="M 1204 1767 C 1167 1631 1111 1531 1037 1469 C 963 1407 884 1376 801 1376 C 720 1376 652 1407 598 1469 C 544 1531 523 1631 537 1767 L 709 1765 C 703 1703 709 1653 726 1616 C 742 1579 772 1561 815 1561 C 865 1561 906 1580 939 1618 C 972 1656 998 1705 1018 1765 L 1204 1767 Z M 1264 743 C 1264 534 1203 352 1083 198 C 963 44 802 -33 600 -33 C 448 -33 323 17 226 118 C 128 219 80 358 80 535 C 80 743 139 925 258 1080 C 377 1235 538 1313 741 1313 C 892 1313 1017 1262 1116 1161 C 1214 1059 1264 920 1264 743 Z M 950 729 C 950 823 930 902 892 965 C 853 1027 795 1059 717 1059 C 613 1059 533 1003 476 892 C 419 780 391 667 391 551 C 391 455 410 376 449 314 C 487 252 546 221 625 221 C 725 221 805 276 863 388 C 921 499 950 613 950 729 Z" unicode="Ŏ" />
<glyph horiz-adv-x="999" d="M 987 1454 C 950 1317 894 1218 820 1156 C 746 1094 667 1063 584 1063 C 503 1063 435 1094 381 1156 C 327 1218 306 1317 319 1454 L 492 1452 C 486 1390 492 1340 509 1303 C 525 1265 555 1247 598 1247 C 648 1247 689 1266 722 1304 C 755 1342 781 1392 801 1452 L 987 1454 Z M 950 549 C 950 393 905 257 815 142 C 725 26 604 -31 451 -31 C 328 -31 230 8 158 86 C 85 164 49 269 49 401 C 49 556 93 692 183 808 C 273 924 395 983 549 983 C 671 983 768 943 841 864 C 913 785 950 680 950 549 Z M 655 561 C 655 621 646 669 628 705 C 610 741 579 760 537 760 C 471 760 422 717 390 633 C 358 548 342 467 342 391 C 342 329 351 280 370 244 C 389 208 420 190 463 190 C 527 190 575 232 607 317 C 639 402 655 483 655 561 Z" unicode="ŏ" />
<glyph horiz-adv-x="1280" d="M 1264 743 C 1264 534 1203 352 1083 198 C 963 44 802 -33 600 -33 C 448 -33 323 17 226 118 C 128 219 80 358 80 535 C 80 743 139 925 258 1080 C 377 1235 538 1313 741 1313 C 892 1313 1017 1262 1116 1161 C 1214 1059 1264 920 1264 743 Z M 950 729 C 950 823 930 902 892 965 C 853 1027 795 1059 717 1059 C 613 1059 533 1003 476 892 C 419 780 391 667 391 551 C 391 455 410 376 449 314 C 487 252 546 221 625 221 C 725 221 805 276 863 388 C 921 499 950 613 950 729 Z M 1077 1769 L 719 1392 L 508 1392 L 797 1769 L 1077 1769 Z M 1479 1769 L 1079 1392 L 874 1392 L 1198 1769 L 1479 1769 Z" unicode="Ő" />
<glyph horiz-adv-x="999" d="M 950 549 C 950 393 905 257 815 142 C 725 26 604 -31 451 -31 C 328 -31 230 8 158 86 C 85 164 49 269 49 401 C 49 556 93 692 183 808 C 273 924 395 983 549 983 C 671 983 768 943 841 864 C 913 785 950 680 950 549 Z M 655 561 C 655 621 646 669 628 705 C 610 741 579 760 537 760 C 471 760 422 717 390 633 C 358 548 342 467 342 391 C 342 329 351 280 370 244 C 389 208 420 190 463 190 C 527 190 575 232 607 317 C 639 402 655 483 655 561 Z M 866 1456 L 508 1079 L 297 1079 L 586 1456 L 866 1456 Z M 1268 1456 L 868 1079 L 663 1079 L 987 1456 L 1268 1456 Z" unicode="ő" />
<glyph horiz-adv-x="1673" d="M 1755 1280 L 1706 1026 L 1204 1026 L 1153 766 L 1569 766 L 1520 514 L 1104 514 L 1055 254 L 1556 254 L 1507 0 L 614 0 C 458 0 330 45 230 137 C 130 228 80 359 80 530 C 80 741 140 919 260 1063 C 380 1207 561 1280 803 1280 L 1755 1280 Z M 895 1028 L 780 1028 C 650 1028 553 981 489 887 C 425 793 393 680 393 549 C 393 450 416 376 464 326 C 512 276 580 252 668 252 L 745 252 L 895 1028 Z" unicode="Œ" />
<glyph horiz-adv-x="1520" d="M 1483 657 C 1483 618 1478 577 1469 534 C 1459 490 1449 452 1438 420 L 930 412 L 930 393 C 930 327 945 277 975 244 C 1005 211 1050 195 1110 195 C 1158 195 1202 201 1240 215 C 1278 228 1311 242 1339 258 L 1372 33 C 1339 15 1296 0 1242 -12 C 1188 -24 1133 -31 1077 -31 C 1003 -31 940 -21 886 -2 C 832 16 788 44 754 80 C 715 45 670 18 619 -1 C 567 -21 511 -31 451 -31 C 328 -31 230 8 158 86 C 85 164 49 269 49 401 C 49 556 93 692 183 808 C 273 924 395 983 549 983 C 609 983 663 973 712 953 C 760 933 801 904 834 868 C 873 904 918 932 970 952 C 1021 972 1077 983 1139 983 C 1243 983 1326 954 1389 898 C 1451 841 1483 761 1483 657 Z M 655 561 C 655 621 646 669 628 705 C 610 741 579 760 537 760 C 471 760 422 717 390 633 C 358 548 342 467 342 391 C 342 329 351 280 370 244 C 389 208 420 190 463 190 C 527 190 575 232 607 317 C 639 402 655 483 655 561 Z M 1206 659 C 1206 699 1198 729 1183 750 C 1168 771 1144 782 1112 782 C 1074 782 1042 762 1016 722 C 990 682 969 628 954 561 L 1190 565 C 1194 577 1197 593 1201 612 C 1204 630 1206 646 1206 659 Z" unicode="œ" />
<glyph horiz-adv-x="1112" d="M 1120 918 C 1120 818 1095 730 1045 655 C 995 580 924 527 831 496 L 989 0 L 666 0 L 535 434 L 426 426 L 344 0 L 31 0 L 279 1280 L 727 1280 C 852 1280 949 1245 1017 1176 C 1085 1106 1120 1020 1120 918 Z M 809 872 C 809 926 793 965 761 991 C 729 1017 689 1030 641 1030 L 541 1030 L 469 664 L 573 666 C 643 666 700 683 744 716 C 787 748 809 800 809 872 Z M 1105 1771 L 731 1392 L 524 1392 L 769 1771 L 1105 1771 Z" unicode="Ŕ" />
<glyph horiz-adv-x="752" d="M 801 940 L 737 653 C 719 665 700 675 679 682 C 658 688 636 692 614 692 C 579 692 547 682 517 662 C 487 642 458 613 430 573 L 319 0 L 25 0 L 207 942 L 508 969 L 481 836 C 509 881 541 917 576 943 C 611 969 647 983 684 983 C 706 983 727 979 746 972 C 765 964 783 954 801 940 Z M 970 1458 L 596 1079 L 389 1079 L 634 1458 L 970 1458 Z" unicode="ŕ" />
<glyph horiz-adv-x="1112" d="M 655 -266 C 655 -350 620 -419 550 -472 C 480 -525 401 -560 313 -578 L 264 -498 C 304 -479 340 -457 373 -432 C 405 -406 422 -376 422 -342 C 422 -326 415 -309 403 -292 C 390 -274 363 -257 322 -240 C 328 -203 348 -171 380 -145 C 412 -119 450 -106 492 -106 C 536 -106 575 -120 607 -149 C 639 -178 655 -217 655 -266 Z M 1120 918 C 1120 818 1095 730 1045 655 C 995 580 924 527 831 496 L 989 0 L 666 0 L 535 434 L 426 426 L 344 0 L 31 0 L 279 1280 L 727 1280 C 852 1280 949 1245 1017 1176 C 1085 1106 1120 1020 1120 918 Z M 809 872 C 809 926 793 965 761 991 C 729 1017 689 1030 641 1030 L 541 1030 L 469 664 L 573 666 C 643 666 700 683 744 716 C 787 748 809 800 809 872 Z" unicode="Ŗ" />
<glyph horiz-adv-x="752" d="M 395 -266 C 395 -350 360 -419 290 -472 C 220 -525 141 -560 53 -578 L 4 -498 C 44 -479 80 -457 113 -432 C 145 -406 162 -376 162 -342 C 162 -326 155 -309 143 -292 C 130 -274 103 -257 61 -240 C 68 -203 88 -171 120 -145 C 152 -119 189 -106 231 -106 C 276 -106 315 -120 347 -149 C 379 -178 395 -217 395 -266 Z M 911 940 L 847 653 C 829 665 810 675 789 682 C 768 688 746 692 724 692 C 689 692 657 682 627 662 C 597 642 568 613 540 573 L 429 0 L 135 0 L 317 942 L 618 969 L 591 836 C 619 881 651 917 686 943 C 721 969 757 983 794 983 C 816 983 837 979 856 972 C 875 964 893 954 911 940 Z" unicode="ŗ" />
<glyph horiz-adv-x="1112" d="M 1120 918 C 1120 818 1095 730 1045 655 C 995 580 924 527 831 496 L 989 0 L 666 0 L 535 434 L 426 426 L 344 0 L 31 0 L 279 1280 L 727 1280 C 852 1280 949 1245 1017 1176 C 1085 1106 1120 1020 1120 918 Z M 809 872 C 809 926 793 965 761 991 C 729 1017 689 1030 641 1030 L 541 1030 L 469 664 L 573 666 C 643 666 700 683 744 716 C 787 748 809 800 809 872 Z M 1111 1775 C 1066 1712 1021 1648 976 1584 C 930 1519 885 1455 839 1392 L 548 1392 L 417 1775 L 640 1775 L 716 1548 C 742 1584 769 1622 796 1661 C 823 1699 850 1737 876 1775 L 1111 1775 Z" unicode="Ř" />
<glyph horiz-adv-x="752" d="M 801 940 L 737 653 C 719 665 700 675 679 682 C 658 688 636 692 614 692 C 579 692 547 682 517 662 C 487 642 458 613 430 573 L 319 0 L 25 0 L 207 942 L 508 969 L 481 836 C 509 881 541 917 576 943 C 611 969 647 983 684 983 C 706 983 727 979 746 972 C 765 964 783 954 801 940 Z M 966 1462 C 921 1399 876 1335 831 1271 C 785 1206 740 1142 694 1079 L 403 1079 L 272 1462 L 495 1462 L 571 1235 C 597 1271 624 1309 651 1348 C 678 1386 705 1424 731 1462 L 966 1462 Z" unicode="ř" />
<glyph horiz-adv-x="987" d="M 997 1210 L 938 934 C 882 966 822 994 760 1016 C 697 1038 640 1049 590 1049 C 538 1049 501 1037 478 1013 C 455 989 444 959 444 924 C 444 891 458 863 488 840 C 518 816 566 789 633 758 C 725 713 796 662 845 604 C 893 546 918 479 918 403 C 918 265 872 157 782 81 C 691 5 574 -33 432 -33 C 347 -33 269 -22 198 0 C 127 22 66 49 14 82 L 76 358 C 139 320 204 289 270 265 C 336 241 393 229 442 229 C 500 229 542 240 570 263 C 598 286 612 317 612 356 C 612 388 598 418 572 446 C 545 473 497 502 428 532 C 338 572 268 620 216 677 C 164 734 139 808 139 899 C 139 1019 179 1118 261 1196 C 342 1274 453 1313 594 1313 C 683 1313 760 1302 825 1282 C 889 1262 947 1238 997 1210 Z M 1074 1771 L 700 1392 L 493 1392 L 738 1771 L 1074 1771 Z" unicode="Ś" />
<glyph horiz-adv-x="817" d="M 817 887 L 756 647 C 700 681 649 708 602 726 C 555 744 509 754 463 754 C 439 754 419 748 401 736 C 383 724 375 706 375 684 C 375 662 383 645 401 631 C 419 617 452 601 500 584 C 588 552 650 513 684 469 C 718 424 735 368 735 301 C 735 193 697 110 622 54 C 547 -2 455 -31 346 -31 C 282 -31 220 -22 160 -5 C 100 11 46 35 0 66 L 57 303 C 106 269 155 243 205 225 C 255 206 303 197 350 197 C 378 197 403 203 424 217 C 444 230 455 250 455 276 C 455 296 446 314 430 330 C 414 346 382 361 336 377 C 250 406 188 443 150 487 C 112 531 94 589 94 659 C 94 763 130 842 204 898 C 277 953 367 981 473 981 C 533 981 592 972 652 956 C 711 939 766 916 817 887 Z M 933 1458 L 559 1079 L 352 1079 L 597 1458 L 933 1458 Z" unicode="ś" />
<glyph horiz-adv-x="987" d="M 997 1210 L 938 934 C 882 966 822 994 760 1016 C 697 1038 640 1049 590 1049 C 538 1049 501 1037 478 1013 C 455 989 444 959 444 924 C 444 891 458 863 488 840 C 518 816 566 789 633 758 C 725 713 796 662 845 604 C 893 546 918 479 918 403 C 918 265 872 157 782 81 C 691 5 574 -33 432 -33 C 347 -33 269 -22 198 0 C 127 22 66 49 14 82 L 76 358 C 139 320 204 289 270 265 C 336 241 393 229 442 229 C 500 229 542 240 570 263 C 598 286 612 317 612 356 C 612 388 598 418 572 446 C 545 473 497 502 428 532 C 338 572 268 620 216 677 C 164 734 139 808 139 899 C 139 1019 179 1118 261 1196 C 342 1274 453 1313 594 1313 C 683 1313 760 1302 825 1282 C 889 1262 947 1238 997 1210 Z M 1021 1392 L 798 1392 L 722 1618 L 720 1618 L 562 1392 L 325 1392 L 599 1775 L 890 1775 L 1021 1392 Z" unicode="Ŝ" />
<glyph horiz-adv-x="817" d="M 817 887 L 756 647 C 700 681 649 708 602 726 C 555 744 509 754 463 754 C 439 754 419 748 401 736 C 383 724 375 706 375 684 C 375 662 383 645 401 631 C 419 617 452 601 500 584 C 588 552 650 513 684 469 C 718 424 735 368 735 301 C 735 193 697 110 622 54 C 547 -2 455 -31 346 -31 C 282 -31 220 -22 160 -5 C 100 11 46 35 0 66 L 57 303 C 106 269 155 243 205 225 C 255 206 303 197 350 197 C 378 197 403 203 424 217 C 444 230 455 250 455 276 C 455 296 446 314 430 330 C 414 346 382 361 336 377 C 250 406 188 443 150 487 C 112 531 94 589 94 659 C 94 763 130 842 204 898 C 277 953 367 981 473 981 C 533 981 592 972 652 956 C 711 939 766 916 817 887 Z M 874 1079 L 651 1079 L 575 1305 L 573 1305 L 415 1079 L 178 1079 L 452 1462 L 743 1462 L 874 1079 Z" unicode="ŝ" />
<glyph horiz-adv-x="987" d="M 997 1210 L 938 934 C 882 966 822 994 760 1016 C 697 1038 640 1049 590 1049 C 538 1049 501 1037 478 1013 C 455 989 444 959 444 924 C 444 891 458 863 488 840 C 518 816 566 789 633 758 C 725 713 796 662 845 604 C 893 546 918 479 918 403 C 918 273 878 170 798 95 C 718 20 613 -21 485 -31 L 393 -104 C 453 -112 500 -133 535 -166 C 570 -198 588 -241 588 -293 C 588 -377 550 -444 476 -492 C 402 -540 298 -564 166 -563 L 180 -418 C 246 -418 299 -410 339 -393 C 379 -375 399 -349 399 -315 C 399 -283 383 -260 352 -246 C 321 -231 276 -224 217 -225 L 221 -119 L 334 -27 C 270 -19 212 -6 158 13 C 104 32 56 55 14 82 L 76 358 C 139 320 204 289 270 265 C 336 241 393 229 442 229 C 500 229 542 240 570 263 C 598 286 612 317 612 356 C 612 388 598 418 572 446 C 545 473 497 502 428 532 C 338 572 268 620 216 677 C 164 734 139 808 139 899 C 139 1019 179 1118 261 1196 C 342 1274 453 1313 594 1313 C 683 1313 760 1302 825 1282 C 889 1262 947 1238 997 1210 Z" unicode="Ş" />
<glyph horiz-adv-x="817" d="M 817 887 L 756 647 C 700 681 649 708 602 726 C 555 744 509 754 463 754 C 439 754 419 748 401 736 C 383 724 375 706 375 684 C 375 662 383 645 401 631 C 419 617 452 601 500 584 C 588 552 650 513 684 469 C 718 424 735 368 735 301 C 735 197 700 116 630 60 C 560 3 473 -27 369 -31 L 276 -104 C 336 -112 384 -133 419 -166 C 453 -198 471 -241 471 -293 C 471 -377 433 -444 359 -492 C 285 -540 181 -564 49 -563 L 63 -418 C 129 -418 183 -410 223 -393 C 263 -375 283 -349 283 -315 C 283 -283 267 -260 236 -246 C 204 -231 159 -224 100 -225 L 104 -119 L 225 -20 C 183 -13 143 -2 105 11 C 66 25 31 44 0 66 L 57 303 C 106 269 155 243 205 225 C 255 206 303 197 350 197 C 378 197 403 203 424 217 C 444 230 455 250 455 276 C 455 296 446 314 430 330 C 414 346 382 361 336 377 C 250 406 188 443 150 487 C 112 531 94 589 94 659 C 94 763 130 842 204 898 C 277 953 367 981 473 981 C 533 981 592 972 652 956 C 711 939 766 916 817 887 Z" unicode="ş" />
<glyph horiz-adv-x="987" d="M 997 1210 L 938 934 C 882 966 822 994 760 1016 C 697 1038 640 1049 590 1049 C 538 1049 501 1037 478 1013 C 455 989 444 959 444 924 C 444 891 458 863 488 840 C 518 816 566 789 633 758 C 725 713 796 662 845 604 C 893 546 918 479 918 403 C 918 265 872 157 782 81 C 691 5 574 -33 432 -33 C 347 -33 269 -22 198 0 C 127 22 66 49 14 82 L 76 358 C 139 320 204 289 270 265 C 336 241 393 229 442 229 C 500 229 542 240 570 263 C 598 286 612 317 612 356 C 612 388 598 418 572 446 C 545 473 497 502 428 532 C 338 572 268 620 216 677 C 164 734 139 808 139 899 C 139 1019 179 1118 261 1196 C 342 1274 453 1313 594 1313 C 683 1313 760 1302 825 1282 C 889 1262 947 1238 997 1210 Z M 1081 1775 C 1036 1712 991 1648 946 1584 C 900 1519 855 1455 809 1392 L 518 1392 L 387 1775 L 610 1775 L 686 1548 C 712 1584 739 1622 766 1661 C 793 1699 820 1737 846 1775 L 1081 1775 Z" unicode="Š" />
<glyph horiz-adv-x="817" d="M 817 887 L 756 647 C 700 681 649 708 602 726 C 555 744 509 754 463 754 C 439 754 419 748 401 736 C 383 724 375 706 375 684 C 375 662 383 645 401 631 C 419 617 452 601 500 584 C 588 552 650 513 684 469 C 718 424 735 368 735 301 C 735 193 697 110 622 54 C 547 -2 455 -31 346 -31 C 282 -31 220 -22 160 -5 C 100 11 46 35 0 66 L 57 303 C 106 269 155 243 205 225 C 255 206 303 197 350 197 C 378 197 403 203 424 217 C 444 230 455 250 455 276 C 455 296 446 314 430 330 C 414 346 382 361 336 377 C 250 406 188 443 150 487 C 112 531 94 589 94 659 C 94 763 130 842 204 898 C 277 953 367 981 473 981 C 533 981 592 972 652 956 C 711 939 766 916 817 887 Z M 935 1462 C 890 1399 845 1335 800 1271 C 754 1206 709 1142 663 1079 L 372 1079 L 241 1462 L 464 1462 L 540 1235 C 566 1271 593 1309 620 1348 C 647 1386 674 1424 700 1462 L 935 1462 Z" unicode="š" />
<glyph horiz-adv-x="981" d="M 528 -266 C 528 -350 493 -419 423 -472 C 353 -525 274 -560 186 -578 L 137 -498 C 177 -479 213 -457 246 -432 C 278 -406 295 -376 295 -342 C 295 -326 288 -309 276 -292 C 263 -274 236 -257 195 -240 C 201 -203 221 -171 253 -145 C 285 -119 323 -106 365 -106 C 409 -106 448 -120 480 -149 C 512 -178 528 -217 528 -266 Z M 1116 1280 L 1065 1016 L 750 1016 L 553 0 L 240 0 L 436 1016 L 121 1016 L 170 1280 L 1116 1280 Z" unicode="Ţ" />
<glyph horiz-adv-x="707" d="M 492 -266 C 492 -350 456 -419 386 -472 C 316 -525 237 -560 150 -578 L 100 -498 C 140 -479 176 -457 209 -432 C 241 -406 258 -376 258 -342 C 258 -326 251 -309 239 -292 C 226 -274 199 -257 158 -240 C 164 -203 184 -171 216 -145 C 248 -119 286 -106 328 -106 C 372 -106 411 -120 443 -149 C 475 -178 492 -217 492 -266 Z M 713 938 C 711 932 708 892 703 819 C 698 746 696 706 696 700 L 473 700 L 397 352 C 389 313 388 280 396 253 C 403 226 428 213 471 213 C 484 213 498 214 514 218 C 530 222 545 226 561 231 L 586 2 C 557 -7 525 -14 489 -20 C 453 -26 413 -29 371 -29 C 263 -29 185 2 137 66 C 89 129 78 222 104 344 L 182 702 L 74 713 L 86 905 L 238 942 L 285 1167 L 590 1167 L 543 938 L 713 938 Z" unicode="ţ" />
<glyph horiz-adv-x="981" d="M 1116 1280 L 1065 1016 L 750 1016 L 553 0 L 240 0 L 436 1016 L 121 1016 L 170 1280 L 1116 1280 Z M 1072 1775 C 1027 1712 982 1648 937 1584 C 891 1519 846 1455 800 1392 L 509 1392 L 378 1775 L 601 1775 L 677 1548 C 703 1584 730 1622 757 1661 C 784 1699 811 1737 837 1775 L 1072 1775 Z" unicode="Ť" />
<glyph horiz-adv-x="1073" d="M 1073 1386 C 1073 1304 1038 1231 968 1167 C 898 1103 823 1055 743 1022 L 659 1124 C 693 1140 733 1168 779 1206 C 825 1244 848 1283 848 1321 C 848 1349 838 1373 820 1391 C 801 1409 778 1425 750 1440 C 758 1480 775 1513 803 1538 C 831 1562 865 1575 907 1575 C 956 1575 996 1556 1027 1519 C 1057 1482 1073 1438 1073 1386 Z M 713 938 C 711 932 708 892 703 819 C 698 746 696 706 696 700 L 473 700 L 397 352 C 389 313 388 280 396 253 C 403 226 428 213 471 213 C 484 213 498 214 514 218 C 530 222 545 226 561 231 L 586 2 C 557 -7 525 -14 489 -20 C 453 -26 413 -29 371 -29 C 263 -29 185 2 137 66 C 89 129 78 222 104 344 L 182 702 L 74 713 L 86 905 L 238 942 L 285 1167 L 590 1167 L 543 938 L 713 938 Z" unicode="ť" />
<glyph horiz-adv-x="1206" d="M 1124 1438 L 475 1438 L 498 1620 L 1112 1620 C 1114 1589 1115 1559 1117 1529 C 1119 1499 1121 1468 1124 1438 Z M 1257 1280 L 1100 463 C 1068 297 1005 173 912 91 C 818 8 701 -33 559 -33 C 404 -33 288 4 211 80 C 134 155 96 256 96 383 C 96 409 98 437 102 466 C 106 494 111 524 117 555 L 256 1280 L 569 1280 L 422 522 C 418 500 414 480 412 460 C 409 440 408 421 408 403 C 408 350 420 308 445 276 C 470 244 514 229 578 229 C 638 229 684 252 717 298 C 750 344 774 403 788 477 L 944 1280 L 1257 1280 Z" unicode="Ū" />
<glyph horiz-adv-x="1055" d="M 969 1124 L 319 1124 L 342 1307 L 956 1307 C 958 1276 959 1245 961 1215 C 963 1185 965 1154 969 1124 Z M 1030 952 L 848 10 L 547 -16 L 578 133 C 534 82 489 42 443 13 C 396 -16 347 -31 297 -31 C 200 -31 134 4 100 75 C 65 145 57 228 76 324 L 199 952 L 494 952 L 387 399 C 377 353 377 313 385 278 C 393 242 420 225 467 225 C 494 225 521 236 547 259 C 573 281 596 306 616 334 L 735 952 L 1030 952 Z" unicode="ū" />
<glyph horiz-adv-x="1206" d="M 1194 1767 C 1157 1631 1101 1531 1027 1469 C 953 1407 874 1376 791 1376 C 710 1376 642 1407 588 1469 C 533 1531 512 1631 526 1767 L 698 1765 C 693 1703 699 1653 716 1616 C 732 1579 762 1561 805 1561 C 855 1561 896 1580 929 1618 C 962 1656 988 1705 1008 1765 L 1194 1767 Z M 1257 1280 L 1100 463 C 1068 297 1005 173 912 91 C 818 8 701 -33 559 -33 C 404 -33 288 4 211 80 C 134 155 96 256 96 383 C 96 409 98 437 102 466 C 106 494 111 524 117 555 L 256 1280 L 569 1280 L 422 522 C 418 500 414 480 412 460 C 409 440 408 421 408 403 C 408 350 420 308 445 276 C 470 244 514 229 578 229 C 638 229 684 252 717 298 C 750 344 774 403 788 477 L 944 1280 L 1257 1280 Z" unicode="Ŭ" />
<glyph horiz-adv-x="1055" d="M 1018 1454 C 981 1317 925 1218 851 1156 C 777 1094 698 1063 614 1063 C 534 1063 466 1094 412 1156 C 357 1218 336 1317 350 1454 L 522 1452 C 517 1390 523 1340 540 1303 C 556 1265 586 1247 629 1247 C 679 1247 720 1266 753 1304 C 785 1342 811 1392 831 1452 L 1018 1454 Z M 1030 952 L 848 10 L 547 -16 L 578 133 C 534 82 489 42 443 13 C 396 -16 347 -31 297 -31 C 200 -31 134 4 100 75 C 65 145 57 228 76 324 L 199 952 L 494 952 L 387 399 C 377 353 377 313 385 278 C 393 242 420 225 467 225 C 494 225 521 236 547 259 C 573 281 596 306 616 334 L 735 952 L 1030 952 Z" unicode="ŭ" />
<glyph horiz-adv-x="1206" d="M 1257 1280 L 1100 463 C 1068 297 1005 173 912 91 C 818 8 701 -33 559 -33 C 404 -33 288 4 211 80 C 134 155 96 256 96 383 C 96 409 98 437 102 466 C 106 494 111 524 117 555 L 256 1280 L 569 1280 L 422 522 C 418 500 414 480 412 460 C 409 440 408 421 408 403 C 408 350 420 308 445 276 C 470 244 514 229 578 229 C 638 229 684 252 717 298 C 750 344 774 403 788 477 L 944 1280 L 1257 1280 Z M 1103 1652 C 1103 1578 1077 1514 1025 1461 C 973 1408 906 1382 825 1382 C 756 1382 698 1400 652 1437 C 606 1473 583 1525 583 1593 C 583 1666 608 1730 659 1785 C 710 1839 777 1867 860 1867 C 929 1867 987 1848 1033 1811 C 1079 1773 1103 1720 1103 1652 Z M 980 1648 C 980 1686 967 1715 943 1736 C 919 1756 890 1767 856 1767 C 810 1767 773 1750 746 1716 C 719 1682 706 1643 706 1601 C 706 1564 717 1535 741 1514 C 765 1492 794 1482 829 1482 C 875 1482 912 1499 939 1533 C 966 1567 980 1605 980 1648 Z" unicode="Ů" />
<glyph horiz-adv-x="1055" d="M 1030 952 L 848 10 L 547 -16 L 578 133 C 534 82 489 42 443 13 C 396 -16 347 -31 297 -31 C 200 -31 134 4 100 75 C 65 145 57 228 76 324 L 199 952 L 494 952 L 387 399 C 377 353 377 313 385 278 C 393 242 420 225 467 225 C 494 225 521 236 547 259 C 573 281 596 306 616 334 L 735 952 L 1030 952 Z M 935 1339 C 935 1265 909 1201 857 1148 C 805 1095 738 1069 657 1069 C 588 1069 530 1087 484 1124 C 438 1160 415 1212 415 1280 C 415 1353 440 1417 491 1472 C 542 1526 609 1554 692 1554 C 761 1554 819 1535 865 1498 C 911 1460 935 1407 935 1339 Z M 812 1335 C 812 1373 799 1402 775 1423 C 751 1443 722 1454 688 1454 C 642 1454 605 1437 578 1403 C 551 1369 538 1330 538 1288 C 538 1251 549 1222 573 1201 C 597 1179 626 1169 661 1169 C 707 1169 744 1186 771 1220 C 798 1254 812 1292 812 1335 Z" unicode="ů" />
<glyph horiz-adv-x="1206" d="M 1257 1280 L 1100 463 C 1068 297 1005 173 912 91 C 818 8 701 -33 559 -33 C 404 -33 288 4 211 80 C 134 155 96 256 96 383 C 96 409 98 437 102 466 C 106 494 111 524 117 555 L 256 1280 L 569 1280 L 422 522 C 418 500 414 480 412 460 C 409 440 408 421 408 403 C 408 350 420 308 445 276 C 470 244 514 229 578 229 C 638 229 684 252 717 298 C 750 344 774 403 788 477 L 944 1280 L 1257 1280 Z M 1081 1769 L 723 1392 L 512 1392 L 801 1769 L 1081 1769 Z M 1483 1769 L 1083 1392 L 878 1392 L 1202 1769 L 1483 1769 Z" unicode="Ű" />
<glyph horiz-adv-x="1055" d="M 1030 952 L 848 10 L 547 -16 L 578 133 C 534 82 489 42 443 13 C 396 -16 347 -31 297 -31 C 200 -31 134 4 100 75 C 65 145 57 228 76 324 L 199 952 L 494 952 L 387 399 C 377 353 377 313 385 278 C 393 242 420 225 467 225 C 494 225 521 236 547 259 C 573 281 596 306 616 334 L 735 952 L 1030 952 Z M 876 1456 L 518 1079 L 307 1079 L 596 1456 L 876 1456 Z M 1278 1456 L 878 1079 L 673 1079 L 997 1456 L 1278 1456 Z" unicode="ű" />
<glyph horiz-adv-x="1206" d="M 1257 1280 L 1100 463 C 1079 355 1045 264 997 192 C 949 119 890 64 821 27 C 778 0 739 -32 703 -70 C 667 -108 649 -151 649 -199 C 649 -219 654 -234 665 -245 C 676 -256 692 -262 713 -262 C 728 -262 743 -260 759 -256 C 774 -252 788 -246 801 -238 L 807 -399 C 781 -414 754 -426 725 -436 C 695 -446 660 -451 618 -451 C 563 -451 519 -434 485 -401 C 451 -368 434 -326 434 -274 C 434 -224 449 -179 479 -138 C 509 -96 546 -61 590 -33 L 559 -33 C 404 -33 288 4 211 80 C 134 155 96 256 96 383 C 96 409 98 437 102 466 C 106 494 111 524 117 555 L 256 1280 L 569 1280 L 422 522 C 418 500 414 480 412 460 C 409 440 408 421 408 403 C 408 350 420 308 445 276 C 470 244 514 229 578 229 C 638 229 684 252 717 298 C 750 344 774 403 788 477 L 944 1280 L 1257 1280 Z" unicode="Ų" />
<glyph horiz-adv-x="1055" d="M 848 10 C 770 -14 709 -44 664 -80 C 618 -116 596 -155 596 -197 C 596 -217 601 -232 612 -244 C 623 -256 639 -262 659 -262 C 674 -262 689 -259 705 -255 C 721 -250 735 -244 748 -238 L 754 -397 C 728 -412 700 -425 671 -435 C 641 -445 605 -451 563 -451 C 509 -451 465 -434 431 -401 C 397 -367 381 -325 381 -274 C 381 -221 395 -172 424 -128 C 452 -84 493 -46 547 -16 L 578 133 C 534 82 489 42 443 13 C 396 -16 347 -31 297 -31 C 200 -31 134 4 100 75 C 65 145 57 228 76 324 L 199 952 L 494 952 L 387 399 C 377 353 377 313 385 278 C 393 242 420 225 467 225 C 494 225 521 236 547 259 C 573 281 596 306 616 334 L 735 952 L 1030 952 L 848 10 Z" unicode="ų" />
<glyph horiz-adv-x="1661" d="M 1800 1280 L 1270 0 L 934 0 L 907 881 L 524 0 L 205 0 L 170 1280 L 487 1280 L 461 424 L 813 1280 L 1139 1280 L 1163 424 L 1460 1280 L 1800 1280 Z M 1345 1392 L 1122 1392 L 1046 1618 L 1044 1618 L 886 1392 L 649 1392 L 923 1775 L 1214 1775 L 1345 1392 Z" unicode="Ŵ" />
<glyph horiz-adv-x="1356" d="M 1438 952 L 1022 -4 L 721 -4 L 698 588 L 436 -4 L 141 -4 L 102 952 L 395 952 L 381 383 L 629 952 L 915 952 L 932 395 L 1133 952 L 1438 952 Z M 1144 1079 L 921 1079 L 845 1305 L 843 1305 L 685 1079 L 448 1079 L 722 1462 L 1013 1462 L 1144 1079 Z" unicode="ŵ" />
<glyph horiz-adv-x="1026" d="M 1186 1280 L 655 469 L 565 0 L 250 0 L 346 496 L 135 1280 L 442 1280 L 553 782 L 860 1280 L 1186 1280 Z M 1013 1392 L 790 1392 L 714 1618 L 712 1618 L 554 1392 L 317 1392 L 591 1775 L 882 1775 L 1013 1392 Z" unicode="Ŷ" />
<glyph horiz-adv-x="930" d="M 1016 952 L 485 -123 C 426 -243 367 -327 307 -377 C 247 -426 173 -451 84 -451 C 36 -451 -10 -441 -55 -422 C -99 -403 -137 -382 -168 -358 L -57 -137 C -37 -154 -19 -168 -3 -178 C 12 -188 29 -193 49 -193 C 75 -193 97 -186 115 -173 C 132 -160 153 -128 178 -76 L 213 -2 L 92 952 L 391 952 L 434 334 L 707 952 L 1016 952 Z M 921 1079 L 698 1079 L 622 1305 L 620 1305 L 462 1079 L 225 1079 L 499 1462 L 790 1462 L 921 1079 Z" unicode="ŷ" />
<glyph horiz-adv-x="1026" d="M 1186 1280 L 655 469 L 565 0 L 250 0 L 346 496 L 135 1280 L 442 1280 L 553 782 L 860 1280 L 1186 1280 Z M 630 1560 C 630 1509 615 1470 587 1442 C 559 1414 521 1400 475 1400 C 429 1400 391 1414 362 1442 C 333 1470 319 1509 319 1560 C 319 1612 333 1651 362 1679 C 391 1706 429 1720 475 1720 C 521 1720 559 1706 587 1679 C 615 1651 630 1612 630 1560 Z M 1064 1560 C 1064 1509 1050 1470 1022 1442 C 994 1414 957 1400 911 1400 C 865 1400 827 1414 798 1442 C 769 1470 755 1509 755 1560 C 755 1612 769 1651 798 1679 C 827 1706 865 1720 911 1720 C 957 1720 994 1706 1022 1679 C 1050 1651 1064 1612 1064 1560 Z" unicode="Ÿ" />
<glyph horiz-adv-x="1012" d="M 1114 1280 L 1073 1065 L 393 260 L 915 260 L 864 0 L -41 0 L -2 211 L 686 1022 L 166 1022 L 219 1280 L 1114 1280 Z M 1060 1771 L 686 1392 L 479 1392 L 724 1771 L 1060 1771 Z" unicode="Ź" />
<glyph horiz-adv-x="850" d="M 885 952 L 850 772 L 379 244 L 748 244 L 698 0 L -39 0 L 0 182 L 471 709 L 115 709 L 164 952 L 885 952 Z M 960 1458 L 586 1079 L 379 1079 L 624 1458 L 960 1458 Z" unicode="ź" />
<glyph horiz-adv-x="1012" d="M 1114 1280 L 1073 1065 L 393 260 L 915 260 L 864 0 L -41 0 L -2 211 L 686 1022 L 166 1022 L 219 1280 L 1114 1280 Z M 822 1560 C 822 1509 807 1470 779 1442 C 750 1414 713 1400 667 1400 C 619 1400 581 1414 553 1442 C 525 1470 511 1509 511 1560 C 511 1612 525 1651 553 1679 C 581 1706 619 1720 667 1720 C 713 1720 750 1706 779 1679 C 807 1651 822 1612 822 1560 Z" unicode="Ż" />
<glyph horiz-adv-x="850" d="M 885 952 L 850 772 L 379 244 L 748 244 L 698 0 L -39 0 L 0 182 L 471 709 L 115 709 L 164 952 L 885 952 Z M 693 1247 C 693 1196 678 1157 650 1129 C 621 1101 584 1087 538 1087 C 490 1087 452 1101 424 1129 C 396 1157 382 1196 382 1247 C 382 1299 396 1338 424 1366 C 452 1393 490 1407 538 1407 C 584 1407 621 1393 650 1366 C 678 1338 693 1299 693 1247 Z" unicode="ż" />
<glyph horiz-adv-x="1012" d="M 1114 1280 L 1073 1065 L 393 260 L 915 260 L 864 0 L -41 0 L -2 211 L 686 1022 L 166 1022 L 219 1280 L 1114 1280 Z M 1083 1775 C 1038 1712 993 1648 948 1584 C 902 1519 857 1455 811 1392 L 520 1392 L 389 1775 L 612 1775 L 688 1548 C 714 1584 741 1622 768 1661 C 795 1699 822 1737 848 1775 L 1083 1775 Z" unicode="Ž" />
<glyph horiz-adv-x="850" d="M 885 952 L 850 772 L 379 244 L 748 244 L 698 0 L -39 0 L 0 182 L 471 709 L 115 709 L 164 952 L 885 952 Z M 943 1462 C 898 1399 853 1335 808 1271 C 762 1206 717 1142 671 1079 L 380 1079 L 249 1462 L 472 1462 L 548 1235 C 574 1271 601 1309 628 1348 C 655 1386 682 1424 708 1462 L 943 1462 Z" unicode="ž" />
<glyph horiz-adv-x="793" d="M 895 1237 L 805 1012 C 785 1026 766 1037 746 1046 C 726 1054 706 1059 688 1059 C 650 1059 623 1036 605 992 C 587 948 572 891 561 823 L 786 823 L 748 584 L 532 584 L 514 485 C 484 328 440 209 382 127 C 323 45 221 -9 76 -37 L 23 197 C 85 209 130 229 158 258 C 186 286 205 329 215 385 L 252 582 L 55 594 C 62 626 69 659 77 692 C 84 724 92 756 100 788 L 289 834 L 309 954 C 328 1066 368 1152 428 1213 C 488 1274 563 1305 655 1305 C 703 1305 748 1298 791 1284 C 833 1270 868 1254 895 1237 Z" unicode="ƒ" />
<glyph horiz-adv-x="1120" d="M 1204 0 L 897 0 L 879 270 L 477 270 L 346 0 L 27 0 L 676 1272 C 666 1285 659 1301 654 1321 C 649 1340 647 1360 647 1382 C 647 1456 672 1520 723 1574 C 773 1628 839 1655 920 1655 C 988 1655 1044 1636 1090 1598 C 1136 1560 1159 1508 1159 1442 C 1159 1404 1152 1370 1138 1338 C 1124 1306 1107 1278 1085 1255 L 1204 0 Z M 1038 1438 C 1038 1476 1026 1505 1002 1525 C 978 1545 949 1556 915 1556 C 870 1556 834 1539 808 1506 C 781 1472 768 1434 768 1391 C 768 1353 779 1324 803 1303 C 826 1282 855 1272 889 1272 C 935 1272 971 1289 998 1323 C 1024 1357 1038 1395 1038 1438 Z M 1364 2087 L 989 1708 L 782 1708 L 1028 2087 L 1364 2087 Z M 868 520 L 836 1008 L 596 520 L 868 520 Z" unicode="Ǻ" />
<glyph horiz-adv-x="924" d="M 10 225 C 10 373 66 468 180 511 C 294 553 415 569 545 557 L 551 592 C 559 636 554 672 537 701 C 519 730 480 745 418 745 C 375 745 333 738 291 724 C 249 710 210 694 174 676 L 158 909 C 197 929 245 946 302 960 C 359 974 418 981 479 981 C 649 981 757 932 805 834 C 852 736 857 613 821 463 L 780 295 C 774 270 773 249 779 231 C 784 213 801 203 829 203 L 766 -20 C 710 -31 650 -28 586 -12 C 522 4 485 48 475 119 L 471 119 C 442 78 412 43 380 14 C 348 -14 302 -29 240 -29 C 167 -29 110 -3 70 48 C 30 100 10 159 10 225 Z M 854 1339 C 854 1265 828 1201 776 1148 C 724 1095 657 1069 575 1069 C 507 1069 449 1087 403 1124 C 357 1160 334 1212 334 1280 C 334 1353 359 1417 410 1472 C 461 1526 528 1554 610 1554 C 679 1554 737 1535 784 1498 C 830 1460 854 1407 854 1339 Z M 731 1335 C 731 1373 718 1402 694 1423 C 670 1443 640 1454 606 1454 C 560 1454 523 1437 497 1403 C 470 1369 457 1330 457 1288 C 457 1251 468 1222 492 1201 C 516 1179 545 1169 580 1169 C 626 1169 663 1186 690 1220 C 717 1254 731 1292 731 1335 Z M 299 274 C 299 244 305 219 318 201 C 331 183 351 174 379 174 C 410 174 436 186 458 210 C 480 234 494 264 500 299 L 520 424 C 460 427 408 416 364 390 C 320 364 299 325 299 274 Z M 1035 1986 L 661 1607 L 454 1607 L 699 1986 L 1035 1986 Z" unicode="ǻ" />
<glyph horiz-adv-x="1616" d="M 1698 1280 L 1649 1026 L 1147 1026 L 1096 766 L 1511 766 L 1462 514 L 1047 514 L 997 254 L 1499 254 L 1450 0 L 639 0 L 690 264 L 375 264 L 215 0 L -123 0 L 659 1280 L 1698 1280 Z M 840 1040 L 524 514 L 737 514 L 840 1040 Z M 1543 1771 L 1169 1392 L 962 1392 L 1207 1771 L 1543 1771 Z" unicode="Ǽ" />
<glyph horiz-adv-x="1389" d="M 1364 657 C 1364 618 1359 577 1349 534 C 1339 490 1329 452 1319 420 L 811 412 L 811 393 C 811 327 826 277 856 244 C 886 211 931 195 991 195 C 1039 195 1083 201 1121 215 C 1159 228 1192 242 1220 258 L 1253 33 C 1220 15 1177 0 1123 -12 C 1069 -24 1014 -31 958 -31 C 862 -31 784 -14 722 17 C 660 49 613 96 583 158 C 544 95 495 48 436 17 C 377 -13 312 -29 241 -29 C 169 -29 112 -3 72 48 C 32 100 12 159 12 225 C 12 373 70 468 187 511 C 304 553 427 569 557 557 L 563 592 C 571 636 565 672 547 701 C 528 730 488 745 426 745 C 383 745 340 738 297 724 C 254 710 214 694 178 676 L 162 909 C 201 929 250 946 308 960 C 366 974 425 981 487 981 C 548 981 600 973 643 957 C 685 941 719 920 745 893 C 781 921 823 943 869 959 C 915 975 966 983 1020 983 C 1124 983 1207 954 1270 898 C 1332 841 1364 761 1364 657 Z M 547 270 C 542 290 539 311 537 333 C 535 355 534 377 534 401 C 534 405 534 409 534 413 C 534 416 535 420 536 424 C 473 427 418 415 371 389 C 324 362 301 324 301 274 C 301 244 308 219 323 201 C 338 183 359 174 387 174 C 416 174 444 181 470 197 C 496 213 522 237 547 270 Z M 1087 659 C 1087 698 1079 728 1064 750 C 1049 771 1025 782 993 782 C 955 782 923 762 897 722 C 871 682 850 628 835 561 L 1071 565 C 1075 577 1078 593 1082 612 C 1085 630 1087 646 1087 659 Z M 1238 1458 L 864 1079 L 657 1079 L 902 1458 L 1238 1458 Z" unicode="ǽ" />
<glyph horiz-adv-x="1280" d="M 1321 1415 L 1124 1151 C 1168 1103 1202 1044 1227 975 C 1251 906 1264 829 1264 743 C 1264 534 1203 352 1083 198 C 963 44 802 -33 600 -33 C 544 -33 491 -26 441 -12 C 391 2 347 22 307 49 L 164 -143 L 23 -143 L 219 123 C 175 171 140 230 116 300 C 92 370 80 448 80 535 C 80 743 139 925 258 1080 C 377 1235 538 1313 741 1313 C 797 1313 850 1305 901 1290 C 951 1275 997 1254 1038 1227 L 1180 1415 L 1321 1415 Z M 389 551 C 389 520 391 490 395 462 C 399 434 405 407 414 383 L 868 997 C 850 1017 828 1033 802 1045 C 776 1057 748 1063 717 1063 C 613 1063 533 1006 475 894 C 417 781 389 667 389 551 Z M 952 729 C 952 758 950 786 946 813 C 942 840 936 865 930 889 L 475 276 C 493 258 515 243 541 233 C 566 222 594 217 625 217 C 725 217 805 273 864 386 C 922 498 952 613 952 729 Z M 1169 1771 L 795 1392 L 588 1392 L 833 1771 L 1169 1771 Z" unicode="Ǿ" />
<glyph horiz-adv-x="999" d="M 1020 1077 L 854 852 C 884 814 908 769 925 718 C 941 667 950 611 950 549 C 950 393 905 257 815 142 C 725 26 604 -31 451 -31 C 411 -31 373 -26 338 -18 C 303 -10 271 2 242 18 L 127 -137 L -20 -137 L 150 94 C 118 130 93 175 75 227 C 57 279 49 337 49 401 C 49 556 93 692 183 808 C 273 924 395 983 549 983 C 589 983 628 978 665 969 C 701 959 734 946 764 928 L 872 1077 L 1020 1077 Z M 618 729 C 609 741 598 750 585 757 C 571 764 556 768 539 768 C 473 768 423 724 389 637 C 355 549 338 467 338 391 C 338 383 338 376 338 369 C 338 362 338 355 340 348 L 618 729 Z M 659 561 L 659 588 L 385 215 C 394 205 405 197 417 191 C 429 185 444 182 461 182 C 525 182 574 225 608 313 C 642 401 659 483 659 561 Z M 1007 1458 L 633 1079 L 426 1079 L 671 1458 L 1007 1458 Z" unicode="ǿ" />
<glyph horiz-adv-x="987" d="M 565 -266 C 565 -350 530 -419 460 -472 C 390 -525 311 -560 223 -578 L 174 -498 C 214 -479 250 -457 283 -432 C 315 -406 332 -376 332 -342 C 332 -326 325 -309 313 -292 C 300 -274 273 -257 231 -240 C 238 -203 258 -171 290 -145 C 322 -119 359 -106 401 -106 C 446 -106 485 -120 517 -149 C 549 -178 565 -217 565 -266 Z M 997 1210 L 938 934 C 882 966 822 994 760 1016 C 697 1038 640 1049 590 1049 C 538 1049 501 1037 478 1013 C 455 989 444 959 444 924 C 444 891 458 863 488 840 C 518 816 566 789 633 758 C 725 713 796 662 845 604 C 893 546 918 479 918 403 C 918 265 872 157 782 81 C 691 5 574 -33 432 -33 C 347 -33 269 -22 198 0 C 127 22 66 49 14 82 L 76 358 C 139 320 204 289 270 265 C 336 241 393 229 442 229 C 500 229 542 240 570 263 C 598 286 612 317 612 356 C 612 388 598 418 572 446 C 545 473 497 502 428 532 C 338 572 268 620 216 677 C 164 734 139 808 139 899 C 139 1019 179 1118 261 1196 C 342 1274 453 1313 594 1313 C 683 1313 760 1302 825 1282 C 889 1262 947 1238 997 1210 Z" unicode="Ș" />
<glyph horiz-adv-x="817" d="M 444 -266 C 444 -350 409 -419 339 -472 C 269 -525 190 -560 102 -578 L 53 -498 C 93 -479 129 -457 162 -432 C 194 -406 211 -376 211 -342 C 211 -326 204 -309 192 -292 C 179 -274 152 -257 111 -240 C 117 -203 137 -171 169 -145 C 201 -119 239 -106 281 -106 C 325 -106 364 -120 396 -149 C 428 -178 444 -217 444 -266 Z M 817 887 L 756 647 C 700 681 649 708 602 726 C 555 744 509 754 463 754 C 439 754 419 748 401 736 C 383 724 375 706 375 684 C 375 662 383 645 401 631 C 419 617 452 601 500 584 C 588 552 650 513 684 469 C 718 424 735 368 735 301 C 735 193 697 110 622 54 C 547 -2 455 -31 346 -31 C 282 -31 220 -22 160 -5 C 100 11 46 35 0 66 L 57 303 C 106 269 155 243 205 225 C 255 206 303 197 350 197 C 378 197 403 203 424 217 C 444 230 455 250 455 276 C 455 296 446 314 430 330 C 414 346 382 361 336 377 C 250 406 188 443 150 487 C 112 531 94 589 94 659 C 94 763 130 842 204 898 C 277 953 367 981 473 981 C 533 981 592 972 652 956 C 711 939 766 916 817 887 Z" unicode="ș" />
<glyph horiz-adv-x="981" d="M 528 -266 C 528 -350 493 -419 423 -472 C 353 -525 274 -560 186 -578 L 137 -498 C 177 -479 213 -457 246 -432 C 278 -406 295 -376 295 -342 C 295 -326 288 -309 276 -292 C 263 -274 236 -257 195 -240 C 201 -203 221 -171 253 -145 C 285 -119 323 -106 365 -106 C 409 -106 448 -120 480 -149 C 512 -178 528 -217 528 -266 Z M 1116 1280 L 1065 1016 L 750 1016 L 553 0 L 240 0 L 436 1016 L 121 1016 L 170 1280 L 1116 1280 Z" unicode="Ț" />
<glyph horiz-adv-x="707" d="M 485 -266 C 485 -350 450 -419 380 -472 C 310 -525 231 -560 143 -578 L 94 -498 C 134 -479 170 -457 203 -432 C 235 -406 252 -376 252 -342 C 252 -326 245 -309 233 -292 C 220 -274 193 -257 152 -240 C 158 -203 178 -171 210 -145 C 242 -119 280 -106 322 -106 C 366 -106 405 -120 437 -149 C 469 -178 485 -217 485 -266 Z M 713 938 C 711 932 708 892 703 819 C 698 746 696 706 696 700 L 473 700 L 397 352 C 389 313 388 280 396 253 C 403 226 428 213 471 213 C 484 213 498 214 514 218 C 530 222 545 226 561 231 L 586 2 C 557 -7 525 -14 489 -20 C 453 -26 413 -29 371 -29 C 263 -29 185 2 137 66 C 89 129 78 222 104 344 L 182 702 L 74 713 L 86 905 L 238 942 L 285 1167 L 590 1167 L 543 938 L 713 938 Z" unicode="ț" />
<glyph horiz-adv-x="537" d="M 512 969 L 342 98 C 313 -50 272 -174 220 -272 C 167 -370 83 -446 -33 -498 L -178 -301 C -116 -269 -69 -227 -38 -174 C -7 -121 16 -55 33 25 C 33 25 45 89 69 217 C 93 345 140 586 211 942 L 512 969 Z" unicode="ȷ" />
<glyph horiz-adv-x="725" d="M 821 1079 L 598 1079 L 522 1305 L 520 1305 L 362 1079 L 125 1079 L 399 1462 L 690 1462 L 821 1079 Z" unicode="ˆ" />
<glyph horiz-adv-x="725" d="M 905 1462 C 860 1399 815 1335 770 1271 C 724 1206 679 1142 633 1079 L 342 1079 L 211 1462 L 434 1462 L 510 1235 C 536 1271 563 1309 590 1348 C 617 1386 644 1424 670 1462 L 905 1462 Z" unicode="ˇ" />
<glyph horiz-adv-x="725" d="M 879 1454 C 842 1317 786 1218 712 1156 C 637 1094 558 1063 475 1063 C 394 1063 326 1094 272 1156 C 218 1218 197 1317 211 1454 L 383 1452 C 377 1390 383 1340 400 1303 C 416 1265 446 1247 489 1247 C 539 1247 580 1266 613 1304 C 646 1342 672 1392 692 1452 L 879 1454 Z" unicode="˘" />
<glyph horiz-adv-x="725" d="M 657 1247 C 657 1196 642 1157 614 1129 C 585 1101 548 1087 502 1087 C 454 1087 416 1101 388 1129 C 360 1157 346 1196 346 1247 C 346 1299 360 1338 388 1366 C 416 1393 454 1407 502 1407 C 548 1407 585 1393 614 1366 C 642 1338 657 1299 657 1247 Z" unicode="˙" />
<glyph horiz-adv-x="725" d="M 782 1339 C 782 1265 756 1201 704 1148 C 652 1095 585 1069 504 1069 C 435 1069 377 1087 331 1124 C 285 1160 262 1212 262 1280 C 262 1353 287 1417 338 1472 C 389 1526 456 1554 539 1554 C 608 1554 666 1535 712 1498 C 758 1460 782 1407 782 1339 Z M 659 1335 C 659 1373 646 1402 622 1423 C 598 1443 569 1454 535 1454 C 489 1454 452 1437 425 1403 C 398 1369 385 1330 385 1288 C 385 1251 396 1222 420 1201 C 444 1179 473 1169 508 1169 C 554 1169 591 1186 618 1220 C 645 1254 659 1292 659 1335 Z" unicode="˚" />
<glyph horiz-adv-x="725" d="M 498 47 C 450 19 404 -14 360 -56 C 315 -98 293 -145 293 -199 C 293 -219 298 -234 309 -245 C 320 -256 336 -262 356 -262 C 371 -262 386 -260 402 -256 C 418 -252 432 -246 444 -238 L 451 -399 C 425 -414 397 -426 368 -436 C 339 -446 304 -451 262 -451 C 207 -451 163 -434 129 -401 C 95 -368 78 -326 78 -274 C 78 -192 110 -122 174 -65 C 238 -7 311 29 395 47 L 498 47 Z" unicode="˛" />
<glyph horiz-adv-x="725" d="M 901 1401 C 872 1295 837 1215 796 1163 C 755 1111 706 1085 649 1085 C 581 1085 526 1105 484 1147 C 441 1189 403 1210 371 1210 C 349 1210 333 1196 323 1168 C 312 1140 306 1119 305 1104 L 127 1104 C 156 1210 190 1289 230 1341 C 269 1393 317 1419 375 1419 C 443 1419 498 1398 542 1356 C 585 1314 623 1294 657 1294 C 677 1294 693 1306 704 1332 C 714 1357 721 1380 723 1401 L 901 1401 Z" unicode="˜" />
<glyph horiz-adv-x="725" d="M 731 1456 L 373 1079 L 162 1079 L 451 1456 L 731 1456 Z M 1133 1456 L 733 1079 L 528 1079 L 852 1456 L 1133 1456 Z" unicode="˝" />
<glyph horiz-adv-x="1032" d="M 934 0 L 633 0 L 633 86 C 625 52 610 27 590 10 C 569 -7 540 -16 504 -16 C 480 -16 460 -12 442 -5 C 424 2 409 13 399 29 L 399 -477 L 98 -477 L 98 952 L 399 952 L 399 379 C 399 319 411 280 435 262 C 459 244 486 236 516 236 C 542 236 568 246 594 266 C 620 286 633 327 633 389 L 633 952 L 934 952 L 934 0 Z" unicode="μ" />
<glyph horiz-adv-x="1661" d="M 1800 1280 L 1270 0 L 934 0 L 907 881 L 524 0 L 205 0 L 170 1280 L 487 1280 L 461 424 L 813 1280 L 1139 1280 L 1163 424 L 1460 1280 L 1800 1280 Z M 1089 1392 L 911 1392 L 671 1771 L 991 1771 L 1089 1392 Z" unicode="Ẁ" />
<glyph horiz-adv-x="1356" d="M 1438 952 L 1022 -4 L 721 -4 L 698 588 L 436 -4 L 141 -4 L 102 952 L 395 952 L 381 383 L 629 952 L 915 952 L 932 395 L 1133 952 L 1438 952 Z M 890 1079 L 712 1079 L 472 1458 L 792 1458 L 890 1079 Z" unicode="ẁ" />
<glyph horiz-adv-x="1661" d="M 1800 1280 L 1270 0 L 934 0 L 907 881 L 524 0 L 205 0 L 170 1280 L 487 1280 L 461 424 L 813 1280 L 1139 1280 L 1163 424 L 1460 1280 L 1800 1280 Z M 1445 1771 L 1071 1392 L 864 1392 L 1109 1771 L 1445 1771 Z" unicode="Ẃ" />
<glyph horiz-adv-x="1356" d="M 1438 952 L 1022 -4 L 721 -4 L 698 588 L 436 -4 L 141 -4 L 102 952 L 395 952 L 381 383 L 629 952 L 915 952 L 932 395 L 1133 952 L 1438 952 Z M 1289 1458 L 915 1079 L 708 1079 L 953 1458 L 1289 1458 Z" unicode="ẃ" />
<glyph horiz-adv-x="1661" d="M 1800 1280 L 1270 0 L 934 0 L 907 881 L 524 0 L 205 0 L 170 1280 L 487 1280 L 461 424 L 813 1280 L 1139 1280 L 1163 424 L 1460 1280 L 1800 1280 Z M 956 1560 C 956 1509 941 1470 913 1442 C 885 1414 847 1400 801 1400 C 755 1400 717 1414 688 1442 C 659 1470 645 1509 645 1560 C 645 1612 659 1651 688 1679 C 717 1706 755 1720 801 1720 C 847 1720 885 1706 913 1679 C 941 1651 956 1612 956 1560 Z M 1390 1560 C 1390 1509 1376 1470 1348 1442 C 1320 1414 1283 1400 1237 1400 C 1191 1400 1153 1414 1124 1442 C 1095 1470 1081 1509 1081 1560 C 1081 1612 1095 1651 1124 1679 C 1153 1706 1191 1720 1237 1720 C 1283 1720 1320 1706 1348 1679 C 1376 1651 1390 1612 1390 1560 Z" unicode="Ẅ" />
<glyph horiz-adv-x="1356" d="M 1438 952 L 1022 -4 L 721 -4 L 698 588 L 436 -4 L 141 -4 L 102 952 L 395 952 L 381 383 L 629 952 L 915 952 L 932 395 L 1133 952 L 1438 952 Z M 749 1247 C 749 1196 734 1157 706 1129 C 678 1101 640 1087 594 1087 C 548 1087 510 1101 481 1129 C 452 1157 438 1196 438 1247 C 438 1299 452 1338 481 1366 C 510 1393 548 1407 594 1407 C 640 1407 678 1393 706 1366 C 734 1338 749 1299 749 1247 Z M 1183 1247 C 1183 1196 1169 1157 1141 1129 C 1113 1101 1076 1087 1030 1087 C 984 1087 946 1101 917 1129 C 888 1157 874 1196 874 1247 C 874 1299 888 1338 917 1366 C 946 1393 984 1407 1030 1407 C 1076 1407 1113 1393 1141 1366 C 1169 1338 1183 1299 1183 1247 Z" unicode="ẅ" />
<glyph horiz-adv-x="143" d="" unicode=" " />
<glyph horiz-adv-x="940" d="M 895 373 L 49 373 L 55 612 L 889 612 L 895 373 Z" unicode="–" />
<glyph horiz-adv-x="1755" d="M 1710 373 L 49 373 L 55 612 L 1704 612 L 1710 373 Z" unicode="—" />
<glyph horiz-adv-x="532" d="M 666 1241 C 624 1219 574 1185 517 1137 C 460 1089 432 1041 432 993 C 432 957 443 928 466 906 C 488 883 518 863 555 846 C 543 794 521 753 487 722 C 453 691 409 676 356 676 C 295 676 245 699 207 746 C 169 792 150 848 150 913 C 150 1016 193 1107 280 1186 C 366 1265 460 1326 561 1368 L 666 1241 Z" unicode="‘" />
<glyph horiz-adv-x="532" d="M 614 1130 C 614 1027 570 936 484 857 C 397 778 303 718 203 676 L 98 803 C 140 824 189 859 246 907 C 303 955 332 1003 332 1051 C 332 1086 320 1115 298 1138 C 275 1160 245 1180 209 1198 C 220 1248 243 1289 277 1321 C 311 1352 354 1368 408 1368 C 468 1368 518 1344 556 1298 C 594 1251 614 1195 614 1130 Z" unicode="’" />
<glyph horiz-adv-x="541" d="M 424 115 C 424 11 380 -79 294 -158 C 207 -237 113 -298 12 -340 L -92 -213 C -50 -191 0 -157 56 -109 C 112 -61 141 -13 141 35 C 141 70 129 99 107 122 C 84 144 54 164 18 182 C 29 233 52 274 86 305 C 120 336 164 352 217 352 C 278 352 328 328 366 282 C 404 236 424 180 424 115 Z" unicode="‚" />
<glyph horiz-adv-x="1047" d="M 666 1241 C 624 1219 574 1185 517 1137 C 460 1089 432 1041 432 993 C 432 957 443 928 466 906 C 488 883 518 863 555 846 C 543 794 521 753 487 722 C 453 691 409 676 356 676 C 295 676 245 699 207 746 C 169 792 150 848 150 913 C 150 1016 193 1107 280 1186 C 366 1265 460 1326 561 1368 L 666 1241 Z M 1176 1241 C 1134 1219 1084 1185 1027 1137 C 970 1089 942 1041 942 993 C 942 957 953 928 976 906 C 998 883 1028 863 1065 846 C 1053 794 1031 753 997 722 C 963 691 919 676 866 676 C 805 676 755 699 717 746 C 678 792 659 848 659 913 C 659 1016 702 1107 789 1186 C 876 1265 970 1326 1071 1368 L 1176 1241 Z" unicode="“" />
<glyph horiz-adv-x="1051" d="M 213 676 L 109 803 C 150 824 199 859 256 907 C 313 955 342 1003 342 1051 C 342 1086 330 1115 308 1138 C 285 1160 255 1180 219 1198 C 230 1248 253 1289 287 1321 C 321 1352 364 1368 418 1368 C 478 1368 528 1344 567 1298 C 605 1251 625 1195 625 1130 C 625 1027 581 936 494 857 C 407 778 313 718 213 676 Z M 723 676 L 618 803 C 660 824 709 859 766 907 C 823 955 852 1003 852 1051 C 852 1086 840 1115 818 1138 C 795 1160 765 1180 729 1198 C 740 1248 763 1289 797 1321 C 831 1352 874 1368 928 1368 C 988 1368 1038 1344 1077 1298 C 1115 1251 1135 1195 1135 1130 C 1135 1027 1091 936 1004 857 C 917 778 823 718 723 676 Z" unicode="”" />
<glyph horiz-adv-x="1049" d="M 12 -340 L -92 -213 C -50 -191 0 -157 56 -109 C 112 -61 141 -13 141 35 C 141 70 129 99 107 122 C 84 144 54 164 18 182 C 29 233 52 274 86 305 C 120 336 164 352 217 352 C 278 352 328 328 366 282 C 404 236 424 180 424 115 C 424 11 380 -79 294 -158 C 207 -237 113 -298 12 -340 Z M 522 -340 L 418 -213 C 459 -191 508 -157 565 -109 C 622 -61 651 -13 651 35 C 651 70 639 99 617 122 C 594 144 564 164 528 182 C 539 233 562 274 596 305 C 630 336 674 352 727 352 C 788 352 838 328 876 282 C 914 236 934 180 934 115 C 934 11 890 -79 804 -158 C 717 -237 623 -298 522 -340 Z" unicode="„" />
<glyph horiz-adv-x="934" d="M 885 913 L 877 682 L 598 682 L 598 -258 L 340 -258 L 340 682 L 63 682 L 53 913 L 340 913 L 340 1280 L 598 1280 L 598 913 L 885 913 Z" unicode="†" />
<glyph horiz-adv-x="934" d="M 885 84 L 596 84 L 596 -258 L 340 -258 L 340 84 L 53 84 L 63 315 L 340 315 L 340 707 L 63 707 L 53 938 L 340 938 L 340 1280 L 596 1280 L 596 938 L 885 938 L 874 707 L 594 707 L 594 315 L 874 315 L 885 84 Z" unicode="‡" />
<glyph horiz-adv-x="963" d="M 868 475 C 868 445 854 397 827 329 C 799 261 775 216 754 195 C 733 174 688 150 620 122 C 551 94 502 80 473 80 C 444 80 396 94 328 122 C 260 150 216 174 197 195 C 176 216 151 261 123 329 C 94 397 80 445 80 475 C 80 504 94 553 123 621 C 151 689 176 733 197 754 C 217 774 261 798 329 826 C 397 854 446 868 475 868 C 504 868 553 854 621 826 C 689 798 733 774 754 754 C 774 733 798 689 826 621 C 854 553 868 504 868 475 Z" unicode="•" />
<glyph horiz-adv-x="1620" d="M 399 160 C 399 102 382 56 348 21 C 314 -13 270 -31 215 -31 C 160 -31 115 -13 81 21 C 46 56 29 102 29 160 C 29 216 46 262 81 296 C 115 330 160 348 215 348 C 270 348 314 330 348 296 C 382 262 399 216 399 160 Z M 942 160 C 942 102 925 56 891 21 C 857 -13 812 -31 756 -31 C 702 -31 657 -13 623 21 C 588 56 571 102 571 160 C 571 216 588 262 623 296 C 657 330 702 348 756 348 C 812 348 857 330 891 296 C 925 262 942 216 942 160 Z M 1487 160 C 1487 102 1470 56 1436 21 C 1402 -13 1356 -31 1300 -31 C 1245 -31 1201 -13 1167 21 C 1133 56 1116 102 1116 160 C 1116 216 1133 262 1167 296 C 1201 330 1245 348 1300 348 C 1356 348 1402 330 1436 296 C 1470 262 1487 216 1487 160 Z" unicode="…" />
<glyph horiz-adv-x="2259" d="M 768 1030 C 768 918 736 821 672 739 C 608 657 522 616 412 616 C 324 616 252 642 198 696 C 144 750 117 821 117 911 C 117 1023 148 1120 212 1202 C 276 1284 362 1325 471 1325 C 558 1325 629 1298 685 1245 C 740 1191 768 1120 768 1030 Z M 565 1022 C 565 1068 556 1104 539 1130 C 521 1156 496 1169 463 1169 C 420 1169 385 1142 359 1089 C 332 1036 319 980 319 922 C 319 876 327 839 343 812 C 359 785 384 772 418 772 C 462 772 497 798 524 852 C 551 906 565 962 565 1022 Z M 1485 369 C 1485 257 1453 160 1389 78 C 1325 -4 1239 -45 1130 -45 C 1042 -45 971 -18 916 35 C 861 88 834 160 834 250 C 834 362 866 459 931 541 C 995 623 1082 664 1190 664 C 1278 664 1350 637 1404 583 C 1458 529 1485 458 1485 369 Z M 1282 358 C 1282 404 1273 440 1257 467 C 1240 494 1215 508 1182 508 C 1140 508 1105 481 1077 427 C 1049 373 1036 318 1036 260 C 1036 213 1044 176 1061 150 C 1077 124 1103 111 1137 111 C 1180 111 1215 137 1242 191 C 1268 244 1282 300 1282 358 Z M 2220 369 C 2220 257 2188 160 2124 78 C 2060 -4 1974 -45 1866 -45 C 1777 -45 1705 -18 1651 35 C 1596 88 1569 160 1569 250 C 1569 362 1601 459 1665 541 C 1729 623 1816 664 1925 664 C 2011 664 2082 637 2137 583 C 2192 529 2220 458 2220 369 Z M 2017 358 C 2017 404 2008 440 1992 467 C 1975 494 1950 508 1917 508 C 1874 508 1839 481 1812 427 C 1785 373 1772 318 1772 260 C 1772 213 1780 176 1796 150 C 1812 124 1838 111 1872 111 C 1914 111 1949 137 1976 191 C 2003 244 2017 300 2017 358 Z M 1485 1309 L 326 -31 L 115 -31 L 1274 1309 L 1485 1309 Z" unicode="‰" />
<glyph horiz-adv-x="618" d="M 610 721 L 270 471 L 270 461 L 506 217 L 428 29 L 12 356 L 61 608 L 604 936 L 610 721 Z" unicode="‹" />
<glyph horiz-adv-x="618" d="M 8 244 L 348 494 L 348 504 L 111 748 L 190 936 L 606 608 L 555 356 L 14 29 L 8 244 Z" unicode="›" />
<glyph horiz-adv-x="1098" d="M 1077 1311 L 223 -33 L 20 -33 L 872 1311 L 1077 1311 Z" unicode="⁄" />
<glyph horiz-adv-x="635" d="M 698 1069 C 698 962 669 848 613 726 C 557 604 465 543 338 543 C 250 543 184 568 142 619 C 99 669 78 736 78 819 C 78 927 106 1041 163 1163 C 220 1285 312 1346 438 1346 C 526 1346 591 1320 634 1270 C 676 1219 698 1152 698 1069 Z M 479 1092 C 479 1109 476 1127 470 1147 C 464 1166 450 1176 430 1176 C 389 1176 357 1121 333 1013 C 309 904 297 832 297 797 C 297 779 300 761 306 742 C 312 722 326 713 346 713 C 386 713 419 767 443 875 C 467 983 479 1056 479 1092 Z" unicode="⁰" />
<glyph horiz-adv-x="635" d="M 709 1325 L 621 903 L 688 903 L 655 729 L 584 729 L 549 559 L 330 559 L 362 729 L 82 729 L 88 891 L 389 1325 L 709 1325 Z M 467 1174 L 276 895 L 406 895 L 467 1174 Z" unicode="⁴" />
<glyph horiz-adv-x="635" d="M 723 1323 L 686 1133 L 416 1133 L 387 1040 L 420 1040 C 476 1040 529 1023 579 991 C 629 959 655 908 655 838 C 655 751 628 679 575 623 C 521 567 444 539 344 539 C 298 539 250 545 201 557 C 152 569 111 586 78 610 L 125 793 C 147 775 177 758 213 741 C 249 723 282 715 313 715 C 345 715 371 723 389 739 C 407 755 416 778 416 807 C 416 835 401 856 372 869 C 343 882 308 889 268 889 C 244 889 224 887 206 884 C 188 880 171 876 156 872 L 143 920 L 264 1323 L 723 1323 Z" unicode="⁵" />
<glyph horiz-adv-x="635" d="M 104 825 C 104 963 152 1083 248 1183 C 344 1283 479 1337 651 1343 L 684 1169 C 618 1167 554 1154 492 1132 C 430 1109 382 1068 350 1008 L 354 1001 C 378 1018 405 1030 433 1038 C 461 1045 486 1049 510 1049 C 560 1049 602 1031 636 995 C 670 959 688 910 688 848 C 688 764 661 692 607 631 C 553 569 477 539 379 539 C 288 539 219 567 173 625 C 127 683 104 749 104 825 Z M 317 797 C 317 768 322 745 334 728 C 345 710 361 702 383 702 C 410 702 430 716 443 744 C 456 772 463 799 463 827 C 463 853 456 874 444 889 C 431 903 415 911 397 911 C 385 911 373 909 362 906 C 351 903 341 899 332 893 C 326 875 322 858 320 842 C 318 825 317 810 317 797 Z" unicode="⁶" />
<glyph horiz-adv-x="635" d="M 721 1319 L 692 1151 L 324 559 L 86 559 L 451 1133 L 164 1133 L 195 1319 L 721 1319 Z" unicode="⁷" />
<glyph horiz-adv-x="635" d="M 707 1137 C 707 1087 692 1046 664 1016 C 635 985 593 964 539 954 C 569 936 595 914 618 887 C 641 860 653 827 653 788 C 653 710 624 650 567 607 C 510 564 438 543 352 543 C 295 543 232 556 162 583 C 92 609 57 661 57 739 C 57 792 73 834 107 864 C 141 894 184 915 236 926 C 208 943 183 965 163 992 C 143 1018 133 1050 133 1087 C 133 1165 160 1226 216 1269 C 271 1311 341 1333 426 1333 C 482 1333 542 1319 608 1293 C 674 1266 707 1214 707 1137 Z M 438 778 C 438 806 428 827 408 843 C 388 858 369 870 350 879 C 330 867 315 852 304 834 C 292 815 287 793 287 768 C 287 741 293 722 307 710 C 321 698 338 692 358 692 C 384 692 403 700 417 716 C 431 732 438 752 438 778 Z M 492 1114 C 492 1139 486 1158 474 1171 C 462 1183 445 1190 424 1190 C 400 1190 381 1181 367 1163 C 353 1145 346 1125 346 1102 C 346 1076 356 1056 376 1041 C 396 1025 414 1014 430 1006 C 448 1016 463 1031 475 1049 C 486 1067 492 1088 492 1114 Z" unicode="⁸" />
<glyph horiz-adv-x="635" d="M 705 1047 C 705 909 656 789 560 689 C 464 589 330 535 158 528 L 125 702 C 191 705 255 718 317 741 C 379 763 427 805 459 866 L 457 870 C 431 854 404 842 377 835 C 349 828 323 825 299 825 C 250 825 208 842 174 878 C 140 913 123 962 123 1026 C 123 1109 150 1181 204 1243 C 258 1304 334 1335 432 1335 C 522 1335 590 1305 636 1247 C 682 1189 705 1122 705 1047 Z M 494 1077 C 494 1105 488 1128 477 1145 C 465 1162 449 1171 428 1171 C 400 1171 380 1157 367 1129 C 354 1101 348 1072 348 1044 C 348 1018 354 998 366 984 C 378 970 394 963 414 963 C 425 963 436 964 448 967 C 459 970 469 975 479 981 C 484 998 488 1015 490 1032 C 492 1048 494 1063 494 1077 Z" unicode="⁹" />
<glyph horiz-adv-x="635" d="M 641 879 L 465 879 L 465 690 L 326 690 L 326 879 L 147 879 L 152 1010 L 326 1010 L 326 1198 L 465 1198 L 465 1010 L 639 1010 L 641 879 Z" unicode="⁺" />
<glyph horiz-adv-x="635" d="M 643 881 L 150 881 L 152 1010 L 639 1010 L 643 881 Z" unicode="⁻" />
<glyph horiz-adv-x="635" d="M 569 219 C 569 112 540 -2 484 -124 C 428 -246 336 -307 209 -307 C 121 -307 55 -281 13 -231 C -29 -180 -51 -113 -51 -31 C -51 77 -22 191 34 313 C 91 435 183 496 309 496 C 397 496 462 470 505 420 C 547 369 569 302 569 219 Z M 350 242 C 350 259 347 277 341 297 C 335 316 321 326 301 326 C 260 326 228 271 204 163 C 180 54 168 -17 168 -53 C 168 -70 171 -88 177 -108 C 183 -127 197 -137 217 -137 C 257 -137 290 -82 314 25 C 338 133 350 206 350 242 Z" unicode="₀" />
<glyph horiz-adv-x="635" d="M 530 483 L 338 -291 L 86 -291 L 221 236 L 43 205 L 70 408 L 530 483 Z" unicode="₁" />
<glyph horiz-adv-x="635" d="M 547 295 C 547 223 517 155 457 90 C 397 25 321 -36 229 -94 L 487 -94 L 451 -291 L -61 -291 L -37 -113 C 90 -11 178 62 227 110 C 275 157 300 201 301 242 C 301 266 292 282 274 292 C 256 302 238 307 219 307 C 194 307 169 302 144 292 C 119 282 96 270 74 256 L 35 430 C 73 452 114 470 158 484 C 201 497 245 504 289 504 C 367 504 429 486 476 450 C 523 414 547 363 547 295 Z" unicode="₂" />
<glyph horiz-adv-x="635" d="M 522 317 C 522 257 504 208 468 171 C 432 134 386 111 330 102 C 373 95 409 77 439 48 C 468 19 483 -22 483 -76 C 483 -152 452 -209 390 -249 C 328 -289 257 -309 176 -309 C 130 -309 84 -302 39 -290 C -6 -278 -45 -262 -78 -242 L -16 -76 C 10 -91 40 -104 76 -114 C 111 -124 145 -129 178 -129 C 192 -129 212 -122 236 -108 C 260 -94 272 -74 272 -49 C 272 -27 263 -11 245 -1 C 227 8 204 14 178 16 C 166 16 153 15 139 15 C 125 15 109 14 92 12 C 97 37 102 62 106 88 C 110 114 115 139 119 164 C 163 164 203 172 238 187 C 273 202 291 226 291 260 C 291 276 284 290 272 301 C 259 311 242 317 221 317 C 197 317 172 313 146 305 C 119 297 95 287 74 276 L 41 444 C 77 460 115 474 155 484 C 195 494 233 500 270 500 C 325 500 381 487 437 462 C 493 436 522 388 522 317 Z" unicode="₃" />
<glyph horiz-adv-x="635" d="M 565 475 L 477 53 L 545 53 L 512 -121 L 440 -121 L 406 -291 L 186 -291 L 219 -121 L -61 -121 L -55 41 L 246 475 L 565 475 Z M 324 324 L 133 45 L 262 45 L 324 324 Z" unicode="₄" />
<glyph horiz-adv-x="635" d="M 584 473 L 547 283 L 276 283 L 248 190 L 281 190 C 337 190 390 173 440 141 C 490 109 516 58 516 -12 C 516 -98 489 -170 436 -226 C 382 -282 305 -311 205 -311 C 159 -311 111 -305 62 -293 C 13 -281 -27 -263 -61 -240 L -14 -57 C 8 -74 37 -91 73 -109 C 109 -126 143 -135 174 -135 C 206 -135 231 -126 249 -110 C 267 -94 276 -71 276 -43 C 276 -14 261 6 233 19 C 204 32 169 39 129 39 C 105 39 84 37 66 34 C 48 30 31 27 16 23 L 4 70 L 125 473 L 584 473 Z" unicode="₅" />
<glyph horiz-adv-x="635" d="M -39 -25 C -39 113 9 233 105 333 C 201 433 336 487 508 494 L 541 319 C 474 317 410 304 348 282 C 286 259 239 218 207 158 L 211 152 C 235 169 261 181 289 188 C 317 195 343 199 367 199 C 416 199 458 181 493 145 C 527 109 545 60 545 -2 C 545 -85 517 -157 463 -219 C 409 -280 333 -311 236 -311 C 144 -311 76 -282 30 -224 C -16 -166 -39 -100 -39 -25 Z M 174 -53 C 174 -81 179 -104 191 -121 C 202 -138 218 -147 240 -147 C 267 -147 287 -133 300 -105 C 312 -77 319 -50 319 -23 C 319 3 312 24 300 39 C 287 53 272 61 254 61 C 242 61 230 59 219 56 C 207 53 197 49 188 43 C 183 25 179 8 177 -8 C 175 -24 174 -39 174 -53 Z" unicode="₆" />
<glyph horiz-adv-x="635" d="M 578 469 L 549 301 L 180 -291 L -57 -291 L 307 283 L 20 283 L 51 469 L 578 469 Z" unicode="₇" />
<glyph horiz-adv-x="635" d="M 563 287 C 563 237 548 196 520 166 C 492 135 450 114 395 104 C 425 86 452 64 475 37 C 498 10 510 -22 510 -61 C 510 -139 481 -199 424 -242 C 367 -285 295 -307 209 -307 C 151 -307 88 -293 18 -267 C -51 -240 -86 -188 -86 -111 C -86 -57 -69 -15 -36 14 C -2 44 40 65 92 76 C 64 93 40 115 20 142 C 0 169 -10 201 -10 238 C -10 316 17 376 73 419 C 128 461 198 483 283 483 C 339 483 399 469 465 443 C 530 416 563 364 563 287 Z M 295 -72 C 295 -44 285 -22 265 -7 C 245 8 226 20 207 29 C 187 17 172 2 160 -16 C 148 -34 143 -56 143 -82 C 143 -108 149 -128 163 -140 C 177 -152 194 -158 215 -158 C 240 -158 260 -150 274 -134 C 288 -118 295 -97 295 -72 Z M 348 264 C 348 289 342 308 330 321 C 318 333 302 340 281 340 C 257 340 238 331 224 313 C 210 295 203 275 203 252 C 203 226 212 206 232 191 C 252 175 270 164 287 156 C 305 166 319 181 331 199 C 342 217 348 238 348 264 Z" unicode="₈" />
<glyph horiz-adv-x="635" d="M 561 197 C 561 59 513 -60 417 -160 C 321 -260 186 -314 14 -322 L -18 -147 C 48 -144 112 -131 174 -109 C 236 -86 283 -44 315 16 L 313 20 C 287 4 261 -7 233 -14 C 205 -21 180 -25 156 -25 C 106 -25 65 -7 31 28 C -3 63 -20 112 -20 176 C -20 259 7 331 61 393 C 115 454 191 485 289 485 C 379 485 447 455 493 397 C 538 339 561 272 561 197 Z M 350 227 C 350 255 344 278 333 296 C 322 313 306 322 285 322 C 257 322 236 307 224 279 C 211 251 205 223 205 195 C 205 169 211 148 223 134 C 235 120 250 113 270 113 C 281 113 292 114 304 117 C 316 120 326 125 336 131 C 341 148 345 165 347 182 C 349 198 350 213 350 227 Z" unicode="₉" />
<glyph horiz-adv-x="963" d="M 1055 1208 L 963 983 C 932 1011 896 1034 856 1050 C 815 1066 773 1075 729 1075 C 683 1075 641 1057 603 1021 C 565 985 534 937 512 879 L 860 879 L 854 741 L 467 741 C 461 713 455 684 451 654 C 447 624 444 593 442 561 L 725 561 L 731 426 L 442 426 C 448 360 466 308 496 269 C 525 230 573 211 639 211 C 669 211 701 214 735 222 C 768 229 799 240 827 254 L 821 20 C 789 4 750 -8 703 -16 C 655 -24 609 -29 565 -29 C 420 -29 315 13 249 97 C 183 181 146 291 139 426 L -10 426 L -4 561 L 141 561 C 143 591 146 622 150 652 C 154 682 160 711 166 741 L 66 741 L 59 879 L 205 879 C 249 1004 314 1109 400 1194 C 486 1278 591 1321 715 1321 C 777 1321 839 1311 901 1292 C 963 1272 1015 1244 1055 1208 Z" unicode="€" />
<glyph horiz-adv-x="1661" d="M 1602 516 L 1425 516 L 1419 1085 L 1401 1085 L 1292 541 L 1055 541 L 944 1085 L 926 1085 L 922 516 L 743 516 L 758 1280 L 1085 1280 L 1165 752 L 1180 752 L 1260 1280 L 1589 1280 L 1602 516 Z M 676 1102 L 459 1102 L 459 516 L 258 516 L 258 1102 L 59 1102 L 59 1280 L 676 1280 L 676 1102 Z" unicode="™" />
<glyph horiz-adv-x="963" d="M 907 375 L 74 375 L 80 606 L 901 606 L 907 375 Z" unicode="−" />
<glyph horiz-adv-x="1098" d="M 1077 1311 L 223 -33 L 20 -33 L 872 1311 L 1077 1311 Z" unicode="∕" />
<glyph horiz-adv-x="963" d="M 897 416 C 893 333 872 260 833 196 C 794 132 742 100 676 100 C 628 100 575 118 517 154 C 459 190 418 209 393 209 C 375 209 360 201 350 186 C 339 170 334 146 334 113 L 147 113 C 149 195 171 268 211 333 C 251 397 305 430 373 430 C 419 430 472 410 531 372 C 589 334 629 315 651 315 C 667 315 681 321 693 333 C 705 345 711 373 711 416 L 897 416 Z M 897 846 C 893 763 872 690 833 626 C 794 562 742 530 676 530 C 628 530 575 548 517 584 C 459 620 418 639 393 639 C 375 639 360 631 350 616 C 339 600 334 576 334 543 L 147 543 C 149 625 171 699 211 763 C 251 827 305 860 373 860 C 419 860 472 840 531 802 C 589 764 629 745 651 745 C 667 745 681 751 693 763 C 705 775 711 803 711 846 L 897 846 Z" unicode="≈" />
<glyph horiz-adv-x="963" d="M 877 137 L 553 137 L 510 -68 L 289 -68 L 330 137 L 150 137 L 160 365 L 379 365 L 428 596 L 160 596 L 150 823 L 477 823 L 514 1010 L 735 1010 L 698 823 L 877 823 L 866 596 L 649 596 L 602 365 L 866 365 L 877 137 Z" unicode="≠" />
<glyph horiz-adv-x="963" d="M 805 276 L 129 606 L 129 821 L 805 1151 L 805 915 L 387 719 L 387 707 L 805 512 L 805 276 Z M 825 0 L 111 0 L 117 231 L 819 231 L 825 0 Z" unicode="≤" />
<glyph horiz-adv-x="963" d="M 825 604 L 152 274 L 152 512 L 569 707 L 569 719 L 152 915 L 152 1151 L 825 821 L 825 604 Z M 846 0 L 131 0 L 137 231 L 840 231 L 846 0 Z" unicode="≥" />
<glyph horiz-adv-x="1636" d="M 817 -121 C 608 -121 429 -46 281 102 C 133 250 59 429 59 637 C 59 845 133 1024 281 1174 C 429 1324 608 1399 817 1399 C 1025 1399 1204 1324 1353 1174 C 1502 1024 1577 845 1577 637 C 1577 429 1502 250 1353 102 C 1204 -46 1025 -121 817 -121 Z M 1507 637 C 1507 826 1439 989 1304 1127 C 1168 1264 1006 1333 817 1333 C 627 1333 465 1264 331 1127 C 196 989 129 826 129 637 C 129 447 196 284 331 148 C 465 11 627 -57 817 -57 C 1006 -57 1168 11 1304 148 C 1439 284 1507 447 1507 637 Z M 1221 752 C 1221 656 1189 584 1125 535 C 1061 485 973 461 862 461 L 784 461 L 784 256 L 535 256 L 535 1024 L 872 1024 C 984 1024 1071 999 1131 951 C 1191 902 1221 836 1221 752 Z M 979 745 C 979 779 967 806 944 825 C 920 844 886 854 842 854 L 774 854 L 774 625 L 838 627 C 884 629 919 639 943 658 C 967 676 979 705 979 745 Z" unicode="ⓟ" />
<glyph horiz-adv-x="725" d="M 406 -266 C 406 -350 370 -419 300 -472 C 230 -525 151 -560 63 -578 L 14 -498 C 54 -479 90 -457 123 -432 C 155 -406 172 -376 172 -342 C 172 -326 165 -309 153 -292 C 140 -274 113 -257 72 -240 C 78 -203 98 -171 130 -145 C 162 -119 200 -106 242 -106 C 286 -106 325 -120 357 -149 C 389 -178 406 -217 406 -266 Z" unicode="" />
<glyph horiz-adv-x="1368" d="M 1532 1346 L 1442 1112 C 1418 1132 1397 1147 1378 1156 C 1358 1164 1338 1169 1317 1169 C 1284 1169 1260 1156 1245 1131 C 1230 1106 1219 1076 1212 1040 L 1194 940 L 1376 940 L 1364 700 L 1149 700 L 1014 0 L 719 0 L 854 700 L 479 700 L 344 0 L 49 0 L 184 700 L 53 711 L 68 903 L 231 948 L 254 1055 C 278 1165 318 1255 374 1323 C 429 1391 513 1425 627 1425 C 677 1425 721 1417 761 1401 C 801 1385 834 1367 862 1346 L 772 1112 C 748 1132 727 1147 708 1156 C 688 1164 668 1169 647 1169 C 614 1169 590 1156 575 1131 C 560 1106 549 1076 543 1040 L 524 940 L 899 940 L 924 1055 C 948 1165 987 1255 1043 1323 C 1099 1391 1183 1425 1296 1425 C 1346 1425 1391 1417 1431 1401 C 1471 1385 1504 1367 1532 1346 Z" unicode="ﬀ" />
<glyph horiz-adv-x="1233" d="M 862 1346 L 772 1112 C 748 1132 727 1147 708 1156 C 688 1164 668 1169 647 1169 C 614 1169 590 1156 575 1131 C 560 1106 549 1076 543 1040 L 524 940 L 707 940 L 694 700 L 479 700 L 344 0 L 49 0 L 184 700 L 53 711 L 68 903 L 231 948 L 254 1055 C 278 1165 318 1255 374 1323 C 429 1391 513 1425 627 1425 C 677 1425 721 1417 761 1401 C 801 1385 834 1367 862 1346 Z M 1292 1257 C 1292 1205 1275 1165 1243 1135 C 1211 1105 1168 1090 1114 1090 C 1060 1090 1018 1104 988 1132 C 957 1160 942 1201 942 1255 C 942 1307 958 1348 991 1378 C 1023 1408 1066 1423 1120 1423 C 1174 1423 1216 1408 1246 1380 C 1276 1352 1292 1311 1292 1257 Z M 1210 969 L 1022 0 L 727 0 L 909 942 L 1210 969 Z" unicode="ﬁ" />
<glyph horiz-adv-x="1227" d="M 862 1346 L 772 1112 C 748 1132 727 1147 708 1156 C 688 1164 668 1169 647 1169 C 614 1169 590 1156 575 1131 C 560 1106 549 1076 543 1040 L 524 940 L 707 940 L 694 700 L 479 700 L 344 0 L 49 0 L 184 700 L 53 711 L 68 903 L 231 948 L 254 1055 C 278 1165 318 1255 374 1323 C 429 1391 513 1425 627 1425 C 677 1425 721 1417 761 1401 C 801 1385 834 1367 862 1346 Z M 1288 1393 L 1017 0 L 723 0 L 987 1366 L 1288 1393 Z" unicode="ﬂ" />
<glyph horiz-adv-x="1903" d="M 1532 1346 L 1442 1112 C 1418 1132 1397 1147 1378 1156 C 1358 1164 1338 1169 1317 1169 C 1284 1169 1260 1156 1245 1131 C 1230 1106 1219 1076 1212 1040 L 1194 940 L 1376 940 L 1364 700 L 1149 700 L 1014 0 L 719 0 L 854 700 L 479 700 L 344 0 L 49 0 L 184 700 L 53 711 L 68 903 L 231 948 L 254 1055 C 278 1165 318 1255 374 1323 C 429 1391 513 1425 627 1425 C 677 1425 721 1417 761 1401 C 801 1385 834 1367 862 1346 L 772 1112 C 748 1132 727 1147 708 1156 C 688 1164 668 1169 647 1169 C 614 1169 590 1156 575 1131 C 560 1106 549 1076 543 1040 L 524 940 L 899 940 L 924 1055 C 948 1165 987 1255 1043 1323 C 1099 1391 1183 1425 1296 1425 C 1346 1425 1391 1417 1431 1401 C 1471 1385 1504 1367 1532 1346 Z M 1961 1257 C 1961 1205 1944 1165 1912 1135 C 1880 1105 1837 1090 1783 1090 C 1729 1090 1687 1104 1657 1132 C 1626 1160 1611 1201 1611 1255 C 1611 1307 1627 1348 1660 1378 C 1692 1408 1735 1423 1789 1423 C 1843 1423 1885 1408 1915 1380 C 1945 1352 1961 1311 1961 1257 Z M 1879 969 L 1691 0 L 1396 0 L 1578 942 L 1879 969 Z" unicode="ﬃ" />
<glyph horiz-adv-x="1894" d="M 1532 1346 L 1442 1112 C 1418 1132 1397 1147 1378 1156 C 1358 1164 1338 1169 1317 1169 C 1284 1169 1260 1156 1245 1131 C 1230 1106 1219 1076 1212 1040 L 1194 940 L 1376 940 L 1364 700 L 1149 700 L 1014 0 L 719 0 L 854 700 L 479 700 L 344 0 L 49 0 L 184 700 L 53 711 L 68 903 L 231 948 L 254 1055 C 278 1165 318 1255 374 1323 C 429 1391 513 1425 627 1425 C 677 1425 721 1417 761 1401 C 801 1385 834 1367 862 1346 L 772 1112 C 748 1132 727 1147 708 1156 C 688 1164 668 1169 647 1169 C 614 1169 590 1156 575 1131 C 560 1106 549 1076 543 1040 L 524 940 L 899 940 L 924 1055 C 948 1165 987 1255 1043 1323 C 1099 1391 1183 1425 1296 1425 C 1346 1425 1391 1417 1431 1401 C 1471 1385 1504 1367 1532 1346 Z M 1956 1393 L 1685 0 L 1391 0 L 1655 1366 L 1956 1393 Z" unicode="ﬄ" />
</font>
</defs>
</svg>
