<?xml version="1.0" encoding="utf-8" ?><svg version="1.1" xmlns = 'http://www.w3.org/2000/svg'><defs><font id='web' horiz-adv-x="1000">
<font-face font-family="web" descent="-250" cap-height="800" units-per-em="1100" bbox="-260,-450,1257,1400" x-height="600" ascent="850" />
<missing-glyph horiz-adv-x="700" d="M 50 -250 L 50 850 L 650 850 L 650 -250 L 50 -250 Z M 150 -150 L 550 -150 L 550 750 L 150 750 L 150 -150 Z" /><glyph horiz-adv-x="700" d="" unicode=" " />
<glyph horiz-adv-x="700" d="M 296 300 L 336 800 L 476 800 L 376 300 L 296 300 Z M 294 -10 C 260 -10 237 -3 223 10 C 209 24 204 45 208 74 L 212 102 C 216 131 227 153 245 167 C 262 181 287 188 321 188 C 354 188 377 181 391 167 C 405 153 409 131 405 102 L 401 74 C 397 45 386 24 369 10 C 351 -3 326 -10 294 -10 Z" unicode="!" />
<glyph horiz-adv-x="700" d="M 450 400 L 476 800 L 636 800 L 550 400 L 450 400 Z M 150 400 L 176 800 L 336 800 L 250 400 L 150 400 Z" unicode="&#x22;" />
<glyph horiz-adv-x="700" d="M 400 290 L 442 510 L 302 510 L 260 290 L 400 290 Z M 344 0 L 382 200 L 242 200 L 204 0 L 114 0 L 152 200 L 22 200 L 35 290 L 170 290 L 212 510 L 66 510 L 78 600 L 228 600 L 266 800 L 356 800 L 318 600 L 458 600 L 496 800 L 586 800 L 548 600 L 678 600 L 666 510 L 532 510 L 490 290 L 635 290 L 622 200 L 472 200 L 434 0 L 344 0 Z" unicode="#" />
<glyph horiz-adv-x="700" d="M 212 565 C 208 540 215 519 232 503 C 249 486 281 470 328 456 L 358 667 C 318 665 285 657 259 643 C 233 629 217 603 212 565 Z M 492 235 C 496 261 489 282 471 299 C 453 315 421 331 373 346 L 342 126 C 382 127 415 136 443 154 C 470 172 486 199 492 235 Z M 327 -50 L 247 -50 L 261 47 C 221 50 183 58 146 70 C 109 82 79 97 55 116 L 97 197 C 123 178 152 163 185 152 C 218 140 250 133 282 129 L 315 362 C 236 382 182 408 154 440 C 126 471 115 513 123 565 C 131 623 155 668 194 700 C 232 732 288 749 360 753 L 373 850 L 453 850 L 440 752 C 475 748 509 742 541 732 C 573 722 599 709 621 695 L 579 612 C 555 626 530 637 502 646 C 474 655 445 661 417 664 L 386 439 C 466 416 520 389 549 359 C 578 329 589 288 582 238 C 574 178 549 132 507 100 C 465 67 410 49 340 45 L 327 -50 Z" unicode="$" />
<glyph horiz-adv-x="700" d="M 202 448 C 156 448 120 460 95 486 C 70 511 61 550 69 603 L 77 663 C 84 716 104 755 136 781 C 168 807 208 820 254 820 C 300 820 335 807 360 781 C 384 755 393 716 386 663 L 378 603 C 370 550 351 511 319 486 C 287 460 248 448 202 448 Z M 213 529 C 233 529 249 534 262 546 C 275 557 283 575 287 601 L 296 665 C 300 690 297 709 287 721 C 277 733 263 739 243 739 C 223 739 206 733 193 721 C 179 709 171 690 167 665 L 158 601 C 154 575 158 557 168 546 C 178 534 193 529 213 529 Z M 13 168 L 647 697 L 694 639 L 58 110 L 13 168 Z M 447 -22 C 401 -22 365 -9 340 16 C 315 41 306 80 314 133 L 322 193 C 329 246 349 285 381 311 C 413 337 453 350 499 350 C 545 350 580 337 605 311 C 629 285 638 246 631 193 L 623 133 C 615 80 596 41 564 16 C 532 -9 493 -22 447 -22 Z M 458 59 C 478 59 494 64 507 76 C 520 87 528 105 532 131 L 541 195 C 545 220 542 239 532 251 C 522 263 508 269 488 269 C 468 269 451 263 438 251 C 424 239 416 220 412 195 L 403 131 C 399 105 403 87 413 76 C 423 64 438 59 458 59 Z" unicode="%" />
<glyph horiz-adv-x="700" d="M 608 -6 C 570 6 534 21 500 40 C 466 59 435 80 406 104 C 370 68 334 40 299 20 C 263 0 223 -10 178 -10 C 121 -10 77 8 45 44 C 13 80 2 132 12 201 C 20 255 40 302 73 342 C 106 381 143 411 183 432 C 172 465 164 496 160 526 C 156 556 155 582 159 604 C 167 667 190 717 227 754 C 263 791 310 810 368 810 C 416 810 455 793 483 759 C 511 725 522 685 516 639 C 508 583 485 538 449 505 C 413 471 356 441 279 414 C 283 402 287 391 293 380 C 298 369 303 358 309 348 C 322 323 337 299 353 276 C 369 253 386 232 406 212 C 428 240 451 273 473 309 C 495 345 517 384 539 426 L 618 387 C 592 340 563 299 532 264 C 500 229 470 196 442 164 L 636 85 L 608 -6 Z M 253 599 C 250 578 249 556 251 533 C 253 510 257 487 263 465 C 315 487 355 511 381 537 C 407 563 422 593 427 628 C 431 656 426 678 412 696 C 398 714 381 723 359 723 C 326 723 301 711 285 689 C 269 666 258 636 253 599 Z M 198 77 C 223 77 248 83 274 97 C 300 110 326 129 353 154 C 331 175 311 197 293 221 C 275 245 259 269 245 294 C 237 307 230 320 223 334 C 216 348 210 361 205 374 C 180 354 159 329 141 300 C 123 271 113 241 109 211 C 103 171 107 138 122 114 C 137 89 162 77 198 77 Z" unicode="&#x26;" />
<glyph horiz-adv-x="700" d="M 300 400 L 326 800 L 486 800 L 400 400 L 300 400 Z" unicode="'" />
<glyph horiz-adv-x="700" d="M 464 -210 C 363 -185 287 -128 235 -39 C 183 50 166 163 186 300 C 205 436 253 549 330 639 C 407 728 500 785 608 810 L 607 732 C 514 707 441 655 388 577 C 335 499 301 406 286 300 C 271 193 279 100 310 22 C 341 -55 399 -107 485 -132 L 464 -210 Z" unicode="(" />
<glyph horiz-adv-x="700" d="M 64 -210 L 65 -132 C 158 -107 231 -55 284 23 C 337 102 371 194 386 300 C 400 405 392 497 362 576 C 331 655 273 707 187 732 L 208 810 C 309 785 385 728 437 638 C 489 548 505 436 486 300 C 466 164 418 51 342 -38 C 265 -128 172 -185 64 -210 Z" unicode=")" />
<glyph horiz-adv-x="700" d="M 562 279 L 387 443 L 381 200 L 261 200 L 323 442 L 103 279 L 58 383 L 308 501 L 91 619 L 166 723 L 340 559 L 345 800 L 465 800 L 403 558 L 625 723 L 670 619 L 419 501 L 637 383 L 562 279 Z" unicode="*" />
<glyph horiz-adv-x="700" d="M 250 40 L 286 300 L 56 300 L 70 400 L 300 400 L 337 660 L 437 660 L 400 400 L 630 400 L 616 300 L 386 300 L 350 40 L 250 40 Z" unicode="+" />
<glyph horiz-adv-x="700" d="M 116 -200 L 262 200 L 461 200 L 200 -200 L 116 -200 Z" unicode="," />
<glyph horiz-adv-x="700" d="M 56 300 L 70 400 L 630 400 L 616 300 L 56 300 Z" unicode="-" />
<glyph horiz-adv-x="700" d="M 294 -10 C 260 -10 234 -2 216 12 C 197 27 190 51 195 84 L 199 112 C 203 144 217 168 240 184 C 262 200 290 208 324 208 C 357 208 383 200 401 184 C 419 168 426 144 422 112 L 418 84 C 413 51 399 27 377 12 C 354 -2 326 -10 294 -10 Z" unicode="." />
<glyph horiz-adv-x="700" d="M 16 -200 L 556 800 L 656 800 L 116 -200 L 16 -200 Z" unicode="/" />
<glyph horiz-adv-x="700" d="M 293 -10 C 205 -10 142 19 104 78 C 66 137 55 223 71 337 L 89 459 C 105 573 140 660 194 720 C 248 780 320 810 409 810 C 497 810 559 780 597 720 C 634 660 645 573 629 459 L 611 337 C 595 223 560 137 506 78 C 452 19 381 -10 293 -10 Z M 305 80 C 365 80 412 100 444 140 C 476 180 498 245 511 337 L 529 459 C 541 552 537 619 517 659 C 496 699 455 720 395 720 C 334 720 288 699 256 659 C 224 619 201 552 189 459 L 171 337 C 158 245 162 180 183 140 C 203 100 244 80 305 80 Z M 339 322 C 317 322 300 325 288 333 C 276 340 271 354 275 375 L 282 424 C 284 444 293 457 307 465 C 321 473 339 477 361 477 C 382 477 399 473 411 465 C 423 457 427 444 425 424 L 418 375 C 414 354 405 340 391 333 C 377 325 359 322 339 322 Z" unicode="0" />
<glyph horiz-adv-x="700" d="M 74 0 L 87 90 L 307 90 L 390 680 L 361 680 C 332 640 299 611 261 595 C 223 578 181 574 136 582 L 140 680 C 190 674 237 681 283 701 C 329 721 371 754 409 800 L 506 800 L 407 90 L 607 90 L 594 0 L 74 0 Z" unicode="1" />
<glyph horiz-adv-x="700" d="M 24 0 L 48 170 C 56 230 78 278 112 314 C 146 349 199 377 269 397 L 410 437 C 450 447 479 461 497 478 C 515 494 527 519 532 553 L 537 594 C 543 640 537 672 517 691 C 497 710 457 720 395 720 C 338 720 297 708 271 684 C 245 660 225 615 211 549 L 113 559 C 131 650 162 715 206 753 C 250 791 317 810 407 810 C 494 810 557 793 596 759 C 634 725 649 673 639 604 L 630 538 C 622 488 602 448 569 418 C 536 388 485 363 417 344 L 275 304 C 241 294 212 281 190 263 C 168 245 154 215 148 172 L 137 90 L 577 90 L 564 0 L 24 0 Z" unicode="2" />
<glyph horiz-adv-x="700" d="M 283 -10 C 180 -10 113 9 82 47 C 51 85 38 141 44 217 L 146 227 C 144 167 152 127 172 107 C 191 87 232 78 295 78 C 361 78 409 88 439 109 C 469 129 487 165 494 217 L 498 244 C 505 294 497 329 475 349 C 452 369 409 380 347 380 L 247 380 L 260 470 L 360 470 C 415 470 455 477 480 493 C 504 509 519 536 525 576 L 529 608 C 535 650 527 679 506 696 C 484 713 444 722 385 722 C 333 722 295 712 271 694 C 247 675 229 640 217 588 L 118 598 C 133 673 163 727 209 760 C 255 793 318 810 398 810 C 478 810 540 794 582 763 C 624 731 639 680 629 608 L 625 576 C 619 536 601 504 570 481 C 539 457 499 444 449 441 L 445 412 C 503 407 545 389 570 357 C 594 325 604 287 598 244 L 594 217 C 584 145 555 89 508 49 C 461 9 386 -10 283 -10 Z" unicode="3" />
<glyph horiz-adv-x="700" d="M 166 300 L 436 300 L 492 696 L 166 300 Z M 644 210 L 524 210 L 494 0 L 394 0 L 424 210 L 44 210 L 56 300 L 461 800 L 606 800 L 536 300 L 656 300 L 644 210 Z" unicode="4" />
<glyph horiz-adv-x="700" d="M 292 -10 C 188 -10 119 6 85 38 C 50 70 37 131 45 221 L 146 231 C 142 167 149 126 169 108 C 189 89 234 80 305 80 C 365 80 410 91 440 114 C 470 136 488 170 494 216 L 501 264 C 507 312 501 346 483 368 C 465 389 432 400 385 400 L 100 400 L 156 800 L 636 800 L 624 710 L 244 710 L 214 495 L 399 495 C 478 495 534 476 568 440 C 601 403 612 347 602 273 L 593 206 C 583 140 553 87 501 48 C 449 9 379 -10 292 -10 Z" unicode="5" />
<glyph horiz-adv-x="700" d="M 293 -10 C 199 -10 134 15 98 67 C 62 119 50 188 63 276 L 97 519 C 110 612 144 684 198 734 C 252 784 322 810 410 810 C 489 810 547 795 583 766 C 619 737 639 690 643 626 L 531 603 C 527 643 517 673 501 692 C 484 710 449 720 395 720 C 333 720 287 704 257 673 C 227 642 207 591 197 519 L 183 423 L 203 423 C 225 447 250 465 280 479 C 309 492 347 499 393 499 C 473 499 530 477 564 433 C 598 389 611 332 601 262 L 598 240 C 586 159 554 97 502 54 C 449 11 379 -10 293 -10 Z M 304 80 C 362 80 406 92 437 118 C 468 144 487 184 495 238 L 497 251 C 505 305 497 344 473 370 C 449 396 408 409 350 409 C 292 409 247 396 217 370 C 186 344 167 305 159 251 L 157 238 C 149 184 157 144 181 118 C 205 92 246 80 304 80 Z" unicode="6" />
<glyph horiz-adv-x="700" d="M 194 0 C 253 164 306 293 352 387 C 398 481 468 585 562 700 L 122 700 L 136 800 L 676 800 L 662 700 C 568 575 496 462 446 362 C 395 262 348 141 304 0 L 194 0 Z" unicode="7" />
<glyph horiz-adv-x="700" d="M 293 -10 C 198 -10 132 7 94 41 C 56 75 42 131 53 207 L 56 229 C 63 279 83 320 115 352 C 147 384 188 402 238 407 L 242 436 C 204 439 173 454 151 481 C 128 507 120 542 126 586 L 131 618 C 140 685 167 734 211 764 C 255 794 320 810 408 810 C 495 810 556 794 592 764 C 627 734 640 685 631 618 L 626 586 C 620 542 602 507 572 481 C 542 454 507 439 468 436 L 464 407 C 512 402 548 383 572 351 C 595 319 603 278 596 229 L 593 207 C 582 131 553 75 506 41 C 458 7 387 -10 293 -10 Z M 359 465 C 415 465 455 473 480 490 C 504 507 520 537 526 581 L 529 608 C 535 650 528 679 508 696 C 488 713 451 722 395 722 C 339 722 298 713 274 696 C 250 679 235 650 229 608 L 226 581 C 220 537 226 507 246 490 C 265 473 303 465 359 465 Z M 305 78 C 368 78 414 88 442 108 C 470 128 487 165 494 217 L 497 234 C 504 286 497 323 475 344 C 453 364 410 375 347 375 C 283 375 238 364 210 344 C 182 323 164 286 157 234 L 154 217 C 147 165 155 128 177 108 C 199 88 241 78 305 78 Z" unicode="8" />
<glyph horiz-adv-x="700" d="M 350 391 C 406 391 450 404 482 430 C 514 456 533 495 541 549 L 543 562 C 550 615 541 655 517 681 C 493 707 452 720 396 720 C 339 720 295 707 263 681 C 231 655 212 615 205 562 L 203 549 C 195 495 204 456 228 430 C 252 404 293 391 350 391 Z M 291 -10 C 211 -10 154 4 118 33 C 82 62 61 109 57 174 L 170 197 C 173 152 184 121 203 105 C 222 88 256 80 305 80 C 365 80 410 95 441 127 C 472 158 493 209 503 281 L 517 377 L 497 377 C 475 351 448 331 416 319 C 384 307 346 301 303 301 C 225 301 169 323 135 367 C 101 411 90 468 100 538 L 103 560 C 114 640 146 702 199 745 C 251 788 321 810 408 810 C 502 810 566 784 602 732 C 638 680 650 611 638 524 L 603 281 C 591 193 559 122 509 69 C 458 16 385 -10 291 -10 Z" unicode="9" />
<glyph horiz-adv-x="700" d="M 350 390 C 316 390 290 396 272 410 C 253 424 246 445 250 474 L 256 522 C 260 551 274 573 296 587 C 318 601 346 608 380 608 C 413 608 439 601 458 587 C 476 573 483 551 479 522 L 473 474 C 469 445 455 424 433 410 C 410 396 382 390 350 390 Z M 294 -10 C 260 -10 234 -3 215 10 C 196 24 189 45 193 74 L 200 122 C 204 151 217 173 240 187 C 262 201 290 208 324 208 C 357 208 383 201 401 187 C 419 173 427 151 423 122 L 416 74 C 412 45 398 24 376 10 C 354 -3 326 -10 294 -10 Z" unicode=":" />
<glyph horiz-adv-x="700" d="M 350 390 C 316 390 290 396 272 410 C 253 424 246 445 250 474 L 256 522 C 260 551 274 573 296 587 C 318 601 346 608 380 608 C 413 608 439 601 458 587 C 476 573 483 551 479 522 L 473 474 C 469 445 455 424 433 410 C 410 396 382 390 350 390 Z M 116 -200 L 262 200 L 461 200 L 200 -200 L 116 -200 Z" unicode=";" />
<glyph horiz-adv-x="700" d="M 547 20 L 86 300 L 100 400 L 640 680 L 626 585 L 173 350 L 560 115 L 547 20 Z" unicode="&#x3C;" />
<glyph horiz-adv-x="700" d="M 76 440 L 90 540 L 650 540 L 636 440 L 76 440 Z M 36 160 L 51 260 L 611 260 L 596 160 L 36 160 Z" unicode="=" />
<glyph horiz-adv-x="700" d="M 47 20 L 60 115 L 513 350 L 126 585 L 140 680 L 600 400 L 586 300 L 47 20 Z" unicode="&#x3E;" />
<glyph horiz-adv-x="700" d="M 258 313 L 249 394 C 367 412 448 433 490 457 C 532 480 556 512 562 552 L 566 582 C 571 621 564 654 544 680 C 524 706 474 720 395 720 C 310 720 255 707 230 682 C 204 656 185 612 171 549 L 73 559 C 90 652 123 717 171 754 C 219 791 297 810 407 810 C 516 810 589 789 625 747 C 661 705 675 654 667 594 L 661 548 C 651 474 613 422 549 390 C 484 358 387 333 258 313 Z M 248 -10 C 214 -10 191 -3 177 10 C 163 24 159 45 163 74 L 167 102 C 171 131 182 153 199 167 C 216 181 241 188 275 188 C 308 188 332 181 346 167 C 360 153 364 131 360 102 L 356 74 C 352 45 341 24 323 10 C 305 -3 280 -10 248 -10 Z" unicode="?" />
<glyph horiz-adv-x="700" d="M 337 -110 C 230 -110 154 -81 110 -23 C 65 35 49 112 63 209 L 105 507 C 118 598 151 671 203 727 C 255 782 327 810 417 810 C 497 810 555 783 591 730 C 627 676 639 605 627 517 L 592 273 C 580 217 559 175 527 149 C 495 123 452 110 399 110 C 341 110 300 125 277 155 C 253 185 246 228 254 282 L 271 404 C 278 457 297 500 329 532 C 361 564 397 580 437 580 C 459 580 477 574 489 563 C 501 552 510 539 516 525 L 546 525 C 554 592 547 644 525 681 C 503 718 463 737 406 737 C 338 737 287 716 253 676 C 218 636 195 579 185 507 L 143 209 C 132 131 142 71 173 29 C 203 -13 261 -35 347 -35 C 382 -35 415 -32 446 -28 C 477 -24 506 -18 533 -10 L 522 -85 C 496 -91 467 -97 434 -102 C 400 -107 368 -110 337 -110 Z M 411 190 C 437 190 459 196 475 208 C 491 220 502 246 508 284 L 524 396 C 528 432 524 459 511 475 C 497 491 478 500 454 500 C 427 500 405 491 388 475 C 371 459 360 432 355 394 L 341 292 C 335 255 339 229 351 213 C 363 197 383 190 411 190 Z" unicode="@" />
<glyph horiz-adv-x="700" d="M 448 320 L 390 687 L 227 320 L 448 320 Z M 499 0 L 462 230 L 187 230 L 86 0 L -16 0 L 354 800 L 459 800 L 605 0 L 499 0 Z" unicode="A" />
<glyph horiz-adv-x="700" d="M 44 0 L 156 800 L 404 800 C 487 800 546 784 582 754 C 618 723 631 676 622 612 L 616 567 C 611 533 597 504 575 481 C 552 458 523 444 489 438 L 484 409 C 527 405 559 388 581 360 C 602 331 609 294 603 249 L 597 204 C 587 134 557 83 509 50 C 460 16 390 0 299 0 L 44 0 Z M 209 460 L 367 460 C 414 460 450 468 474 486 C 498 504 512 532 518 571 L 522 599 C 527 637 520 665 501 683 C 482 701 449 710 402 710 L 244 710 L 209 460 Z M 157 90 L 335 90 C 385 90 424 99 450 119 C 476 139 492 171 498 215 L 503 247 C 509 291 501 322 481 342 C 460 362 424 372 374 372 L 196 372 L 157 90 Z" unicode="B" />
<glyph horiz-adv-x="700" d="M 303 -10 C 209 -10 143 13 103 61 C 63 109 49 181 63 277 L 97 519 C 110 616 143 689 197 737 C 251 785 325 810 419 810 C 511 810 576 788 614 745 C 652 702 668 633 660 539 L 558 529 C 562 601 553 650 531 678 C 509 706 467 720 405 720 C 339 720 290 704 259 674 C 227 644 207 592 197 519 L 163 277 C 153 205 159 154 182 124 C 204 94 249 80 315 80 C 377 80 422 93 452 120 C 482 147 505 196 522 267 L 620 257 C 601 163 567 95 517 53 C 467 11 395 -10 303 -10 Z" unicode="C" />
<glyph horiz-adv-x="700" d="M 44 0 L 156 800 L 377 800 C 470 800 539 773 585 720 C 631 667 648 597 636 509 L 604 287 C 592 199 555 130 495 78 C 434 26 357 0 264 0 L 44 0 Z M 157 90 L 277 90 C 344 90 397 108 435 144 C 473 180 496 228 504 287 L 536 509 C 544 567 534 615 506 653 C 478 691 431 710 364 710 L 244 710 L 157 90 Z" unicode="D" />
<glyph horiz-adv-x="700" d="M 44 0 L 156 800 L 676 800 L 664 710 L 244 710 L 211 480 L 581 480 L 569 390 L 199 390 L 157 90 L 577 90 L 564 0 L 44 0 Z" unicode="E" />
<glyph horiz-adv-x="700" d="M 44 0 L 156 800 L 676 800 L 664 710 L 244 710 L 200 400 L 550 400 L 538 310 L 188 310 L 144 0 L 44 0 Z" unicode="F" />
<glyph horiz-adv-x="700" d="M 313 -10 C 219 -10 151 14 108 64 C 65 114 50 185 63 277 L 97 519 C 110 612 144 684 200 734 C 256 784 329 810 419 810 C 501 810 560 789 597 748 C 634 706 649 643 643 559 L 541 549 C 544 611 535 655 514 681 C 493 707 457 720 405 720 C 340 720 292 704 260 673 C 228 642 207 591 197 519 L 163 277 C 153 205 160 155 185 125 C 210 95 257 80 325 80 C 386 80 432 97 463 131 C 494 165 515 223 527 305 L 337 305 L 350 395 L 640 395 L 624 287 C 610 191 577 118 523 67 C 469 15 399 -10 313 -10 Z" unicode="G" />
<glyph horiz-adv-x="700" d="M 44 0 L 156 800 L 256 800 L 211 480 L 511 480 L 556 800 L 656 800 L 544 0 L 444 0 L 499 390 L 199 390 L 144 0 L 44 0 Z" unicode="H" />
<glyph horiz-adv-x="700" d="M 44 0 L 57 90 L 257 90 L 344 710 L 144 710 L 156 800 L 656 800 L 644 710 L 444 710 L 357 90 L 557 90 L 544 0 L 44 0 Z" unicode="I" />
<glyph horiz-adv-x="700" d="M 272 -10 C 184 -10 122 11 84 55 C 46 98 32 165 40 257 L 142 268 C 136 193 142 143 162 118 C 182 92 223 80 285 80 C 342 80 387 94 419 124 C 451 154 472 199 480 259 L 544 710 L 344 710 L 356 800 L 656 800 L 581 260 C 568 172 535 105 483 59 C 430 13 360 -10 272 -10 Z" unicode="J" />
<glyph horiz-adv-x="700" d="M 197 380 L 144 0 L 44 0 L 156 800 L 256 800 L 210 470 L 244 470 L 599 800 L 715 800 L 321 432 L 600 0 L 480 0 L 234 380 L 197 380 Z" unicode="K" />
<glyph horiz-adv-x="700" d="M 94 0 L 206 800 L 306 800 L 207 90 L 557 90 L 544 0 L 94 0 Z" unicode="L" />
<glyph horiz-adv-x="700" d="M 274 200 L 194 639 L 104 0 L 14 0 L 126 800 L 261 800 L 342 319 L 556 800 L 686 800 L 574 0 L 484 0 L 574 640 L 370 200 L 274 200 Z" unicode="M" />
<glyph horiz-adv-x="700" d="M 401 0 L 229 674 L 134 0 L 44 0 L 156 800 L 293 800 L 470 111 L 566 800 L 656 800 L 544 0 L 401 0 Z" unicode="N" />
<glyph horiz-adv-x="700" d="M 293 -10 C 205 -10 141 14 102 63 C 62 112 49 183 63 277 L 97 519 C 110 613 143 685 197 735 C 250 785 321 810 409 810 C 496 810 559 785 598 735 C 637 685 650 613 637 519 L 603 277 C 589 183 556 112 504 63 C 451 14 381 -10 293 -10 Z M 305 80 C 366 80 412 95 442 125 C 472 155 493 205 503 277 L 537 519 C 547 591 541 643 519 674 C 497 704 456 720 395 720 C 333 720 287 704 257 674 C 227 643 207 591 197 519 L 163 277 C 153 205 158 155 180 125 C 202 95 243 80 305 80 Z" unicode="O" />
<glyph horiz-adv-x="700" d="M 44 0 L 156 800 L 437 800 C 520 800 580 782 617 747 C 653 712 667 659 657 589 L 643 491 C 633 420 604 367 558 332 C 511 297 446 280 363 280 L 183 280 L 144 0 L 44 0 Z M 196 368 L 376 368 C 430 368 469 377 495 396 C 521 415 537 447 543 493 L 556 585 C 562 630 555 662 535 681 C 515 700 478 710 424 710 L 244 710 L 196 368 Z" unicode="P" />
<glyph horiz-adv-x="700" d="M 567 -191 C 465 -212 390 -207 342 -176 C 293 -145 273 -90 283 -10 C 197 -8 136 17 99 66 C 62 114 50 185 63 277 L 97 519 C 110 614 143 686 196 736 C 248 785 319 810 409 810 C 497 810 561 785 599 736 C 637 686 650 614 637 519 L 603 277 C 592 200 568 138 531 92 C 494 45 445 14 384 0 C 378 -47 390 -79 419 -95 C 448 -111 497 -113 565 -101 L 567 -191 Z M 307 90 C 368 90 414 104 444 133 C 474 161 493 209 503 277 L 537 519 C 546 587 540 636 518 666 C 496 695 455 710 394 710 C 332 710 286 695 256 666 C 226 636 206 587 197 519 L 163 277 C 153 209 160 161 182 133 C 204 104 245 90 307 90 Z" unicode="Q" />
<glyph horiz-adv-x="700" d="M 200 398 L 400 398 C 454 398 493 407 519 427 C 545 447 561 480 568 527 L 577 589 C 583 633 575 664 555 682 C 535 700 498 710 444 710 L 244 710 L 200 398 Z M 144 0 L 44 0 L 156 800 L 457 800 C 540 800 600 782 637 747 C 673 712 687 659 677 589 L 668 527 C 659 463 636 413 598 377 C 560 341 508 319 442 313 L 603 0 L 489 0 L 330 310 L 188 310 L 144 0 Z" unicode="R" />
<glyph horiz-adv-x="700" d="M 306 -6 C 246 -6 191 3 142 23 C 92 42 51 77 17 129 L 99 197 C 121 159 151 130 187 112 C 223 93 268 84 322 84 C 371 84 412 95 446 118 C 480 141 499 172 505 212 C 510 250 501 279 478 299 C 454 319 406 341 333 364 C 239 392 177 422 147 455 C 116 487 105 534 113 594 C 123 663 153 715 205 751 C 256 786 315 804 381 804 C 437 804 488 794 536 774 C 584 754 623 720 655 670 L 576 601 C 554 639 525 667 488 686 C 450 704 411 714 370 714 C 328 714 293 705 265 688 C 237 671 221 643 216 603 C 210 567 220 539 245 519 C 270 499 322 477 400 454 C 488 427 546 398 576 366 C 605 334 615 289 607 229 C 596 152 560 94 500 54 C 440 14 375 -6 306 -6 Z" unicode="S" />
<glyph horiz-adv-x="700" d="M 244 0 L 344 710 L 94 710 L 106 800 L 706 800 L 694 710 L 444 710 L 344 0 L 244 0 Z" unicode="T" />
<glyph horiz-adv-x="700" d="M 293 -10 C 209 -10 150 13 115 61 C 80 109 69 181 83 277 L 156 800 L 256 800 L 183 277 C 173 205 177 155 196 125 C 214 95 251 80 305 80 C 359 80 399 95 427 125 C 454 155 473 205 483 277 L 556 800 L 656 800 L 583 277 C 569 181 538 109 490 61 C 442 13 376 -10 293 -10 Z" unicode="U" />
<glyph horiz-adv-x="700" d="M 347 0 L 242 0 L 96 800 L 204 800 L 314 127 L 612 800 L 717 800 L 347 0 Z" unicode="V" />
<glyph horiz-adv-x="700" d="M 412 0 L 361 477 L 176 0 L 76 0 L 80 800 L 179 800 L 160 147 L 328 600 L 433 600 L 475 147 L 638 800 L 732 800 L 512 0 L 412 0 Z" unicode="W" />
<glyph horiz-adv-x="700" d="M 508 0 L 341 328 L 81 0 L -36 0 L 300 408 L 101 800 L 216 800 L 375 488 L 622 800 L 738 800 L 415 409 L 623 0 L 508 0 Z" unicode="X" />
<glyph horiz-adv-x="700" d="M 344 0 L 244 0 L 286 300 L 70 800 L 182 800 L 355 390 L 631 800 L 741 800 L 386 300 L 344 0 Z" unicode="Y" />
<glyph horiz-adv-x="700" d="M 564 0 L 24 0 L 37 90 L 544 710 L 124 710 L 136 800 L 676 800 L 664 710 L 156 90 L 577 90 L 564 0 Z" unicode="Z" />
<glyph horiz-adv-x="700" d="M 116 -200 L 256 800 L 606 800 L 594 710 L 344 710 L 227 -122 L 477 -122 L 466 -200 L 116 -200 Z" unicode="[" />
<glyph horiz-adv-x="700" d="M 416 -200 L 156 800 L 256 800 L 516 -200 L 416 -200 Z" unicode="\" />
<glyph horiz-adv-x="700" d="M 66 -200 L 77 -122 L 327 -122 L 444 710 L 194 710 L 206 800 L 556 800 L 416 -200 L 66 -200 Z" unicode="]" />
<glyph horiz-adv-x="700" d="M 537 200 L 393 694 L 117 200 L 22 200 L 356 800 L 456 800 L 632 200 L 537 200 Z" unicode="^" />
<glyph horiz-adv-x="700" d="M -14 -200 L 0 -100 L 560 -100 L 546 -200 L -14 -200 Z" unicode="_" />
<glyph horiz-adv-x="700" d="M 395 400 L 226 800 L 425 800 L 479 400 L 395 400 Z" unicode="`" />
<glyph horiz-adv-x="700" d="M 233 76 C 267 76 300 82 331 94 C 362 106 390 128 416 159 L 430 255 L 250 255 C 221 255 196 248 175 235 C 154 222 141 199 137 167 C 133 138 138 116 152 100 C 166 84 193 76 233 76 Z M 208 -10 C 157 -10 114 3 78 30 C 42 57 28 101 37 161 C 44 213 67 255 105 285 C 143 315 186 330 232 330 L 440 330 L 452 416 C 456 448 449 473 431 492 C 412 510 381 520 338 520 C 294 520 260 513 237 500 C 213 487 192 458 173 414 L 89 438 C 108 494 139 537 183 566 C 227 595 282 610 349 610 C 415 610 467 595 507 565 C 547 535 562 490 554 428 L 516 160 C 511 124 518 101 537 92 C 555 83 585 82 627 89 L 614 -3 C 571 -9 532 -6 498 5 C 463 17 448 48 452 100 L 432 100 C 409 69 377 43 337 22 C 297 0 254 -10 208 -10 Z" unicode="a" />
<glyph horiz-adv-x="700" d="M 285 -10 C 245 -10 204 -4 163 8 C 122 20 85 37 52 60 L 156 800 L 256 800 L 214 500 L 244 500 C 266 534 294 561 328 581 C 361 600 397 610 435 610 C 497 610 542 590 570 550 C 598 510 608 454 598 382 L 575 219 C 564 146 533 90 483 50 C 432 10 366 -10 285 -10 Z M 296 78 C 350 78 391 89 421 113 C 450 137 468 173 475 221 L 498 381 C 504 426 498 460 481 482 C 464 504 436 515 396 515 C 363 515 331 506 299 489 C 267 471 235 445 202 410 L 160 116 C 180 103 201 93 223 87 C 245 81 269 78 296 78 Z" unicode="b" />
<glyph horiz-adv-x="700" d="M 307 -10 C 219 -10 156 9 117 47 C 78 85 64 142 74 217 L 97 379 C 107 455 138 512 188 551 C 238 590 306 610 393 610 C 470 610 527 592 564 557 C 600 522 616 471 612 404 L 513 398 C 516 439 507 470 485 490 C 463 510 427 520 379 520 C 324 520 282 508 252 485 C 222 462 203 427 197 379 L 174 217 C 168 171 176 136 200 114 C 224 91 263 80 319 80 C 367 80 404 88 431 105 C 458 122 475 148 483 182 L 580 176 C 566 114 537 68 491 37 C 445 5 384 -10 307 -10 Z" unicode="c" />
<glyph horiz-adv-x="700" d="M 276 85 C 308 85 340 93 372 111 C 404 128 437 154 471 190 L 512 484 C 493 496 472 506 450 512 C 427 518 402 522 376 522 C 322 522 280 510 251 486 C 221 462 203 427 197 379 L 175 218 C 168 173 173 140 190 118 C 207 96 236 85 276 85 Z M 428 100 C 406 65 378 38 345 19 C 311 0 276 -10 238 -10 C 176 -10 130 10 102 50 C 73 90 64 146 75 218 L 98 381 C 108 453 138 510 189 550 C 240 590 306 610 388 610 C 411 610 435 607 459 602 C 483 597 505 590 526 582 L 556 800 L 656 800 L 544 0 L 444 0 L 458 100 L 428 100 Z" unicode="d" />
<glyph horiz-adv-x="700" d="M 565 132 C 539 82 507 45 467 23 C 427 1 370 -10 294 -10 C 214 -10 155 9 117 47 C 78 85 64 142 75 218 L 97 379 C 108 456 139 514 191 552 C 243 590 306 610 381 610 C 456 610 513 590 553 551 C 593 512 607 452 596 372 L 583 280 L 183 280 L 174 217 C 167 167 175 130 197 108 C 219 86 255 75 305 75 C 353 75 388 81 412 95 C 436 108 455 130 471 160 L 565 132 Z M 197 379 L 194 355 L 494 355 L 496 370 C 503 424 496 463 475 488 C 453 512 418 525 368 525 C 318 525 278 513 250 489 C 222 465 204 429 197 379 Z" unicode="e" />
<glyph horiz-adv-x="700" d="M 166 -200 L 266 510 L 96 510 L 108 600 L 278 600 L 284 640 C 291 694 318 735 365 765 C 411 795 466 810 529 810 C 555 810 582 807 608 802 C 634 796 656 790 673 784 L 641 700 C 625 706 605 711 583 715 C 561 718 538 720 516 720 C 479 720 449 713 425 701 C 401 689 388 669 384 641 L 378 600 L 628 600 L 616 510 L 366 510 L 266 -200 L 166 -200 Z" unicode="f" />
<glyph horiz-adv-x="700" d="M 587 -48 C 579 -102 554 -142 510 -169 C 466 -196 416 -210 359 -210 L 171 -210 C 111 -210 63 -198 28 -174 C -7 -150 -21 -113 -15 -63 C -10 -31 1 -5 21 13 C 41 32 67 43 100 46 L 103 67 C 80 71 62 80 50 96 C 37 111 33 135 37 167 C 41 195 54 221 75 244 C 96 267 128 280 172 284 L 175 303 C 143 313 123 329 115 351 C 107 373 104 394 107 414 L 111 441 C 117 487 142 525 186 555 C 229 585 286 600 358 600 L 653 600 L 641 510 L 489 533 L 486 515 C 512 507 530 493 541 473 C 551 452 555 431 553 411 L 549 385 C 542 339 519 301 480 273 C 440 245 381 231 302 231 L 181 231 C 163 231 148 226 138 217 C 128 208 121 193 118 172 C 115 151 119 135 131 125 C 142 115 161 110 187 110 L 414 110 C 470 110 514 97 548 73 C 582 48 595 8 587 -48 Z M 317 307 C 357 307 389 314 413 329 C 436 343 450 366 455 398 L 459 430 C 463 461 456 484 437 498 C 417 512 387 520 347 520 C 306 520 274 512 251 498 C 227 484 213 461 209 430 L 205 398 C 200 366 207 343 227 329 C 246 314 276 307 317 307 Z M 181 -130 L 384 -130 C 414 -130 439 -124 459 -113 C 479 -101 491 -82 495 -54 C 499 -27 493 -8 478 3 C 462 14 441 20 415 20 L 97 20 L 87 -48 C 83 -75 89 -95 105 -109 C 121 -123 147 -130 181 -130 Z" unicode="g" />
<glyph horiz-adv-x="700" d="M 44 0 L 156 800 L 256 800 L 214 500 L 244 500 C 263 534 290 560 324 580 C 358 600 396 610 436 610 C 496 610 540 591 570 555 C 599 518 609 468 601 406 L 544 0 L 444 0 L 498 385 C 504 427 498 459 481 481 C 463 503 436 515 398 515 C 368 515 336 506 303 488 C 269 470 236 444 202 410 L 144 0 L 44 0 Z" unicode="h" />
<glyph horiz-adv-x="700" d="M 44 0 L 57 90 L 257 90 L 316 510 L 116 510 L 128 600 L 428 600 L 357 90 L 557 90 L 544 0 L 44 0 Z M 394 710 C 368 710 348 714 334 722 C 319 730 313 745 317 767 L 318 774 C 321 796 331 812 348 820 C 364 828 385 833 411 833 C 436 833 456 828 471 820 C 485 812 491 796 488 774 L 487 767 C 483 745 473 730 456 722 C 439 714 418 710 394 710 Z" unicode="i" />
<glyph horiz-adv-x="700" d="M 173 -208 C 147 -208 122 -206 97 -203 C 72 -200 46 -194 19 -186 L 52 -90 C 76 -98 98 -104 119 -107 C 140 -110 161 -112 183 -112 C 226 -112 262 -102 292 -84 C 321 -66 339 -35 345 7 L 416 510 L 136 510 L 148 600 L 528 600 L 443 -6 C 433 -74 403 -125 352 -158 C 301 -191 241 -208 173 -208 Z M 491 710 C 465 710 445 714 431 722 C 416 730 410 745 414 767 L 415 774 C 418 796 428 812 445 820 C 461 828 482 833 508 833 C 533 833 553 828 568 820 C 582 812 588 796 585 774 L 584 767 C 580 745 570 730 553 722 C 536 714 515 710 491 710 Z" unicode="j" />
<glyph horiz-adv-x="700" d="M 232 273 L 194 0 L 94 0 L 206 800 L 306 800 L 244 357 L 295 357 L 521 600 L 643 600 L 369 321 L 556 0 L 442 0 L 283 273 L 232 273 Z" unicode="k" />
<glyph horiz-adv-x="700" d="M 44 0 L 57 90 L 257 90 L 344 710 L 144 710 L 156 800 L 456 800 L 357 90 L 557 90 L 544 0 L 44 0 Z" unicode="l" />
<glyph horiz-adv-x="700" d="M 156 430 L 96 0 L 4 0 L 88 600 L 180 600 L 169 520 L 189 520 C 205 548 225 570 248 586 C 271 602 294 610 317 610 C 343 610 363 602 379 586 C 394 570 403 548 406 520 L 428 520 C 444 548 465 570 489 586 C 513 602 537 610 562 610 C 595 610 619 596 635 569 C 650 542 655 506 649 460 L 584 0 L 492 0 L 554 444 C 558 474 558 496 552 512 C 546 527 535 535 520 535 C 507 535 490 525 468 507 C 446 488 424 462 400 430 L 340 0 L 248 0 L 310 444 C 314 474 313 496 307 512 C 301 527 290 535 275 535 C 261 535 245 526 225 508 C 205 490 182 464 156 430 Z" unicode="m" />
<glyph horiz-adv-x="700" d="M 44 0 L 128 600 L 228 600 L 214 500 L 244 500 C 263 534 290 560 324 580 C 358 600 396 610 436 610 C 496 610 540 591 570 555 C 599 518 609 468 601 405 L 544 0 L 444 0 L 498 385 C 504 427 498 459 481 481 C 463 503 436 515 398 515 C 368 515 336 506 303 488 C 269 470 236 444 202 410 L 144 0 L 44 0 Z" unicode="n" />
<glyph horiz-adv-x="700" d="M 293 -10 C 212 -10 153 9 115 48 C 77 87 64 143 74 217 L 97 379 C 107 453 137 510 186 550 C 235 590 300 610 381 610 C 461 610 519 590 557 550 C 594 510 607 453 597 379 L 574 217 C 564 143 534 87 486 48 C 438 9 373 -10 293 -10 Z M 305 80 C 355 80 395 91 423 114 C 451 136 468 171 474 217 L 497 379 C 503 427 496 462 475 485 C 453 508 417 520 367 520 C 316 520 277 508 249 485 C 221 462 203 427 197 379 L 174 217 C 168 171 175 136 197 114 C 218 91 254 80 305 80 Z" unicode="o" />
<glyph horiz-adv-x="700" d="M 296 78 C 352 78 394 89 422 112 C 450 134 468 171 475 221 L 498 383 C 504 429 499 462 483 483 C 467 504 438 515 396 515 C 362 515 330 506 299 490 C 268 473 236 446 202 410 L 160 116 C 179 103 199 93 221 87 C 242 81 267 78 296 78 Z M 285 -10 C 262 -10 238 -7 214 -2 C 190 2 167 9 147 18 L 116 -200 L 16 -200 L 128 600 L 228 600 L 214 500 L 244 500 C 265 534 293 560 328 580 C 362 600 398 610 435 610 C 495 610 539 589 568 548 C 597 507 607 452 598 382 L 575 219 C 565 148 534 92 482 51 C 430 10 364 -10 285 -10 Z" unicode="p" />
<glyph horiz-adv-x="700" d="M 416 -200 L 458 100 L 428 100 C 404 64 376 36 344 18 C 312 0 276 -10 238 -10 C 174 -10 129 9 101 49 C 73 88 64 144 75 218 L 98 381 C 108 455 140 511 195 551 C 250 590 314 610 388 610 C 432 610 473 604 513 594 C 553 583 589 568 621 548 L 516 -200 L 416 -200 Z M 276 85 C 308 85 340 93 372 110 C 404 127 437 154 471 190 L 512 484 C 491 496 469 506 447 512 C 425 518 401 522 376 522 C 332 522 293 510 259 487 C 225 463 204 427 197 379 L 176 228 C 169 179 174 143 190 120 C 206 96 235 85 276 85 Z" unicode="q" />
<glyph horiz-adv-x="700" d="M 94 0 L 178 600 L 278 600 L 264 500 L 294 500 C 313 538 338 565 370 583 C 401 601 437 610 478 610 C 522 610 557 595 583 565 C 609 535 618 494 611 440 L 598 350 L 503 350 L 511 404 C 516 442 511 470 497 488 C 482 506 457 515 423 515 C 391 515 362 507 334 492 C 306 476 279 452 253 420 L 194 0 L 94 0 Z" unicode="r" />
<glyph horiz-adv-x="700" d="M 301 -10 C 250 -10 202 -2 157 12 C 111 27 71 50 36 82 L 92 161 C 120 134 154 114 192 100 C 230 86 271 80 313 80 C 347 80 381 85 415 96 C 448 106 467 129 472 164 C 476 192 465 213 441 225 C 417 237 371 247 303 256 C 231 264 178 281 144 307 C 110 333 96 373 104 429 C 112 489 141 534 191 564 C 241 594 296 610 356 610 C 403 610 447 602 489 586 C 530 570 567 547 601 518 L 545 439 C 517 463 487 483 453 498 C 419 512 382 520 343 520 C 311 520 281 514 253 502 C 225 490 208 468 204 436 C 200 408 210 388 232 376 C 254 364 300 353 368 345 C 443 336 498 317 532 289 C 566 261 579 221 572 171 C 563 108 531 62 477 33 C 422 4 363 -10 301 -10 Z" unicode="s" />
<glyph horiz-adv-x="700" d="M 392 -9 C 326 -9 277 7 245 40 C 213 72 201 122 211 190 L 256 510 L 86 510 L 98 600 L 268 600 L 296 800 L 396 800 L 368 600 L 628 600 L 616 510 L 356 510 L 312 199 C 306 160 312 131 329 113 C 345 94 373 85 411 85 C 436 85 460 86 482 90 C 504 94 526 99 548 105 L 555 14 C 531 7 506 1 480 -2 C 454 -6 424 -9 392 -9 Z" unicode="t" />
<glyph horiz-adv-x="700" d="M 237 -10 C 179 -10 134 8 104 46 C 73 84 62 133 71 195 L 128 600 L 228 600 L 174 215 C 168 171 173 138 189 117 C 205 95 234 85 274 85 C 305 85 337 93 369 110 C 401 127 435 154 471 190 L 528 600 L 628 600 L 544 0 L 444 0 L 458 100 L 428 100 C 409 67 382 40 347 20 C 312 0 275 -10 237 -10 Z" unicode="u" />
<glyph horiz-adv-x="700" d="M 356 0 L 231 0 L 102 600 L 211 600 L 306 81 L 547 600 L 653 600 L 356 0 Z" unicode="v" />
<glyph horiz-adv-x="700" d="M 382 0 L 349 391 L 210 0 L 96 0 L 67 600 L 163 600 L 165 73 L 303 500 L 421 500 L 449 89 L 593 600 L 689 600 L 492 0 L 382 0 Z" unicode="w" />
<glyph horiz-adv-x="700" d="M 443 0 L 320 229 L 140 0 L 29 0 L 281 301 L 120 600 L 232 600 L 350 380 L 532 600 L 643 600 L 390 306 L 555 0 L 443 0 Z" unicode="x" />
<glyph horiz-adv-x="700" d="M 87 -206 C 71 -206 55 -205 40 -203 C 25 -201 10 -198 -5 -195 L 24 -106 C 40 -110 56 -113 71 -115 C 85 -117 99 -118 112 -118 C 142 -118 171 -109 197 -92 C 223 -74 246 -47 264 -9 L 268 0 L 231 0 L 102 600 L 211 600 L 308 84 L 548 600 L 653 600 L 346 -20 C 314 -84 277 -131 234 -161 C 190 -191 141 -206 87 -206 Z" unicode="y" />
<glyph horiz-adv-x="700" d="M 524 0 L 64 0 L 77 90 L 473 510 L 136 510 L 148 600 L 608 600 L 596 510 L 200 90 L 537 90 L 524 0 Z" unicode="z" />
<glyph horiz-adv-x="700" d="M 464 -210 C 324 -212 224 -200 165 -172 C 105 -144 80 -102 88 -44 C 92 -10 103 17 120 40 C 136 62 154 82 173 99 C 191 115 208 131 224 146 C 240 160 249 176 251 193 C 255 224 242 246 210 259 C 178 272 120 280 34 282 L 42 342 C 128 344 189 351 225 364 C 260 376 280 398 284 429 C 286 445 282 459 270 471 C 258 483 245 496 231 511 C 217 525 204 543 194 564 C 183 584 180 612 185 646 C 193 702 230 744 297 772 C 364 800 468 812 608 810 L 595 720 C 483 722 404 716 358 702 C 312 688 287 665 283 634 C 281 620 283 607 291 593 C 299 579 314 560 336 538 C 356 516 370 497 377 481 C 384 465 386 448 384 430 C 379 392 359 364 323 345 C 287 326 238 315 176 313 L 175 308 C 236 301 282 287 312 266 C 342 244 354 214 349 176 C 346 159 339 143 327 128 C 315 112 294 93 266 70 C 240 50 221 32 210 18 C 199 4 192 -12 190 -31 C 185 -64 203 -88 245 -103 C 286 -117 363 -124 477 -122 L 464 -210 Z" unicode="{" />
<glyph horiz-adv-x="700" d="M 221 -200 L 361 800 L 451 800 L 311 -200 L 221 -200 Z" unicode="|" />
<glyph horiz-adv-x="700" d="M 488 -44 C 480 -102 442 -144 375 -172 C 307 -200 204 -212 64 -210 L 77 -122 C 189 -124 268 -117 314 -103 C 360 -88 385 -64 390 -31 C 392 -12 390 4 383 18 C 376 32 362 50 342 70 C 320 93 305 112 297 128 C 289 143 286 159 289 176 C 294 214 315 244 351 266 C 387 287 436 301 499 308 L 500 313 C 438 315 392 326 362 345 C 332 364 319 392 324 430 C 326 448 333 465 345 481 C 357 497 376 516 404 538 C 431 560 450 579 462 593 C 474 607 481 620 483 634 C 487 665 469 688 427 702 C 385 716 308 722 195 720 L 208 810 C 348 812 447 800 507 772 C 567 744 593 702 585 646 C 580 612 569 584 553 564 C 536 543 519 525 501 511 C 482 496 465 483 450 471 C 435 459 426 445 424 429 C 420 398 433 376 465 364 C 496 351 555 344 642 342 L 634 282 C 546 280 485 272 450 259 C 415 246 395 224 391 193 C 389 176 393 160 404 146 C 415 131 428 115 443 99 C 456 82 468 62 479 40 C 489 17 492 -10 488 -44 Z" unicode="}" />
<glyph horiz-adv-x="700" d="M 455 210 C 417 210 387 221 366 243 C 344 265 325 307 308 368 C 294 416 281 448 271 465 C 260 482 245 491 227 491 C 209 491 192 482 178 464 C 163 446 152 416 146 373 L 125 220 L 35 220 L 57 379 C 67 447 89 499 125 535 C 160 571 200 590 244 590 C 283 590 313 578 334 556 C 355 533 375 491 393 429 C 406 383 418 351 428 334 C 438 317 453 309 473 309 C 491 309 507 317 522 335 C 537 353 548 384 554 428 L 576 580 L 666 580 L 643 421 C 633 353 611 300 576 264 C 540 228 500 210 455 210 Z" unicode="~" />
<glyph horiz-adv-x="700" d="" unicode=" " />
<glyph horiz-adv-x="700" d="M 408 810 C 441 810 464 803 478 789 C 492 775 497 754 493 726 L 489 698 C 485 668 474 647 456 633 C 438 619 413 612 380 612 C 346 612 323 619 310 633 C 296 647 292 668 296 698 L 300 726 C 304 754 314 775 332 789 C 350 803 375 810 408 810 Z M 405 500 L 365 0 L 225 0 L 325 500 L 405 500 Z" unicode="¡" />
<glyph horiz-adv-x="700" d="M 189 317 C 182 273 188 240 206 219 C 224 197 255 185 299 181 L 361 619 C 315 615 281 603 257 581 C 233 559 218 527 212 483 L 189 317 Z M 257 -50 L 277 92 C 199 98 146 121 118 161 C 89 201 80 256 90 327 L 111 477 C 121 546 146 600 186 640 C 226 680 285 702 364 708 L 383 850 L 463 850 L 444 709 C 512 704 561 684 589 648 C 617 612 629 561 624 494 L 531 488 C 535 536 528 569 511 588 C 494 606 464 617 421 619 L 359 181 C 403 182 436 191 458 208 C 480 225 495 256 504 302 L 597 296 C 583 230 557 180 519 147 C 481 114 427 95 357 91 L 337 -50 L 257 -50 Z" unicode="¢" />
<glyph horiz-adv-x="700" d="M 614 217 C 599 143 571 86 529 48 C 487 9 435 -10 373 -10 C 348 -10 325 -3 304 8 C 283 20 262 32 242 42 C 222 50 203 57 187 62 C 170 66 151 63 131 51 L 31 -9 L -16 65 L 73 115 C 99 129 123 153 145 187 C 167 221 180 254 185 287 C 188 307 189 325 187 341 C 185 357 181 371 177 385 L 38 385 L 51 475 L 139 475 C 132 491 127 508 125 528 C 122 547 123 570 127 597 C 135 661 163 712 211 751 C 258 790 321 810 400 810 C 484 810 545 792 581 757 C 617 722 633 666 627 589 L 525 579 C 528 632 519 669 499 689 C 479 709 441 720 387 720 C 337 720 299 710 274 690 C 249 670 234 638 228 595 C 224 570 224 548 229 529 C 234 510 241 492 250 475 L 451 475 L 438 385 L 285 385 C 287 372 289 358 290 343 C 291 328 290 312 288 295 C 285 272 276 247 261 219 C 246 191 218 163 176 137 L 186 120 C 206 132 224 137 241 136 C 257 134 274 131 292 125 C 309 119 325 111 341 102 C 357 92 374 88 394 88 C 428 88 453 97 471 117 C 489 137 504 173 516 227 L 614 217 Z" unicode="£" />
<glyph horiz-adv-x="700" d="M 319 180 C 359 180 390 190 413 212 C 436 233 451 268 459 317 L 481 479 C 487 527 482 562 466 585 C 449 608 421 620 381 620 C 341 620 309 608 286 585 C 262 562 247 527 241 479 L 219 317 C 211 268 216 233 233 212 C 250 190 279 180 319 180 Z M 307 90 C 274 90 244 94 218 103 C 192 112 171 126 155 145 L 56 56 L 2 119 L 118 223 C 116 236 115 250 115 266 C 115 282 116 299 119 317 L 141 479 C 143 497 147 515 152 531 C 156 547 162 562 169 576 L 81 681 L 153 744 L 228 654 C 250 672 275 686 303 696 C 331 705 362 710 395 710 C 427 710 457 705 483 695 C 509 685 530 671 546 653 L 644 739 L 698 676 L 582 574 C 584 560 585 546 585 530 C 585 514 583 497 581 479 L 559 317 C 556 299 552 283 548 268 C 544 252 539 238 533 226 L 620 124 L 549 61 L 476 146 C 454 127 428 113 400 104 C 371 94 340 90 307 90 Z" unicode="¤" />
<glyph horiz-adv-x="700" d="M 558 100 L 358 100 L 344 0 L 244 0 L 258 100 L 58 100 L 71 190 L 271 190 L 286 300 L 86 300 L 99 390 L 248 390 L 70 800 L 179 800 L 346 373 L 633 800 L 741 800 L 450 390 L 599 390 L 586 300 L 386 300 L 371 190 L 571 190 L 558 100 Z" unicode="¥" />
<glyph horiz-adv-x="700" d="M 305 400 L 361 800 L 451 800 L 395 400 L 305 400 Z M 221 -200 L 277 200 L 367 200 L 311 -200 L 221 -200 Z" unicode="¦" />
<glyph horiz-adv-x="700" d="M 312 202 C 318 200 324 199 330 198 C 336 196 341 195 347 194 C 380 194 411 202 440 217 C 468 232 485 258 490 294 C 494 328 484 351 458 364 C 432 376 401 387 365 395 C 359 396 353 397 347 399 C 341 400 335 401 330 403 C 296 402 264 394 236 379 C 208 364 191 339 187 303 C 181 269 192 245 218 233 C 244 220 275 210 312 202 Z M 283 -207 C 236 -207 192 -198 152 -182 C 111 -166 77 -143 49 -113 L 111 -32 C 140 -60 169 -82 199 -96 C 228 -110 262 -117 301 -117 C 337 -117 370 -110 400 -96 C 429 -82 446 -58 452 -24 C 458 18 443 48 409 65 C 374 82 333 96 287 106 C 216 120 163 141 127 168 C 91 194 77 236 85 293 C 90 331 106 361 133 385 C 159 409 191 426 229 437 C 191 455 164 477 147 505 C 129 533 124 568 130 610 C 139 679 170 729 224 759 C 277 789 334 804 394 804 C 440 804 484 795 525 779 C 565 763 600 740 628 710 L 566 629 C 536 657 506 679 477 693 C 448 707 414 714 376 714 C 337 714 303 705 274 689 C 245 673 229 650 225 621 C 219 578 233 548 268 531 C 302 514 343 501 390 491 C 460 476 514 455 550 429 C 586 402 600 360 592 304 C 586 266 570 235 544 211 C 517 187 485 170 447 160 C 485 142 512 119 530 91 C 547 63 553 29 547 -13 C 537 -79 507 -127 457 -159 C 407 -191 349 -207 283 -207 Z" unicode="§" />
<glyph horiz-adv-x="700" d="M 279 710 C 259 710 244 714 233 722 C 222 730 218 745 222 767 L 223 774 C 226 796 234 812 247 820 C 260 828 276 833 296 833 C 315 833 330 828 341 820 C 352 812 356 796 353 774 L 352 767 C 348 745 340 730 327 722 C 313 714 297 710 279 710 Z M 509 710 C 489 710 474 714 463 722 C 452 730 448 745 452 767 L 453 774 C 456 796 464 812 477 820 C 490 828 506 833 526 833 C 545 833 560 828 571 820 C 582 812 586 796 583 774 L 582 767 C 578 745 570 730 557 722 C 543 714 527 710 509 710 Z" unicode="¨" />
<glyph horiz-adv-x="700" d="M 350 -110 C 235 -110 151 -78 99 -14 C 46 49 20 139 20 257 L 20 479 C 20 597 46 689 99 753 C 152 817 236 850 351 850 C 465 850 549 817 601 753 C 653 689 680 597 680 479 L 680 257 C 680 139 653 49 601 -14 C 548 -78 464 -110 350 -110 Z M 350 -44 C 441 -44 507 -20 548 27 C 589 75 610 151 610 256 L 610 479 C 610 585 589 663 548 711 C 507 759 441 784 350 784 C 258 784 192 759 151 711 C 110 662 90 584 90 478 L 90 257 C 90 151 110 75 151 27 C 192 -20 258 -44 350 -44 Z M 359 100 C 303 100 263 116 239 148 C 215 180 203 226 203 286 L 203 457 C 203 516 215 561 239 593 C 263 624 303 640 358 640 C 405 640 439 625 461 597 C 483 568 496 524 500 464 L 417 458 C 414 498 408 524 400 538 C 392 552 377 559 357 559 C 334 559 318 551 308 537 C 298 522 293 497 293 463 L 293 277 C 293 243 298 218 309 203 C 319 188 336 181 359 181 C 379 181 393 186 401 198 C 409 210 414 235 417 273 L 500 267 C 496 209 483 166 461 140 C 439 113 405 100 359 100 Z" unicode="©" />
<glyph horiz-adv-x="700" d="M 290 395 C 316 395 340 400 363 411 C 386 422 408 440 429 466 L 437 521 L 300 521 C 275 521 254 516 236 507 C 218 498 208 482 206 459 C 202 438 207 422 220 411 C 232 400 256 395 290 395 Z M 259 321 C 217 321 182 331 153 352 C 123 373 112 407 119 454 C 125 495 144 527 176 551 C 208 575 244 587 284 587 L 446 587 L 454 643 C 458 670 452 692 438 710 C 423 727 399 736 365 736 C 330 736 303 731 284 721 C 265 711 248 688 233 653 L 161 674 C 175 718 200 751 234 775 C 268 798 314 810 374 810 C 428 810 471 797 503 771 C 535 745 548 706 541 653 L 515 467 C 510 435 514 415 527 409 C 540 402 565 401 601 405 L 590 326 C 551 323 519 326 493 335 C 467 344 456 371 460 415 L 443 415 C 424 388 398 366 365 348 C 332 330 297 321 259 321 Z" unicode="ª" />
<glyph horiz-adv-x="700" d="M 589 99 L 357 299 L 371 399 L 659 599 L 646 504 L 423 349 L 602 194 L 589 99 Z M 289 99 L 57 299 L 71 399 L 359 599 L 346 504 L 123 349 L 302 194 L 289 99 Z" unicode="«" />
<glyph horiz-adv-x="700" d="M 474 0 L 516 300 L 56 300 L 70 400 L 630 400 L 574 0 L 474 0 Z" unicode="¬" />
<glyph horiz-adv-x="700" d="M 56 300 L 70 400 L 630 400 L 616 300 L 56 300 Z" unicode="­" />
<glyph horiz-adv-x="700" d="M 350 138 C 252 138 181 162 137 212 C 92 262 70 328 70 411 L 70 584 C 70 667 92 734 137 784 C 181 834 253 860 351 860 C 448 860 519 834 563 784 C 607 734 630 667 630 584 L 630 411 C 630 328 607 262 563 212 C 518 162 447 138 350 138 Z M 350 195 C 425 195 480 213 516 250 C 551 286 569 343 569 421 L 569 574 C 569 653 551 711 516 748 C 480 785 425 804 350 804 C 274 804 219 785 184 748 C 148 711 131 653 131 574 L 131 421 C 131 343 148 286 184 250 C 219 213 274 195 350 195 Z M 297 501 L 360 501 C 376 501 388 504 396 511 C 403 517 407 528 407 543 L 407 571 C 407 589 403 603 396 611 C 388 619 376 623 360 623 L 297 623 L 297 501 Z M 297 323 L 232 323 L 232 681 L 360 681 C 396 681 424 671 444 653 C 463 634 473 607 473 571 L 473 543 C 473 518 467 498 456 482 C 445 466 429 455 408 449 L 479 323 L 405 323 L 338 443 L 297 443 L 297 323 Z" unicode="®" />
<glyph horiz-adv-x="700" d="M 200 755 L 213 845 L 613 845 L 600 755 L 200 755 Z" unicode="¯" />
<glyph horiz-adv-x="700" d="M 350 346 C 290 346 241 360 205 390 C 168 420 150 466 150 528 L 150 621 C 150 683 168 729 205 760 C 241 790 290 806 350 806 C 410 806 459 790 495 760 C 531 729 550 683 550 621 L 550 528 C 550 466 531 420 495 390 C 458 360 410 346 350 346 Z M 350 433 C 384 433 410 440 428 455 C 446 469 455 494 455 528 L 455 621 C 455 654 446 679 428 695 C 410 711 384 719 350 719 C 314 719 288 711 271 695 C 253 679 245 654 245 621 L 245 528 C 245 494 253 469 271 455 C 288 440 314 433 350 433 Z" unicode="°" />
<glyph horiz-adv-x="700" d="M 250 140 L 286 400 L 56 400 L 70 500 L 300 500 L 337 760 L 437 760 L 400 500 L 630 500 L 616 400 L 386 400 L 350 140 L 250 140 Z M 56 0 L 70 100 L 630 100 L 616 0 L 56 0 Z" unicode="±" />
<glyph horiz-adv-x="700" d="M 137 304 L 151 408 C 156 444 169 475 191 501 C 213 527 245 545 289 554 L 414 579 C 438 583 455 591 467 601 C 479 611 486 627 489 648 L 492 667 C 494 688 489 705 477 717 C 465 729 438 736 397 736 C 355 736 328 729 314 715 C 300 701 289 678 282 644 L 191 651 C 201 702 221 741 253 767 C 285 793 336 806 407 806 C 477 806 526 793 552 769 C 578 745 588 712 582 670 L 577 636 C 571 598 557 569 533 549 C 509 529 480 516 446 510 L 320 485 C 298 481 281 474 268 464 C 254 454 246 435 242 409 L 238 377 L 548 377 L 538 304 L 137 304 Z" unicode="²" />
<glyph horiz-adv-x="700" d="M 334 298 C 260 298 210 310 184 334 C 157 358 146 395 150 443 L 241 449 C 240 419 245 399 257 387 C 269 375 298 369 344 369 C 389 369 420 375 436 388 C 452 400 462 418 466 441 L 468 457 C 471 481 466 499 453 511 C 440 523 412 529 368 529 L 286 529 L 296 601 L 378 601 C 414 601 440 604 456 612 C 472 619 481 633 484 655 L 487 675 C 490 697 483 713 465 722 C 447 730 423 735 391 735 C 358 735 334 729 318 719 C 302 708 291 690 285 666 L 194 672 C 204 720 226 754 259 775 C 291 795 339 806 401 806 C 457 806 502 797 536 780 C 570 762 584 729 578 681 L 575 665 C 571 638 560 617 541 602 C 521 587 497 578 469 576 L 466 558 C 497 555 521 544 539 525 C 556 506 563 482 559 453 L 557 439 C 549 390 528 354 492 332 C 456 309 403 298 334 298 Z" unicode="³" />
<glyph horiz-adv-x="700" d="M 278 700 L 442 900 L 592 900 L 369 700 L 278 700 Z" unicode="´" />
<glyph horiz-adv-x="700" d="M 137 20 L 116 -200 L -4 -200 L 37 20 L 118 600 L 218 600 L 162 196 C 156 156 163 127 184 110 C 204 93 231 85 264 85 C 294 85 321 91 345 105 C 369 118 393 136 416 160 L 478 600 L 578 600 L 516 160 C 511 124 516 101 532 93 C 547 84 572 83 607 89 L 594 -3 C 544 -10 507 -5 483 12 C 459 29 448 58 452 100 L 432 100 C 411 71 385 45 353 23 C 321 1 283 -10 239 -10 C 218 -10 199 -6 182 2 C 164 10 150 22 139 39 L 137 20 Z" unicode="µ" />
<glyph horiz-adv-x="700" d="M 492 340 L 392 340 L 316 -200 L 216 -200 L 292 340 C 232 340 180 354 138 384 C 95 414 79 465 89 537 L 97 589 C 107 662 137 715 188 749 C 239 783 295 800 355 800 L 656 800 L 516 -200 L 416 -200 L 492 340 Z" unicode="¶" />
<glyph horiz-adv-x="700" d="M 336 290 C 302 290 276 297 258 312 C 239 327 232 351 237 384 L 241 412 C 245 444 259 468 282 484 C 304 500 332 508 366 508 C 399 508 425 500 443 484 C 461 468 468 444 464 412 L 460 384 C 455 351 441 327 419 312 C 396 297 368 290 336 290 Z" unicode="·" />
<glyph horiz-adv-x="700" d="M 264 0 L 290 42 C 318 36 344 24 368 4 C 392 -15 401 -47 395 -91 C 389 -134 369 -166 337 -186 C 304 -206 269 -216 232 -216 C 188 -216 153 -207 128 -191 C 102 -175 91 -148 94 -110 L 183 -100 C 182 -112 186 -121 194 -126 C 202 -131 217 -134 238 -134 C 258 -134 273 -129 285 -121 C 297 -113 304 -97 307 -75 C 310 -52 308 -35 302 -24 C 295 -13 282 -5 264 0 Z" unicode="¸" />
<glyph horiz-adv-x="700" d="M 187 304 L 197 377 L 333 377 L 378 695 L 363 695 C 351 668 332 647 306 631 C 280 615 252 606 222 606 L 227 681 C 258 682 290 692 323 711 C 356 730 380 760 394 800 L 483 800 L 424 377 L 548 377 L 538 304 L 187 304 Z" unicode="¹" />
<glyph horiz-adv-x="700" d="M 339 321 C 275 321 225 336 190 366 C 154 396 141 443 150 506 L 166 620 C 175 684 202 731 246 763 C 290 794 344 810 408 810 C 472 810 521 794 556 763 C 591 731 604 684 595 620 L 579 506 C 570 443 544 396 500 366 C 456 336 403 321 339 321 Z M 350 398 C 392 398 425 406 449 423 C 473 440 487 468 493 506 L 509 620 C 514 658 507 686 489 704 C 470 722 439 732 397 732 C 354 732 320 722 296 704 C 272 686 257 658 252 620 L 236 506 C 230 468 237 440 257 423 C 276 406 307 398 350 398 Z" unicode="º" />
<glyph horiz-adv-x="700" d="M 28 100 L 41 195 L 265 350 L 85 505 L 98 600 L 330 400 L 316 300 L 28 100 Z M 328 100 L 341 195 L 565 350 L 385 505 L 398 600 L 630 400 L 616 300 L 328 100 Z" unicode="»" />
<glyph horiz-adv-x="700" d="M 182 410 L 192 483 L 328 483 L 359 701 L 344 701 C 338 687 330 675 320 665 C 310 654 300 645 288 637 C 274 629 260 622 246 618 C 232 614 217 612 203 612 L 208 687 C 224 687 241 690 258 695 C 274 700 290 708 306 718 C 321 727 335 739 347 754 C 359 769 368 786 375 806 L 464 806 L 419 483 L 543 483 L 533 410 L 182 410 Z M -21 250 L -7 350 L 308 330 L 300 270 L -21 250 Z M 378 270 L 386 330 L 693 350 L 679 250 L 378 270 Z M 510 -114 L 417 -114 L 403 -210 L 312 -210 L 326 -114 L 72 -114 L 82 -44 L 344 216 L 463 216 L 427 -44 L 520 -44 L 510 -114 Z M 161 -44 L 336 -44 L 364 154 L 161 -44 Z" unicode="¼" />
<glyph horiz-adv-x="700" d="M 182 410 L 192 483 L 328 483 L 359 701 L 344 701 C 338 687 330 675 320 665 C 310 654 300 645 288 637 C 274 629 260 622 246 618 C 232 614 217 612 203 612 L 208 687 C 224 687 241 690 258 695 C 274 700 290 708 306 718 C 321 727 335 739 347 754 C 359 769 368 786 375 806 L 464 806 L 419 483 L 543 483 L 533 410 L 182 410 Z M -21 250 L -7 350 L 308 330 L 300 270 L -21 250 Z M 378 270 L 386 330 L 693 350 L 679 250 L 378 270 Z M 64 -210 L 76 -126 C 78 -110 83 -95 89 -82 C 95 -68 103 -56 115 -45 C 125 -34 139 -25 155 -17 C 171 -9 189 -4 211 0 L 337 25 C 349 27 360 30 368 33 C 376 35 383 38 389 42 C 395 46 399 50 402 55 C 405 60 407 66 408 74 L 411 93 C 412 101 411 108 409 114 C 406 120 401 125 395 129 C 387 133 377 137 364 139 C 351 141 334 142 314 142 C 293 142 276 140 263 138 C 249 135 239 131 231 126 C 223 120 216 113 212 104 C 208 95 204 84 201 70 L 111 77 C 115 100 122 120 132 137 C 142 153 155 167 171 179 C 187 189 207 197 233 203 C 258 209 288 212 324 212 C 358 212 388 209 412 204 C 436 198 455 191 469 181 C 483 171 492 159 497 145 C 502 131 503 114 501 96 L 497 62 C 494 46 489 33 482 21 C 475 9 466 -1 456 -9 C 444 -17 431 -24 417 -30 C 403 -35 386 -40 368 -44 L 242 -69 C 230 -71 220 -74 212 -76 C 204 -78 197 -82 191 -87 C 184 -91 178 -98 174 -106 C 170 -114 167 -124 166 -137 L 476 -137 L 465 -210 L 64 -210 Z" unicode="½" />
<glyph horiz-adv-x="700" d="M 349 404 C 312 404 281 406 257 411 C 232 416 212 424 198 435 C 183 445 173 457 168 473 C 162 489 160 507 162 529 L 253 535 C 253 523 254 513 256 506 C 258 498 263 492 271 488 C 278 483 289 480 303 478 C 317 476 335 475 359 475 C 381 475 400 475 414 477 C 428 479 440 482 450 486 C 458 489 465 493 469 498 C 473 503 475 509 477 517 L 479 533 C 479 540 478 546 476 551 C 474 556 469 561 461 565 C 453 568 442 570 428 572 C 414 574 397 575 375 575 L 323 575 L 333 647 L 385 647 C 403 647 419 647 431 649 C 443 650 454 652 462 656 C 470 659 477 663 481 669 C 485 675 487 682 489 691 L 492 711 C 492 716 491 721 487 725 C 483 729 476 732 467 735 C 459 737 448 738 436 739 C 423 740 408 741 392 741 C 375 741 361 740 349 738 C 337 736 327 734 319 730 C 311 726 304 721 299 715 C 294 709 290 701 288 692 L 198 698 C 202 718 209 736 219 750 C 229 764 242 776 259 786 C 275 794 295 801 319 805 C 343 809 370 812 402 812 C 431 812 457 810 480 807 C 503 804 523 799 539 792 C 555 784 567 774 575 762 C 583 750 585 735 583 717 L 581 701 C 579 689 575 679 569 670 C 563 660 556 652 547 646 C 537 639 527 634 515 630 C 503 626 489 623 475 622 L 473 604 C 489 602 503 600 515 596 C 527 592 538 586 547 580 C 555 574 561 566 565 557 C 569 548 570 539 569 529 L 567 515 C 564 495 558 479 548 465 C 538 451 524 439 507 431 C 489 421 466 414 440 410 C 414 406 383 404 349 404 Z M -21 250 L -7 350 L 308 330 L 300 270 L -21 250 Z M 378 270 L 386 330 L 693 350 L 679 250 L 378 270 Z M 510 -114 L 417 -114 L 403 -210 L 312 -210 L 326 -114 L 72 -114 L 82 -44 L 344 216 L 463 216 L 427 -44 L 520 -44 L 510 -114 Z M 161 -44 L 336 -44 L 364 154 L 161 -44 Z" unicode="¾" />
<glyph horiz-adv-x="700" d="M 453 810 C 486 810 509 803 523 789 C 536 775 541 754 537 726 L 533 698 C 529 668 518 647 501 633 C 483 619 458 612 425 612 C 391 612 368 619 354 633 C 340 647 336 668 340 698 L 344 726 C 348 754 359 775 377 789 C 395 803 420 810 453 810 Z M 442 487 L 451 406 C 332 387 252 366 210 343 C 168 319 144 288 139 248 L 135 218 C 129 178 136 145 156 119 C 176 93 225 80 305 80 C 389 80 444 92 470 118 C 496 143 515 187 529 251 L 628 241 C 610 147 577 82 529 45 C 481 8 403 -10 294 -10 C 184 -10 111 10 75 52 C 38 94 24 145 33 206 L 39 252 C 49 325 87 377 151 409 C 215 441 312 467 442 487 Z" unicode="¿" />
<glyph horiz-adv-x="700" d="M 448 320 L 390 687 L 227 320 L 448 320 Z M 499 0 L 462 230 L 187 230 L 86 0 L -16 0 L 354 800 L 459 800 L 605 0 L 499 0 Z M 418 900 L 251 1100 L 401 1100 L 509 900 L 418 900 Z" unicode="À" />
<glyph horiz-adv-x="700" d="M 448 320 L 390 687 L 227 320 L 448 320 Z M 499 0 L 462 230 L 187 230 L 86 0 L -16 0 L 354 800 L 459 800 L 605 0 L 499 0 Z M 303 900 L 467 1100 L 617 1100 L 394 900 L 303 900 Z" unicode="Á" />
<glyph horiz-adv-x="700" d="M 448 320 L 390 687 L 227 320 L 448 320 Z M 499 0 L 462 230 L 187 230 L 86 0 L -16 0 L 354 800 L 459 800 L 605 0 L 499 0 Z M 245 904 L 216 968 L 411 1117 L 483 1117 L 638 968 L 591 904 L 433 1020 L 245 904 Z" unicode="Â" />
<glyph horiz-adv-x="700" d="M 448 320 L 390 687 L 227 320 L 448 320 Z M 499 0 L 462 230 L 187 230 L 86 0 L -16 0 L 354 800 L 459 800 L 605 0 L 499 0 Z M 498 910 C 475 910 457 916 443 928 C 429 940 417 953 407 968 C 397 982 387 995 379 1007 C 370 1019 360 1025 348 1025 C 335 1025 323 1018 312 1006 C 301 994 293 969 289 931 L 287 920 L 210 920 L 212 935 C 219 985 236 1026 264 1060 C 291 1093 326 1110 368 1110 C 393 1110 413 1104 428 1092 C 442 1080 454 1067 464 1053 C 473 1038 481 1025 489 1013 C 497 1001 506 995 518 995 C 530 995 542 1001 553 1013 C 563 1025 571 1051 577 1089 L 578 1100 L 655 1100 L 653 1085 C 646 1034 629 992 602 959 C 574 926 540 910 498 910 Z" unicode="Ã" />
<glyph horiz-adv-x="700" d="M 448 320 L 390 687 L 227 320 L 448 320 Z M 499 0 L 462 230 L 187 230 L 86 0 L -16 0 L 354 800 L 459 800 L 605 0 L 499 0 Z M 304 910 C 284 910 269 914 258 922 C 247 930 243 945 247 967 L 248 974 C 251 996 259 1012 272 1020 C 285 1028 301 1033 321 1033 C 340 1033 355 1028 366 1020 C 377 1012 381 996 378 974 L 377 967 C 373 945 365 930 352 922 C 338 914 322 910 304 910 Z M 534 910 C 514 910 499 914 488 922 C 477 930 473 945 477 967 L 478 974 C 481 996 489 1012 502 1020 C 515 1028 531 1033 551 1033 C 570 1033 585 1028 596 1020 C 607 1012 611 996 608 974 L 607 967 C 603 945 595 930 582 922 C 568 914 552 910 534 910 Z" unicode="Ä" />
<glyph horiz-adv-x="700" d="M 448 320 L 390 687 L 227 320 L 448 320 Z M 499 0 L 462 230 L 187 230 L 86 0 L -16 0 L 354 800 L 459 800 L 605 0 L 499 0 Z M 415 885 C 367 885 330 896 304 920 C 278 944 268 980 276 1030 L 280 1062 C 287 1112 307 1149 340 1173 C 372 1197 413 1210 461 1210 C 509 1210 546 1197 572 1173 C 598 1149 607 1112 600 1062 L 596 1030 C 588 980 568 944 536 920 C 503 896 463 885 415 885 Z M 425 956 C 451 956 472 961 488 973 C 504 984 514 1003 518 1030 L 522 1062 C 526 1088 521 1108 509 1120 C 497 1132 477 1139 451 1139 C 423 1139 402 1132 387 1120 C 371 1108 362 1088 358 1062 L 354 1030 C 350 1003 354 984 366 973 C 378 961 397 956 425 956 Z" unicode="Å" />
<glyph horiz-adv-x="700" d="M 341 720 L 164 310 L 348 310 L 405 720 L 341 720 Z M 336 230 L 129 230 L 30 0 L -56 0 L 299 800 L 746 800 L 735 720 L 495 720 L 460 470 L 690 470 L 679 390 L 449 390 L 405 80 L 645 80 L 634 0 L 304 0 L 336 230 Z" unicode="Æ" />
<glyph horiz-adv-x="700" d="M 303 -10 C 209 -10 143 13 103 61 C 63 109 49 181 63 277 L 97 519 C 110 616 143 689 197 737 C 251 785 325 810 419 810 C 511 810 576 788 614 745 C 652 702 668 633 660 539 L 558 529 C 562 601 553 650 531 678 C 509 706 467 720 405 720 C 339 720 290 704 259 674 C 227 644 207 592 197 519 L 163 277 C 153 205 159 154 182 124 C 204 94 249 80 315 80 C 377 80 422 93 452 120 C 482 147 505 196 522 267 L 620 257 C 601 163 567 95 517 53 C 467 11 395 -10 303 -10 Z M 274 0 L 300 42 C 328 36 354 24 378 4 C 402 -15 411 -47 405 -91 C 399 -134 379 -166 347 -186 C 314 -206 279 -216 242 -216 C 198 -216 163 -207 138 -191 C 112 -175 101 -148 104 -110 L 193 -100 C 192 -112 196 -121 204 -126 C 212 -131 227 -134 248 -134 C 268 -134 283 -129 295 -121 C 307 -113 314 -97 317 -75 C 320 -52 318 -35 312 -24 C 305 -13 292 -5 274 0 Z" unicode="Ç" />
<glyph horiz-adv-x="700" d="M 44 0 L 156 800 L 676 800 L 664 710 L 244 710 L 211 480 L 581 480 L 569 390 L 199 390 L 157 90 L 577 90 L 564 0 L 44 0 Z M 427 900 L 260 1100 L 410 1100 L 518 900 L 427 900 Z" unicode="È" />
<glyph horiz-adv-x="700" d="M 44 0 L 156 800 L 676 800 L 664 710 L 244 710 L 211 480 L 581 480 L 569 390 L 199 390 L 157 90 L 577 90 L 564 0 L 44 0 Z M 332 900 L 496 1100 L 646 1100 L 423 900 L 332 900 Z" unicode="É" />
<glyph horiz-adv-x="700" d="M 44 0 L 156 800 L 676 800 L 664 710 L 244 710 L 211 480 L 581 480 L 569 390 L 199 390 L 157 90 L 577 90 L 564 0 L 44 0 Z M 264 904 L 235 968 L 430 1117 L 502 1117 L 657 968 L 610 904 L 452 1020 L 264 904 Z" unicode="Ê" />
<glyph horiz-adv-x="700" d="M 44 0 L 156 800 L 676 800 L 664 710 L 244 710 L 211 480 L 581 480 L 569 390 L 199 390 L 157 90 L 577 90 L 564 0 L 44 0 Z M 323 910 C 303 910 288 914 277 922 C 266 930 262 945 266 967 L 267 974 C 270 996 278 1012 291 1020 C 304 1028 320 1033 340 1033 C 359 1033 374 1028 385 1020 C 396 1012 400 996 397 974 L 396 967 C 392 945 384 930 371 922 C 357 914 341 910 323 910 Z M 553 910 C 533 910 518 914 507 922 C 496 930 492 945 496 967 L 497 974 C 500 996 508 1012 521 1020 C 534 1028 550 1033 570 1033 C 589 1033 604 1028 615 1020 C 626 1012 630 996 627 974 L 626 967 C 622 945 614 930 601 922 C 587 914 571 910 553 910 Z" unicode="Ë" />
<glyph horiz-adv-x="700" d="M 44 0 L 57 90 L 257 90 L 344 710 L 144 710 L 156 800 L 656 800 L 644 710 L 444 710 L 357 90 L 557 90 L 544 0 L 44 0 Z M 417 900 L 250 1100 L 400 1100 L 508 900 L 417 900 Z" unicode="Ì" />
<glyph horiz-adv-x="700" d="M 44 0 L 57 90 L 257 90 L 344 710 L 144 710 L 156 800 L 656 800 L 644 710 L 444 710 L 357 90 L 557 90 L 544 0 L 44 0 Z M 302 900 L 466 1100 L 616 1100 L 393 900 L 302 900 Z" unicode="Í" />
<glyph horiz-adv-x="700" d="M 44 0 L 57 90 L 257 90 L 344 710 L 144 710 L 156 800 L 656 800 L 644 710 L 444 710 L 357 90 L 557 90 L 544 0 L 44 0 Z M 244 904 L 215 968 L 410 1117 L 482 1117 L 637 968 L 590 904 L 432 1020 L 244 904 Z" unicode="Î" />
<glyph horiz-adv-x="700" d="M 44 0 L 57 90 L 257 90 L 344 710 L 144 710 L 156 800 L 656 800 L 644 710 L 444 710 L 357 90 L 557 90 L 544 0 L 44 0 Z M 303 910 C 283 910 268 914 257 922 C 246 930 242 945 246 967 L 247 974 C 250 996 258 1012 271 1020 C 284 1028 300 1033 320 1033 C 339 1033 354 1028 365 1020 C 376 1012 380 996 377 974 L 376 967 C 372 945 364 930 351 922 C 337 914 321 910 303 910 Z M 533 910 C 513 910 498 914 487 922 C 476 930 472 945 476 967 L 477 974 C 480 996 488 1012 501 1020 C 514 1028 530 1033 550 1033 C 569 1033 584 1028 595 1020 C 606 1012 610 996 607 974 L 606 967 C 602 945 594 930 581 922 C 567 914 551 910 533 910 Z" unicode="Ï" />
<glyph horiz-adv-x="700" d="M 44 0 L 100 395 L 0 395 L 12 485 L 112 485 L 156 800 L 377 800 C 470 800 539 773 585 720 C 631 667 648 597 636 509 L 604 287 C 592 199 555 130 495 78 C 434 26 357 0 264 0 L 44 0 Z M 157 90 L 277 90 C 344 90 397 108 435 144 C 473 180 496 228 504 287 L 536 509 C 544 567 534 615 506 653 C 478 691 431 710 364 710 L 244 710 L 212 485 L 362 485 L 350 395 L 200 395 L 157 90 Z" unicode="Ð" />
<glyph horiz-adv-x="700" d="M 401 0 L 229 674 L 134 0 L 44 0 L 156 800 L 293 800 L 470 111 L 566 800 L 656 800 L 544 0 L 401 0 Z M 517 910 C 494 910 476 916 462 928 C 448 940 436 953 426 968 C 416 982 406 995 398 1007 C 389 1019 379 1025 367 1025 C 354 1025 342 1018 331 1006 C 320 994 312 969 308 931 L 306 920 L 229 920 L 231 935 C 238 985 255 1026 283 1060 C 310 1093 345 1110 387 1110 C 412 1110 432 1104 447 1092 C 461 1080 473 1067 483 1053 C 492 1038 500 1025 508 1013 C 516 1001 525 995 537 995 C 549 995 561 1001 572 1013 C 582 1025 590 1051 596 1089 L 597 1100 L 674 1100 L 672 1085 C 665 1034 648 992 621 959 C 593 926 559 910 517 910 Z" unicode="Ñ" />
<glyph horiz-adv-x="700" d="M 293 -10 C 205 -10 141 14 102 63 C 62 112 49 183 63 277 L 97 519 C 110 613 143 685 197 735 C 250 785 321 810 409 810 C 496 810 559 785 598 735 C 637 685 650 613 637 519 L 603 277 C 589 183 556 112 504 63 C 451 14 381 -10 293 -10 Z M 305 80 C 366 80 412 95 442 125 C 472 155 493 205 503 277 L 537 519 C 547 591 541 643 519 674 C 497 704 456 720 395 720 C 333 720 287 704 257 674 C 227 643 207 591 197 519 L 163 277 C 153 205 158 155 180 125 C 202 95 243 80 305 80 Z M 417 900 L 250 1100 L 400 1100 L 508 900 L 417 900 Z" unicode="Ò" />
<glyph horiz-adv-x="700" d="M 293 -10 C 205 -10 141 14 102 63 C 62 112 49 183 63 277 L 97 519 C 110 613 143 685 197 735 C 250 785 321 810 409 810 C 496 810 559 785 598 735 C 637 685 650 613 637 519 L 603 277 C 589 183 556 112 504 63 C 451 14 381 -10 293 -10 Z M 305 80 C 366 80 412 95 442 125 C 472 155 493 205 503 277 L 537 519 C 547 591 541 643 519 674 C 497 704 456 720 395 720 C 333 720 287 704 257 674 C 227 643 207 591 197 519 L 163 277 C 153 205 158 155 180 125 C 202 95 243 80 305 80 Z M 342 900 L 506 1100 L 656 1100 L 433 900 L 342 900 Z" unicode="Ó" />
<glyph horiz-adv-x="700" d="M 293 -10 C 205 -10 141 14 102 63 C 62 112 49 183 63 277 L 97 519 C 110 613 143 685 197 735 C 250 785 321 810 409 810 C 496 810 559 785 598 735 C 637 685 650 613 637 519 L 603 277 C 589 183 556 112 504 63 C 451 14 381 -10 293 -10 Z M 305 80 C 366 80 412 95 442 125 C 472 155 493 205 503 277 L 537 519 C 547 591 541 643 519 674 C 497 704 456 720 395 720 C 333 720 287 704 257 674 C 227 643 207 591 197 519 L 163 277 C 153 205 158 155 180 125 C 202 95 243 80 305 80 Z M 244 904 L 215 968 L 410 1117 L 482 1117 L 637 968 L 590 904 L 432 1020 L 244 904 Z" unicode="Ô" />
<glyph horiz-adv-x="700" d="M 293 -10 C 205 -10 141 14 102 63 C 62 112 49 183 63 277 L 97 519 C 110 613 143 685 197 735 C 250 785 321 810 409 810 C 496 810 559 785 598 735 C 637 685 650 613 637 519 L 603 277 C 589 183 556 112 504 63 C 451 14 381 -10 293 -10 Z M 305 80 C 366 80 412 95 442 125 C 472 155 493 205 503 277 L 537 519 C 547 591 541 643 519 674 C 497 704 456 720 395 720 C 333 720 287 704 257 674 C 227 643 207 591 197 519 L 163 277 C 153 205 158 155 180 125 C 202 95 243 80 305 80 Z M 497 910 C 474 910 456 916 442 928 C 428 940 416 953 406 968 C 396 982 386 995 378 1007 C 369 1019 359 1025 347 1025 C 334 1025 322 1018 311 1006 C 300 994 292 969 288 931 L 286 920 L 209 920 L 211 935 C 218 985 235 1026 263 1060 C 290 1093 325 1110 367 1110 C 392 1110 412 1104 427 1092 C 441 1080 453 1067 463 1053 C 472 1038 480 1025 488 1013 C 496 1001 505 995 517 995 C 529 995 541 1001 552 1013 C 562 1025 570 1051 576 1089 L 577 1100 L 654 1100 L 652 1085 C 645 1034 628 992 601 959 C 573 926 539 910 497 910 Z" unicode="Õ" />
<glyph horiz-adv-x="700" d="M 293 -10 C 205 -10 141 14 102 63 C 62 112 49 183 63 277 L 97 519 C 110 613 143 685 197 735 C 250 785 321 810 409 810 C 496 810 559 785 598 735 C 637 685 650 613 637 519 L 603 277 C 589 183 556 112 504 63 C 451 14 381 -10 293 -10 Z M 305 80 C 366 80 412 95 442 125 C 472 155 493 205 503 277 L 537 519 C 547 591 541 643 519 674 C 497 704 456 720 395 720 C 333 720 287 704 257 674 C 227 643 207 591 197 519 L 163 277 C 153 205 158 155 180 125 C 202 95 243 80 305 80 Z M 303 910 C 283 910 268 914 257 922 C 246 930 242 945 246 967 L 247 974 C 250 996 258 1012 271 1020 C 284 1028 300 1033 320 1033 C 339 1033 354 1028 365 1020 C 376 1012 380 996 377 974 L 376 967 C 372 945 364 930 351 922 C 337 914 321 910 303 910 Z M 533 910 C 513 910 498 914 487 922 C 476 930 472 945 476 967 L 477 974 C 480 996 488 1012 501 1020 C 514 1028 530 1033 550 1033 C 569 1033 584 1028 595 1020 C 606 1012 610 996 607 974 L 606 967 C 602 945 594 930 581 922 C 567 914 551 910 533 910 Z" unicode="Ö" />
<glyph horiz-adv-x="700" d="M 84 46 L 30 109 L 280 350 L 98 591 L 170 654 L 352 413 L 601 649 L 655 586 L 406 350 L 589 114 L 517 51 L 334 287 L 84 46 Z" unicode="×" />
<glyph horiz-adv-x="700" d="M 166 152 L 468 711 C 457 713 446 715 434 717 C 422 719 409 720 395 720 C 333 720 287 704 257 674 C 227 644 207 592 197 519 L 163 277 C 159 250 157 226 158 206 C 158 185 161 167 166 152 Z M 305 80 C 367 80 413 95 443 125 C 473 155 493 205 503 277 L 537 519 C 541 553 543 582 541 607 C 539 631 534 652 525 668 L 216 95 C 227 90 240 86 255 84 C 269 81 286 80 305 80 Z M 293 -10 C 271 -10 250 -8 231 -5 C 212 -2 195 2 179 9 L 120 -100 L 20 -100 L 105 59 C 84 83 70 113 63 150 C 56 186 56 229 63 277 L 97 519 C 110 613 143 685 197 735 C 250 785 321 810 409 810 C 427 810 444 809 460 807 C 476 805 491 801 505 797 L 560 900 L 660 900 L 581 754 C 607 730 624 698 634 659 C 643 619 644 573 637 519 L 603 277 C 589 183 556 112 503 63 C 450 14 380 -10 293 -10 Z" unicode="Ø" />
<glyph horiz-adv-x="700" d="M 293 -10 C 209 -10 150 13 115 61 C 80 109 69 181 83 277 L 156 800 L 256 800 L 183 277 C 173 205 177 155 196 125 C 214 95 251 80 305 80 C 359 80 399 95 427 125 C 454 155 473 205 483 277 L 556 800 L 656 800 L 583 277 C 569 181 538 109 490 61 C 442 13 376 -10 293 -10 Z M 417 900 L 250 1100 L 400 1100 L 508 900 L 417 900 Z" unicode="Ù" />
<glyph horiz-adv-x="700" d="M 293 -10 C 209 -10 150 13 115 61 C 80 109 69 181 83 277 L 156 800 L 256 800 L 183 277 C 173 205 177 155 196 125 C 214 95 251 80 305 80 C 359 80 399 95 427 125 C 454 155 473 205 483 277 L 556 800 L 656 800 L 583 277 C 569 181 538 109 490 61 C 442 13 376 -10 293 -10 Z M 302 900 L 466 1100 L 616 1100 L 393 900 L 302 900 Z" unicode="Ú" />
<glyph horiz-adv-x="700" d="M 293 -10 C 209 -10 150 13 115 61 C 80 109 69 181 83 277 L 156 800 L 256 800 L 183 277 C 173 205 177 155 196 125 C 214 95 251 80 305 80 C 359 80 399 95 427 125 C 454 155 473 205 483 277 L 556 800 L 656 800 L 583 277 C 569 181 538 109 490 61 C 442 13 376 -10 293 -10 Z M 244 904 L 215 968 L 410 1117 L 482 1117 L 637 968 L 590 904 L 432 1020 L 244 904 Z" unicode="Û" />
<glyph horiz-adv-x="700" d="M 293 -10 C 209 -10 150 13 115 61 C 80 109 69 181 83 277 L 156 800 L 256 800 L 183 277 C 173 205 177 155 196 125 C 214 95 251 80 305 80 C 359 80 399 95 427 125 C 454 155 473 205 483 277 L 556 800 L 656 800 L 583 277 C 569 181 538 109 490 61 C 442 13 376 -10 293 -10 Z M 303 910 C 283 910 268 914 257 922 C 246 930 242 945 246 967 L 247 974 C 250 996 258 1012 271 1020 C 284 1028 300 1033 320 1033 C 339 1033 354 1028 365 1020 C 376 1012 380 996 377 974 L 376 967 C 372 945 364 930 351 922 C 337 914 321 910 303 910 Z M 533 910 C 513 910 498 914 487 922 C 476 930 472 945 476 967 L 477 974 C 480 996 488 1012 501 1020 C 514 1028 530 1033 550 1033 C 569 1033 584 1028 595 1020 C 606 1012 610 996 607 974 L 606 967 C 602 945 594 930 581 922 C 567 914 551 910 533 910 Z" unicode="Ü" />
<glyph horiz-adv-x="700" d="M 344 0 L 244 0 L 286 300 L 70 800 L 182 800 L 355 390 L 631 800 L 741 800 L 386 300 L 344 0 Z M 302 900 L 466 1100 L 616 1100 L 393 900 L 302 900 Z" unicode="Ý" />
<glyph horiz-adv-x="700" d="M 44 0 L 156 800 L 256 800 L 238 670 L 419 670 C 501 670 561 652 598 616 C 634 580 648 528 639 459 L 626 367 C 616 295 587 241 540 205 C 492 168 427 150 345 150 L 165 150 L 144 0 L 44 0 Z M 177 238 L 357 238 C 411 238 451 247 477 267 C 503 287 519 320 526 367 L 539 459 C 545 503 537 534 517 552 C 497 570 460 580 406 580 L 226 580 L 177 238 Z" unicode="Þ" />
<glyph horiz-adv-x="700" d="M 400 -6 C 358 -6 318 1 281 16 C 243 31 213 53 191 81 L 257 160 C 277 139 301 121 329 106 C 357 91 388 84 422 84 C 451 84 478 89 504 101 C 529 113 544 134 548 164 C 552 195 545 217 526 229 C 506 241 475 251 432 259 C 386 267 342 282 300 302 C 258 322 241 365 250 430 C 258 482 285 525 331 557 C 377 589 431 606 491 607 C 490 645 476 672 450 688 C 423 704 389 712 349 712 C 309 712 272 700 237 678 C 202 655 181 617 173 563 L 66 -200 L -34 -200 L 75 576 C 86 654 120 713 177 751 C 234 789 296 808 364 808 C 441 808 500 786 541 743 C 581 700 597 645 588 578 L 582 532 C 516 532 463 525 421 513 C 379 501 356 477 351 441 C 347 410 357 389 382 379 C 407 369 444 359 492 351 C 535 343 574 327 610 303 C 645 279 658 235 649 173 C 640 109 611 64 561 36 C 511 8 458 -6 400 -6 Z" unicode="ß" />
<glyph horiz-adv-x="700" d="M 233 76 C 267 76 300 82 331 94 C 362 106 390 128 416 159 L 430 255 L 250 255 C 221 255 196 248 175 235 C 154 222 141 199 137 167 C 133 138 138 116 152 100 C 166 84 193 76 233 76 Z M 208 -10 C 157 -10 114 3 78 30 C 42 57 28 101 37 161 C 44 213 67 255 105 285 C 143 315 186 330 232 330 L 440 330 L 452 416 C 456 448 449 473 431 492 C 412 510 381 520 338 520 C 294 520 260 513 237 500 C 213 487 192 458 173 414 L 89 438 C 108 494 139 537 183 566 C 227 595 282 610 349 610 C 415 610 467 595 507 565 C 547 535 562 490 554 428 L 516 160 C 511 124 518 101 537 92 C 555 83 585 82 627 89 L 614 -3 C 571 -9 532 -6 498 5 C 463 17 448 48 452 100 L 432 100 C 409 69 377 43 337 22 C 297 0 254 -10 208 -10 Z M 373 700 L 206 900 L 356 900 L 464 700 L 373 700 Z" unicode="à" />
<glyph horiz-adv-x="700" d="M 233 76 C 267 76 300 82 331 94 C 362 106 390 128 416 159 L 430 255 L 250 255 C 221 255 196 248 175 235 C 154 222 141 199 137 167 C 133 138 138 116 152 100 C 166 84 193 76 233 76 Z M 208 -10 C 157 -10 114 3 78 30 C 42 57 28 101 37 161 C 44 213 67 255 105 285 C 143 315 186 330 232 330 L 440 330 L 452 416 C 456 448 449 473 431 492 C 412 510 381 520 338 520 C 294 520 260 513 237 500 C 213 487 192 458 173 414 L 89 438 C 108 494 139 537 183 566 C 227 595 282 610 349 610 C 415 610 467 595 507 565 C 547 535 562 490 554 428 L 516 160 C 511 124 518 101 537 92 C 555 83 585 82 627 89 L 614 -3 C 571 -9 532 -6 498 5 C 463 17 448 48 452 100 L 432 100 C 409 69 377 43 337 22 C 297 0 254 -10 208 -10 Z M 258 700 L 422 900 L 572 900 L 349 700 L 258 700 Z" unicode="á" />
<glyph horiz-adv-x="700" d="M 233 76 C 267 76 300 82 331 94 C 362 106 390 128 416 159 L 430 255 L 250 255 C 221 255 196 248 175 235 C 154 222 141 199 137 167 C 133 138 138 116 152 100 C 166 84 193 76 233 76 Z M 208 -10 C 157 -10 114 3 78 30 C 42 57 28 101 37 161 C 44 213 67 255 105 285 C 143 315 186 330 232 330 L 440 330 L 452 416 C 456 448 449 473 431 492 C 412 510 381 520 338 520 C 294 520 260 513 237 500 C 213 487 192 458 173 414 L 89 438 C 108 494 139 537 183 566 C 227 595 282 610 349 610 C 415 610 467 595 507 565 C 547 535 562 490 554 428 L 516 160 C 511 124 518 101 537 92 C 555 83 585 82 627 89 L 614 -3 C 571 -9 532 -6 498 5 C 463 17 448 48 452 100 L 432 100 C 409 69 377 43 337 22 C 297 0 254 -10 208 -10 Z M 210 704 L 181 768 L 376 917 L 448 917 L 603 768 L 556 704 L 398 820 L 210 704 Z" unicode="â" />
<glyph horiz-adv-x="700" d="M 233 76 C 267 76 300 82 331 94 C 362 106 390 128 416 159 L 430 255 L 250 255 C 221 255 196 248 175 235 C 154 222 141 199 137 167 C 133 138 138 116 152 100 C 166 84 193 76 233 76 Z M 208 -10 C 157 -10 114 3 78 30 C 42 57 28 101 37 161 C 44 213 67 255 105 285 C 143 315 186 330 232 330 L 440 330 L 452 416 C 456 448 449 473 431 492 C 412 510 381 520 338 520 C 294 520 260 513 237 500 C 213 487 192 458 173 414 L 89 438 C 108 494 139 537 183 566 C 227 595 282 610 349 610 C 415 610 467 595 507 565 C 547 535 562 490 554 428 L 516 160 C 511 124 518 101 537 92 C 555 83 585 82 627 89 L 614 -3 C 571 -9 532 -6 498 5 C 463 17 448 48 452 100 L 432 100 C 409 69 377 43 337 22 C 297 0 254 -10 208 -10 Z M 453 710 C 430 710 412 716 398 728 C 384 740 372 753 362 768 C 352 782 342 795 334 807 C 325 819 315 825 303 825 C 290 825 278 818 267 806 C 256 794 248 769 244 731 L 242 720 L 165 720 L 167 735 C 174 785 191 826 219 860 C 246 893 281 910 323 910 C 348 910 368 904 383 892 C 397 880 409 867 419 853 C 428 838 436 825 444 813 C 452 801 461 795 473 795 C 485 795 497 801 508 813 C 518 825 526 851 532 889 L 533 900 L 610 900 L 608 885 C 601 834 584 792 557 759 C 529 726 495 710 453 710 Z" unicode="ã" />
<glyph horiz-adv-x="700" d="M 233 76 C 267 76 300 82 331 94 C 362 106 390 128 416 159 L 430 255 L 250 255 C 221 255 196 248 175 235 C 154 222 141 199 137 167 C 133 138 138 116 152 100 C 166 84 193 76 233 76 Z M 208 -10 C 157 -10 114 3 78 30 C 42 57 28 101 37 161 C 44 213 67 255 105 285 C 143 315 186 330 232 330 L 440 330 L 452 416 C 456 448 449 473 431 492 C 412 510 381 520 338 520 C 294 520 260 513 237 500 C 213 487 192 458 173 414 L 89 438 C 108 494 139 537 183 566 C 227 595 282 610 349 610 C 415 610 467 595 507 565 C 547 535 562 490 554 428 L 516 160 C 511 124 518 101 537 92 C 555 83 585 82 627 89 L 614 -3 C 571 -9 532 -6 498 5 C 463 17 448 48 452 100 L 432 100 C 409 69 377 43 337 22 C 297 0 254 -10 208 -10 Z M 259 710 C 239 710 224 714 213 722 C 202 730 198 745 202 767 L 203 774 C 206 796 214 812 227 820 C 240 828 256 833 276 833 C 295 833 310 828 321 820 C 332 812 336 796 333 774 L 332 767 C 328 745 320 730 307 722 C 293 714 277 710 259 710 Z M 489 710 C 469 710 454 714 443 722 C 432 730 428 745 432 767 L 433 774 C 436 796 444 812 457 820 C 470 828 486 833 506 833 C 525 833 540 828 551 820 C 562 812 566 796 563 774 L 562 767 C 558 745 550 730 537 722 C 523 714 507 710 489 710 Z" unicode="ä" />
<glyph horiz-adv-x="700" d="M 233 76 C 267 76 300 82 331 94 C 362 106 390 128 416 159 L 430 255 L 250 255 C 221 255 196 248 175 235 C 154 222 141 199 137 167 C 133 138 138 116 152 100 C 166 84 193 76 233 76 Z M 208 -10 C 157 -10 114 3 78 30 C 42 57 28 101 37 161 C 44 213 67 255 105 285 C 143 315 186 330 232 330 L 440 330 L 452 416 C 456 448 449 473 431 492 C 412 510 381 520 338 520 C 294 520 260 513 237 500 C 213 487 192 458 173 414 L 89 438 C 108 494 139 537 183 566 C 227 595 282 610 349 610 C 415 610 467 595 507 565 C 547 535 562 490 554 428 L 516 160 C 511 124 518 101 537 92 C 555 83 585 82 627 89 L 614 -3 C 571 -9 532 -6 498 5 C 463 17 448 48 452 100 L 432 100 C 409 69 377 43 337 22 C 297 0 254 -10 208 -10 Z M 370 685 C 322 685 285 696 259 720 C 233 744 223 780 231 830 L 235 862 C 242 912 262 949 295 973 C 327 997 368 1010 416 1010 C 464 1010 501 997 527 973 C 553 949 562 912 555 862 L 551 830 C 543 780 523 744 491 720 C 458 696 418 685 370 685 Z M 380 756 C 406 756 427 761 443 773 C 459 784 469 803 473 830 L 477 862 C 481 888 476 908 464 920 C 452 932 432 939 406 939 C 378 939 357 932 342 920 C 326 908 317 888 313 862 L 309 830 C 305 803 309 784 321 773 C 333 761 352 756 380 756 Z" unicode="å" />
<glyph horiz-adv-x="700" d="M 635 144 C 621 91 598 52 568 27 C 538 2 495 -10 439 -10 C 401 -10 370 -2 346 12 C 321 26 304 49 295 80 L 279 80 C 260 54 238 32 213 15 C 188 -1 157 -10 121 -10 C 86 -10 54 3 26 30 C -1 57 -11 101 -3 161 C 4 214 25 255 61 285 C 96 315 135 330 177 330 L 300 330 L 312 416 C 317 450 313 478 300 499 C 286 519 264 530 234 530 C 206 530 185 524 171 512 C 157 500 142 474 126 434 L 51 458 C 67 506 91 543 123 570 C 155 596 198 610 254 610 C 281 610 305 604 326 593 C 346 582 362 565 373 543 C 391 565 412 582 436 593 C 460 604 487 610 516 610 C 572 610 614 593 643 560 C 671 527 681 476 671 407 L 653 280 L 373 280 L 360 182 C 354 140 357 110 370 92 C 382 74 405 65 438 65 C 470 65 494 71 509 83 C 524 95 537 118 547 152 L 635 144 Z M 392 414 L 382 345 L 572 345 L 581 405 C 587 450 583 483 571 504 C 558 524 536 535 504 535 C 473 535 448 525 429 505 C 410 485 398 455 392 414 Z M 274 139 L 291 265 L 196 265 C 168 265 145 257 125 243 C 105 229 92 203 87 167 C 83 135 85 110 94 92 C 103 74 122 66 151 66 C 173 66 194 72 214 85 C 234 98 254 116 274 139 Z" unicode="æ" />
<glyph horiz-adv-x="700" d="M 307 -10 C 219 -10 156 9 117 47 C 78 85 64 142 74 217 L 97 379 C 107 455 138 512 188 551 C 238 590 306 610 393 610 C 470 610 527 592 564 557 C 600 522 616 471 612 404 L 513 398 C 516 439 507 470 485 490 C 463 510 427 520 379 520 C 324 520 282 508 252 485 C 222 462 203 427 197 379 L 174 217 C 168 171 176 136 200 114 C 224 91 263 80 319 80 C 367 80 404 88 431 105 C 458 122 475 148 483 182 L 580 176 C 566 114 537 68 491 37 C 445 5 384 -10 307 -10 Z M 260 0 L 286 42 C 314 36 340 24 364 4 C 388 -15 397 -47 391 -91 C 385 -134 365 -166 333 -186 C 300 -206 265 -216 228 -216 C 184 -216 149 -207 124 -191 C 98 -175 87 -148 90 -110 L 179 -100 C 178 -112 182 -121 190 -126 C 198 -131 213 -134 234 -134 C 254 -134 269 -129 281 -121 C 293 -113 300 -97 303 -75 C 306 -52 304 -35 298 -24 C 291 -13 278 -5 260 0 Z" unicode="ç" />
<glyph horiz-adv-x="700" d="M 565 132 C 539 82 507 45 467 23 C 427 1 370 -10 294 -10 C 214 -10 155 9 117 47 C 78 85 64 142 75 218 L 97 379 C 108 456 139 514 191 552 C 243 590 306 610 381 610 C 456 610 513 590 553 551 C 593 512 607 452 596 372 L 583 280 L 183 280 L 174 217 C 167 167 175 130 197 108 C 219 86 255 75 305 75 C 353 75 388 81 412 95 C 436 108 455 130 471 160 L 565 132 Z M 197 379 L 194 355 L 494 355 L 496 370 C 503 424 496 463 475 488 C 453 512 418 525 368 525 C 318 525 278 513 250 489 C 222 465 204 429 197 379 Z M 394 700 L 227 900 L 377 900 L 485 700 L 394 700 Z" unicode="è" />
<glyph horiz-adv-x="700" d="M 565 132 C 539 82 507 45 467 23 C 427 1 370 -10 294 -10 C 214 -10 155 9 117 47 C 78 85 64 142 75 218 L 97 379 C 108 456 139 514 191 552 C 243 590 306 610 381 610 C 456 610 513 590 553 551 C 593 512 607 452 596 372 L 583 280 L 183 280 L 174 217 C 167 167 175 130 197 108 C 219 86 255 75 305 75 C 353 75 388 81 412 95 C 436 108 455 130 471 160 L 565 132 Z M 197 379 L 194 355 L 494 355 L 496 370 C 503 424 496 463 475 488 C 453 512 418 525 368 525 C 318 525 278 513 250 489 C 222 465 204 429 197 379 Z M 279 700 L 443 900 L 593 900 L 370 700 L 279 700 Z" unicode="é" />
<glyph horiz-adv-x="700" d="M 565 132 C 539 82 507 45 467 23 C 427 1 370 -10 294 -10 C 214 -10 155 9 117 47 C 78 85 64 142 75 218 L 97 379 C 108 456 139 514 191 552 C 243 590 306 610 381 610 C 456 610 513 590 553 551 C 593 512 607 452 596 372 L 583 280 L 183 280 L 174 217 C 167 167 175 130 197 108 C 219 86 255 75 305 75 C 353 75 388 81 412 95 C 436 108 455 130 471 160 L 565 132 Z M 197 379 L 194 355 L 494 355 L 496 370 C 503 424 496 463 475 488 C 453 512 418 525 368 525 C 318 525 278 513 250 489 C 222 465 204 429 197 379 Z M 221 704 L 192 768 L 387 917 L 459 917 L 614 768 L 567 704 L 409 820 L 221 704 Z" unicode="ê" />
<glyph horiz-adv-x="700" d="M 565 132 C 539 82 507 45 467 23 C 427 1 370 -10 294 -10 C 214 -10 155 9 117 47 C 78 85 64 142 75 218 L 97 379 C 108 456 139 514 191 552 C 243 590 306 610 381 610 C 456 610 513 590 553 551 C 593 512 607 452 596 372 L 583 280 L 183 280 L 174 217 C 167 167 175 130 197 108 C 219 86 255 75 305 75 C 353 75 388 81 412 95 C 436 108 455 130 471 160 L 565 132 Z M 197 379 L 194 355 L 494 355 L 496 370 C 503 424 496 463 475 488 C 453 512 418 525 368 525 C 318 525 278 513 250 489 C 222 465 204 429 197 379 Z M 280 710 C 260 710 245 714 234 722 C 223 730 219 745 223 767 L 224 774 C 227 796 235 812 248 820 C 261 828 277 833 297 833 C 316 833 331 828 342 820 C 353 812 357 796 354 774 L 353 767 C 349 745 341 730 328 722 C 314 714 298 710 280 710 Z M 510 710 C 490 710 475 714 464 722 C 453 730 449 745 453 767 L 454 774 C 457 796 465 812 478 820 C 491 828 507 833 527 833 C 546 833 561 828 572 820 C 583 812 587 796 584 774 L 583 767 C 579 745 571 730 558 722 C 544 714 528 710 510 710 Z" unicode="ë" />
<glyph horiz-adv-x="700" d="M 44 0 L 57 90 L 257 90 L 316 510 L 116 510 L 128 600 L 428 600 L 357 90 L 557 90 L 544 0 L 44 0 Z M 393 700 L 226 900 L 376 900 L 484 700 L 393 700 Z" unicode="ì" />
<glyph horiz-adv-x="700" d="M 44 0 L 57 90 L 257 90 L 316 510 L 116 510 L 128 600 L 428 600 L 357 90 L 557 90 L 544 0 L 44 0 Z M 278 700 L 442 900 L 592 900 L 369 700 L 278 700 Z" unicode="í" />
<glyph horiz-adv-x="700" d="M 44 0 L 57 90 L 257 90 L 316 510 L 116 510 L 128 600 L 428 600 L 357 90 L 557 90 L 544 0 L 44 0 Z M 220 704 L 191 768 L 386 917 L 458 917 L 613 768 L 566 704 L 408 820 L 220 704 Z" unicode="î" />
<glyph horiz-adv-x="700" d="M 44 0 L 57 90 L 257 90 L 316 510 L 116 510 L 128 600 L 428 600 L 357 90 L 557 90 L 544 0 L 44 0 Z M 279 710 C 259 710 244 714 233 722 C 222 730 218 745 222 767 L 223 774 C 226 796 234 812 247 820 C 260 828 276 833 296 833 C 315 833 330 828 341 820 C 352 812 356 796 353 774 L 352 767 C 348 745 340 730 327 722 C 313 714 297 710 279 710 Z M 509 710 C 489 710 474 714 463 722 C 452 730 448 745 452 767 L 453 774 C 456 796 464 812 477 820 C 490 828 506 833 526 833 C 545 833 560 828 571 820 C 582 812 586 796 583 774 L 582 767 C 578 745 570 730 557 722 C 543 714 527 710 509 710 Z" unicode="ï" />
<glyph horiz-adv-x="700" d="M 293 -10 C 218 -10 160 9 120 47 C 79 85 64 142 75 220 L 85 292 C 94 356 122 406 170 444 C 217 481 274 500 342 500 C 384 500 417 492 442 478 C 466 463 483 446 491 426 L 513 426 C 516 468 515 506 509 540 C 503 573 491 602 475 627 L 270 540 L 281 620 L 424 680 C 404 694 380 708 352 720 C 324 732 293 742 259 752 L 294 821 C 342 807 384 792 420 775 C 455 757 485 738 510 717 L 706 800 L 695 720 L 558 662 C 581 626 595 584 601 537 C 607 490 605 437 597 377 L 576 226 C 564 144 532 84 481 46 C 430 8 367 -10 293 -10 Z M 306 80 C 360 80 400 91 426 114 C 452 137 468 172 475 218 L 483 281 C 489 323 482 355 462 377 C 442 398 406 409 352 409 C 298 409 258 398 232 377 C 206 355 191 323 185 281 L 177 218 C 170 172 176 137 196 114 C 215 91 252 80 306 80 Z" unicode="ð" />
<glyph horiz-adv-x="700" d="M 44 0 L 128 600 L 228 600 L 214 500 L 244 500 C 263 534 290 560 324 580 C 358 600 396 610 436 610 C 496 610 540 591 570 555 C 599 518 609 468 601 405 L 544 0 L 444 0 L 498 385 C 504 427 498 459 481 481 C 463 503 436 515 398 515 C 368 515 336 506 303 488 C 269 470 236 444 202 410 L 144 0 L 44 0 Z M 493 710 C 470 710 452 716 438 728 C 424 740 412 753 402 768 C 392 782 382 795 374 807 C 365 819 355 825 343 825 C 330 825 318 818 307 806 C 296 794 288 769 284 731 L 282 720 L 205 720 L 207 735 C 214 785 231 826 259 860 C 286 893 321 910 363 910 C 388 910 408 904 423 892 C 437 880 449 867 459 853 C 468 838 476 825 484 813 C 492 801 501 795 513 795 C 525 795 537 801 548 813 C 558 825 566 851 572 889 L 573 900 L 650 900 L 648 885 C 641 834 624 792 597 759 C 569 726 535 710 493 710 Z" unicode="ñ" />
<glyph horiz-adv-x="700" d="M 293 -10 C 212 -10 153 9 115 48 C 77 87 64 143 74 217 L 97 379 C 107 453 137 510 186 550 C 235 590 300 610 381 610 C 461 610 519 590 557 550 C 594 510 607 453 597 379 L 574 217 C 564 143 534 87 486 48 C 438 9 373 -10 293 -10 Z M 305 80 C 355 80 395 91 423 114 C 451 136 468 171 474 217 L 497 379 C 503 427 496 462 475 485 C 453 508 417 520 367 520 C 316 520 277 508 249 485 C 221 462 203 427 197 379 L 174 217 C 168 171 175 136 197 114 C 218 91 254 80 305 80 Z M 393 700 L 226 900 L 376 900 L 484 700 L 393 700 Z" unicode="ò" />
<glyph horiz-adv-x="700" d="M 293 -10 C 212 -10 153 9 115 48 C 77 87 64 143 74 217 L 97 379 C 107 453 137 510 186 550 C 235 590 300 610 381 610 C 461 610 519 590 557 550 C 594 510 607 453 597 379 L 574 217 C 564 143 534 87 486 48 C 438 9 373 -10 293 -10 Z M 305 80 C 355 80 395 91 423 114 C 451 136 468 171 474 217 L 497 379 C 503 427 496 462 475 485 C 453 508 417 520 367 520 C 316 520 277 508 249 485 C 221 462 203 427 197 379 L 174 217 C 168 171 175 136 197 114 C 218 91 254 80 305 80 Z M 278 700 L 442 900 L 592 900 L 369 700 L 278 700 Z" unicode="ó" />
<glyph horiz-adv-x="700" d="M 293 -10 C 212 -10 153 9 115 48 C 77 87 64 143 74 217 L 97 379 C 107 453 137 510 186 550 C 235 590 300 610 381 610 C 461 610 519 590 557 550 C 594 510 607 453 597 379 L 574 217 C 564 143 534 87 486 48 C 438 9 373 -10 293 -10 Z M 305 80 C 355 80 395 91 423 114 C 451 136 468 171 474 217 L 497 379 C 503 427 496 462 475 485 C 453 508 417 520 367 520 C 316 520 277 508 249 485 C 221 462 203 427 197 379 L 174 217 C 168 171 175 136 197 114 C 218 91 254 80 305 80 Z M 220 704 L 191 768 L 386 917 L 458 917 L 613 768 L 566 704 L 408 820 L 220 704 Z" unicode="ô" />
<glyph horiz-adv-x="700" d="M 293 -10 C 212 -10 153 9 115 48 C 77 87 64 143 74 217 L 97 379 C 107 453 137 510 186 550 C 235 590 300 610 381 610 C 461 610 519 590 557 550 C 594 510 607 453 597 379 L 574 217 C 564 143 534 87 486 48 C 438 9 373 -10 293 -10 Z M 305 80 C 355 80 395 91 423 114 C 451 136 468 171 474 217 L 497 379 C 503 427 496 462 475 485 C 453 508 417 520 367 520 C 316 520 277 508 249 485 C 221 462 203 427 197 379 L 174 217 C 168 171 175 136 197 114 C 218 91 254 80 305 80 Z M 473 710 C 450 710 432 716 418 728 C 404 740 392 753 382 768 C 372 782 362 795 354 807 C 345 819 335 825 323 825 C 310 825 298 818 287 806 C 276 794 268 769 264 731 L 262 720 L 185 720 L 187 735 C 194 785 211 826 239 860 C 266 893 301 910 343 910 C 368 910 388 904 403 892 C 417 880 429 867 439 853 C 448 838 456 825 464 813 C 472 801 481 795 493 795 C 505 795 517 801 528 813 C 538 825 546 851 552 889 L 553 900 L 630 900 L 628 885 C 621 834 604 792 577 759 C 549 726 515 710 473 710 Z" unicode="õ" />
<glyph horiz-adv-x="700" d="M 293 -10 C 212 -10 153 9 115 48 C 77 87 64 143 74 217 L 97 379 C 107 453 137 510 186 550 C 235 590 300 610 381 610 C 461 610 519 590 557 550 C 594 510 607 453 597 379 L 574 217 C 564 143 534 87 486 48 C 438 9 373 -10 293 -10 Z M 305 80 C 355 80 395 91 423 114 C 451 136 468 171 474 217 L 497 379 C 503 427 496 462 475 485 C 453 508 417 520 367 520 C 316 520 277 508 249 485 C 221 462 203 427 197 379 L 174 217 C 168 171 175 136 197 114 C 218 91 254 80 305 80 Z M 279 710 C 259 710 244 714 233 722 C 222 730 218 745 222 767 L 223 774 C 226 796 234 812 247 820 C 260 828 276 833 296 833 C 315 833 330 828 341 820 C 352 812 356 796 353 774 L 352 767 C 348 745 340 730 327 722 C 313 714 297 710 279 710 Z M 509 710 C 489 710 474 714 463 722 C 452 730 448 745 452 767 L 453 774 C 456 796 464 812 477 820 C 490 828 506 833 526 833 C 545 833 560 828 571 820 C 582 812 586 796 583 774 L 582 767 C 578 745 570 730 557 722 C 543 714 527 710 509 710 Z" unicode="ö" />
<glyph horiz-adv-x="700" d="M 368 526 C 342 526 322 531 308 541 C 293 551 287 568 291 590 L 293 607 C 296 629 306 646 324 657 C 342 667 363 673 389 673 C 414 673 434 667 448 657 C 462 646 467 629 464 607 L 462 590 C 458 568 448 551 431 541 C 413 531 392 526 368 526 Z M 56 300 L 70 400 L 630 400 L 616 300 L 56 300 Z M 298 26 C 272 26 252 31 238 41 C 223 51 217 68 221 90 L 223 107 C 226 129 236 146 254 157 C 271 167 292 173 318 173 C 343 173 363 167 377 157 C 391 146 397 129 394 107 L 392 90 C 388 68 378 51 361 41 C 343 31 322 26 298 26 Z" unicode="÷" />
<glyph horiz-adv-x="700" d="M 174 217 C 171 197 171 180 173 165 C 175 149 179 136 186 126 L 432 512 C 423 514 413 516 402 518 C 391 519 379 520 367 520 C 315 520 275 508 248 486 C 221 463 204 427 197 379 L 174 217 Z M 305 80 C 357 80 396 91 424 113 C 451 135 468 169 474 217 L 497 379 C 499 399 500 416 498 432 C 496 448 492 461 486 472 L 239 88 C 248 85 258 83 269 82 C 280 80 292 80 305 80 Z M 293 -10 C 275 -10 257 -9 241 -7 C 224 -5 209 -1 195 3 L 130 -100 L 30 -100 L 122 43 C 102 61 87 85 79 114 C 70 143 68 177 74 217 L 97 379 C 108 457 139 515 191 553 C 243 591 306 610 381 610 C 399 610 416 609 432 607 C 448 605 463 601 477 597 L 542 700 L 642 700 L 550 557 C 570 538 584 514 593 484 C 601 454 603 419 597 379 L 574 217 C 563 139 532 82 481 45 C 430 8 367 -10 293 -10 Z" unicode="ø" />
<glyph horiz-adv-x="700" d="M 237 -10 C 179 -10 134 8 104 46 C 73 84 62 133 71 195 L 128 600 L 228 600 L 174 215 C 168 171 173 138 189 117 C 205 95 234 85 274 85 C 305 85 337 93 369 110 C 401 127 435 154 471 190 L 528 600 L 628 600 L 544 0 L 444 0 L 458 100 L 428 100 C 409 67 382 40 347 20 C 312 0 275 -10 237 -10 Z M 363 700 L 196 900 L 346 900 L 454 700 L 363 700 Z" unicode="ù" />
<glyph horiz-adv-x="700" d="M 237 -10 C 179 -10 134 8 104 46 C 73 84 62 133 71 195 L 128 600 L 228 600 L 174 215 C 168 171 173 138 189 117 C 205 95 234 85 274 85 C 305 85 337 93 369 110 C 401 127 435 154 471 190 L 528 600 L 628 600 L 544 0 L 444 0 L 458 100 L 428 100 C 409 67 382 40 347 20 C 312 0 275 -10 237 -10 Z M 318 700 L 482 900 L 632 900 L 409 700 L 318 700 Z" unicode="ú" />
<glyph horiz-adv-x="700" d="M 237 -10 C 179 -10 134 8 104 46 C 73 84 62 133 71 195 L 128 600 L 228 600 L 174 215 C 168 171 173 138 189 117 C 205 95 234 85 274 85 C 305 85 337 93 369 110 C 401 127 435 154 471 190 L 528 600 L 628 600 L 544 0 L 444 0 L 458 100 L 428 100 C 409 67 382 40 347 20 C 312 0 275 -10 237 -10 Z M 220 704 L 191 768 L 386 917 L 458 917 L 613 768 L 566 704 L 408 820 L 220 704 Z" unicode="û" />
<glyph horiz-adv-x="700" d="M 237 -10 C 179 -10 134 8 104 46 C 73 84 62 133 71 195 L 128 600 L 228 600 L 174 215 C 168 171 173 138 189 117 C 205 95 234 85 274 85 C 305 85 337 93 369 110 C 401 127 435 154 471 190 L 528 600 L 628 600 L 544 0 L 444 0 L 458 100 L 428 100 C 409 67 382 40 347 20 C 312 0 275 -10 237 -10 Z M 279 710 C 259 710 244 714 233 722 C 222 730 218 745 222 767 L 223 774 C 226 796 234 812 247 820 C 260 828 276 833 296 833 C 315 833 330 828 341 820 C 352 812 356 796 353 774 L 352 767 C 348 745 340 730 327 722 C 313 714 297 710 279 710 Z M 509 710 C 489 710 474 714 463 722 C 452 730 448 745 452 767 L 453 774 C 456 796 464 812 477 820 C 490 828 506 833 526 833 C 545 833 560 828 571 820 C 582 812 586 796 583 774 L 582 767 C 578 745 570 730 557 722 C 543 714 527 710 509 710 Z" unicode="ü" />
<glyph horiz-adv-x="700" d="M 87 -206 C 71 -206 55 -205 40 -203 C 25 -201 10 -198 -5 -195 L 24 -106 C 40 -110 56 -113 71 -115 C 85 -117 99 -118 112 -118 C 142 -118 171 -109 197 -92 C 223 -74 246 -47 264 -9 L 268 0 L 231 0 L 102 600 L 211 600 L 308 84 L 548 600 L 653 600 L 346 -20 C 314 -84 277 -131 234 -161 C 190 -191 141 -206 87 -206 Z M 278 700 L 442 900 L 592 900 L 369 700 L 278 700 Z" unicode="ý" />
<glyph horiz-adv-x="700" d="M 296 78 C 350 78 392 89 421 112 C 450 135 468 171 475 221 L 498 383 C 504 429 499 462 483 483 C 466 504 437 515 396 515 C 363 515 331 506 299 489 C 267 472 235 446 202 410 L 160 116 C 180 103 201 93 223 87 C 245 81 269 78 296 78 Z M 285 -10 C 261 -10 237 -7 213 -2 C 188 2 166 9 147 18 L 116 -200 L 16 -200 L 156 800 L 256 800 L 214 500 L 244 500 C 265 534 293 560 328 580 C 362 600 398 610 435 610 C 495 610 539 589 568 548 C 597 507 607 452 598 382 L 575 219 C 565 149 534 93 482 52 C 430 10 364 -10 285 -10 Z" unicode="þ" />
<glyph horiz-adv-x="700" d="M 87 -206 C 71 -206 55 -205 40 -203 C 25 -201 10 -198 -5 -195 L 24 -106 C 40 -110 56 -113 71 -115 C 85 -117 99 -118 112 -118 C 142 -118 171 -109 197 -92 C 223 -74 246 -47 264 -9 L 268 0 L 231 0 L 102 600 L 211 600 L 308 84 L 548 600 L 653 600 L 346 -20 C 314 -84 277 -131 234 -161 C 190 -191 141 -206 87 -206 Z M 279 710 C 259 710 244 714 233 722 C 222 730 218 745 222 767 L 223 774 C 226 796 234 812 247 820 C 260 828 276 833 296 833 C 315 833 330 828 341 820 C 352 812 356 796 353 774 L 352 767 C 348 745 340 730 327 722 C 313 714 297 710 279 710 Z M 509 710 C 489 710 474 714 463 722 C 452 730 448 745 452 767 L 453 774 C 456 796 464 812 477 820 C 490 828 506 833 526 833 C 545 833 560 828 571 820 C 582 812 586 796 583 774 L 582 767 C 578 745 570 730 557 722 C 543 714 527 710 509 710 Z" unicode="ÿ" />
<glyph horiz-adv-x="700" d="M 448 320 L 390 687 L 227 320 L 448 320 Z M 499 0 L 462 230 L 187 230 L 86 0 L -16 0 L 354 800 L 459 800 L 605 0 L 499 0 Z M 225 955 L 238 1045 L 638 1045 L 625 955 L 225 955 Z" unicode="Ā" />
<glyph horiz-adv-x="700" d="M 233 76 C 267 76 300 82 331 94 C 362 106 390 128 416 159 L 430 255 L 250 255 C 221 255 196 248 175 235 C 154 222 141 199 137 167 C 133 138 138 116 152 100 C 166 84 193 76 233 76 Z M 208 -10 C 157 -10 114 3 78 30 C 42 57 28 101 37 161 C 44 213 67 255 105 285 C 143 315 186 330 232 330 L 440 330 L 452 416 C 456 448 449 473 431 492 C 412 510 381 520 338 520 C 294 520 260 513 237 500 C 213 487 192 458 173 414 L 89 438 C 108 494 139 537 183 566 C 227 595 282 610 349 610 C 415 610 467 595 507 565 C 547 535 562 490 554 428 L 516 160 C 511 124 518 101 537 92 C 555 83 585 82 627 89 L 614 -3 C 571 -9 532 -6 498 5 C 463 17 448 48 452 100 L 432 100 C 409 69 377 43 337 22 C 297 0 254 -10 208 -10 Z M 180 755 L 193 845 L 593 845 L 580 755 L 180 755 Z" unicode="ā" />
<glyph horiz-adv-x="700" d="M 448 320 L 390 687 L 227 320 L 448 320 Z M 499 0 L 462 230 L 187 230 L 86 0 L -16 0 L 354 800 L 459 800 L 605 0 L 499 0 Z M 416 893 C 351 893 299 908 259 940 C 219 971 204 1025 214 1103 L 314 1103 C 308 1055 314 1021 333 1001 C 351 981 383 972 427 972 C 471 972 505 981 530 1001 C 554 1021 570 1055 578 1103 L 678 1103 C 666 1025 636 971 587 940 C 537 908 480 893 416 893 Z" unicode="Ă" />
<glyph horiz-adv-x="700" d="M 233 76 C 267 76 300 82 331 94 C 362 106 390 128 416 159 L 430 255 L 250 255 C 221 255 196 248 175 235 C 154 222 141 199 137 167 C 133 138 138 116 152 100 C 166 84 193 76 233 76 Z M 208 -10 C 157 -10 114 3 78 30 C 42 57 28 101 37 161 C 44 213 67 255 105 285 C 143 315 186 330 232 330 L 440 330 L 452 416 C 456 448 449 473 431 492 C 412 510 381 520 338 520 C 294 520 260 513 237 500 C 213 487 192 458 173 414 L 89 438 C 108 494 139 537 183 566 C 227 595 282 610 349 610 C 415 610 467 595 507 565 C 547 535 562 490 554 428 L 516 160 C 511 124 518 101 537 92 C 555 83 585 82 627 89 L 614 -3 C 571 -9 532 -6 498 5 C 463 17 448 48 452 100 L 432 100 C 409 69 377 43 337 22 C 297 0 254 -10 208 -10 Z M 371 693 C 306 693 254 708 214 740 C 174 771 159 825 169 903 L 269 903 C 263 855 269 821 288 801 C 306 781 338 772 382 772 C 426 772 460 781 485 801 C 509 821 525 855 533 903 L 633 903 C 621 825 591 771 542 740 C 492 708 435 693 371 693 Z" unicode="ă" />
<glyph horiz-adv-x="700" d="M 448 320 L 390 687 L 227 320 L 448 320 Z M 499 0 L 462 230 L 187 230 L 86 0 L -16 0 L 354 800 L 459 800 L 605 0 L 499 0 Z M 536 -215 C 494 -215 460 -204 434 -183 C 408 -162 397 -133 403 -96 C 407 -63 423 -34 452 -9 C 481 16 512 35 545 47 L 568 23 C 543 9 525 -6 515 -23 C 504 -39 498 -54 496 -68 C 494 -86 498 -100 509 -110 C 519 -120 536 -125 559 -125 C 571 -125 586 -124 605 -122 C 623 -120 638 -117 650 -115 L 637 -205 C 624 -207 608 -210 588 -212 C 568 -214 551 -215 536 -215 Z" unicode="Ą" />
<glyph horiz-adv-x="700" d="M 233 76 C 267 76 300 82 331 94 C 362 106 390 128 416 159 L 430 255 L 250 255 C 221 255 196 248 175 235 C 154 222 141 199 137 167 C 133 138 138 116 152 100 C 166 84 193 76 233 76 Z M 208 -10 C 157 -10 114 3 78 30 C 42 57 28 101 37 161 C 44 213 67 255 105 285 C 143 315 186 330 232 330 L 440 330 L 452 416 C 456 448 449 473 431 492 C 412 510 381 520 338 520 C 294 520 260 513 237 500 C 213 487 192 458 173 414 L 89 438 C 108 494 139 537 183 566 C 227 595 282 610 349 610 C 415 610 467 595 507 565 C 547 535 562 490 554 428 L 516 160 C 511 124 518 101 537 92 C 555 83 585 82 627 89 L 614 -3 C 571 -9 532 -6 498 5 C 463 17 448 48 452 100 L 432 100 C 409 69 377 43 337 22 C 297 0 254 -10 208 -10 Z M 514 -215 C 472 -215 438 -204 412 -183 C 386 -162 375 -133 381 -96 C 385 -63 401 -34 430 -9 C 459 16 490 35 523 47 L 546 23 C 521 9 503 -6 493 -23 C 482 -39 476 -54 474 -68 C 472 -86 476 -100 487 -110 C 497 -120 514 -125 537 -125 C 549 -125 564 -124 583 -122 C 601 -120 616 -117 628 -115 L 615 -205 C 602 -207 586 -210 566 -212 C 546 -214 529 -215 514 -215 Z" unicode="ą" />
<glyph horiz-adv-x="700" d="M 303 -10 C 209 -10 143 13 103 61 C 63 109 49 181 63 277 L 97 519 C 110 616 143 689 197 737 C 251 785 325 810 419 810 C 511 810 576 788 614 745 C 652 702 668 633 660 539 L 558 529 C 562 601 553 650 531 678 C 509 706 467 720 405 720 C 339 720 290 704 259 674 C 227 644 207 592 197 519 L 163 277 C 153 205 159 154 182 124 C 204 94 249 80 315 80 C 377 80 422 93 452 120 C 482 147 505 196 522 267 L 620 257 C 601 163 567 95 517 53 C 467 11 395 -10 303 -10 Z M 352 900 L 516 1100 L 666 1100 L 443 900 L 352 900 Z" unicode="Ć" />
<glyph horiz-adv-x="700" d="M 307 -10 C 219 -10 156 9 117 47 C 78 85 64 142 74 217 L 97 379 C 107 455 138 512 188 551 C 238 590 306 610 393 610 C 470 610 527 592 564 557 C 600 522 616 471 612 404 L 513 398 C 516 439 507 470 485 490 C 463 510 427 520 379 520 C 324 520 282 508 252 485 C 222 462 203 427 197 379 L 174 217 C 168 171 176 136 200 114 C 224 91 263 80 319 80 C 367 80 404 88 431 105 C 458 122 475 148 483 182 L 580 176 C 566 114 537 68 491 37 C 445 5 384 -10 307 -10 Z M 284 700 L 448 900 L 598 900 L 375 700 L 284 700 Z" unicode="ć" />
<glyph horiz-adv-x="700" d="M 303 -10 C 209 -10 143 13 103 61 C 63 109 49 181 63 277 L 97 519 C 110 616 143 689 197 737 C 251 785 325 810 419 810 C 511 810 576 788 614 745 C 652 702 668 633 660 539 L 558 529 C 562 601 553 650 531 678 C 509 706 467 720 405 720 C 339 720 290 704 259 674 C 227 644 207 592 197 519 L 163 277 C 153 205 159 154 182 124 C 204 94 249 80 315 80 C 377 80 422 93 452 120 C 482 147 505 196 522 267 L 620 257 C 601 163 567 95 517 53 C 467 11 395 -10 303 -10 Z M 254 904 L 225 968 L 420 1117 L 492 1117 L 647 968 L 600 904 L 442 1020 L 254 904 Z" unicode="Ĉ" />
<glyph horiz-adv-x="700" d="M 307 -10 C 219 -10 156 9 117 47 C 78 85 64 142 74 217 L 97 379 C 107 455 138 512 188 551 C 238 590 306 610 393 610 C 470 610 527 592 564 557 C 600 522 616 471 612 404 L 513 398 C 516 439 507 470 485 490 C 463 510 427 520 379 520 C 324 520 282 508 252 485 C 222 462 203 427 197 379 L 174 217 C 168 171 176 136 200 114 C 224 91 263 80 319 80 C 367 80 404 88 431 105 C 458 122 475 148 483 182 L 580 176 C 566 114 537 68 491 37 C 445 5 384 -10 307 -10 Z M 236 704 L 207 768 L 402 917 L 474 917 L 629 768 L 582 704 L 424 820 L 236 704 Z" unicode="ĉ" />
<glyph horiz-adv-x="700" d="M 303 -10 C 209 -10 143 13 103 61 C 63 109 49 181 63 277 L 97 519 C 110 616 143 689 197 737 C 251 785 325 810 419 810 C 511 810 576 788 614 745 C 652 702 668 633 660 539 L 558 529 C 562 601 553 650 531 678 C 509 706 467 720 405 720 C 339 720 290 704 259 674 C 227 644 207 592 197 519 L 163 277 C 153 205 159 154 182 124 C 204 94 249 80 315 80 C 377 80 422 93 452 120 C 482 147 505 196 522 267 L 620 257 C 601 163 567 95 517 53 C 467 11 395 -10 303 -10 Z M 428 910 C 402 910 382 914 368 922 C 353 930 347 945 351 967 L 352 974 C 355 996 365 1012 382 1020 C 398 1028 419 1033 445 1033 C 470 1033 490 1028 505 1020 C 519 1012 525 996 522 974 L 521 967 C 517 945 507 930 490 922 C 473 914 452 910 428 910 Z" unicode="Ċ" />
<glyph horiz-adv-x="700" d="M 307 -10 C 219 -10 156 9 117 47 C 78 85 64 142 74 217 L 97 379 C 107 455 138 512 188 551 C 238 590 306 610 393 610 C 470 610 527 592 564 557 C 600 522 616 471 612 404 L 513 398 C 516 439 507 470 485 490 C 463 510 427 520 379 520 C 324 520 282 508 252 485 C 222 462 203 427 197 379 L 174 217 C 168 171 176 136 200 114 C 224 91 263 80 319 80 C 367 80 404 88 431 105 C 458 122 475 148 483 182 L 580 176 C 566 114 537 68 491 37 C 445 5 384 -10 307 -10 Z M 400 710 C 374 710 354 714 340 722 C 325 730 319 745 323 767 L 324 774 C 327 796 337 812 354 820 C 370 828 391 833 417 833 C 442 833 462 828 477 820 C 491 812 497 796 494 774 L 493 767 C 489 745 479 730 462 722 C 445 714 424 710 400 710 Z" unicode="ċ" />
<glyph horiz-adv-x="700" d="M 303 -10 C 209 -10 143 13 103 61 C 63 109 49 181 63 277 L 97 519 C 110 616 143 689 197 737 C 251 785 325 810 419 810 C 511 810 576 788 614 745 C 652 702 668 633 660 539 L 558 529 C 562 601 553 650 531 678 C 509 706 467 720 405 720 C 339 720 290 704 259 674 C 227 644 207 592 197 519 L 163 277 C 153 205 159 154 182 124 C 204 94 249 80 315 80 C 377 80 422 93 452 120 C 482 147 505 196 522 267 L 620 257 C 601 163 567 95 517 53 C 467 11 395 -10 303 -10 Z M 392 904 L 237 1053 L 284 1117 L 442 1001 L 630 1117 L 659 1053 L 464 904 L 392 904 Z" unicode="Č" />
<glyph horiz-adv-x="700" d="M 307 -10 C 219 -10 156 9 117 47 C 78 85 64 142 74 217 L 97 379 C 107 455 138 512 188 551 C 238 590 306 610 393 610 C 470 610 527 592 564 557 C 600 522 616 471 612 404 L 513 398 C 516 439 507 470 485 490 C 463 510 427 520 379 520 C 324 520 282 508 252 485 C 222 462 203 427 197 379 L 174 217 C 168 171 176 136 200 114 C 224 91 263 80 319 80 C 367 80 404 88 431 105 C 458 122 475 148 483 182 L 580 176 C 566 114 537 68 491 37 C 445 5 384 -10 307 -10 Z M 364 704 L 209 853 L 256 917 L 414 801 L 602 917 L 631 853 L 436 704 L 364 704 Z" unicode="č" />
<glyph horiz-adv-x="700" d="M 44 0 L 156 800 L 377 800 C 470 800 539 773 585 720 C 631 667 648 597 636 509 L 604 287 C 592 199 555 130 495 78 C 434 26 357 0 264 0 L 44 0 Z M 157 90 L 277 90 C 344 90 397 108 435 144 C 473 180 496 228 504 287 L 536 509 C 544 567 534 615 506 653 C 478 691 431 710 364 710 L 244 710 L 157 90 Z M 382 904 L 227 1053 L 274 1117 L 432 1001 L 620 1117 L 649 1053 L 454 904 L 382 904 Z" unicode="Ď" />
<glyph horiz-adv-x="700" d="M 276 85 C 308 85 340 93 372 111 C 404 128 437 154 471 190 L 512 484 C 493 496 472 506 450 512 C 427 518 402 522 376 522 C 322 522 280 510 251 486 C 221 462 203 427 197 379 L 175 218 C 168 173 173 140 190 118 C 207 96 236 85 276 85 Z M 428 100 C 406 65 378 38 345 19 C 311 0 276 -10 238 -10 C 176 -10 130 10 102 50 C 73 90 64 146 75 218 L 98 381 C 108 453 138 510 189 550 C 240 590 306 610 388 610 C 411 610 435 607 459 602 C 483 597 505 590 526 582 L 556 800 L 656 800 L 544 0 L 444 0 L 458 100 L 428 100 Z M 711 705 L 833 1000 L 980 1000 L 783 705 L 711 705 Z" unicode="ď" />
<glyph horiz-adv-x="700" d="M 44 0 L 100 395 L 0 395 L 12 485 L 112 485 L 156 800 L 377 800 C 470 800 539 773 585 720 C 631 667 648 597 636 509 L 604 287 C 592 199 555 130 495 78 C 434 26 357 0 264 0 L 44 0 Z M 157 90 L 277 90 C 344 90 397 108 435 144 C 473 180 496 228 504 287 L 536 509 C 544 567 534 615 506 653 C 478 691 431 710 364 710 L 244 710 L 212 485 L 362 485 L 350 395 L 200 395 L 157 90 Z" unicode="Đ" />
<glyph horiz-adv-x="700" d="M 276 85 C 308 85 340 93 372 110 C 404 127 437 154 471 190 L 505 434 C 486 446 466 456 444 462 C 422 468 397 472 369 472 C 315 472 273 460 245 437 C 217 414 199 378 192 329 L 178 228 C 171 178 175 142 191 119 C 207 96 235 85 276 85 Z M 428 100 C 406 66 378 39 344 19 C 310 0 274 -10 238 -10 C 178 -10 133 10 104 51 C 74 92 65 148 75 218 L 91 331 C 100 401 131 456 183 498 C 235 539 301 560 381 560 C 403 560 427 557 451 552 C 475 546 497 539 519 531 L 533 630 L 333 630 L 344 710 L 544 710 L 556 800 L 656 800 L 644 710 L 744 710 L 733 630 L 633 630 L 544 0 L 444 0 L 458 100 L 428 100 Z" unicode="đ" />
<glyph horiz-adv-x="700" d="M 44 0 L 156 800 L 676 800 L 664 710 L 244 710 L 211 480 L 581 480 L 569 390 L 199 390 L 157 90 L 577 90 L 564 0 L 44 0 Z M 244 955 L 257 1045 L 657 1045 L 644 955 L 244 955 Z" unicode="Ē" />
<glyph horiz-adv-x="700" d="M 565 132 C 539 82 507 45 467 23 C 427 1 370 -10 294 -10 C 214 -10 155 9 117 47 C 78 85 64 142 75 218 L 97 379 C 108 456 139 514 191 552 C 243 590 306 610 381 610 C 456 610 513 590 553 551 C 593 512 607 452 596 372 L 583 280 L 183 280 L 174 217 C 167 167 175 130 197 108 C 219 86 255 75 305 75 C 353 75 388 81 412 95 C 436 108 455 130 471 160 L 565 132 Z M 197 379 L 194 355 L 494 355 L 496 370 C 503 424 496 463 475 488 C 453 512 418 525 368 525 C 318 525 278 513 250 489 C 222 465 204 429 197 379 Z M 201 755 L 214 845 L 614 845 L 601 755 L 201 755 Z" unicode="ē" />
<glyph horiz-adv-x="700" d="M 44 0 L 156 800 L 676 800 L 664 710 L 244 710 L 211 480 L 581 480 L 569 390 L 199 390 L 157 90 L 577 90 L 564 0 L 44 0 Z M 435 893 C 370 893 318 908 278 940 C 238 971 223 1025 233 1103 L 333 1103 C 327 1055 333 1021 352 1001 C 370 981 402 972 446 972 C 490 972 524 981 549 1001 C 573 1021 589 1055 597 1103 L 697 1103 C 685 1025 655 971 606 940 C 556 908 499 893 435 893 Z" unicode="Ĕ" />
<glyph horiz-adv-x="700" d="M 565 132 C 539 82 507 45 467 23 C 427 1 370 -10 294 -10 C 214 -10 155 9 117 47 C 78 85 64 142 75 218 L 97 379 C 108 456 139 514 191 552 C 243 590 306 610 381 610 C 456 610 513 590 553 551 C 593 512 607 452 596 372 L 583 280 L 183 280 L 174 217 C 167 167 175 130 197 108 C 219 86 255 75 305 75 C 353 75 388 81 412 95 C 436 108 455 130 471 160 L 565 132 Z M 197 379 L 194 355 L 494 355 L 496 370 C 503 424 496 463 475 488 C 453 512 418 525 368 525 C 318 525 278 513 250 489 C 222 465 204 429 197 379 Z M 392 693 C 327 693 275 708 235 740 C 195 771 180 825 190 903 L 290 903 C 284 855 290 821 309 801 C 327 781 359 772 403 772 C 447 772 481 781 506 801 C 530 821 546 855 554 903 L 654 903 C 642 825 612 771 563 740 C 513 708 456 693 392 693 Z" unicode="ĕ" />
<glyph horiz-adv-x="700" d="M 44 0 L 156 800 L 676 800 L 664 710 L 244 710 L 211 480 L 581 480 L 569 390 L 199 390 L 157 90 L 577 90 L 564 0 L 44 0 Z M 438 910 C 412 910 392 914 378 922 C 363 930 357 945 361 967 L 362 974 C 365 996 375 1012 392 1020 C 408 1028 429 1033 455 1033 C 480 1033 500 1028 515 1020 C 529 1012 535 996 532 974 L 531 967 C 527 945 517 930 500 922 C 483 914 462 910 438 910 Z" unicode="Ė" />
<glyph horiz-adv-x="700" d="M 565 132 C 539 82 507 45 467 23 C 427 1 370 -10 294 -10 C 214 -10 155 9 117 47 C 78 85 64 142 75 218 L 97 379 C 108 456 139 514 191 552 C 243 590 306 610 381 610 C 456 610 513 590 553 551 C 593 512 607 452 596 372 L 583 280 L 183 280 L 174 217 C 167 167 175 130 197 108 C 219 86 255 75 305 75 C 353 75 388 81 412 95 C 436 108 455 130 471 160 L 565 132 Z M 197 379 L 194 355 L 494 355 L 496 370 C 503 424 496 463 475 488 C 453 512 418 525 368 525 C 318 525 278 513 250 489 C 222 465 204 429 197 379 Z M 395 710 C 369 710 349 714 335 722 C 320 730 314 745 318 767 L 319 774 C 322 796 332 812 349 820 C 365 828 386 833 412 833 C 437 833 457 828 472 820 C 486 812 492 796 489 774 L 488 767 C 484 745 474 730 457 722 C 440 714 419 710 395 710 Z" unicode="ė" />
<glyph horiz-adv-x="700" d="M 44 0 L 156 800 L 676 800 L 664 710 L 244 710 L 211 480 L 581 480 L 569 390 L 199 390 L 157 90 L 577 90 L 564 0 L 44 0 Z M 434 -215 C 392 -215 358 -204 332 -183 C 306 -162 295 -133 301 -96 C 305 -63 321 -34 350 -9 C 379 16 410 35 443 47 L 466 23 C 441 9 423 -6 413 -23 C 402 -39 396 -54 394 -68 C 392 -86 396 -100 407 -110 C 417 -120 434 -125 457 -125 C 469 -125 484 -124 503 -122 C 521 -120 536 -117 548 -115 L 535 -205 C 522 -207 506 -210 486 -212 C 466 -214 449 -215 434 -215 Z" unicode="Ę" />
<glyph horiz-adv-x="700" d="M 565 132 C 539 82 507 45 467 23 C 427 1 370 -10 294 -10 C 214 -10 155 9 117 47 C 78 85 64 142 75 218 L 97 379 C 108 456 139 514 191 552 C 243 590 306 610 381 610 C 456 610 513 590 553 551 C 593 512 607 452 596 372 L 583 280 L 183 280 L 174 217 C 167 167 175 130 197 108 C 219 86 255 75 305 75 C 353 75 388 81 412 95 C 436 108 455 130 471 160 L 565 132 Z M 197 379 L 194 355 L 494 355 L 496 370 C 503 424 496 463 475 488 C 453 512 418 525 368 525 C 318 525 278 513 250 489 C 222 465 204 429 197 379 Z M 405 -215 C 363 -215 329 -204 303 -183 C 277 -162 266 -133 272 -96 C 276 -63 292 -34 321 -9 C 350 16 381 35 414 47 L 437 23 C 412 9 394 -6 384 -23 C 373 -39 367 -54 365 -68 C 363 -86 367 -100 378 -110 C 388 -120 405 -125 428 -125 C 440 -125 455 -124 474 -122 C 492 -120 507 -117 519 -115 L 506 -205 C 493 -207 477 -210 457 -212 C 437 -214 420 -215 405 -215 Z" unicode="ę" />
<glyph horiz-adv-x="700" d="M 44 0 L 156 800 L 676 800 L 664 710 L 244 710 L 211 480 L 581 480 L 569 390 L 199 390 L 157 90 L 577 90 L 564 0 L 44 0 Z M 412 904 L 257 1053 L 304 1117 L 462 1001 L 650 1117 L 679 1053 L 484 904 L 412 904 Z" unicode="Ě" />
<glyph horiz-adv-x="700" d="M 565 132 C 539 82 507 45 467 23 C 427 1 370 -10 294 -10 C 214 -10 155 9 117 47 C 78 85 64 142 75 218 L 97 379 C 108 456 139 514 191 552 C 243 590 306 610 381 610 C 456 610 513 590 553 551 C 593 512 607 452 596 372 L 583 280 L 183 280 L 174 217 C 167 167 175 130 197 108 C 219 86 255 75 305 75 C 353 75 388 81 412 95 C 436 108 455 130 471 160 L 565 132 Z M 197 379 L 194 355 L 494 355 L 496 370 C 503 424 496 463 475 488 C 453 512 418 525 368 525 C 318 525 278 513 250 489 C 222 465 204 429 197 379 Z M 359 704 L 204 853 L 251 917 L 409 801 L 597 917 L 626 853 L 431 704 L 359 704 Z" unicode="ě" />
<glyph horiz-adv-x="700" d="M 313 -10 C 219 -10 151 14 108 64 C 65 114 50 185 63 277 L 97 519 C 110 612 144 684 200 734 C 256 784 329 810 419 810 C 501 810 560 789 597 748 C 634 706 649 643 643 559 L 541 549 C 544 611 535 655 514 681 C 493 707 457 720 405 720 C 340 720 292 704 260 673 C 228 642 207 591 197 519 L 163 277 C 153 205 160 155 185 125 C 210 95 257 80 325 80 C 386 80 432 97 463 131 C 494 165 515 223 527 305 L 337 305 L 350 395 L 640 395 L 624 287 C 610 191 577 118 523 67 C 469 15 399 -10 313 -10 Z M 264 904 L 235 968 L 430 1117 L 502 1117 L 657 968 L 610 904 L 452 1020 L 264 904 Z" unicode="Ĝ" />
<glyph horiz-adv-x="700" d="M 587 -48 C 579 -102 554 -142 510 -169 C 466 -196 416 -210 359 -210 L 171 -210 C 111 -210 63 -198 28 -174 C -7 -150 -21 -113 -15 -63 C -10 -31 1 -5 21 13 C 41 32 67 43 100 46 L 103 67 C 80 71 62 80 50 96 C 37 111 33 135 37 167 C 41 195 54 221 75 244 C 96 267 128 280 172 284 L 175 303 C 143 313 123 329 115 351 C 107 373 104 394 107 414 L 111 441 C 117 487 142 525 186 555 C 229 585 286 600 358 600 L 653 600 L 641 510 L 489 533 L 486 515 C 512 507 530 493 541 473 C 551 452 555 431 553 411 L 549 385 C 542 339 519 301 480 273 C 440 245 381 231 302 231 L 181 231 C 163 231 148 226 138 217 C 128 208 121 193 118 172 C 115 151 119 135 131 125 C 142 115 161 110 187 110 L 414 110 C 470 110 514 97 548 73 C 582 48 595 8 587 -48 Z M 317 307 C 357 307 389 314 413 329 C 436 343 450 366 455 398 L 459 430 C 463 461 456 484 437 498 C 417 512 387 520 347 520 C 306 520 274 512 251 498 C 227 484 213 461 209 430 L 205 398 C 200 366 207 343 227 329 C 246 314 276 307 317 307 Z M 181 -130 L 384 -130 C 414 -130 439 -124 459 -113 C 479 -101 491 -82 495 -54 C 499 -27 493 -8 478 3 C 462 14 441 20 415 20 L 97 20 L 87 -48 C 83 -75 89 -95 105 -109 C 121 -123 147 -130 181 -130 Z M 210 704 L 181 768 L 376 917 L 448 917 L 603 768 L 556 704 L 398 820 L 210 704 Z" unicode="ĝ" />
<glyph horiz-adv-x="700" d="M 313 -10 C 219 -10 151 14 108 64 C 65 114 50 185 63 277 L 97 519 C 110 612 144 684 200 734 C 256 784 329 810 419 810 C 501 810 560 789 597 748 C 634 706 649 643 643 559 L 541 549 C 544 611 535 655 514 681 C 493 707 457 720 405 720 C 340 720 292 704 260 673 C 228 642 207 591 197 519 L 163 277 C 153 205 160 155 185 125 C 210 95 257 80 325 80 C 386 80 432 97 463 131 C 494 165 515 223 527 305 L 337 305 L 350 395 L 640 395 L 624 287 C 610 191 577 118 523 67 C 469 15 399 -10 313 -10 Z M 435 893 C 370 893 318 908 278 940 C 238 971 223 1025 233 1103 L 333 1103 C 327 1055 333 1021 352 1001 C 370 981 402 972 446 972 C 490 972 524 981 549 1001 C 573 1021 589 1055 597 1103 L 697 1103 C 685 1025 655 971 606 940 C 556 908 499 893 435 893 Z" unicode="Ğ" />
<glyph horiz-adv-x="700" d="M 587 -48 C 579 -102 554 -142 510 -169 C 466 -196 416 -210 359 -210 L 171 -210 C 111 -210 63 -198 28 -174 C -7 -150 -21 -113 -15 -63 C -10 -31 1 -5 21 13 C 41 32 67 43 100 46 L 103 67 C 80 71 62 80 50 96 C 37 111 33 135 37 167 C 41 195 54 221 75 244 C 96 267 128 280 172 284 L 175 303 C 143 313 123 329 115 351 C 107 373 104 394 107 414 L 111 441 C 117 487 142 525 186 555 C 229 585 286 600 358 600 L 653 600 L 641 510 L 489 533 L 486 515 C 512 507 530 493 541 473 C 551 452 555 431 553 411 L 549 385 C 542 339 519 301 480 273 C 440 245 381 231 302 231 L 181 231 C 163 231 148 226 138 217 C 128 208 121 193 118 172 C 115 151 119 135 131 125 C 142 115 161 110 187 110 L 414 110 C 470 110 514 97 548 73 C 582 48 595 8 587 -48 Z M 317 307 C 357 307 389 314 413 329 C 436 343 450 366 455 398 L 459 430 C 463 461 456 484 437 498 C 417 512 387 520 347 520 C 306 520 274 512 251 498 C 227 484 213 461 209 430 L 205 398 C 200 366 207 343 227 329 C 246 314 276 307 317 307 Z M 181 -130 L 384 -130 C 414 -130 439 -124 459 -113 C 479 -101 491 -82 495 -54 C 499 -27 493 -8 478 3 C 462 14 441 20 415 20 L 97 20 L 87 -48 C 83 -75 89 -95 105 -109 C 121 -123 147 -130 181 -130 Z M 391 693 C 326 693 274 708 234 740 C 194 771 179 825 189 903 L 289 903 C 283 855 289 821 308 801 C 326 781 358 772 402 772 C 446 772 480 781 505 801 C 529 821 545 855 553 903 L 653 903 C 641 825 611 771 562 740 C 512 708 455 693 391 693 Z" unicode="ğ" />
<glyph horiz-adv-x="700" d="M 313 -10 C 219 -10 151 14 108 64 C 65 114 50 185 63 277 L 97 519 C 110 612 144 684 200 734 C 256 784 329 810 419 810 C 501 810 560 789 597 748 C 634 706 649 643 643 559 L 541 549 C 544 611 535 655 514 681 C 493 707 457 720 405 720 C 340 720 292 704 260 673 C 228 642 207 591 197 519 L 163 277 C 153 205 160 155 185 125 C 210 95 257 80 325 80 C 386 80 432 97 463 131 C 494 165 515 223 527 305 L 337 305 L 350 395 L 640 395 L 624 287 C 610 191 577 118 523 67 C 469 15 399 -10 313 -10 Z M 428 910 C 402 910 382 914 368 922 C 353 930 347 945 351 967 L 352 974 C 355 996 365 1012 382 1020 C 398 1028 419 1033 445 1033 C 470 1033 490 1028 505 1020 C 519 1012 525 996 522 974 L 521 967 C 517 945 507 930 490 922 C 473 914 452 910 428 910 Z" unicode="Ġ" />
<glyph horiz-adv-x="700" d="M 587 -48 C 579 -102 554 -142 510 -169 C 466 -196 416 -210 359 -210 L 171 -210 C 111 -210 63 -198 28 -174 C -7 -150 -21 -113 -15 -63 C -10 -31 1 -5 21 13 C 41 32 67 43 100 46 L 103 67 C 80 71 62 80 50 96 C 37 111 33 135 37 167 C 41 195 54 221 75 244 C 96 267 128 280 172 284 L 175 303 C 143 313 123 329 115 351 C 107 373 104 394 107 414 L 111 441 C 117 487 142 525 186 555 C 229 585 286 600 358 600 L 653 600 L 641 510 L 489 533 L 486 515 C 512 507 530 493 541 473 C 551 452 555 431 553 411 L 549 385 C 542 339 519 301 480 273 C 440 245 381 231 302 231 L 181 231 C 163 231 148 226 138 217 C 128 208 121 193 118 172 C 115 151 119 135 131 125 C 142 115 161 110 187 110 L 414 110 C 470 110 514 97 548 73 C 582 48 595 8 587 -48 Z M 317 307 C 357 307 389 314 413 329 C 436 343 450 366 455 398 L 459 430 C 463 461 456 484 437 498 C 417 512 387 520 347 520 C 306 520 274 512 251 498 C 227 484 213 461 209 430 L 205 398 C 200 366 207 343 227 329 C 246 314 276 307 317 307 Z M 181 -130 L 384 -130 C 414 -130 439 -124 459 -113 C 479 -101 491 -82 495 -54 C 499 -27 493 -8 478 3 C 462 14 441 20 415 20 L 97 20 L 87 -48 C 83 -75 89 -95 105 -109 C 121 -123 147 -130 181 -130 Z M 394 710 C 368 710 348 714 334 722 C 319 730 313 745 317 767 L 318 774 C 321 796 331 812 348 820 C 364 828 385 833 411 833 C 436 833 456 828 471 820 C 485 812 491 796 488 774 L 487 767 C 483 745 473 730 456 722 C 439 714 418 710 394 710 Z" unicode="ġ" />
<glyph horiz-adv-x="700" d="M 313 -10 C 219 -10 151 14 108 64 C 65 114 50 185 63 277 L 97 519 C 110 612 144 684 200 734 C 256 784 329 810 419 810 C 501 810 560 789 597 748 C 634 706 649 643 643 559 L 541 549 C 544 611 535 655 514 681 C 493 707 457 720 405 720 C 340 720 292 704 260 673 C 228 642 207 591 197 519 L 163 277 C 153 205 160 155 185 125 C 210 95 257 80 325 80 C 386 80 432 97 463 131 C 494 165 515 223 527 305 L 337 305 L 350 395 L 640 395 L 624 287 C 610 191 577 118 523 67 C 469 15 399 -10 313 -10 Z M 128 -300 L 252 -100 L 402 -100 L 219 -300 L 128 -300 Z" unicode="Ģ" />
<glyph horiz-adv-x="700" d="M 587 -48 C 579 -102 554 -142 510 -169 C 466 -196 416 -210 359 -210 L 171 -210 C 111 -210 63 -198 28 -174 C -7 -150 -21 -113 -15 -63 C -10 -31 1 -5 21 13 C 41 32 67 43 100 46 L 103 67 C 80 71 62 80 50 96 C 37 111 33 135 37 167 C 41 195 54 221 75 244 C 96 267 128 280 172 284 L 175 303 C 143 313 123 329 115 351 C 107 373 104 394 107 414 L 111 441 C 117 487 142 525 186 555 C 229 585 286 600 358 600 L 653 600 L 641 510 L 489 533 L 486 515 C 512 507 530 493 541 473 C 551 452 555 431 553 411 L 549 385 C 542 339 519 301 480 273 C 440 245 381 231 302 231 L 181 231 C 163 231 148 226 138 217 C 128 208 121 193 118 172 C 115 151 119 135 131 125 C 142 115 161 110 187 110 L 414 110 C 470 110 514 97 548 73 C 582 48 595 8 587 -48 Z M 317 307 C 357 307 389 314 413 329 C 436 343 450 366 455 398 L 459 430 C 463 461 456 484 437 498 C 417 512 387 520 347 520 C 306 520 274 512 251 498 C 227 484 213 461 209 430 L 205 398 C 200 366 207 343 227 329 C 246 314 276 307 317 307 Z M 181 -130 L 384 -130 C 414 -130 439 -124 459 -113 C 479 -101 491 -82 495 -54 C 499 -27 493 -8 478 3 C 462 14 441 20 415 20 L 97 20 L 87 -48 C 83 -75 89 -95 105 -109 C 121 -123 147 -130 181 -130 Z M 298 700 L 481 900 L 572 900 L 448 700 L 298 700 Z" unicode="ģ" />
<glyph horiz-adv-x="700" d="M 44 0 L 156 800 L 256 800 L 211 480 L 511 480 L 556 800 L 656 800 L 544 0 L 444 0 L 499 390 L 199 390 L 144 0 L 44 0 Z M 244 904 L 215 968 L 410 1117 L 482 1117 L 637 968 L 590 904 L 432 1020 L 244 904 Z" unicode="Ĥ" />
<glyph horiz-adv-x="700" d="M 44 0 L 156 800 L 256 800 L 214 500 L 244 500 C 263 534 290 560 324 580 C 358 600 396 610 436 610 C 496 610 540 591 570 555 C 599 518 609 468 601 406 L 544 0 L 444 0 L 498 385 C 504 427 498 459 481 481 C 463 503 436 515 398 515 C 368 515 336 506 303 488 C 269 470 236 444 202 410 L 144 0 L 44 0 Z M 60 904 L 31 968 L 226 1117 L 298 1117 L 453 968 L 406 904 L 248 1020 L 60 904 Z" unicode="ĥ" />
<glyph horiz-adv-x="700" d="M 204 430 L 504 430 L 523 560 L 223 560 L 204 430 Z M 192 340 L 144 0 L 44 0 L 123 560 L 23 560 L 35 650 L 135 650 L 156 800 L 256 800 L 235 650 L 535 650 L 556 800 L 656 800 L 635 650 L 735 650 L 723 560 L 623 560 L 544 0 L 444 0 L 492 340 L 192 340 Z" unicode="Ħ" />
<glyph horiz-adv-x="700" d="M 195 360 L 144 0 L 44 0 L 133 630 L 33 630 L 44 710 L 144 710 L 156 800 L 256 800 L 244 710 L 444 710 L 433 630 L 233 630 L 207 450 L 237 450 C 256 484 284 510 320 530 C 356 550 395 560 437 560 C 494 560 537 543 566 511 C 594 478 605 434 597 378 L 544 0 L 444 0 L 494 354 C 499 391 493 419 476 437 C 459 455 431 465 391 465 C 360 465 328 456 296 439 C 264 421 230 395 195 360 Z" unicode="ħ" />
<glyph horiz-adv-x="700" d="M 44 0 L 57 90 L 257 90 L 344 710 L 144 710 L 156 800 L 656 800 L 644 710 L 444 710 L 357 90 L 557 90 L 544 0 L 44 0 Z M 497 910 C 474 910 456 916 442 928 C 428 940 416 953 406 968 C 396 982 386 995 378 1007 C 369 1019 359 1025 347 1025 C 334 1025 322 1018 311 1006 C 300 994 292 969 288 931 L 286 920 L 209 920 L 211 935 C 218 985 235 1026 263 1060 C 290 1093 325 1110 367 1110 C 392 1110 412 1104 427 1092 C 441 1080 453 1067 463 1053 C 472 1038 480 1025 488 1013 C 496 1001 505 995 517 995 C 529 995 541 1001 552 1013 C 562 1025 570 1051 576 1089 L 577 1100 L 654 1100 L 652 1085 C 645 1034 628 992 601 959 C 573 926 539 910 497 910 Z" unicode="Ĩ" />
<glyph horiz-adv-x="700" d="M 44 0 L 57 90 L 257 90 L 316 510 L 116 510 L 128 600 L 428 600 L 357 90 L 557 90 L 544 0 L 44 0 Z M 473 710 C 450 710 432 716 418 728 C 404 740 392 753 382 768 C 372 782 362 795 354 807 C 345 819 335 825 323 825 C 310 825 298 818 287 806 C 276 794 268 769 264 731 L 262 720 L 185 720 L 187 735 C 194 785 211 826 239 860 C 266 893 301 910 343 910 C 368 910 388 904 403 892 C 417 880 429 867 439 853 C 448 838 456 825 464 813 C 472 801 481 795 493 795 C 505 795 517 801 528 813 C 538 825 546 851 552 889 L 553 900 L 630 900 L 628 885 C 621 834 604 792 577 759 C 549 726 515 710 473 710 Z" unicode="ĩ" />
<glyph horiz-adv-x="700" d="M 44 0 L 57 90 L 257 90 L 344 710 L 144 710 L 156 800 L 656 800 L 644 710 L 444 710 L 357 90 L 557 90 L 544 0 L 44 0 Z M 224 955 L 237 1045 L 637 1045 L 624 955 L 224 955 Z" unicode="Ī" />
<glyph horiz-adv-x="700" d="M 44 0 L 57 90 L 257 90 L 316 510 L 116 510 L 128 600 L 428 600 L 357 90 L 557 90 L 544 0 L 44 0 Z M 200 755 L 213 845 L 613 845 L 600 755 L 200 755 Z" unicode="ī" />
<glyph horiz-adv-x="700" d="M 44 0 L 57 90 L 257 90 L 344 710 L 144 710 L 156 800 L 656 800 L 644 710 L 444 710 L 357 90 L 557 90 L 544 0 L 44 0 Z M 415 893 C 350 893 298 908 258 940 C 218 971 203 1025 213 1103 L 313 1103 C 307 1055 313 1021 332 1001 C 350 981 382 972 426 972 C 470 972 504 981 529 1001 C 553 1021 569 1055 577 1103 L 677 1103 C 665 1025 635 971 586 940 C 536 908 479 893 415 893 Z" unicode="Ĭ" />
<glyph horiz-adv-x="700" d="M 44 0 L 57 90 L 257 90 L 316 510 L 116 510 L 128 600 L 428 600 L 357 90 L 557 90 L 544 0 L 44 0 Z M 391 693 C 326 693 274 708 234 740 C 194 771 179 825 189 903 L 289 903 C 283 855 289 821 308 801 C 326 781 358 772 402 772 C 446 772 480 781 505 801 C 529 821 545 855 553 903 L 653 903 C 641 825 611 771 562 740 C 512 708 455 693 391 693 Z" unicode="ĭ" />
<glyph horiz-adv-x="700" d="M 44 0 L 57 90 L 257 90 L 344 710 L 144 710 L 156 800 L 656 800 L 644 710 L 444 710 L 357 90 L 557 90 L 544 0 L 44 0 Z M 339 -215 C 297 -215 263 -204 237 -183 C 211 -162 200 -133 206 -96 C 210 -63 226 -34 255 -9 C 284 16 315 35 348 47 L 371 23 C 346 9 328 -6 318 -23 C 307 -39 301 -54 299 -68 C 297 -86 301 -100 312 -110 C 322 -120 339 -125 362 -125 C 374 -125 389 -124 408 -122 C 426 -120 441 -117 453 -115 L 440 -205 C 427 -207 411 -210 391 -212 C 371 -214 354 -215 339 -215 Z" unicode="Į" />
<glyph horiz-adv-x="700" d="M 44 0 L 57 90 L 257 90 L 316 510 L 116 510 L 128 600 L 428 600 L 357 90 L 557 90 L 544 0 L 44 0 Z M 394 710 C 368 710 348 714 334 722 C 319 730 313 745 317 767 L 318 774 C 321 796 331 812 348 820 C 364 828 385 833 411 833 C 436 833 456 828 471 820 C 485 812 491 796 488 774 L 487 767 C 483 745 473 730 456 722 C 439 714 418 710 394 710 Z M 359 -215 C 317 -215 283 -204 257 -183 C 231 -162 220 -133 226 -96 C 230 -63 246 -34 275 -9 C 304 16 335 35 368 47 L 391 23 C 366 9 348 -6 338 -23 C 327 -39 321 -54 319 -68 C 317 -86 321 -100 332 -110 C 342 -120 359 -125 382 -125 C 394 -125 409 -124 428 -122 C 446 -120 461 -117 473 -115 L 460 -205 C 447 -207 431 -210 411 -212 C 391 -214 374 -215 359 -215 Z" unicode="į" />
<glyph horiz-adv-x="700" d="M 44 0 L 57 90 L 257 90 L 344 710 L 144 710 L 156 800 L 656 800 L 644 710 L 444 710 L 357 90 L 557 90 L 544 0 L 44 0 Z M 418 910 C 392 910 372 914 358 922 C 343 930 337 945 341 967 L 342 974 C 345 996 355 1012 372 1020 C 388 1028 409 1033 435 1033 C 460 1033 480 1028 495 1020 C 509 1012 515 996 512 974 L 511 967 C 507 945 497 930 480 922 C 463 914 442 910 418 910 Z" unicode="İ" />
<glyph horiz-adv-x="700" d="M 44 0 L 57 90 L 257 90 L 316 510 L 116 510 L 128 600 L 428 600 L 357 90 L 557 90 L 544 0 L 44 0 Z" unicode="ı" />
<glyph horiz-adv-x="700" d="M 104 0 L 4 0 L 116 800 L 216 800 L 104 0 Z M 383 -10 C 325 -10 281 9 251 47 C 221 85 211 155 221 257 L 323 268 C 317 193 318 143 327 118 C 336 92 359 80 396 80 C 435 80 464 95 482 126 C 500 157 512 195 519 239 L 585 710 L 395 710 L 407 800 L 697 800 L 619 240 C 607 162 582 101 544 57 C 506 12 452 -10 383 -10 Z" unicode="Ĳ" />
<glyph horiz-adv-x="700" d="M 214 710 C 188 710 168 714 154 722 C 139 730 133 745 137 767 L 138 774 C 141 796 151 812 168 820 C 184 828 205 833 231 833 C 256 833 276 828 291 820 C 305 812 311 796 308 774 L 307 767 C 303 745 293 730 276 722 C 259 714 238 710 214 710 Z M 591 710 C 565 710 545 714 531 722 C 516 730 510 745 514 767 L 515 774 C 518 796 528 812 545 820 C 561 828 582 833 608 833 C 633 833 653 828 668 820 C 682 812 688 796 685 774 L 684 767 C 680 745 670 730 653 722 C 636 714 615 710 591 710 Z M 164 0 L 64 0 L 148 600 L 248 600 L 164 0 Z M 293 -208 C 270 -208 248 -206 227 -203 C 205 -199 183 -194 159 -186 L 192 -90 C 212 -98 231 -103 249 -107 C 266 -110 284 -112 303 -112 C 340 -112 371 -102 397 -84 C 423 -66 439 -35 445 7 L 516 510 L 386 510 L 398 600 L 628 600 L 543 -6 C 533 -74 505 -125 458 -158 C 411 -191 356 -208 293 -208 Z" unicode="ĳ" />
<glyph horiz-adv-x="700" d="M 272 -10 C 184 -10 122 11 84 55 C 46 98 32 165 40 257 L 142 268 C 136 193 142 143 162 118 C 182 92 223 80 285 80 C 342 80 387 94 419 124 C 451 154 472 199 480 259 L 544 710 L 344 710 L 356 800 L 656 800 L 581 260 C 568 172 535 105 483 59 C 430 13 360 -10 272 -10 Z M 334 904 L 305 968 L 500 1117 L 572 1117 L 727 968 L 680 904 L 522 1020 L 334 904 Z" unicode="Ĵ" />
<glyph horiz-adv-x="700" d="M 173 -208 C 147 -208 122 -206 97 -203 C 72 -200 46 -194 19 -186 L 52 -90 C 76 -98 98 -104 119 -107 C 140 -110 161 -112 183 -112 C 226 -112 262 -102 292 -84 C 321 -66 339 -35 345 7 L 416 510 L 136 510 L 148 600 L 528 600 L 443 -6 C 433 -74 403 -125 352 -158 C 301 -191 241 -208 173 -208 Z M 286 704 L 257 768 L 452 917 L 524 917 L 679 768 L 632 704 L 474 820 L 286 704 Z" unicode="ĵ" />
<glyph horiz-adv-x="700" d="M 197 380 L 144 0 L 44 0 L 156 800 L 256 800 L 210 470 L 244 470 L 599 800 L 715 800 L 321 432 L 600 0 L 480 0 L 234 380 L 197 380 Z M 118 -300 L 242 -100 L 392 -100 L 209 -300 L 118 -300 Z" unicode="Ķ" />
<glyph horiz-adv-x="700" d="M 232 273 L 194 0 L 94 0 L 206 800 L 306 800 L 244 357 L 295 357 L 521 600 L 643 600 L 369 321 L 556 0 L 442 0 L 283 273 L 232 273 Z M 111 -300 L 235 -100 L 385 -100 L 202 -300 L 111 -300 Z" unicode="ķ" />
<glyph horiz-adv-x="700" d="M 232 273 L 194 0 L 94 0 L 178 600 L 278 600 L 244 357 L 295 357 L 521 600 L 643 600 L 369 321 L 556 0 L 442 0 L 283 273 L 232 273 Z" unicode="ĸ" />
<glyph horiz-adv-x="700" d="M 94 0 L 206 800 L 306 800 L 207 90 L 557 90 L 544 0 L 94 0 Z M 252 900 L 416 1100 L 566 1100 L 343 900 L 252 900 Z" unicode="Ĺ" />
<glyph horiz-adv-x="700" d="M 44 0 L 57 90 L 257 90 L 344 710 L 144 710 L 156 800 L 456 800 L 357 90 L 557 90 L 544 0 L 44 0 Z M 293 900 L 457 1100 L 607 1100 L 384 900 L 293 900 Z" unicode="ĺ" />
<glyph horiz-adv-x="700" d="M 94 0 L 206 800 L 306 800 L 207 90 L 557 90 L 544 0 L 94 0 Z M 133 -300 L 257 -100 L 407 -100 L 224 -300 L 133 -300 Z" unicode="Ļ" />
<glyph horiz-adv-x="700" d="M 44 0 L 57 90 L 257 90 L 344 710 L 144 710 L 156 800 L 456 800 L 357 90 L 557 90 L 544 0 L 44 0 Z M 93 -300 L 217 -100 L 367 -100 L 184 -300 L 93 -300 Z" unicode="ļ" />
<glyph horiz-adv-x="700" d="M 94 0 L 206 800 L 306 800 L 207 90 L 557 90 L 544 0 L 94 0 Z M 425 505 L 547 800 L 694 800 L 497 505 L 425 505 Z" unicode="Ľ" />
<glyph horiz-adv-x="700" d="M 44 0 L 57 90 L 257 90 L 344 710 L 144 710 L 156 800 L 456 800 L 357 90 L 557 90 L 544 0 L 44 0 Z M 511 705 L 633 1000 L 780 1000 L 583 705 L 511 705 Z" unicode="ľ" />
<glyph horiz-adv-x="700" d="M 94 0 L 206 800 L 306 800 L 207 90 L 557 90 L 544 0 L 94 0 Z M 634 410 C 608 410 588 414 574 422 C 559 430 553 445 557 467 L 558 474 C 561 496 571 512 588 520 C 604 528 625 533 651 533 C 676 533 696 528 711 520 C 725 512 731 496 728 474 L 727 467 C 723 445 713 430 696 422 C 679 414 658 410 634 410 Z" unicode="Ŀ" />
<glyph horiz-adv-x="700" d="M 44 0 L 57 90 L 257 90 L 344 710 L 144 710 L 156 800 L 456 800 L 357 90 L 557 90 L 544 0 L 44 0 Z M 714 310 C 688 310 668 314 654 322 C 639 330 633 345 637 367 L 638 374 C 641 396 651 412 668 420 C 684 428 705 433 731 433 C 756 433 776 428 791 420 C 805 412 811 396 808 374 L 807 367 C 803 345 793 330 776 322 C 759 314 738 310 714 310 Z" unicode="ŀ" />
<glyph horiz-adv-x="700" d="M 94 0 L 145 361 L 40 330 L 52 410 L 156 441 L 206 800 L 306 800 L 260 472 L 521 550 L 510 470 L 249 392 L 207 90 L 557 90 L 544 0 L 94 0 Z" unicode="Ł" />
<glyph horiz-adv-x="700" d="M 44 0 L 57 90 L 257 90 L 293 351 L 138 310 L 149 390 L 305 431 L 344 710 L 144 710 L 156 800 L 456 800 L 408 458 L 564 500 L 553 420 L 397 378 L 357 90 L 557 90 L 544 0 L 44 0 Z" unicode="ł" />
<glyph horiz-adv-x="700" d="M 401 0 L 229 674 L 134 0 L 44 0 L 156 800 L 293 800 L 470 111 L 566 800 L 656 800 L 544 0 L 401 0 Z M 322 900 L 486 1100 L 636 1100 L 413 900 L 322 900 Z" unicode="Ń" />
<glyph horiz-adv-x="700" d="M 44 0 L 128 600 L 228 600 L 214 500 L 244 500 C 263 534 290 560 324 580 C 358 600 396 610 436 610 C 496 610 540 591 570 555 C 599 518 609 468 601 405 L 544 0 L 444 0 L 498 385 C 504 427 498 459 481 481 C 463 503 436 515 398 515 C 368 515 336 506 303 488 C 269 470 236 444 202 410 L 144 0 L 44 0 Z M 298 700 L 462 900 L 612 900 L 389 700 L 298 700 Z" unicode="ń" />
<glyph horiz-adv-x="700" d="M 401 0 L 229 674 L 134 0 L 44 0 L 156 800 L 293 800 L 470 111 L 566 800 L 656 800 L 544 0 L 401 0 Z M 98 -300 L 222 -100 L 372 -100 L 189 -300 L 98 -300 Z" unicode="Ņ" />
<glyph horiz-adv-x="700" d="M 44 0 L 128 600 L 228 600 L 214 500 L 244 500 C 263 534 290 560 324 580 C 358 600 396 610 436 610 C 496 610 540 591 570 555 C 599 518 609 468 601 405 L 544 0 L 444 0 L 498 385 C 504 427 498 459 481 481 C 463 503 436 515 398 515 C 368 515 336 506 303 488 C 269 470 236 444 202 410 L 144 0 L 44 0 Z M 118 -300 L 242 -100 L 392 -100 L 209 -300 L 118 -300 Z" unicode="ņ" />
<glyph horiz-adv-x="700" d="M 401 0 L 229 674 L 134 0 L 44 0 L 156 800 L 293 800 L 470 111 L 566 800 L 656 800 L 544 0 L 401 0 Z M 402 904 L 247 1053 L 294 1117 L 452 1001 L 640 1117 L 669 1053 L 474 904 L 402 904 Z" unicode="Ň" />
<glyph horiz-adv-x="700" d="M 44 0 L 128 600 L 228 600 L 214 500 L 244 500 C 263 534 290 560 324 580 C 358 600 396 610 436 610 C 496 610 540 591 570 555 C 599 518 609 468 601 405 L 544 0 L 444 0 L 498 385 C 504 427 498 459 481 481 C 463 503 436 515 398 515 C 368 515 336 506 303 488 C 269 470 236 444 202 410 L 144 0 L 44 0 Z M 378 704 L 223 853 L 270 917 L 428 801 L 616 917 L 645 853 L 450 704 L 378 704 Z" unicode="ň" />
<glyph horiz-adv-x="700" d="M 44 0 L 128 600 L 228 600 L 214 500 L 244 500 C 263 534 290 560 324 580 C 358 600 396 610 436 610 C 496 610 540 591 570 555 C 599 518 609 468 601 405 L 544 0 L 444 0 L 498 385 C 504 427 498 459 481 481 C 463 503 436 515 398 515 C 368 515 336 506 303 488 C 269 470 236 444 202 410 L 144 0 L 44 0 Z M 28 700 L 192 900 L 342 900 L 119 700 L 28 700 Z" unicode="ŉ" />
<glyph horiz-adv-x="700" d="M 283 -208 C 259 -208 234 -204 209 -198 C 184 -192 158 -184 130 -176 L 164 -80 C 189 -90 212 -97 232 -103 C 252 -109 273 -112 293 -112 C 333 -112 367 -99 396 -73 C 424 -47 443 -3 452 57 L 525 574 C 531 624 525 660 505 682 C 485 704 458 715 426 715 C 387 715 354 703 326 681 C 298 658 265 628 227 590 L 144 0 L 44 0 L 156 800 L 256 800 L 240 680 L 270 680 C 292 720 322 751 358 775 C 394 798 432 810 472 810 C 530 810 572 791 600 753 C 628 715 637 664 628 598 L 550 44 C 538 -41 507 -104 457 -146 C 407 -187 349 -208 283 -208 Z" unicode="Ŋ" />
<glyph horiz-adv-x="700" d="M 313 -208 C 293 -208 273 -206 252 -202 C 231 -198 210 -192 189 -186 L 222 -90 C 240 -96 257 -102 274 -106 C 291 -110 307 -112 323 -112 C 354 -112 381 -102 403 -84 C 425 -66 439 -35 445 7 L 501 404 C 506 441 500 469 483 487 C 466 505 438 515 398 515 C 367 515 335 506 303 489 C 271 471 237 445 202 410 L 144 0 L 44 0 L 128 600 L 228 600 L 214 500 L 244 500 C 263 534 291 560 327 580 C 363 600 402 610 444 610 C 501 610 544 593 573 561 C 601 528 612 484 604 428 L 543 -6 C 533 -74 507 -125 464 -158 C 421 -191 371 -208 313 -208 Z" unicode="ŋ" />
<glyph horiz-adv-x="700" d="M 293 -10 C 205 -10 141 14 102 63 C 62 112 49 183 63 277 L 97 519 C 110 613 143 685 197 735 C 250 785 321 810 409 810 C 496 810 559 785 598 735 C 637 685 650 613 637 519 L 603 277 C 589 183 556 112 504 63 C 451 14 381 -10 293 -10 Z M 305 80 C 366 80 412 95 442 125 C 472 155 493 205 503 277 L 537 519 C 547 591 541 643 519 674 C 497 704 456 720 395 720 C 333 720 287 704 257 674 C 227 643 207 591 197 519 L 163 277 C 153 205 158 155 180 125 C 202 95 243 80 305 80 Z M 224 955 L 237 1045 L 637 1045 L 624 955 L 224 955 Z" unicode="Ō" />
<glyph horiz-adv-x="700" d="M 293 -10 C 212 -10 153 9 115 48 C 77 87 64 143 74 217 L 97 379 C 107 453 137 510 186 550 C 235 590 300 610 381 610 C 461 610 519 590 557 550 C 594 510 607 453 597 379 L 574 217 C 564 143 534 87 486 48 C 438 9 373 -10 293 -10 Z M 305 80 C 355 80 395 91 423 114 C 451 136 468 171 474 217 L 497 379 C 503 427 496 462 475 485 C 453 508 417 520 367 520 C 316 520 277 508 249 485 C 221 462 203 427 197 379 L 174 217 C 168 171 175 136 197 114 C 218 91 254 80 305 80 Z M 200 755 L 213 845 L 613 845 L 600 755 L 200 755 Z" unicode="ō" />
<glyph horiz-adv-x="700" d="M 293 -10 C 205 -10 141 14 102 63 C 62 112 49 183 63 277 L 97 519 C 110 613 143 685 197 735 C 250 785 321 810 409 810 C 496 810 559 785 598 735 C 637 685 650 613 637 519 L 603 277 C 589 183 556 112 504 63 C 451 14 381 -10 293 -10 Z M 305 80 C 366 80 412 95 442 125 C 472 155 493 205 503 277 L 537 519 C 547 591 541 643 519 674 C 497 704 456 720 395 720 C 333 720 287 704 257 674 C 227 643 207 591 197 519 L 163 277 C 153 205 158 155 180 125 C 202 95 243 80 305 80 Z M 415 893 C 350 893 298 908 258 940 C 218 971 203 1025 213 1103 L 313 1103 C 307 1055 313 1021 332 1001 C 350 981 382 972 426 972 C 470 972 504 981 529 1001 C 553 1021 569 1055 577 1103 L 677 1103 C 665 1025 635 971 586 940 C 536 908 479 893 415 893 Z" unicode="Ŏ" />
<glyph horiz-adv-x="700" d="M 293 -10 C 212 -10 153 9 115 48 C 77 87 64 143 74 217 L 97 379 C 107 453 137 510 186 550 C 235 590 300 610 381 610 C 461 610 519 590 557 550 C 594 510 607 453 597 379 L 574 217 C 564 143 534 87 486 48 C 438 9 373 -10 293 -10 Z M 305 80 C 355 80 395 91 423 114 C 451 136 468 171 474 217 L 497 379 C 503 427 496 462 475 485 C 453 508 417 520 367 520 C 316 520 277 508 249 485 C 221 462 203 427 197 379 L 174 217 C 168 171 175 136 197 114 C 218 91 254 80 305 80 Z M 391 693 C 326 693 274 708 234 740 C 194 771 179 825 189 903 L 289 903 C 283 855 289 821 308 801 C 326 781 358 772 402 772 C 446 772 480 781 505 801 C 529 821 545 855 553 903 L 653 903 C 641 825 611 771 562 740 C 512 708 455 693 391 693 Z" unicode="ŏ" />
<glyph horiz-adv-x="700" d="M 293 -10 C 205 -10 141 14 102 63 C 62 112 49 183 63 277 L 97 519 C 110 613 143 685 197 735 C 250 785 321 810 409 810 C 496 810 559 785 598 735 C 637 685 650 613 637 519 L 603 277 C 589 183 556 112 504 63 C 451 14 381 -10 293 -10 Z M 305 80 C 366 80 412 95 442 125 C 472 155 493 205 503 277 L 537 519 C 547 591 541 643 519 674 C 497 704 456 720 395 720 C 333 720 287 704 257 674 C 227 643 207 591 197 519 L 163 277 C 153 205 158 155 180 125 C 202 95 243 80 305 80 Z M 472 900 L 556 1100 L 696 1100 L 543 900 L 472 900 Z M 242 900 L 326 1100 L 466 1100 L 313 900 L 242 900 Z" unicode="Ő" />
<glyph horiz-adv-x="700" d="M 293 -10 C 212 -10 153 9 115 48 C 77 87 64 143 74 217 L 97 379 C 107 453 137 510 186 550 C 235 590 300 610 381 610 C 461 610 519 590 557 550 C 594 510 607 453 597 379 L 574 217 C 564 143 534 87 486 48 C 438 9 373 -10 293 -10 Z M 305 80 C 355 80 395 91 423 114 C 451 136 468 171 474 217 L 497 379 C 503 427 496 462 475 485 C 453 508 417 520 367 520 C 316 520 277 508 249 485 C 221 462 203 427 197 379 L 174 217 C 168 171 175 136 197 114 C 218 91 254 80 305 80 Z M 448 700 L 532 900 L 672 900 L 519 700 L 448 700 Z M 218 700 L 302 900 L 442 900 L 289 700 L 218 700 Z" unicode="ő" />
<glyph horiz-adv-x="700" d="M 214 0 C 132 0 72 26 34 78 C -4 130 -18 199 -6 287 L 26 509 C 38 597 70 667 123 720 C 176 773 243 800 325 800 L 756 800 L 745 720 L 495 720 L 461 480 L 711 480 L 700 400 L 450 400 L 405 80 L 655 80 L 644 0 L 214 0 Z M 225 80 L 315 80 L 405 720 L 315 720 C 257 720 211 700 178 660 C 144 620 124 570 116 509 L 84 287 C 75 225 82 175 104 137 C 126 99 167 80 225 80 Z" unicode="Œ" />
<glyph horiz-adv-x="700" d="M 634 134 C 620 84 598 48 568 25 C 538 1 495 -10 439 -10 C 404 -10 375 -3 351 9 C 327 21 310 41 300 67 C 281 41 259 21 233 9 C 207 -3 178 -10 148 -10 C 96 -10 56 8 29 45 C 1 82 -6 139 4 217 L 27 379 C 38 457 63 515 101 553 C 139 591 184 610 236 610 C 266 610 293 603 315 591 C 337 578 353 559 365 533 C 383 559 405 578 431 591 C 457 603 485 610 516 610 C 572 610 614 593 643 560 C 671 527 681 476 671 407 L 653 280 L 373 280 L 360 182 C 354 140 357 110 370 92 C 382 74 405 65 438 65 C 470 65 494 70 509 80 C 524 90 536 111 546 142 L 634 134 Z M 392 414 L 382 345 L 572 345 L 581 405 C 587 450 583 483 571 504 C 558 524 536 535 504 535 C 472 535 447 525 429 505 C 410 485 398 455 392 414 Z M 169 70 C 201 70 226 81 245 104 C 264 127 277 165 284 217 L 307 379 C 314 431 311 469 299 493 C 287 517 265 530 233 530 C 201 530 176 517 157 493 C 137 469 124 431 117 379 L 94 217 C 87 165 90 127 103 104 C 115 81 137 70 169 70 Z" unicode="œ" />
<glyph horiz-adv-x="700" d="M 200 398 L 400 398 C 454 398 493 407 519 427 C 545 447 561 480 568 527 L 577 589 C 583 633 575 664 555 682 C 535 700 498 710 444 710 L 244 710 L 200 398 Z M 144 0 L 44 0 L 156 800 L 457 800 C 540 800 600 782 637 747 C 673 712 687 659 677 589 L 668 527 C 659 463 636 413 598 377 C 560 341 508 319 442 313 L 603 0 L 489 0 L 330 310 L 188 310 L 144 0 Z M 377 900 L 541 1100 L 691 1100 L 468 900 L 377 900 Z" unicode="Ŕ" />
<glyph horiz-adv-x="700" d="M 94 0 L 178 600 L 278 600 L 264 500 L 294 500 C 313 538 338 565 370 583 C 401 601 437 610 478 610 C 522 610 557 595 583 565 C 609 535 618 494 611 440 L 598 350 L 503 350 L 511 404 C 516 442 511 470 497 488 C 482 506 457 515 423 515 C 391 515 362 507 334 492 C 306 476 279 452 253 420 L 194 0 L 94 0 Z M 318 700 L 482 900 L 632 900 L 409 700 L 318 700 Z" unicode="ŕ" />
<glyph horiz-adv-x="700" d="M 200 398 L 400 398 C 454 398 493 407 519 427 C 545 447 561 480 568 527 L 577 589 C 583 633 575 664 555 682 C 535 700 498 710 444 710 L 244 710 L 200 398 Z M 144 0 L 44 0 L 156 800 L 457 800 C 540 800 600 782 637 747 C 673 712 687 659 677 589 L 668 527 C 659 463 636 413 598 377 C 560 341 508 319 442 313 L 603 0 L 489 0 L 330 310 L 188 310 L 144 0 Z M 103 -300 L 227 -100 L 377 -100 L 194 -300 L 103 -300 Z" unicode="Ŗ" />
<glyph horiz-adv-x="700" d="M 94 0 L 178 600 L 278 600 L 264 500 L 294 500 C 313 538 338 565 370 583 C 401 601 437 610 478 610 C 522 610 557 595 583 565 C 609 535 618 494 611 440 L 598 350 L 503 350 L 511 404 C 516 442 511 470 497 488 C 482 506 457 515 423 515 C 391 515 362 507 334 492 C 306 476 279 452 253 420 L 194 0 L 94 0 Z M -22 -300 L 102 -100 L 252 -100 L 69 -300 L -22 -300 Z" unicode="ŗ" />
<glyph horiz-adv-x="700" d="M 200 398 L 400 398 C 454 398 493 407 519 427 C 545 447 561 480 568 527 L 577 589 C 583 633 575 664 555 682 C 535 700 498 710 444 710 L 244 710 L 200 398 Z M 144 0 L 44 0 L 156 800 L 457 800 C 540 800 600 782 637 747 C 673 712 687 659 677 589 L 668 527 C 659 463 636 413 598 377 C 560 341 508 319 442 313 L 603 0 L 489 0 L 330 310 L 188 310 L 144 0 Z M 387 904 L 232 1053 L 279 1117 L 437 1001 L 625 1117 L 654 1053 L 459 904 L 387 904 Z" unicode="Ř" />
<glyph horiz-adv-x="700" d="M 94 0 L 178 600 L 278 600 L 264 500 L 294 500 C 313 538 338 565 370 583 C 401 601 437 610 478 610 C 522 610 557 595 583 565 C 609 535 618 494 611 440 L 598 350 L 503 350 L 511 404 C 516 442 511 470 497 488 C 482 506 457 515 423 515 C 391 515 362 507 334 492 C 306 476 279 452 253 420 L 194 0 L 94 0 Z M 398 704 L 243 853 L 290 917 L 448 801 L 636 917 L 665 853 L 470 704 L 398 704 Z" unicode="ř" />
<glyph horiz-adv-x="700" d="M 306 -6 C 246 -6 191 3 142 23 C 92 42 51 77 17 129 L 99 197 C 121 159 151 130 187 112 C 223 93 268 84 322 84 C 371 84 412 95 446 118 C 480 141 499 172 505 212 C 510 250 501 279 478 299 C 454 319 406 341 333 364 C 239 392 177 422 147 455 C 116 487 105 534 113 594 C 123 663 153 715 205 751 C 256 786 315 804 381 804 C 437 804 488 794 536 774 C 584 754 623 720 655 670 L 576 601 C 554 639 525 667 488 686 C 450 704 411 714 370 714 C 328 714 293 705 265 688 C 237 671 221 643 216 603 C 210 567 220 539 245 519 C 270 499 322 477 400 454 C 488 427 546 398 576 366 C 605 334 615 289 607 229 C 596 152 560 94 500 54 C 440 14 375 -6 306 -6 Z M 303 900 L 467 1100 L 617 1100 L 394 900 L 303 900 Z" unicode="Ś" />
<glyph horiz-adv-x="700" d="M 301 -10 C 250 -10 202 -2 157 12 C 111 27 71 50 36 82 L 92 161 C 120 134 154 114 192 100 C 230 86 271 80 313 80 C 347 80 381 85 415 96 C 448 106 467 129 472 164 C 476 192 465 213 441 225 C 417 237 371 247 303 256 C 231 264 178 281 144 307 C 110 333 96 373 104 429 C 112 489 141 534 191 564 C 241 594 296 610 356 610 C 403 610 447 602 489 586 C 530 570 567 547 601 518 L 545 439 C 517 463 487 483 453 498 C 419 512 382 520 343 520 C 311 520 281 514 253 502 C 225 490 208 468 204 436 C 200 408 210 388 232 376 C 254 364 300 353 368 345 C 443 336 498 317 532 289 C 566 261 579 221 572 171 C 563 108 531 62 477 33 C 422 4 363 -10 301 -10 Z M 276 700 L 440 900 L 590 900 L 367 700 L 276 700 Z" unicode="ś" />
<glyph horiz-adv-x="700" d="M 306 -6 C 246 -6 191 3 142 23 C 92 42 51 77 17 129 L 99 197 C 121 159 151 130 187 112 C 223 93 268 84 322 84 C 371 84 412 95 446 118 C 480 141 499 172 505 212 C 510 250 501 279 478 299 C 454 319 406 341 333 364 C 239 392 177 422 147 455 C 116 487 105 534 113 594 C 123 663 153 715 205 751 C 256 786 315 804 381 804 C 437 804 488 794 536 774 C 584 754 623 720 655 670 L 576 601 C 554 639 525 667 488 686 C 450 704 411 714 370 714 C 328 714 293 705 265 688 C 237 671 221 643 216 603 C 210 567 220 539 245 519 C 270 499 322 477 400 454 C 488 427 546 398 576 366 C 605 334 615 289 607 229 C 596 152 560 94 500 54 C 440 14 375 -6 306 -6 Z M 245 904 L 216 968 L 411 1117 L 483 1117 L 638 968 L 591 904 L 433 1020 L 245 904 Z" unicode="Ŝ" />
<glyph horiz-adv-x="700" d="M 301 -10 C 250 -10 202 -2 157 12 C 111 27 71 50 36 82 L 92 161 C 120 134 154 114 192 100 C 230 86 271 80 313 80 C 347 80 381 85 415 96 C 448 106 467 129 472 164 C 476 192 465 213 441 225 C 417 237 371 247 303 256 C 231 264 178 281 144 307 C 110 333 96 373 104 429 C 112 489 141 534 191 564 C 241 594 296 610 356 610 C 403 610 447 602 489 586 C 530 570 567 547 601 518 L 545 439 C 517 463 487 483 453 498 C 419 512 382 520 343 520 C 311 520 281 514 253 502 C 225 490 208 468 204 436 C 200 408 210 388 232 376 C 254 364 300 353 368 345 C 443 336 498 317 532 289 C 566 261 579 221 572 171 C 563 108 531 62 477 33 C 422 4 363 -10 301 -10 Z M 218 704 L 189 768 L 384 917 L 456 917 L 611 768 L 564 704 L 406 820 L 218 704 Z" unicode="ŝ" />
<glyph horiz-adv-x="700" d="M 306 -6 C 246 -6 191 3 142 23 C 92 42 51 77 17 129 L 99 197 C 121 159 151 130 187 112 C 223 93 268 84 322 84 C 371 84 412 95 446 118 C 480 141 499 172 505 212 C 510 250 501 279 478 299 C 454 319 406 341 333 364 C 239 392 177 422 147 455 C 116 487 105 534 113 594 C 123 663 153 715 205 751 C 256 786 315 804 381 804 C 437 804 488 794 536 774 C 584 754 623 720 655 670 L 576 601 C 554 639 525 667 488 686 C 450 704 411 714 370 714 C 328 714 293 705 265 688 C 237 671 221 643 216 603 C 210 567 220 539 245 519 C 270 499 322 477 400 454 C 488 427 546 398 576 366 C 605 334 615 289 607 229 C 596 152 560 94 500 54 C 440 14 375 -6 306 -6 Z M 265 0 L 291 42 C 319 36 345 24 369 4 C 393 -15 402 -47 396 -91 C 390 -134 370 -166 338 -186 C 305 -206 270 -216 233 -216 C 189 -216 154 -207 129 -191 C 103 -175 92 -148 95 -110 L 184 -100 C 183 -112 187 -121 195 -126 C 203 -131 218 -134 239 -134 C 259 -134 274 -129 286 -121 C 298 -113 305 -97 308 -75 C 311 -52 309 -35 303 -24 C 296 -13 283 -5 265 0 Z" unicode="Ş" />
<glyph horiz-adv-x="700" d="M 301 -10 C 250 -10 202 -2 157 12 C 111 27 71 50 36 82 L 92 161 C 120 134 154 114 192 100 C 230 86 271 80 313 80 C 347 80 381 85 415 96 C 448 106 467 129 472 164 C 476 192 465 213 441 225 C 417 237 371 247 303 256 C 231 264 178 281 144 307 C 110 333 96 373 104 429 C 112 489 141 534 191 564 C 241 594 296 610 356 610 C 403 610 447 602 489 586 C 530 570 567 547 601 518 L 545 439 C 517 463 487 483 453 498 C 419 512 382 520 343 520 C 311 520 281 514 253 502 C 225 490 208 468 204 436 C 200 408 210 388 232 376 C 254 364 300 353 368 345 C 443 336 498 317 532 289 C 566 261 579 221 572 171 C 563 108 531 62 477 33 C 422 4 363 -10 301 -10 Z M 262 0 L 288 42 C 316 36 342 24 366 4 C 390 -15 399 -47 393 -91 C 387 -134 367 -166 335 -186 C 302 -206 267 -216 230 -216 C 186 -216 151 -207 126 -191 C 100 -175 89 -148 92 -110 L 181 -100 C 180 -112 184 -121 192 -126 C 200 -131 215 -134 236 -134 C 256 -134 271 -129 283 -121 C 295 -113 302 -97 305 -75 C 308 -52 306 -35 300 -24 C 293 -13 280 -5 262 0 Z" unicode="ş" />
<glyph horiz-adv-x="700" d="M 306 -6 C 246 -6 191 3 142 23 C 92 42 51 77 17 129 L 99 197 C 121 159 151 130 187 112 C 223 93 268 84 322 84 C 371 84 412 95 446 118 C 480 141 499 172 505 212 C 510 250 501 279 478 299 C 454 319 406 341 333 364 C 239 392 177 422 147 455 C 116 487 105 534 113 594 C 123 663 153 715 205 751 C 256 786 315 804 381 804 C 437 804 488 794 536 774 C 584 754 623 720 655 670 L 576 601 C 554 639 525 667 488 686 C 450 704 411 714 370 714 C 328 714 293 705 265 688 C 237 671 221 643 216 603 C 210 567 220 539 245 519 C 270 499 322 477 400 454 C 488 427 546 398 576 366 C 605 334 615 289 607 229 C 596 152 560 94 500 54 C 440 14 375 -6 306 -6 Z M 383 904 L 228 1053 L 275 1117 L 433 1001 L 621 1117 L 650 1053 L 455 904 L 383 904 Z" unicode="Š" />
<glyph horiz-adv-x="700" d="M 301 -10 C 250 -10 202 -2 157 12 C 111 27 71 50 36 82 L 92 161 C 120 134 154 114 192 100 C 230 86 271 80 313 80 C 347 80 381 85 415 96 C 448 106 467 129 472 164 C 476 192 465 213 441 225 C 417 237 371 247 303 256 C 231 264 178 281 144 307 C 110 333 96 373 104 429 C 112 489 141 534 191 564 C 241 594 296 610 356 610 C 403 610 447 602 489 586 C 530 570 567 547 601 518 L 545 439 C 517 463 487 483 453 498 C 419 512 382 520 343 520 C 311 520 281 514 253 502 C 225 490 208 468 204 436 C 200 408 210 388 232 376 C 254 364 300 353 368 345 C 443 336 498 317 532 289 C 566 261 579 221 572 171 C 563 108 531 62 477 33 C 422 4 363 -10 301 -10 Z M 356 704 L 201 853 L 248 917 L 406 801 L 594 917 L 623 853 L 428 704 L 356 704 Z" unicode="š" />
<glyph horiz-adv-x="700" d="M 244 0 L 344 710 L 94 710 L 106 800 L 706 800 L 694 710 L 444 710 L 344 0 L 244 0 Z M 251 0 L 277 42 C 305 36 331 24 355 4 C 379 -15 388 -47 382 -91 C 376 -134 356 -166 324 -186 C 291 -206 256 -216 219 -216 C 175 -216 140 -207 115 -191 C 89 -175 78 -148 81 -110 L 170 -100 C 169 -112 173 -121 181 -126 C 189 -131 204 -134 225 -134 C 245 -134 260 -129 272 -121 C 284 -113 291 -97 294 -75 C 297 -52 295 -35 289 -24 C 282 -13 269 -5 251 0 Z" unicode="Ţ" />
<glyph horiz-adv-x="700" d="M 392 -9 C 326 -9 277 7 245 40 C 213 72 201 122 211 190 L 256 510 L 86 510 L 98 600 L 268 600 L 296 800 L 396 800 L 368 600 L 628 600 L 616 510 L 356 510 L 312 199 C 306 160 312 131 329 113 C 345 94 373 85 411 85 C 436 85 460 86 482 90 C 504 94 526 99 548 105 L 555 14 C 531 7 506 1 480 -2 C 454 -6 424 -9 392 -9 Z M 329 0 L 355 42 C 383 36 409 24 433 4 C 457 -15 466 -47 460 -91 C 454 -134 434 -166 402 -186 C 369 -206 334 -216 297 -216 C 253 -216 218 -207 193 -191 C 167 -175 156 -148 159 -110 L 248 -100 C 247 -112 251 -121 259 -126 C 267 -131 282 -134 303 -134 C 323 -134 338 -129 350 -121 C 362 -113 369 -97 372 -75 C 375 -52 373 -35 367 -24 C 360 -13 347 -5 329 0 Z" unicode="ţ" />
<glyph horiz-adv-x="700" d="M 244 0 L 344 710 L 94 710 L 106 800 L 706 800 L 694 710 L 444 710 L 344 0 L 244 0 Z M 382 904 L 227 1053 L 274 1117 L 432 1001 L 620 1117 L 649 1053 L 454 904 L 382 904 Z" unicode="Ť" />
<glyph horiz-adv-x="700" d="M 392 -9 C 326 -9 277 7 245 40 C 213 72 201 122 211 190 L 256 510 L 86 510 L 98 600 L 268 600 L 296 800 L 396 800 L 368 600 L 628 600 L 616 510 L 356 510 L 312 199 C 306 160 312 131 329 113 C 345 94 373 85 411 85 C 436 85 460 86 482 90 C 504 94 526 99 548 105 L 555 14 C 531 7 506 1 480 -2 C 454 -6 424 -9 392 -9 Z M 451 705 L 573 1000 L 720 1000 L 523 705 L 451 705 Z" unicode="ť" />
<glyph horiz-adv-x="700" d="M 244 0 L 288 310 L 88 310 L 100 400 L 300 400 L 344 710 L 94 710 L 106 800 L 706 800 L 694 710 L 444 710 L 400 400 L 600 400 L 588 310 L 388 310 L 344 0 L 244 0 Z" unicode="Ŧ" />
<glyph horiz-adv-x="700" d="M 392 -9 C 326 -9 277 7 245 40 C 213 72 201 122 211 190 L 223 280 L 93 280 L 106 370 L 236 370 L 256 510 L 86 510 L 98 600 L 268 600 L 296 800 L 396 800 L 368 600 L 628 600 L 616 510 L 356 510 L 336 370 L 566 370 L 553 280 L 323 280 L 312 199 C 306 160 312 131 329 113 C 345 94 373 85 411 85 C 436 85 460 86 482 90 C 504 94 526 99 548 105 L 555 14 C 531 7 506 1 480 -2 C 454 -6 424 -9 392 -9 Z" unicode="ŧ" />
<glyph horiz-adv-x="700" d="M 293 -10 C 209 -10 150 13 115 61 C 80 109 69 181 83 277 L 156 800 L 256 800 L 183 277 C 173 205 177 155 196 125 C 214 95 251 80 305 80 C 359 80 399 95 427 125 C 454 155 473 205 483 277 L 556 800 L 656 800 L 583 277 C 569 181 538 109 490 61 C 442 13 376 -10 293 -10 Z M 497 910 C 474 910 456 916 442 928 C 428 940 416 953 406 968 C 396 982 386 995 378 1007 C 369 1019 359 1025 347 1025 C 334 1025 322 1018 311 1006 C 300 994 292 969 288 931 L 286 920 L 209 920 L 211 935 C 218 985 235 1026 263 1060 C 290 1093 325 1110 367 1110 C 392 1110 412 1104 427 1092 C 441 1080 453 1067 463 1053 C 472 1038 480 1025 488 1013 C 496 1001 505 995 517 995 C 529 995 541 1001 552 1013 C 562 1025 570 1051 576 1089 L 577 1100 L 654 1100 L 652 1085 C 645 1034 628 992 601 959 C 573 926 539 910 497 910 Z" unicode="Ũ" />
<glyph horiz-adv-x="700" d="M 237 -10 C 179 -10 134 8 104 46 C 73 84 62 133 71 195 L 128 600 L 228 600 L 174 215 C 168 171 173 138 189 117 C 205 95 234 85 274 85 C 305 85 337 93 369 110 C 401 127 435 154 471 190 L 528 600 L 628 600 L 544 0 L 444 0 L 458 100 L 428 100 C 409 67 382 40 347 20 C 312 0 275 -10 237 -10 Z M 473 710 C 450 710 432 716 418 728 C 404 740 392 753 382 768 C 372 782 362 795 354 807 C 345 819 335 825 323 825 C 310 825 298 818 287 806 C 276 794 268 769 264 731 L 262 720 L 185 720 L 187 735 C 194 785 211 826 239 860 C 266 893 301 910 343 910 C 368 910 388 904 403 892 C 417 880 429 867 439 853 C 448 838 456 825 464 813 C 472 801 481 795 493 795 C 505 795 517 801 528 813 C 538 825 546 851 552 889 L 553 900 L 630 900 L 628 885 C 621 834 604 792 577 759 C 549 726 515 710 473 710 Z" unicode="ũ" />
<glyph horiz-adv-x="700" d="M 293 -10 C 209 -10 150 13 115 61 C 80 109 69 181 83 277 L 156 800 L 256 800 L 183 277 C 173 205 177 155 196 125 C 214 95 251 80 305 80 C 359 80 399 95 427 125 C 454 155 473 205 483 277 L 556 800 L 656 800 L 583 277 C 569 181 538 109 490 61 C 442 13 376 -10 293 -10 Z M 224 955 L 237 1045 L 637 1045 L 624 955 L 224 955 Z" unicode="Ū" />
<glyph horiz-adv-x="700" d="M 237 -10 C 179 -10 134 8 104 46 C 73 84 62 133 71 195 L 128 600 L 228 600 L 174 215 C 168 171 173 138 189 117 C 205 95 234 85 274 85 C 305 85 337 93 369 110 C 401 127 435 154 471 190 L 528 600 L 628 600 L 544 0 L 444 0 L 458 100 L 428 100 C 409 67 382 40 347 20 C 312 0 275 -10 237 -10 Z M 200 755 L 213 845 L 613 845 L 600 755 L 200 755 Z" unicode="ū" />
<glyph horiz-adv-x="700" d="M 293 -10 C 209 -10 150 13 115 61 C 80 109 69 181 83 277 L 156 800 L 256 800 L 183 277 C 173 205 177 155 196 125 C 214 95 251 80 305 80 C 359 80 399 95 427 125 C 454 155 473 205 483 277 L 556 800 L 656 800 L 583 277 C 569 181 538 109 490 61 C 442 13 376 -10 293 -10 Z M 415 893 C 350 893 298 908 258 940 C 218 971 203 1025 213 1103 L 313 1103 C 307 1055 313 1021 332 1001 C 350 981 382 972 426 972 C 470 972 504 981 529 1001 C 553 1021 569 1055 577 1103 L 677 1103 C 665 1025 635 971 586 940 C 536 908 479 893 415 893 Z" unicode="Ŭ" />
<glyph horiz-adv-x="700" d="M 237 -10 C 179 -10 134 8 104 46 C 73 84 62 133 71 195 L 128 600 L 228 600 L 174 215 C 168 171 173 138 189 117 C 205 95 234 85 274 85 C 305 85 337 93 369 110 C 401 127 435 154 471 190 L 528 600 L 628 600 L 544 0 L 444 0 L 458 100 L 428 100 C 409 67 382 40 347 20 C 312 0 275 -10 237 -10 Z M 391 693 C 326 693 274 708 234 740 C 194 771 179 825 189 903 L 289 903 C 283 855 289 821 308 801 C 326 781 358 772 402 772 C 446 772 480 781 505 801 C 529 821 545 855 553 903 L 653 903 C 641 825 611 771 562 740 C 512 708 455 693 391 693 Z" unicode="ŭ" />
<glyph horiz-adv-x="700" d="M 293 -10 C 209 -10 150 13 115 61 C 80 109 69 181 83 277 L 156 800 L 256 800 L 183 277 C 173 205 177 155 196 125 C 214 95 251 80 305 80 C 359 80 399 95 427 125 C 454 155 473 205 483 277 L 556 800 L 656 800 L 583 277 C 569 181 538 109 490 61 C 442 13 376 -10 293 -10 Z M 414 885 C 366 885 329 896 303 920 C 277 944 267 980 275 1030 L 279 1062 C 286 1112 306 1149 339 1173 C 371 1197 412 1210 460 1210 C 508 1210 545 1197 571 1173 C 597 1149 606 1112 599 1062 L 595 1030 C 587 980 567 944 535 920 C 502 896 462 885 414 885 Z M 424 956 C 450 956 471 961 487 973 C 503 984 513 1003 517 1030 L 521 1062 C 525 1088 520 1108 508 1120 C 496 1132 476 1139 450 1139 C 422 1139 401 1132 386 1120 C 370 1108 361 1088 357 1062 L 353 1030 C 349 1003 353 984 365 973 C 377 961 396 956 424 956 Z" unicode="Ů" />
<glyph horiz-adv-x="700" d="M 237 -10 C 179 -10 134 8 104 46 C 73 84 62 133 71 195 L 128 600 L 228 600 L 174 215 C 168 171 173 138 189 117 C 205 95 234 85 274 85 C 305 85 337 93 369 110 C 401 127 435 154 471 190 L 528 600 L 628 600 L 544 0 L 444 0 L 458 100 L 428 100 C 409 67 382 40 347 20 C 312 0 275 -10 237 -10 Z M 390 685 C 342 685 305 696 279 720 C 253 744 243 780 251 830 L 255 862 C 262 912 282 949 315 973 C 347 997 388 1010 436 1010 C 484 1010 521 997 547 973 C 573 949 582 912 575 862 L 571 830 C 563 780 543 744 511 720 C 478 696 438 685 390 685 Z M 400 756 C 426 756 447 761 463 773 C 479 784 489 803 493 830 L 497 862 C 501 888 496 908 484 920 C 472 932 452 939 426 939 C 398 939 377 932 362 920 C 346 908 337 888 333 862 L 329 830 C 325 803 329 784 341 773 C 353 761 372 756 400 756 Z" unicode="ů" />
<glyph horiz-adv-x="700" d="M 293 -10 C 209 -10 150 13 115 61 C 80 109 69 181 83 277 L 156 800 L 256 800 L 183 277 C 173 205 177 155 196 125 C 214 95 251 80 305 80 C 359 80 399 95 427 125 C 454 155 473 205 483 277 L 556 800 L 656 800 L 583 277 C 569 181 538 109 490 61 C 442 13 376 -10 293 -10 Z M 482 900 L 566 1100 L 706 1100 L 553 900 L 482 900 Z M 252 900 L 336 1100 L 476 1100 L 323 900 L 252 900 Z" unicode="Ű" />
<glyph horiz-adv-x="700" d="M 237 -10 C 179 -10 134 8 104 46 C 73 84 62 133 71 195 L 128 600 L 228 600 L 174 215 C 168 171 173 138 189 117 C 205 95 234 85 274 85 C 305 85 337 93 369 110 C 401 127 435 154 471 190 L 528 600 L 628 600 L 544 0 L 444 0 L 458 100 L 428 100 C 409 67 382 40 347 20 C 312 0 275 -10 237 -10 Z M 468 700 L 552 900 L 692 900 L 539 700 L 468 700 Z M 238 700 L 322 900 L 462 900 L 309 700 L 238 700 Z" unicode="ű" />
<glyph horiz-adv-x="700" d="M 293 -10 C 209 -10 150 13 115 61 C 80 109 69 181 83 277 L 156 800 L 256 800 L 183 277 C 173 205 177 155 196 125 C 214 95 251 80 305 80 C 359 80 399 95 427 125 C 454 155 473 205 483 277 L 556 800 L 656 800 L 583 277 C 569 181 538 109 490 61 C 442 13 376 -10 293 -10 Z M 329 -215 C 287 -215 253 -204 227 -183 C 201 -162 190 -133 196 -96 C 200 -63 216 -34 245 -9 C 274 16 305 35 338 47 L 361 23 C 336 9 318 -6 308 -23 C 297 -39 291 -54 289 -68 C 287 -86 291 -100 302 -110 C 312 -120 329 -125 352 -125 C 364 -125 379 -124 398 -122 C 416 -120 431 -117 443 -115 L 430 -205 C 417 -207 401 -210 381 -212 C 361 -214 344 -215 329 -215 Z" unicode="Ų" />
<glyph horiz-adv-x="700" d="M 237 -10 C 179 -10 134 8 104 46 C 73 84 62 133 71 195 L 128 600 L 228 600 L 174 215 C 168 171 173 138 189 117 C 205 95 234 85 274 85 C 305 85 337 93 369 110 C 401 127 435 154 471 190 L 528 600 L 628 600 L 544 0 L 444 0 L 458 100 L 428 100 C 409 67 382 40 347 20 C 312 0 275 -10 237 -10 Z M 499 -215 C 457 -215 423 -204 397 -183 C 371 -162 360 -133 366 -96 C 370 -63 386 -34 415 -9 C 444 16 475 35 508 47 L 531 23 C 506 9 488 -6 478 -23 C 467 -39 461 -54 459 -68 C 457 -86 461 -100 472 -110 C 482 -120 499 -125 522 -125 C 534 -125 549 -124 568 -122 C 586 -120 601 -117 613 -115 L 600 -205 C 587 -207 571 -210 551 -212 C 531 -214 514 -215 499 -215 Z" unicode="ų" />
<glyph horiz-adv-x="700" d="M 412 0 L 361 477 L 176 0 L 76 0 L 80 800 L 179 800 L 160 147 L 328 600 L 433 600 L 475 147 L 638 800 L 732 800 L 512 0 L 412 0 Z M 244 904 L 215 968 L 410 1117 L 482 1117 L 637 968 L 590 904 L 432 1020 L 244 904 Z" unicode="Ŵ" />
<glyph horiz-adv-x="700" d="M 382 0 L 349 391 L 210 0 L 96 0 L 67 600 L 163 600 L 165 73 L 303 500 L 421 500 L 449 89 L 593 600 L 689 600 L 492 0 L 382 0 Z M 220 704 L 191 768 L 386 917 L 458 917 L 613 768 L 566 704 L 408 820 L 220 704 Z" unicode="ŵ" />
<glyph horiz-adv-x="700" d="M 344 0 L 244 0 L 286 300 L 70 800 L 182 800 L 355 390 L 631 800 L 741 800 L 386 300 L 344 0 Z M 244 904 L 215 968 L 410 1117 L 482 1117 L 637 968 L 590 904 L 432 1020 L 244 904 Z" unicode="Ŷ" />
<glyph horiz-adv-x="700" d="M 87 -206 C 71 -206 55 -205 40 -203 C 25 -201 10 -198 -5 -195 L 24 -106 C 40 -110 56 -113 71 -115 C 85 -117 99 -118 112 -118 C 142 -118 171 -109 197 -92 C 223 -74 246 -47 264 -9 L 268 0 L 231 0 L 102 600 L 211 600 L 308 84 L 548 600 L 653 600 L 346 -20 C 314 -84 277 -131 234 -161 C 190 -191 141 -206 87 -206 Z M 220 704 L 191 768 L 386 917 L 458 917 L 613 768 L 566 704 L 408 820 L 220 704 Z" unicode="ŷ" />
<glyph horiz-adv-x="700" d="M 344 0 L 244 0 L 286 300 L 70 800 L 182 800 L 355 390 L 631 800 L 741 800 L 386 300 L 344 0 Z M 303 910 C 283 910 268 914 257 922 C 246 930 242 945 246 967 L 247 974 C 250 996 258 1012 271 1020 C 284 1028 300 1033 320 1033 C 339 1033 354 1028 365 1020 C 376 1012 380 996 377 974 L 376 967 C 372 945 364 930 351 922 C 337 914 321 910 303 910 Z M 533 910 C 513 910 498 914 487 922 C 476 930 472 945 476 967 L 477 974 C 480 996 488 1012 501 1020 C 514 1028 530 1033 550 1033 C 569 1033 584 1028 595 1020 C 606 1012 610 996 607 974 L 606 967 C 602 945 594 930 581 922 C 567 914 551 910 533 910 Z" unicode="Ÿ" />
<glyph horiz-adv-x="700" d="M 564 0 L 24 0 L 37 90 L 544 710 L 124 710 L 136 800 L 676 800 L 664 710 L 156 90 L 577 90 L 564 0 Z M 332 900 L 496 1100 L 646 1100 L 423 900 L 332 900 Z" unicode="Ź" />
<glyph horiz-adv-x="700" d="M 524 0 L 64 0 L 77 90 L 473 510 L 136 510 L 148 600 L 608 600 L 596 510 L 200 90 L 537 90 L 524 0 Z M 278 700 L 442 900 L 592 900 L 369 700 L 278 700 Z" unicode="ź" />
<glyph horiz-adv-x="700" d="M 564 0 L 24 0 L 37 90 L 544 710 L 124 710 L 136 800 L 676 800 L 664 710 L 156 90 L 577 90 L 564 0 Z M 418 910 C 392 910 372 914 358 922 C 343 930 337 945 341 967 L 342 974 C 345 996 355 1012 372 1020 C 388 1028 409 1033 435 1033 C 460 1033 480 1028 495 1020 C 509 1012 515 996 512 974 L 511 967 C 507 945 497 930 480 922 C 463 914 442 910 418 910 Z" unicode="Ż" />
<glyph horiz-adv-x="700" d="M 524 0 L 64 0 L 77 90 L 473 510 L 136 510 L 148 600 L 608 600 L 596 510 L 200 90 L 537 90 L 524 0 Z M 394 710 C 368 710 348 714 334 722 C 319 730 313 745 317 767 L 318 774 C 321 796 331 812 348 820 C 364 828 385 833 411 833 C 436 833 456 828 471 820 C 485 812 491 796 488 774 L 487 767 C 483 745 473 730 456 722 C 439 714 418 710 394 710 Z" unicode="ż" />
<glyph horiz-adv-x="700" d="M 564 0 L 24 0 L 37 90 L 544 710 L 124 710 L 136 800 L 676 800 L 664 710 L 156 90 L 577 90 L 564 0 Z M 382 904 L 227 1053 L 274 1117 L 432 1001 L 620 1117 L 649 1053 L 454 904 L 382 904 Z" unicode="Ž" />
<glyph horiz-adv-x="700" d="M 524 0 L 64 0 L 77 90 L 473 510 L 136 510 L 148 600 L 608 600 L 596 510 L 200 90 L 537 90 L 524 0 Z M 358 704 L 203 853 L 250 917 L 408 801 L 596 917 L 625 853 L 430 704 L 358 704 Z" unicode="ž" />
<glyph horiz-adv-x="700" d="M 216 -200 L 316 510 L 196 510 L 208 600 L 328 600 L 334 640 C 341 694 365 735 405 765 C 445 795 490 810 539 810 C 558 810 580 807 604 802 C 628 796 647 790 663 784 L 631 700 C 618 705 603 710 587 714 C 570 718 553 720 536 720 C 508 720 485 713 467 701 C 449 689 438 669 434 641 L 316 -200 L 216 -200 Z" unicode="ſ" />
<glyph horiz-adv-x="700" d="M 162 -6 C 151 -6 139 -5 126 -4 C 113 -3 100 -2 86 0 C 72 2 60 4 48 7 C 36 10 26 14 18 18 L 50 104 C 58 100 67 97 77 95 C 87 92 96 90 105 88 C 113 86 122 85 131 85 C 139 84 147 84 155 84 C 174 84 190 85 203 89 C 216 93 227 99 237 107 C 246 115 253 125 258 139 C 263 152 267 169 271 190 L 302 410 L 92 410 L 104 500 L 314 500 L 334 640 C 337 665 344 688 356 709 C 368 730 383 748 401 763 C 419 778 439 790 463 798 C 487 806 512 810 539 810 C 549 810 561 809 574 808 C 587 807 601 806 615 804 C 628 802 641 799 653 796 C 665 793 675 790 683 786 L 651 700 C 642 703 633 706 623 709 C 613 711 604 714 596 716 C 587 717 578 718 570 719 C 561 719 553 720 546 720 C 526 720 510 718 497 714 C 484 710 473 705 464 697 C 455 688 448 677 443 664 C 437 650 433 634 430 614 L 414 500 L 634 500 L 622 410 L 402 410 L 367 164 C 363 138 356 114 345 93 C 333 72 319 54 301 40 C 283 25 262 14 238 6 C 214 -2 189 -6 162 -6 Z" unicode="ƒ" />
<glyph horiz-adv-x="700" d="M 448 320 L 390 687 L 227 320 L 448 320 Z M 499 0 L 462 230 L 187 230 L 86 0 L -16 0 L 354 800 L 459 800 L 605 0 L 499 0 Z M 415 885 C 367 885 330 896 304 920 C 278 944 268 980 276 1030 L 280 1062 C 287 1112 307 1149 340 1173 C 372 1197 413 1210 461 1210 C 509 1210 546 1197 572 1173 C 598 1149 607 1112 600 1062 L 596 1030 C 588 980 568 944 536 920 C 503 896 463 885 415 885 Z M 425 956 C 451 956 472 961 488 973 C 504 984 514 1003 518 1030 L 522 1062 C 526 1088 521 1108 509 1120 C 497 1132 477 1139 451 1139 C 423 1139 402 1132 387 1120 C 371 1108 362 1088 358 1062 L 354 1030 C 350 1003 354 984 366 973 C 378 961 397 956 425 956 Z M 362 1200 L 526 1400 L 676 1400 L 453 1200 L 362 1200 Z" unicode="Ǻ" />
<glyph horiz-adv-x="700" d="M 233 76 C 267 76 300 82 331 94 C 362 106 390 128 416 159 L 430 255 L 250 255 C 221 255 196 248 175 235 C 154 222 141 199 137 167 C 133 138 138 116 152 100 C 166 84 193 76 233 76 Z M 208 -10 C 157 -10 114 3 78 30 C 42 57 28 101 37 161 C 44 213 67 255 105 285 C 143 315 186 330 232 330 L 440 330 L 452 416 C 456 448 449 473 431 492 C 412 510 381 520 338 520 C 294 520 260 513 237 500 C 213 487 192 458 173 414 L 89 438 C 108 494 139 537 183 566 C 227 595 282 610 349 610 C 415 610 467 595 507 565 C 547 535 562 490 554 428 L 516 160 C 511 124 518 101 537 92 C 555 83 585 82 627 89 L 614 -3 C 571 -9 532 -6 498 5 C 463 17 448 48 452 100 L 432 100 C 409 69 377 43 337 22 C 297 0 254 -10 208 -10 Z M 370 685 C 322 685 285 696 259 720 C 233 744 223 780 231 830 L 235 862 C 242 912 262 949 295 973 C 327 997 368 1010 416 1010 C 464 1010 501 997 527 973 C 553 949 562 912 555 862 L 551 830 C 543 780 523 744 491 720 C 458 696 418 685 370 685 Z M 380 756 C 406 756 427 761 443 773 C 459 784 469 803 473 830 L 477 862 C 481 888 476 908 464 920 C 452 932 432 939 406 939 C 378 939 357 932 342 920 C 326 908 317 888 313 862 L 309 830 C 305 803 309 784 321 773 C 333 761 352 756 380 756 Z M 318 1000 L 482 1200 L 632 1200 L 409 1000 L 318 1000 Z" unicode="ǻ" />
<glyph horiz-adv-x="700" d="M 341 720 L 164 310 L 348 310 L 405 720 L 341 720 Z M 336 230 L 129 230 L 30 0 L -56 0 L 299 800 L 746 800 L 735 720 L 495 720 L 460 470 L 690 470 L 679 390 L 449 390 L 405 80 L 645 80 L 634 0 L 304 0 L 336 230 Z M 432 900 L 596 1100 L 746 1100 L 523 900 L 432 900 Z" unicode="Ǽ" />
<glyph horiz-adv-x="700" d="M 635 144 C 621 91 598 52 568 27 C 538 2 495 -10 439 -10 C 401 -10 370 -2 346 12 C 321 26 304 49 295 80 L 279 80 C 260 54 238 32 213 15 C 188 -1 157 -10 121 -10 C 86 -10 54 3 26 30 C -1 57 -11 101 -3 161 C 4 214 25 255 61 285 C 96 315 135 330 177 330 L 300 330 L 312 416 C 317 450 313 478 300 499 C 286 519 264 530 234 530 C 206 530 185 524 171 512 C 157 500 142 474 126 434 L 51 458 C 67 506 91 543 123 570 C 155 596 198 610 254 610 C 281 610 305 604 326 593 C 346 582 362 565 373 543 C 391 565 412 582 436 593 C 460 604 487 610 516 610 C 572 610 614 593 643 560 C 671 527 681 476 671 407 L 653 280 L 373 280 L 360 182 C 354 140 357 110 370 92 C 382 74 405 65 438 65 C 470 65 494 71 509 83 C 524 95 537 118 547 152 L 635 144 Z M 392 414 L 382 345 L 572 345 L 581 405 C 587 450 583 483 571 504 C 558 524 536 535 504 535 C 473 535 448 525 429 505 C 410 485 398 455 392 414 Z M 274 139 L 291 265 L 196 265 C 168 265 145 257 125 243 C 105 229 92 203 87 167 C 83 135 85 110 94 92 C 103 74 122 66 151 66 C 173 66 194 72 214 85 C 234 98 254 116 274 139 Z M 329 700 L 493 900 L 643 900 L 420 700 L 329 700 Z" unicode="ǽ" />
<glyph horiz-adv-x="700" d="M 166 152 L 468 711 C 457 713 446 715 434 717 C 422 719 409 720 395 720 C 333 720 287 704 257 674 C 227 644 207 592 197 519 L 163 277 C 159 250 157 226 158 206 C 158 185 161 167 166 152 Z M 305 80 C 367 80 413 95 443 125 C 473 155 493 205 503 277 L 537 519 C 541 553 543 582 541 607 C 539 631 534 652 525 668 L 216 95 C 227 90 240 86 255 84 C 269 81 286 80 305 80 Z M 293 -10 C 271 -10 250 -8 231 -5 C 212 -2 195 2 179 9 L 120 -100 L 20 -100 L 105 59 C 84 83 70 113 63 150 C 56 186 56 229 63 277 L 97 519 C 110 613 143 685 197 735 C 250 785 321 810 409 810 C 427 810 444 809 460 807 C 476 805 491 801 505 797 L 560 900 L 660 900 L 581 754 C 607 730 624 698 634 659 C 643 619 644 573 637 519 L 603 277 C 589 183 556 112 503 63 C 450 14 380 -10 293 -10 Z M 342 900 L 506 1100 L 656 1100 L 433 900 L 342 900 Z" unicode="Ǿ" />
<glyph horiz-adv-x="700" d="M 174 217 C 171 197 171 180 173 165 C 175 149 179 136 186 126 L 432 512 C 423 514 413 516 402 518 C 391 519 379 520 367 520 C 315 520 275 508 248 486 C 221 463 204 427 197 379 L 174 217 Z M 305 80 C 357 80 396 91 424 113 C 451 135 468 169 474 217 L 497 379 C 499 399 500 416 498 432 C 496 448 492 461 486 472 L 239 88 C 248 85 258 83 269 82 C 280 80 292 80 305 80 Z M 293 -10 C 275 -10 257 -9 241 -7 C 224 -5 209 -1 195 3 L 130 -100 L 30 -100 L 122 43 C 102 61 87 85 79 114 C 70 143 68 177 74 217 L 97 379 C 108 457 139 515 191 553 C 243 591 306 610 381 610 C 399 610 416 609 432 607 C 448 605 463 601 477 597 L 542 700 L 642 700 L 550 557 C 570 538 584 514 593 484 C 601 454 603 419 597 379 L 574 217 C 563 139 532 82 481 45 C 430 8 367 -10 293 -10 Z M 278 700 L 442 900 L 592 900 L 369 700 L 278 700 Z" unicode="ǿ" />
<glyph horiz-adv-x="700" d="M 306 -6 C 246 -6 191 3 142 23 C 92 42 51 77 17 129 L 99 197 C 121 159 151 130 187 112 C 223 93 268 84 322 84 C 371 84 412 95 446 118 C 480 141 499 172 505 212 C 510 250 501 279 478 299 C 454 319 406 341 333 364 C 239 392 177 422 147 455 C 116 487 105 534 113 594 C 123 663 153 715 205 751 C 256 786 315 804 381 804 C 437 804 488 794 536 774 C 584 754 623 720 655 670 L 576 601 C 554 639 525 667 488 686 C 450 704 411 714 370 714 C 328 714 293 705 265 688 C 237 671 221 643 216 603 C 210 567 220 539 245 519 C 270 499 322 477 400 454 C 488 427 546 398 576 366 C 605 334 615 289 607 229 C 596 152 560 94 500 54 C 440 14 375 -6 306 -6 Z M 98 -300 L 222 -100 L 372 -100 L 189 -300 L 98 -300 Z" unicode="Ș" />
<glyph horiz-adv-x="700" d="M 301 -10 C 250 -10 202 -2 157 12 C 111 27 71 50 36 82 L 92 161 C 120 134 154 114 192 100 C 230 86 271 80 313 80 C 347 80 381 85 415 96 C 448 106 467 129 472 164 C 476 192 465 213 441 225 C 417 237 371 247 303 256 C 231 264 178 281 144 307 C 110 333 96 373 104 429 C 112 489 141 534 191 564 C 241 594 296 610 356 610 C 403 610 447 602 489 586 C 530 570 567 547 601 518 L 545 439 C 517 463 487 483 453 498 C 419 512 382 520 343 520 C 311 520 281 514 253 502 C 225 490 208 468 204 436 C 200 408 210 388 232 376 C 254 364 300 353 368 345 C 443 336 498 317 532 289 C 566 261 579 221 572 171 C 563 108 531 62 477 33 C 422 4 363 -10 301 -10 Z M 98 -300 L 222 -100 L 372 -100 L 189 -300 L 98 -300 Z" unicode="ș" />
<glyph horiz-adv-x="700" d="M 244 0 L 344 710 L 94 710 L 106 800 L 706 800 L 694 710 L 444 710 L 344 0 L 244 0 Z M 97 -300 L 221 -100 L 371 -100 L 188 -300 L 97 -300 Z" unicode="Ț" />
<glyph horiz-adv-x="700" d="M 392 -9 C 326 -9 277 7 245 40 C 213 72 201 122 211 190 L 256 510 L 86 510 L 98 600 L 268 600 L 296 800 L 396 800 L 368 600 L 628 600 L 616 510 L 356 510 L 312 199 C 306 160 312 131 329 113 C 345 94 373 85 411 85 C 436 85 460 86 482 90 C 504 94 526 99 548 105 L 555 14 C 531 7 506 1 480 -2 C 454 -6 424 -9 392 -9 Z M 118 -300 L 242 -100 L 392 -100 L 209 -300 L 118 -300 Z" unicode="ț" />
<glyph horiz-adv-x="700" d="M 173 -208 C 147 -208 122 -206 97 -203 C 72 -200 46 -194 19 -186 L 52 -90 C 76 -98 98 -104 119 -107 C 140 -110 161 -112 183 -112 C 226 -112 262 -102 292 -84 C 321 -66 339 -35 345 7 L 416 510 L 136 510 L 148 600 L 528 600 L 443 -6 C 433 -74 403 -125 352 -158 C 301 -191 241 -208 173 -208 Z" unicode="ȷ" />
<glyph horiz-adv-x="700" d="M 201 400 L 482 800 L 566 800 L 400 400 L 201 400 Z" unicode="ʻ" />
<glyph horiz-adv-x="700" d="M 220 704 L 191 768 L 386 917 L 458 917 L 613 768 L 566 704 L 408 820 L 220 704 Z" unicode="ˆ" />
<glyph horiz-adv-x="700" d="M 358 704 L 203 853 L 250 917 L 408 801 L 596 917 L 625 853 L 430 704 L 358 704 Z" unicode="ˇ" />
<glyph horiz-adv-x="700" d="M 200 755 L 213 845 L 613 845 L 600 755 L 200 755 Z" unicode="ˉ" />
<glyph horiz-adv-x="700" d="M 391 693 C 326 693 274 708 234 740 C 194 771 179 825 189 903 L 289 903 C 283 855 289 821 308 801 C 326 781 358 772 402 772 C 446 772 480 781 505 801 C 529 821 545 855 553 903 L 653 903 C 641 825 611 771 562 740 C 512 708 455 693 391 693 Z" unicode="˘" />
<glyph horiz-adv-x="700" d="M 394 710 C 368 710 348 714 334 722 C 319 730 313 745 317 767 L 318 774 C 321 796 331 812 348 820 C 364 828 385 833 411 833 C 436 833 456 828 471 820 C 485 812 491 796 488 774 L 487 767 C 483 745 473 730 456 722 C 439 714 418 710 394 710 Z" unicode="˙" />
<glyph horiz-adv-x="700" d="M 390 685 C 342 685 305 696 279 720 C 253 744 243 780 251 830 L 255 862 C 262 912 282 949 315 973 C 347 997 388 1010 436 1010 C 484 1010 521 997 547 973 C 573 949 582 912 575 862 L 571 830 C 563 780 543 744 511 720 C 478 696 438 685 390 685 Z M 400 756 C 426 756 447 761 463 773 C 479 784 489 803 493 830 L 497 862 C 501 888 496 908 484 920 C 472 932 452 939 426 939 C 398 939 377 932 362 920 C 346 908 337 888 333 862 L 329 830 C 325 803 329 784 341 773 C 353 761 372 756 400 756 Z" unicode="˚" />
<glyph horiz-adv-x="700" d="M 319 -215 C 277 -215 243 -204 217 -183 C 191 -162 180 -133 186 -96 C 190 -63 206 -34 235 -9 C 264 16 295 35 328 47 L 351 23 C 326 9 308 -6 298 -23 C 287 -39 281 -54 279 -68 C 277 -86 281 -100 292 -110 C 302 -120 319 -125 342 -125 C 354 -125 369 -124 388 -122 C 406 -120 421 -117 433 -115 L 420 -205 C 407 -207 391 -210 371 -212 C 351 -214 334 -215 319 -215 Z" unicode="˛" />
<glyph horiz-adv-x="700" d="M 473 710 C 450 710 432 716 418 728 C 404 740 392 753 382 768 C 372 782 362 795 354 807 C 345 819 335 825 323 825 C 310 825 298 818 287 806 C 276 794 268 769 264 731 L 262 720 L 185 720 L 187 735 C 194 785 211 826 239 860 C 266 893 301 910 343 910 C 368 910 388 904 403 892 C 417 880 429 867 439 853 C 448 838 456 825 464 813 C 472 801 481 795 493 795 C 505 795 517 801 528 813 C 538 825 546 851 552 889 L 553 900 L 630 900 L 628 885 C 621 834 604 792 577 759 C 549 726 515 710 473 710 Z" unicode="˜" />
<glyph horiz-adv-x="700" d="M 468 700 L 552 900 L 692 900 L 539 700 L 468 700 Z M 238 700 L 322 900 L 462 900 L 309 700 L 238 700 Z" unicode="˝" />
<glyph horiz-adv-x="0" d="M 43 700 L -124 900 L 26 900 L 134 700 L 43 700 Z" unicode="̀" />
<glyph horiz-adv-x="0" d="M -72 700 L 92 900 L 242 900 L 19 700 L -72 700 Z" unicode="́" />
<glyph horiz-adv-x="0" d="M -130 704 L -159 768 L 36 917 L 108 917 L 263 768 L 216 704 L 58 820 L -130 704 Z" unicode="̂" />
<glyph horiz-adv-x="0" d="M 123 710 C 100 710 82 716 68 728 C 54 740 42 753 32 768 C 22 782 12 795 4 807 C -4 819 -15 825 -27 825 C -39 825 -51 818 -62 806 C -73 794 -81 769 -86 731 L -88 720 L -165 720 L -163 735 C -155 785 -138 826 -111 860 C -83 893 -49 910 -7 910 C 18 910 38 904 53 892 C 67 880 79 867 89 853 C 98 838 106 825 114 813 C 122 801 131 795 143 795 C 155 795 167 801 178 813 C 188 825 196 851 202 889 L 203 900 L 280 900 L 278 885 C 271 834 254 792 227 759 C 199 726 165 710 123 710 Z" unicode="̃" />
<glyph horiz-adv-x="0" d="M -150 755 L -137 845 L 263 845 L 250 755 L -150 755 Z" unicode="̄" />
<glyph horiz-adv-x="0" d="M 41 693 C -23 693 -76 708 -116 740 C -156 771 -171 825 -161 903 L -61 903 C -67 855 -60 821 -42 801 C -23 781 8 772 52 772 C 96 772 130 781 155 801 C 179 821 195 855 203 903 L 303 903 C 291 825 261 771 212 740 C 162 708 105 693 41 693 Z" unicode="̆" />
<glyph horiz-adv-x="0" d="M 44 710 C 18 710 -1 714 -16 722 C -30 730 -36 745 -33 767 L -32 774 C -28 796 -18 812 -2 820 C 14 828 35 833 61 833 C 86 833 106 828 121 820 C 135 812 141 796 138 774 L 137 767 C 133 745 123 730 106 722 C 89 714 68 710 44 710 Z" unicode="̇" />
<glyph horiz-adv-x="0" d="M -71 710 C -90 710 -105 714 -116 722 C -127 730 -131 745 -128 767 L -127 774 C -123 796 -115 812 -102 820 C -89 828 -73 833 -54 833 C -34 833 -19 828 -8 820 C 2 812 6 796 3 774 L 2 767 C -1 745 -9 730 -23 722 C -36 714 -52 710 -71 710 Z M 159 710 C 139 710 124 714 113 722 C 102 730 98 745 102 767 L 103 774 C 106 796 114 812 127 820 C 140 828 156 833 176 833 C 195 833 210 828 221 820 C 232 812 236 796 233 774 L 232 767 C 228 745 220 730 207 722 C 193 714 177 710 159 710 Z" unicode="̈" />
<glyph horiz-adv-x="0" d="M 40 685 C -8 685 -45 696 -71 720 C -97 744 -106 780 -99 830 L -95 862 C -87 912 -67 949 -35 973 C -2 997 38 1010 86 1010 C 134 1010 171 997 197 973 C 223 949 232 912 225 862 L 221 830 C 213 780 193 744 161 720 C 128 696 88 685 40 685 Z M 50 756 C 76 756 97 761 113 773 C 129 784 139 803 143 830 L 147 862 C 151 888 146 908 134 920 C 122 932 102 939 76 939 C 48 939 27 932 12 920 C -3 908 -13 888 -17 862 L -21 830 C -25 803 -21 784 -9 773 C 3 761 22 756 50 756 Z" unicode="̊" />
<glyph horiz-adv-x="0" d="M 118 700 L 202 900 L 342 900 L 189 700 L 118 700 Z M -112 700 L -28 900 L 112 900 L -41 700 L -112 700 Z" unicode="̋" />
<glyph horiz-adv-x="0" d="M 8 704 L -147 853 L -100 917 L 58 801 L 246 917 L 275 853 L 80 704 L 8 704 Z" unicode="̌" />
<glyph horiz-adv-x="0" d="M -92 700 L 91 900 L 182 900 L 58 700 L -92 700 Z" unicode="̒" />
<glyph horiz-adv-x="0" d="M -232 -300 L -108 -100 L 42 -100 L -141 -300 L -232 -300 Z" unicode="̦" />
<glyph horiz-adv-x="0" d="M -86 0 L -60 42 C -31 36 -5 24 18 4 C 42 -15 51 -47 45 -91 C 39 -134 19 -166 -13 -186 C -45 -206 -80 -216 -118 -216 C -162 -216 -196 -207 -222 -191 C -247 -175 -258 -148 -256 -110 L -167 -100 C -167 -112 -163 -121 -155 -126 C -147 -131 -132 -134 -112 -134 C -92 -134 -76 -129 -64 -121 C -52 -113 -45 -97 -43 -75 C -39 -52 -41 -35 -48 -24 C -54 -13 -67 -5 -86 0 Z" unicode="̧" />
<glyph horiz-adv-x="0" d="M -31 -215 C -73 -215 -107 -204 -133 -183 C -159 -162 -169 -133 -164 -96 C -160 -63 -143 -34 -114 -9 C -85 16 -54 35 -22 47 L 1 23 C -23 9 -41 -6 -52 -23 C -62 -39 -69 -54 -71 -68 C -73 -86 -68 -100 -58 -110 C -47 -120 -30 -125 -8 -125 C 4 -125 19 -124 38 -122 C 56 -120 71 -117 83 -115 L 70 -205 C 57 -207 41 -210 21 -212 C 1 -214 -15 -215 -31 -215 Z" unicode="̨" />
<glyph horiz-adv-x="700" d="M 318 700 L 422 900 L 562 900 L 399 700 L 318 700 Z" unicode="΄" />
<glyph horiz-adv-x="700" d="M 328 700 L 402 900 L 522 900 L 389 700 L 328 700 Z M 217 700 C 200 700 187 704 179 712 C 170 720 167 735 170 757 L 171 764 C 174 786 181 802 193 810 C 204 818 218 823 235 823 C 251 823 264 818 273 810 C 281 802 284 786 281 764 L 280 757 C 277 735 270 720 258 712 C 246 704 233 700 217 700 Z M 567 700 C 550 700 537 704 529 712 C 520 720 517 735 520 757 L 521 764 C 524 786 531 802 543 810 C 554 818 568 823 585 823 C 601 823 614 818 623 810 C 631 802 634 786 631 764 L 630 757 C 627 735 620 720 608 712 C 596 704 583 700 567 700 Z" unicode="΅" />
<glyph horiz-adv-x="700" d="M 448 320 L 390 687 L 227 320 L 448 320 Z M 499 0 L 462 230 L 187 230 L 86 0 L -16 0 L 354 800 L 459 800 L 605 0 L 499 0 Z M 69 700 L 173 900 L 313 900 L 150 700 L 69 700 Z" unicode="Ά" />
<glyph horiz-adv-x="700" d="M 336 290 C 302 290 276 297 258 312 C 239 327 232 351 237 384 L 241 412 C 245 444 259 468 282 484 C 304 500 332 508 366 508 C 399 508 425 500 443 484 C 461 468 468 444 464 412 L 460 384 C 455 351 441 327 419 312 C 396 297 368 290 336 290 Z" unicode="·" />
<glyph horiz-adv-x="700" d="M 44 0 L 156 800 L 676 800 L 664 710 L 244 710 L 211 480 L 581 480 L 569 390 L 199 390 L 157 90 L 577 90 L 564 0 L 44 0 Z M -71 700 L 33 900 L 173 900 L 10 700 L -71 700 Z" unicode="Έ" />
<glyph horiz-adv-x="700" d="M 44 0 L 156 800 L 256 800 L 211 480 L 511 480 L 556 800 L 656 800 L 544 0 L 444 0 L 499 390 L 199 390 L 144 0 L 44 0 Z M -81 700 L 23 900 L 163 900 L 0 700 L -81 700 Z" unicode="Ή" />
<glyph horiz-adv-x="700" d="M 44 0 L 57 90 L 257 90 L 344 710 L 144 710 L 156 800 L 656 800 L 644 710 L 444 710 L 357 90 L 557 90 L 544 0 L 44 0 Z M -81 700 L 23 900 L 163 900 L 0 700 L -81 700 Z" unicode="Ί" />
<glyph horiz-adv-x="700" d="M 298 -10 C 210 -10 146 14 107 63 C 67 112 54 183 68 277 L 102 519 C 115 613 148 685 202 735 C 255 785 326 810 414 810 C 501 810 564 785 603 735 C 642 685 655 613 642 519 L 608 277 C 594 183 561 112 509 63 C 456 14 386 -10 298 -10 Z M 310 80 C 371 80 417 95 447 125 C 477 155 498 205 508 277 L 542 519 C 552 591 546 643 524 674 C 502 704 461 720 400 720 C 338 720 292 704 262 674 C 232 643 212 591 202 519 L 168 277 C 158 205 163 155 185 125 C 207 95 248 80 310 80 Z M 4 700 L 108 900 L 248 900 L 85 700 L 4 700 Z" unicode="Ό" />
<glyph horiz-adv-x="700" d="M 344 0 L 244 0 L 286 300 L 70 800 L 182 800 L 355 390 L 631 800 L 741 800 L 386 300 L 344 0 Z M -111 700 L -7 900 L 133 900 L -30 700 L -111 700 Z" unicode="Ύ" />
<glyph horiz-adv-x="700" d="M 244 0 L 14 0 L 27 90 L 157 90 L 169 180 C 124 194 95 222 81 264 C 67 306 64 355 72 411 L 87 519 C 100 615 134 687 188 736 C 242 785 315 810 408 810 C 500 810 567 785 607 736 C 647 687 660 615 647 519 L 632 411 C 624 355 607 306 581 264 C 555 222 517 194 469 180 L 457 90 L 587 90 L 574 0 L 344 0 L 376 230 C 428 238 466 258 488 290 C 510 322 525 362 532 411 L 547 519 C 557 591 550 643 527 674 C 504 704 460 720 395 720 C 329 720 281 704 249 674 C 217 643 197 591 187 519 L 172 411 C 165 362 168 322 181 290 C 194 258 226 238 276 230 L 244 0 Z M -21 700 L 83 900 L 223 900 L 60 700 L -21 700 Z" unicode="Ώ" />
<glyph horiz-adv-x="700" d="M 439 -5 C 377 -5 332 12 302 48 C 272 83 262 132 271 194 L 316 510 L 96 510 L 108 600 L 428 600 L 371 193 C 366 157 370 131 384 113 C 398 95 421 86 455 86 C 469 86 487 87 507 91 C 527 95 544 99 558 105 L 566 18 C 548 11 529 5 507 1 C 485 -2 462 -5 439 -5 Z M 318 700 L 392 900 L 512 900 L 379 700 L 318 700 Z M 207 700 C 190 700 177 704 169 712 C 160 720 157 735 160 757 L 161 764 C 164 786 171 802 183 810 C 194 818 208 823 225 823 C 241 823 254 818 263 810 C 271 802 274 786 271 764 L 270 757 C 267 735 260 720 248 712 C 236 704 223 700 207 700 Z M 557 700 C 540 700 527 704 519 712 C 510 720 507 735 510 757 L 511 764 C 514 786 521 802 533 810 C 544 818 558 823 575 823 C 591 823 604 818 613 810 C 621 802 624 786 621 764 L 620 757 C 617 735 610 720 598 712 C 586 704 573 700 557 700 Z" unicode="ΐ" />
<glyph horiz-adv-x="700" d="M 448 320 L 390 687 L 227 320 L 448 320 Z M 499 0 L 462 230 L 187 230 L 86 0 L -16 0 L 354 800 L 459 800 L 605 0 L 499 0 Z" unicode="Α" />
<glyph horiz-adv-x="700" d="M 44 0 L 156 800 L 404 800 C 487 800 546 784 582 754 C 618 723 631 676 622 612 L 616 567 C 611 533 597 504 575 481 C 552 458 523 444 489 438 L 484 409 C 527 405 559 388 581 360 C 602 331 609 294 603 249 L 597 204 C 587 134 557 83 509 50 C 460 16 390 0 299 0 L 44 0 Z M 209 460 L 367 460 C 414 460 450 468 474 486 C 498 504 512 532 518 571 L 522 599 C 527 637 520 665 501 683 C 482 701 449 710 402 710 L 244 710 L 209 460 Z M 157 90 L 335 90 C 385 90 424 99 450 119 C 476 139 492 171 498 215 L 503 247 C 509 291 501 322 481 342 C 460 362 424 372 374 372 L 196 372 L 157 90 Z" unicode="Β" />
<glyph horiz-adv-x="700" d="M 44 0 L 156 800 L 676 800 L 664 710 L 244 710 L 144 0 L 44 0 Z" unicode="Γ" />
<glyph horiz-adv-x="700" d="M -16 0 L -3 90 L 349 800 L 454 800 L 617 90 L 604 0 L -16 0 Z M 515 90 L 390 696 L 96 90 L 515 90 Z" unicode="Δ" />
<glyph horiz-adv-x="700" d="M 44 0 L 156 800 L 676 800 L 664 710 L 244 710 L 211 480 L 581 480 L 569 390 L 199 390 L 157 90 L 577 90 L 564 0 L 44 0 Z" unicode="Ε" />
<glyph horiz-adv-x="700" d="M 564 0 L 24 0 L 37 90 L 544 710 L 124 710 L 136 800 L 676 800 L 664 710 L 156 90 L 577 90 L 564 0 Z" unicode="Ζ" />
<glyph horiz-adv-x="700" d="M 44 0 L 156 800 L 256 800 L 211 480 L 511 480 L 556 800 L 656 800 L 544 0 L 444 0 L 499 390 L 199 390 L 144 0 L 44 0 Z" unicode="Η" />
<glyph horiz-adv-x="700" d="M 293 -10 C 194 -10 123 14 79 63 C 35 111 19 183 33 277 L 67 519 C 80 614 116 686 174 736 C 232 785 310 810 409 810 C 507 810 577 785 621 736 C 665 686 680 614 667 519 L 633 277 C 619 183 584 111 527 63 C 469 14 391 -10 293 -10 Z M 305 80 C 377 80 431 95 466 125 C 500 155 523 205 533 277 L 567 519 C 577 592 569 644 543 674 C 517 704 467 720 395 720 C 322 720 268 704 234 674 C 199 644 177 592 167 519 L 133 277 C 123 205 131 155 157 125 C 183 95 232 80 305 80 Z M 245 360 L 257 450 L 457 450 L 445 360 L 245 360 Z" unicode="Θ" />
<glyph horiz-adv-x="700" d="M 44 0 L 57 90 L 257 90 L 344 710 L 144 710 L 156 800 L 656 800 L 644 710 L 444 710 L 357 90 L 557 90 L 544 0 L 44 0 Z" unicode="Ι" />
<glyph horiz-adv-x="700" d="M 197 380 L 144 0 L 44 0 L 156 800 L 256 800 L 210 470 L 244 470 L 599 800 L 715 800 L 321 432 L 600 0 L 480 0 L 234 380 L 197 380 Z" unicode="Κ" />
<glyph horiz-adv-x="700" d="M 499 0 L 390 687 L 86 0 L -16 0 L 354 800 L 459 800 L 605 0 L 499 0 Z" unicode="Λ" />
<glyph horiz-adv-x="700" d="M 274 200 L 194 639 L 104 0 L 14 0 L 126 800 L 261 800 L 342 319 L 556 800 L 686 800 L 574 0 L 484 0 L 574 640 L 370 200 L 274 200 Z" unicode="Μ" />
<glyph horiz-adv-x="700" d="M 401 0 L 229 674 L 134 0 L 44 0 L 156 800 L 293 800 L 470 111 L 566 800 L 656 800 L 544 0 L 401 0 Z" unicode="Ν" />
<glyph horiz-adv-x="700" d="M 124 710 L 136 800 L 676 800 L 664 710 L 124 710 Z M 104 390 L 116 480 L 606 480 L 594 390 L 104 390 Z M 24 0 L 37 90 L 577 90 L 564 0 L 24 0 Z" unicode="Ξ" />
<glyph horiz-adv-x="700" d="M 293 -10 C 205 -10 141 14 102 63 C 62 112 49 183 63 277 L 97 519 C 110 613 143 685 197 735 C 250 785 321 810 409 810 C 496 810 559 785 598 735 C 637 685 650 613 637 519 L 603 277 C 589 183 556 112 504 63 C 451 14 381 -10 293 -10 Z M 305 80 C 366 80 412 95 442 125 C 472 155 493 205 503 277 L 537 519 C 547 591 541 643 519 674 C 497 704 456 720 395 720 C 333 720 287 704 257 674 C 227 643 207 591 197 519 L 163 277 C 153 205 158 155 180 125 C 202 95 243 80 305 80 Z" unicode="Ο" />
<glyph horiz-adv-x="700" d="M 44 0 L 156 800 L 656 800 L 544 0 L 444 0 L 544 710 L 244 710 L 144 0 L 44 0 Z" unicode="Π" />
<glyph horiz-adv-x="700" d="M 44 0 L 156 800 L 437 800 C 520 800 580 782 617 747 C 653 712 667 659 657 589 L 643 491 C 633 420 604 367 558 332 C 511 297 446 280 363 280 L 183 280 L 144 0 L 44 0 Z M 196 368 L 376 368 C 430 368 469 377 495 396 C 521 415 537 447 543 493 L 556 585 C 562 630 555 662 535 681 C 515 700 478 710 424 710 L 244 710 L 196 368 Z" unicode="Ρ" />
<glyph horiz-adv-x="700" d="M 564 0 L 14 0 L 27 90 L 427 412 L 114 710 L 126 800 L 676 800 L 664 710 L 246 710 L 508 455 L 497 377 L 147 90 L 577 90 L 564 0 Z" unicode="Σ" />
<glyph horiz-adv-x="700" d="M 244 0 L 344 710 L 94 710 L 106 800 L 706 800 L 694 710 L 444 710 L 344 0 L 244 0 Z" unicode="Τ" />
<glyph horiz-adv-x="700" d="M 344 0 L 244 0 L 286 300 L 70 800 L 182 800 L 355 390 L 631 800 L 741 800 L 386 300 L 344 0 Z" unicode="Υ" />
<glyph horiz-adv-x="700" d="M 390 90 L 357 90 L 343 -10 L 243 -10 L 257 90 L 225 90 C 149 90 97 114 69 164 C 41 213 32 277 44 357 L 56 439 C 67 519 94 585 136 635 C 178 685 236 710 312 710 L 344 710 L 358 810 L 458 810 L 444 710 L 477 710 C 552 710 603 685 631 635 C 659 585 667 519 656 439 L 644 357 C 632 277 606 213 565 164 C 523 114 465 90 390 90 Z M 464 620 L 426 620 L 364 180 L 402 180 C 444 180 476 193 498 220 C 520 247 535 293 544 357 L 556 439 C 565 505 562 551 548 579 C 534 606 506 620 464 620 Z M 237 180 L 274 180 L 336 620 L 299 620 C 256 620 224 606 202 579 C 180 551 165 505 156 439 L 144 357 C 135 293 138 247 152 220 C 166 193 194 180 237 180 Z" unicode="Φ" />
<glyph horiz-adv-x="700" d="M 508 0 L 341 328 L 81 0 L -36 0 L 300 408 L 101 800 L 216 800 L 375 488 L 622 800 L 738 800 L 415 409 L 623 0 L 508 0 Z" unicode="Χ" />
<glyph horiz-adv-x="700" d="M 344 0 L 244 0 L 271 193 C 196 201 144 229 116 276 C 87 323 78 383 88 457 L 136 800 L 231 800 L 183 457 C 175 403 179 363 195 337 C 211 310 240 294 284 288 L 356 800 L 456 800 L 384 288 C 430 294 464 310 487 337 C 510 363 525 403 533 457 L 581 800 L 676 800 L 628 457 C 618 383 592 323 550 276 C 508 229 448 201 371 193 L 344 0 Z" unicode="Ψ" />
<glyph horiz-adv-x="700" d="M 244 0 L 14 0 L 27 90 L 157 90 L 169 180 C 124 194 95 222 81 264 C 67 306 64 355 72 411 L 87 519 C 100 615 134 687 188 736 C 242 785 315 810 408 810 C 500 810 567 785 607 736 C 647 687 660 615 647 519 L 632 411 C 624 355 607 306 581 264 C 555 222 517 194 469 180 L 457 90 L 587 90 L 574 0 L 344 0 L 376 230 C 428 238 466 258 488 290 C 510 322 525 362 532 411 L 547 519 C 557 591 550 643 527 674 C 504 704 460 720 395 720 C 329 720 281 704 249 674 C 217 643 197 591 187 519 L 172 411 C 165 362 168 322 181 290 C 194 258 226 238 276 230 L 244 0 Z" unicode="Ω" />
<glyph horiz-adv-x="700" d="M 44 0 L 57 90 L 257 90 L 344 710 L 144 710 L 156 800 L 656 800 L 644 710 L 444 710 L 357 90 L 557 90 L 544 0 L 44 0 Z M 303 910 C 283 910 268 914 257 922 C 246 930 242 945 246 967 L 247 974 C 250 996 258 1012 271 1020 C 284 1028 300 1033 320 1033 C 339 1033 354 1028 365 1020 C 376 1012 380 996 377 974 L 376 967 C 372 945 364 930 351 922 C 337 914 321 910 303 910 Z M 533 910 C 513 910 498 914 487 922 C 476 930 472 945 476 967 L 477 974 C 480 996 488 1012 501 1020 C 514 1028 530 1033 550 1033 C 569 1033 584 1028 595 1020 C 606 1012 610 996 607 974 L 606 967 C 602 945 594 930 581 922 C 567 914 551 910 533 910 Z" unicode="Ϊ" />
<glyph horiz-adv-x="700" d="M 344 0 L 244 0 L 286 300 L 70 800 L 182 800 L 355 390 L 631 800 L 741 800 L 386 300 L 344 0 Z M 303 910 C 283 910 268 914 257 922 C 246 930 242 945 246 967 L 247 974 C 250 996 258 1012 271 1020 C 284 1028 300 1033 320 1033 C 339 1033 354 1028 365 1020 C 376 1012 380 996 377 974 L 376 967 C 372 945 364 930 351 922 C 337 914 321 910 303 910 Z M 533 910 C 513 910 498 914 487 922 C 476 930 472 945 476 967 L 477 974 C 480 996 488 1012 501 1020 C 514 1028 530 1033 550 1033 C 569 1033 584 1028 595 1020 C 606 1012 610 996 607 974 L 606 967 C 602 945 594 930 581 922 C 567 914 551 910 533 910 Z" unicode="Ϋ" />
<glyph horiz-adv-x="700" d="M 256 85 C 288 85 319 93 348 111 C 376 129 407 155 441 190 L 472 410 C 448 444 425 470 401 488 C 377 506 348 515 316 515 C 280 515 251 503 230 479 C 208 455 194 420 188 372 L 168 228 C 161 180 165 145 180 121 C 194 97 220 85 256 85 Z M 449 110 L 419 110 C 395 72 365 42 331 21 C 297 0 259 -10 218 -10 C 162 -10 119 9 91 49 C 63 89 54 145 65 218 L 88 382 C 98 454 122 510 162 550 C 201 590 249 610 305 610 C 341 610 372 600 398 580 C 423 560 442 534 454 500 L 484 500 L 498 600 L 598 600 L 536 160 C 531 124 536 101 552 93 C 567 84 592 83 627 89 L 614 -3 C 559 -9 517 -4 488 11 C 459 27 446 60 449 110 Z M 368 700 L 472 900 L 612 900 L 449 700 L 368 700 Z" unicode="ά" />
<glyph horiz-adv-x="700" d="M 297 -10 C 203 -10 136 4 96 33 C 56 62 40 107 48 167 L 50 177 C 54 211 71 240 101 266 C 131 291 172 305 224 309 L 228 331 C 185 333 153 344 131 362 C 109 380 100 406 105 438 L 107 452 C 114 506 140 545 185 571 C 230 597 296 610 384 610 C 463 610 521 595 557 566 C 593 536 609 491 605 430 L 505 422 C 505 458 495 483 475 499 C 454 515 420 523 372 523 C 316 523 275 517 249 505 C 223 493 209 473 206 446 L 204 432 C 200 407 209 389 230 379 C 251 369 288 364 341 364 L 397 364 L 386 284 L 330 284 C 270 284 227 276 200 261 C 172 246 156 221 151 187 L 150 177 C 144 141 154 115 179 100 C 203 84 247 77 309 77 C 363 77 404 85 432 103 C 460 120 480 149 491 189 L 589 182 C 575 116 544 67 496 36 C 448 5 382 -10 297 -10 Z M 318 700 L 422 900 L 562 900 L 399 700 L 318 700 Z" unicode="έ" />
<glyph horiz-adv-x="700" d="M 416 -200 L 501 404 C 506 441 500 469 483 487 C 466 505 438 515 398 515 C 366 515 335 506 303 489 C 271 471 237 445 202 410 L 144 0 L 44 0 L 128 600 L 228 600 L 214 500 L 244 500 C 263 533 291 560 327 580 C 363 600 402 610 444 610 C 500 610 543 593 572 560 C 601 527 612 483 604 428 L 516 -200 L 416 -200 Z M 318 700 L 422 900 L 562 900 L 399 700 L 318 700 Z" unicode="ή" />
<glyph horiz-adv-x="700" d="M 439 -5 C 377 -5 332 12 302 48 C 272 83 262 132 271 194 L 316 510 L 96 510 L 108 600 L 428 600 L 371 193 C 366 157 370 131 384 113 C 398 95 421 86 455 86 C 469 86 487 87 507 91 C 527 95 544 99 558 105 L 566 18 C 548 11 529 5 507 1 C 485 -2 462 -5 439 -5 Z M 313 700 L 417 900 L 557 900 L 394 700 L 313 700 Z" unicode="ί" />
<glyph horiz-adv-x="700" d="M 293 -10 C 211 -10 152 9 115 48 C 77 87 64 143 74 217 L 128 600 L 228 600 L 174 217 C 167 168 174 133 194 112 C 214 90 251 80 305 80 C 358 80 398 90 424 112 C 450 133 467 168 474 217 L 528 600 L 628 600 L 574 217 C 564 143 535 87 487 48 C 439 9 374 -10 293 -10 Z M 328 700 L 402 900 L 522 900 L 389 700 L 328 700 Z M 217 700 C 200 700 187 704 179 712 C 170 720 167 735 170 757 L 171 764 C 174 786 181 802 193 810 C 204 818 218 823 235 823 C 251 823 264 818 273 810 C 281 802 284 786 281 764 L 280 757 C 277 735 270 720 258 712 C 246 704 233 700 217 700 Z M 567 700 C 550 700 537 704 529 712 C 520 720 517 735 520 757 L 521 764 C 524 786 531 802 543 810 C 554 818 568 823 585 823 C 601 823 614 818 623 810 C 631 802 634 786 631 764 L 630 757 C 627 735 620 720 608 712 C 596 704 583 700 567 700 Z" unicode="ΰ" />
<glyph horiz-adv-x="700" d="M 256 85 C 288 85 319 93 348 111 C 376 129 407 155 441 190 L 472 410 C 448 444 425 470 401 488 C 377 506 348 515 316 515 C 280 515 251 503 230 479 C 208 455 194 420 188 372 L 168 228 C 161 180 165 145 180 121 C 194 97 220 85 256 85 Z M 449 110 L 419 110 C 395 72 365 42 331 21 C 297 0 259 -10 218 -10 C 162 -10 119 9 91 49 C 63 89 54 145 65 218 L 88 382 C 98 454 122 510 162 550 C 201 590 249 610 305 610 C 341 610 372 600 398 580 C 423 560 442 534 454 500 L 484 500 L 498 600 L 598 600 L 536 160 C 531 124 536 101 552 93 C 567 84 592 83 627 89 L 614 -3 C 559 -9 517 -4 488 11 C 459 27 446 60 449 110 Z" unicode="α" />
<glyph horiz-adv-x="700" d="M 296 78 C 348 78 389 89 419 113 C 448 137 466 173 473 221 L 479 263 C 484 303 476 332 455 352 C 433 372 398 382 348 382 L 297 382 L 309 470 L 354 470 C 396 470 428 478 452 496 C 476 514 490 541 495 577 L 498 595 C 503 637 496 668 477 689 C 457 709 425 720 379 720 C 333 720 298 708 273 684 C 247 660 231 624 225 576 L 160 116 C 179 103 200 93 222 87 C 244 81 269 78 296 78 Z M 285 -10 C 258 -10 233 -7 210 -2 C 186 2 165 9 147 18 L 116 -200 L 16 -200 L 125 573 C 136 655 167 715 217 753 C 267 791 326 810 392 810 C 458 810 511 792 551 758 C 591 724 606 675 598 613 L 594 587 C 589 551 576 520 555 495 C 534 470 504 454 466 448 L 462 419 C 505 414 537 397 557 369 C 577 341 586 308 582 270 L 575 219 C 563 137 527 78 467 43 C 407 7 347 -10 285 -10 Z" unicode="β" />
<glyph horiz-adv-x="700" d="M 326 -200 L 206 -200 L 247 20 L 102 600 L 212 600 L 318 143 L 548 600 L 653 600 L 347 20 L 326 -200 Z" unicode="γ" />
<glyph horiz-adv-x="700" d="M 293 -10 C 218 -10 160 8 119 45 C 78 82 63 139 74 217 L 87 309 C 93 347 110 382 138 413 C 166 444 203 469 250 489 C 214 506 189 526 176 549 C 162 572 158 601 163 635 C 171 691 195 733 235 760 C 275 786 331 800 403 800 L 588 800 L 576 710 L 391 710 C 349 710 317 705 295 695 C 273 685 260 665 256 635 C 252 612 260 594 279 582 C 297 570 348 550 430 524 C 495 502 540 476 564 445 C 588 414 596 372 589 319 L 574 217 C 563 139 532 82 481 45 C 430 8 367 -10 293 -10 Z M 305 80 C 355 80 394 90 422 112 C 450 133 467 168 474 217 L 489 319 C 493 355 484 382 460 402 C 436 422 388 442 314 463 C 278 447 249 425 227 399 C 205 373 192 343 187 309 L 174 217 C 167 168 175 133 197 112 C 219 90 255 80 305 80 Z" unicode="δ" />
<glyph horiz-adv-x="700" d="M 297 -10 C 203 -10 136 4 96 33 C 56 62 40 107 48 167 L 50 177 C 54 211 71 240 101 266 C 131 291 172 305 224 309 L 228 331 C 185 333 153 344 131 362 C 109 380 100 406 105 438 L 107 452 C 114 506 140 545 185 571 C 230 597 296 610 384 610 C 463 610 521 595 557 566 C 593 536 609 491 605 430 L 505 422 C 505 458 495 483 475 499 C 454 515 420 523 372 523 C 316 523 275 517 249 505 C 223 493 209 473 206 446 L 204 432 C 200 407 209 389 230 379 C 251 369 288 364 341 364 L 397 364 L 386 284 L 330 284 C 270 284 227 276 200 261 C 172 246 156 221 151 187 L 150 177 C 144 141 154 115 179 100 C 203 84 247 77 309 77 C 363 77 404 85 432 103 C 460 120 480 149 491 189 L 589 182 C 575 116 544 67 496 36 C 448 5 382 -10 297 -10 Z" unicode="ε" />
<glyph horiz-adv-x="700" d="M 326 -200 L 216 -200 L 229 -110 L 354 -110 C 378 -110 398 -105 414 -97 C 429 -89 439 -71 443 -45 C 446 -19 441 -1 428 7 C 415 15 396 20 372 20 L 287 20 C 202 20 143 43 111 91 C 78 139 66 193 75 253 C 80 291 93 329 115 367 C 136 405 162 438 194 468 L 361 623 L 356 639 C 286 632 233 646 199 681 C 165 715 145 758 140 808 L 231 827 C 233 784 254 753 292 735 C 330 717 378 716 438 733 L 653 822 L 679 710 L 512 663 L 273 432 C 247 407 225 380 208 352 C 191 324 180 292 175 258 C 169 213 175 177 195 150 C 214 123 249 110 299 110 L 383 110 C 437 110 478 97 506 73 C 534 48 545 9 538 -45 C 530 -95 508 -133 470 -160 C 432 -186 384 -200 326 -200 Z" unicode="ζ" />
<glyph horiz-adv-x="700" d="M 416 -200 L 501 404 C 506 441 500 469 483 487 C 466 505 438 515 398 515 C 366 515 335 506 303 489 C 271 471 237 445 202 410 L 144 0 L 44 0 L 128 600 L 228 600 L 214 500 L 244 500 C 263 533 291 560 327 580 C 363 600 402 610 444 610 C 500 610 543 593 572 560 C 601 527 612 483 604 428 L 516 -200 L 416 -200 Z" unicode="η" />
<glyph horiz-adv-x="700" d="M 293 -10 C 218 -10 160 8 119 45 C 78 82 63 139 74 217 L 125 579 C 136 657 167 715 219 753 C 271 791 334 810 409 810 C 483 810 541 791 581 753 C 621 715 636 657 625 579 L 574 217 C 563 139 532 82 481 45 C 430 8 367 -10 293 -10 Z M 225 579 L 207 450 L 507 450 L 525 579 C 531 627 524 662 503 685 C 481 708 445 720 395 720 C 344 720 305 708 277 685 C 249 662 231 627 225 579 Z M 305 80 C 355 80 395 91 423 114 C 451 136 468 171 474 217 L 495 360 L 195 360 L 174 217 C 168 171 175 136 197 114 C 218 91 254 80 305 80 Z" unicode="θ" />
<glyph horiz-adv-x="700" d="M 439 -5 C 377 -5 332 12 302 48 C 272 83 262 132 271 194 L 316 510 L 96 510 L 108 600 L 428 600 L 371 193 C 366 157 370 131 384 113 C 398 95 421 86 455 86 C 469 86 487 87 507 91 C 527 95 544 99 558 105 L 566 18 C 548 11 529 5 507 1 C 485 -2 462 -5 439 -5 Z" unicode="ι" />
<glyph horiz-adv-x="700" d="M 232 273 L 194 0 L 94 0 L 178 600 L 278 600 L 244 357 L 295 357 L 521 600 L 643 600 L 369 321 L 556 0 L 442 0 L 283 273 L 232 273 Z" unicode="κ" />
<glyph horiz-adv-x="700" d="M 460 0 L 364 513 L 124 0 L 18 0 L 315 600 L 347 600 L 343 622 C 338 651 327 674 311 691 C 294 708 267 717 231 717 C 218 717 204 716 189 714 C 173 712 156 709 138 705 L 134 795 C 150 798 167 800 184 802 C 200 804 216 805 232 805 C 280 805 321 794 357 772 C 392 750 415 714 427 662 L 569 0 L 460 0 Z" unicode="λ" />
<glyph horiz-adv-x="700" d="M 147 20 L 126 -200 L 6 -200 L 47 20 L 128 600 L 228 600 L 172 196 C 166 156 173 127 194 110 C 214 93 241 85 274 85 C 304 85 331 91 355 105 C 379 118 403 136 426 160 L 488 600 L 588 600 L 526 160 C 521 124 526 101 542 93 C 557 84 582 83 617 89 L 604 -3 C 554 -10 517 -5 493 12 C 469 29 458 58 462 100 L 442 100 C 421 71 395 45 363 23 C 331 1 293 -10 249 -10 C 228 -10 209 -6 192 2 C 174 10 160 22 149 39 L 147 20 Z" unicode="μ" />
<glyph horiz-adv-x="700" d="M 346 0 L 241 0 L 102 600 L 207 600 L 316 73 C 376 160 427 249 467 339 C 507 429 536 516 555 600 L 653 600 C 625 487 583 380 528 280 C 473 179 412 86 346 0 Z" unicode="ν" />
<glyph horiz-adv-x="700" d="M 558 -45 C 550 -95 528 -133 490 -160 C 452 -186 404 -200 346 -200 L 236 -200 L 249 -110 L 374 -110 C 398 -110 418 -105 434 -97 C 449 -89 459 -71 463 -45 C 466 -19 461 -1 448 7 C 435 15 416 20 392 20 L 287 20 C 213 20 157 36 119 70 C 80 104 65 149 73 207 L 77 234 C 82 274 102 310 136 341 C 170 372 217 390 277 395 L 280 418 C 242 418 214 428 197 448 C 179 468 173 493 178 524 C 181 548 190 570 206 590 C 222 610 245 625 275 636 L 279 659 C 219 661 173 676 143 702 C 112 728 94 764 90 808 L 181 827 C 185 794 209 770 253 754 C 297 738 349 734 409 743 L 623 822 L 649 710 L 426 657 L 366 626 C 337 611 316 595 302 579 C 288 563 280 545 278 526 C 274 498 278 478 292 467 C 305 455 323 450 346 450 L 537 450 L 525 360 L 336 360 C 286 360 248 349 223 327 C 197 305 183 279 179 249 L 175 222 C 170 188 177 161 197 141 C 216 120 250 110 299 110 L 403 110 C 457 110 498 97 526 73 C 554 48 565 9 558 -45 Z" unicode="ξ" />
<glyph horiz-adv-x="700" d="M 293 -10 C 212 -10 153 9 115 48 C 77 87 64 143 74 217 L 97 379 C 107 453 137 510 186 550 C 235 590 300 610 381 610 C 461 610 519 590 557 550 C 594 510 607 453 597 379 L 574 217 C 564 143 534 87 486 48 C 438 9 373 -10 293 -10 Z M 305 80 C 355 80 395 91 423 114 C 451 136 468 171 474 217 L 497 379 C 503 427 496 462 475 485 C 453 508 417 520 367 520 C 316 520 277 508 249 485 C 221 462 203 427 197 379 L 174 217 C 168 171 175 136 197 114 C 218 91 254 80 305 80 Z" unicode="ο" />
<glyph horiz-adv-x="700" d="M 658 600 L 646 510 L 526 510 L 476 160 C 471 126 476 104 491 94 C 506 84 538 83 587 89 L 574 -3 C 498 -9 444 -3 411 17 C 377 37 364 71 371 120 L 426 510 L 256 510 L 184 0 L 84 0 L 156 510 L 56 510 L 68 600 L 658 600 Z" unicode="π" />
<glyph horiz-adv-x="700" d="M 336 85 C 376 85 407 96 431 120 C 454 144 469 180 476 228 L 497 379 C 503 426 496 461 474 485 C 452 508 417 520 367 520 C 317 520 277 508 249 485 C 221 461 203 426 197 379 L 171 190 C 194 154 219 128 247 111 C 274 93 304 85 336 85 Z M 16 -200 L 97 379 C 108 457 139 515 191 553 C 243 591 306 610 381 610 C 455 610 513 591 553 553 C 593 515 608 457 597 379 L 575 218 C 564 145 538 89 497 49 C 456 9 406 -10 348 -10 C 308 -10 275 0 248 19 C 220 38 200 65 188 100 L 158 100 L 116 -200 L 16 -200 Z" unicode="ρ" />
<glyph horiz-adv-x="700" d="M 220 -200 L 233 -110 L 358 -110 C 382 -110 402 -105 418 -97 C 433 -89 443 -71 447 -45 C 450 -19 445 -1 432 7 C 419 15 400 20 376 20 L 291 20 C 203 20 144 40 112 80 C 80 120 69 179 80 257 L 97 377 C 107 452 135 510 181 550 C 226 590 293 610 383 610 C 461 610 517 592 550 557 C 582 521 596 467 590 394 L 497 388 C 500 434 491 467 471 488 C 451 509 417 520 369 520 C 315 520 275 509 248 487 C 221 465 204 431 198 383 L 179 247 C 172 199 178 164 198 142 C 218 120 253 110 303 110 L 388 110 C 442 110 483 97 511 73 C 539 48 549 9 542 -45 C 534 -95 512 -133 474 -160 C 436 -186 388 -200 330 -200 L 220 -200 Z" unicode="ς" />
<glyph horiz-adv-x="700" d="M 285 80 C 328 80 362 90 387 112 C 411 133 427 168 434 217 L 453 349 C 461 404 456 445 438 471 C 420 497 389 510 346 510 C 302 510 268 498 243 475 C 218 452 202 417 196 369 L 174 217 C 167 168 173 133 192 112 C 210 90 241 80 285 80 Z M 273 -10 C 204 -10 151 8 114 45 C 76 82 63 139 74 217 L 96 369 C 106 443 136 500 184 540 C 232 580 290 600 359 600 L 728 600 L 714 500 L 502 517 C 523 500 538 477 547 449 C 556 421 558 387 553 349 L 534 217 C 523 139 494 82 447 45 C 399 8 341 -10 273 -10 Z" unicode="σ" />
<glyph horiz-adv-x="700" d="M 464 -3 C 384 -10 329 -4 297 14 C 265 33 253 68 261 120 L 316 510 L 116 510 L 128 600 L 638 600 L 626 510 L 416 510 L 366 160 C 362 127 367 106 383 96 C 398 86 429 83 477 89 L 464 -3 Z" unicode="τ" />
<glyph horiz-adv-x="700" d="M 293 -10 C 211 -10 152 9 115 48 C 77 87 64 143 74 217 L 128 600 L 228 600 L 174 217 C 167 168 174 133 194 112 C 214 90 251 80 305 80 C 358 80 398 90 424 112 C 450 133 467 168 474 217 L 528 600 L 628 600 L 574 217 C 564 143 535 87 487 48 C 439 9 374 -10 293 -10 Z" unicode="υ" />
<glyph horiz-adv-x="700" d="M 312 -200 L 220 -200 L 247 -8 C 174 0 118 25 80 70 C 42 115 28 177 40 257 L 53 349 C 61 403 74 453 94 498 C 113 543 136 583 163 617 L 245 585 C 223 555 202 521 183 481 C 164 441 151 397 145 349 L 132 257 C 124 203 131 160 153 129 C 174 98 209 79 258 73 L 332 600 L 428 600 C 500 600 554 577 592 531 C 630 485 642 414 629 319 L 620 257 C 608 177 577 115 526 70 C 475 25 413 0 339 -8 L 312 -200 Z M 413 520 L 350 73 C 401 79 442 98 472 129 C 502 160 520 203 528 257 L 537 319 C 546 388 540 439 519 471 C 498 503 463 520 413 520 Z" unicode="φ" />
<glyph horiz-adv-x="700" d="M 407 -200 L 300 112 L 99 -200 L 2 -200 L 271 196 L 131 600 L 230 600 L 340 284 L 545 600 L 642 600 L 369 200 L 508 -200 L 407 -200 Z" unicode="χ" />
<glyph horiz-adv-x="700" d="M 312 -200 L 220 -200 L 247 -8 C 163 -1 104 23 72 67 C 39 111 27 167 37 237 L 88 600 L 180 600 L 129 237 C 122 189 129 152 150 127 C 171 101 208 86 260 82 L 332 600 L 424 600 L 352 82 C 405 86 445 101 473 127 C 501 152 518 189 525 237 L 576 600 L 668 600 L 617 237 C 607 167 580 111 535 67 C 489 23 424 -1 339 -8 L 312 -200 Z" unicode="ψ" />
</font>
</defs>
</svg>
