<?xml version="1.0" encoding="utf-8" ?><svg version="1.1" xmlns = 'http://www.w3.org/2000/svg'><defs><font id='web' horiz-adv-x="1000">
<font-face font-family="web" descent="-250" cap-height="800" units-per-em="1100" bbox="-239,-450,1187,1400" x-height="600" ascent="850" />
<missing-glyph horiz-adv-x="662" d="M 50 -250 L 50 850 L 612 850 L 612 -250 L 50 -250 Z M 150 -150 L 512 -150 L 512 750 L 150 750 L 150 -150 Z" /><glyph horiz-adv-x="662" d="" unicode=" " />
<glyph horiz-adv-x="662" d="M 282 300 L 315 800 L 449 800 L 361 300 L 282 300 Z M 285 -10 C 253 -10 230 -3 217 10 C 204 24 199 45 203 74 L 207 102 C 210 131 220 153 236 167 C 252 181 277 188 309 188 C 340 188 362 181 375 167 C 387 153 392 131 389 102 L 385 74 C 381 45 371 24 355 10 C 339 -3 315 -10 285 -10 Z" unicode="!" />
<glyph horiz-adv-x="662" d="M 424 403 L 445 800 L 596 800 L 519 403 L 424 403 Z M 143 403 L 164 800 L 315 800 L 238 403 L 143 403 Z" unicode="&#x22;" />
<glyph horiz-adv-x="662" d="M 376 289 L 414 511 L 287 511 L 249 289 L 376 289 Z M 327 0 L 362 202 L 234 202 L 200 0 L 114 0 L 149 202 L 29 202 L 39 289 L 163 289 L 201 511 L 67 511 L 77 598 L 215 598 L 249 800 L 335 800 L 300 598 L 428 598 L 462 800 L 548 800 L 513 598 L 633 598 L 623 511 L 500 511 L 462 289 L 595 289 L 585 202 L 447 202 L 413 0 L 327 0 Z" unicode="#" />
<glyph horiz-adv-x="662" d="M 206 570 C 202 543 208 521 223 504 C 238 487 267 471 310 456 L 336 669 C 298 667 268 659 246 645 C 224 631 210 606 206 570 Z M 460 231 C 463 258 457 280 442 297 C 427 314 397 330 353 346 L 326 124 C 362 125 393 134 417 152 C 441 169 456 195 460 231 Z M 314 -50 L 238 -50 L 250 47 C 212 50 177 57 143 69 C 109 81 80 96 58 115 L 96 194 C 120 175 147 160 178 149 C 208 137 239 130 270 127 L 299 363 C 225 384 175 410 149 441 C 123 472 113 514 119 566 C 126 624 148 668 184 700 C 220 731 271 749 336 753 L 348 850 L 424 850 L 412 752 C 445 748 476 742 506 732 C 536 722 560 710 580 696 L 543 615 C 521 629 497 640 471 649 C 445 657 419 663 393 666 L 365 438 C 439 415 490 388 517 358 C 544 327 555 287 549 237 C 541 179 518 133 480 101 C 441 68 390 49 326 45 L 314 -50 Z" unicode="$" />
<glyph horiz-adv-x="662" d="M 201 455 C 157 455 122 467 98 493 C 74 518 65 557 72 610 L 79 666 C 85 718 103 756 134 782 C 164 807 202 820 246 820 C 290 820 323 807 347 782 C 371 756 380 718 374 666 L 367 610 C 360 557 342 518 312 493 C 282 467 245 455 201 455 Z M 210 532 C 228 532 244 538 257 550 C 269 562 277 581 281 608 L 288 668 C 291 693 288 712 278 724 C 268 736 254 742 236 742 C 217 742 201 736 189 724 C 176 712 168 693 165 668 L 158 608 C 154 581 157 562 167 550 C 177 538 191 532 210 532 Z M 13 200 L 614 660 L 654 602 L 51 142 L 13 200 Z M 417 -22 C 373 -22 338 -9 314 15 C 289 39 280 78 287 130 L 294 190 C 300 242 319 280 350 305 C 380 330 418 343 462 343 C 506 343 540 330 564 305 C 588 280 596 242 590 190 L 583 130 C 576 78 558 39 528 15 C 498 -9 461 -22 417 -22 Z M 427 56 C 445 56 461 61 473 73 C 485 84 492 102 496 128 L 504 192 C 506 217 503 236 494 248 C 485 260 471 266 453 266 C 434 266 418 260 405 248 C 392 236 384 217 382 192 L 374 128 C 370 102 374 84 384 73 C 394 61 408 56 427 56 Z" unicode="%" />
<glyph horiz-adv-x="662" d="M 573 -5 C 538 6 505 21 474 40 C 443 59 414 80 388 104 C 356 69 323 41 290 21 C 256 0 219 -10 177 -10 C 123 -10 82 7 53 43 C 23 78 13 130 21 198 C 27 252 46 299 76 338 C 106 377 140 407 177 429 C 167 461 160 493 156 523 C 152 553 151 581 154 605 C 162 669 182 720 215 756 C 248 792 292 810 346 810 C 393 810 430 793 456 761 C 482 728 492 689 487 645 C 480 589 460 544 427 510 C 394 476 342 443 270 413 C 274 401 278 390 283 378 C 288 366 293 355 299 345 C 311 321 324 298 339 276 C 354 254 370 233 387 214 C 407 242 428 275 448 311 C 468 347 487 385 506 426 L 582 387 C 560 346 535 308 508 273 C 481 238 452 202 422 164 L 599 84 L 573 -5 Z M 244 600 C 241 579 240 557 242 534 C 244 511 248 488 254 465 C 300 487 336 511 360 537 C 384 563 398 593 402 629 C 405 657 400 680 388 698 C 376 716 359 726 339 726 C 310 726 288 715 273 693 C 258 671 248 640 244 600 Z M 197 75 C 219 75 242 81 266 95 C 290 109 314 128 338 153 C 318 173 300 195 284 218 C 268 240 253 263 239 287 C 231 301 224 315 217 329 C 209 343 203 357 198 371 C 175 351 156 326 141 297 C 126 267 117 237 113 207 C 108 167 113 135 127 111 C 141 87 164 75 197 75 Z" unicode="&#x26;" />
<glyph horiz-adv-x="662" d="M 284 403 L 304 800 L 456 800 L 379 403 L 284 403 Z" unicode="'" />
<glyph horiz-adv-x="662" d="M 441 -210 C 345 -185 273 -128 225 -40 C 177 48 161 162 179 300 C 195 438 238 551 308 640 C 378 728 464 785 566 810 L 567 735 C 483 710 417 659 369 582 C 320 504 289 410 276 300 C 262 188 269 94 299 17 C 329 -60 382 -111 460 -135 L 441 -210 Z" unicode="(" />
<glyph horiz-adv-x="662" d="M 71 -210 L 70 -135 C 154 -111 221 -60 269 17 C 317 95 348 189 362 300 C 375 410 367 504 338 582 C 309 659 255 710 177 735 L 196 810 C 292 785 364 728 412 640 C 460 551 475 438 459 300 C 441 162 398 48 329 -40 C 259 -128 173 -185 71 -210 Z" unicode=")" />
<glyph horiz-adv-x="662" d="M 529 300 L 367 455 L 364 220 L 252 220 L 308 454 L 109 300 L 64 399 L 292 511 L 91 623 L 161 722 L 322 567 L 323 800 L 435 800 L 381 567 L 581 722 L 624 623 L 397 511 L 597 399 L 529 300 Z" unicode="*" />
<glyph horiz-adv-x="662" d="M 240 41 L 272 302 L 62 302 L 74 398 L 284 398 L 316 659 L 411 659 L 379 398 L 588 398 L 576 302 L 367 302 L 335 41 L 240 41 Z" unicode="+" />
<glyph horiz-adv-x="662" d="M 118 -203 L 249 195 L 436 195 L 197 -203 L 118 -203 Z" unicode="," />
<glyph horiz-adv-x="662" d="M 62 302 L 74 398 L 588 398 L 576 302 L 62 302 Z" unicode="-" />
<glyph horiz-adv-x="662" d="M 282 -10 C 250 -10 226 -2 208 12 C 190 26 184 50 188 82 L 191 109 C 195 141 207 165 229 180 C 250 195 276 203 308 203 C 339 203 363 195 380 180 C 397 165 404 141 400 109 L 397 82 C 393 50 380 26 359 12 C 338 -2 312 -10 282 -10 Z" unicode="." />
<glyph horiz-adv-x="662" d="M 26 -200 L 516 800 L 611 800 L 121 -200 L 26 -200 Z" unicode="/" />
<glyph horiz-adv-x="662" d="M 281 -10 C 199 -10 141 19 106 77 C 70 135 60 219 74 331 L 90 465 C 104 577 135 663 185 722 C 235 780 300 810 382 810 C 463 810 521 780 556 722 C 591 663 602 577 588 465 L 572 331 C 558 219 526 135 477 77 C 427 19 362 -10 281 -10 Z M 291 77 C 346 77 388 96 416 135 C 444 174 464 239 476 330 L 492 466 C 503 558 499 623 481 663 C 463 703 426 723 371 723 C 315 723 273 703 245 663 C 217 623 197 558 186 466 L 170 330 C 158 239 162 174 180 135 C 198 96 235 77 291 77 Z M 322 323 C 302 323 286 326 275 334 C 263 341 259 355 262 376 L 268 423 C 270 443 278 456 291 464 C 303 472 320 476 340 476 C 360 476 375 472 386 464 C 397 456 401 443 399 423 L 393 376 C 390 355 382 341 370 334 C 357 326 341 323 322 323 Z" unicode="0" />
<glyph horiz-adv-x="662" d="M 78 0 L 89 87 L 289 87 L 362 683 L 336 683 C 312 646 283 619 247 603 C 211 586 173 581 132 588 L 135 683 C 180 678 224 686 266 706 C 308 726 346 758 379 800 L 473 800 L 386 87 L 568 87 L 557 0 L 78 0 Z" unicode="1" />
<glyph horiz-adv-x="662" d="M 33 0 L 54 170 C 61 232 80 280 111 314 C 141 348 189 375 255 396 L 383 436 C 417 446 443 460 461 477 C 478 494 489 519 493 553 L 498 595 C 504 641 497 673 479 693 C 461 713 425 723 371 723 C 319 723 282 711 260 688 C 237 664 219 618 206 549 L 111 559 C 126 650 154 715 195 753 C 236 791 298 810 380 810 C 461 810 519 793 555 759 C 591 725 604 674 596 606 L 588 538 C 582 488 564 448 534 419 C 504 390 458 366 394 346 L 267 306 C 233 296 207 281 188 263 C 168 244 156 214 151 172 L 141 87 L 542 87 L 531 0 L 33 0 Z" unicode="2" />
<glyph horiz-adv-x="662" d="M 273 -10 C 177 -10 115 8 87 46 C 58 84 46 140 51 216 L 149 226 C 147 165 154 125 172 105 C 190 85 227 75 283 75 C 342 75 385 85 411 107 C 437 128 454 165 461 217 L 464 244 C 470 295 463 331 443 351 C 423 371 385 382 329 382 L 237 382 L 248 469 L 340 469 C 390 469 425 477 447 493 C 468 509 481 537 487 577 L 491 609 C 496 651 489 681 470 699 C 450 716 415 725 363 725 C 316 725 282 715 260 696 C 238 676 222 641 211 589 L 116 599 C 129 674 156 728 198 761 C 240 793 298 810 372 810 C 445 810 501 794 541 762 C 581 730 596 679 588 608 L 584 575 C 578 535 561 503 533 480 C 505 457 468 444 424 441 L 421 412 C 473 407 511 389 534 357 C 557 325 566 287 561 244 L 558 217 C 549 145 523 90 479 50 C 435 10 367 -10 273 -10 Z" unicode="3" />
<glyph horiz-adv-x="662" d="M 165 298 L 407 298 L 455 690 L 165 298 Z M 603 211 L 493 211 L 467 0 L 370 0 L 396 211 L 50 211 L 61 298 L 427 800 L 565 800 L 504 298 L 614 298 L 603 211 Z" unicode="4" />
<glyph horiz-adv-x="662" d="M 278 -10 C 183 -10 120 6 89 38 C 57 70 45 130 51 219 L 149 229 C 145 165 152 124 170 105 C 187 86 227 77 289 77 C 345 77 386 88 412 111 C 438 134 454 168 460 214 L 466 263 C 472 310 466 345 450 367 C 434 389 404 401 360 401 L 100 401 L 149 800 L 593 800 L 583 713 L 236 713 L 209 493 L 376 493 C 447 493 498 474 530 438 C 562 402 573 346 564 271 L 556 205 C 548 139 520 86 473 48 C 425 9 360 -10 278 -10 Z" unicode="5" />
<glyph horiz-adv-x="662" d="M 281 -10 C 195 -10 135 15 101 66 C 67 116 55 186 67 276 L 98 526 C 109 618 139 689 188 737 C 236 785 301 810 383 810 C 457 810 510 795 543 767 C 576 739 595 692 600 628 L 492 605 C 488 647 479 678 464 696 C 449 714 418 723 370 723 C 315 723 274 707 248 677 C 221 647 203 596 195 526 L 182 422 L 199 422 C 218 446 241 465 268 479 C 294 492 328 499 370 499 C 444 499 497 477 529 433 C 560 389 571 332 563 262 L 560 240 C 550 158 521 96 473 54 C 425 11 361 -10 281 -10 Z M 290 77 C 342 77 381 90 409 116 C 437 142 454 182 461 238 L 463 251 C 469 306 462 346 441 372 C 419 398 383 411 331 411 C 279 411 239 398 212 372 C 184 346 167 306 161 251 L 159 238 C 152 182 159 142 180 116 C 201 90 238 77 290 77 Z" unicode="6" />
<glyph horiz-adv-x="662" d="M 188 0 C 243 173 291 306 333 399 C 375 491 437 593 520 703 L 119 703 L 131 800 L 629 800 L 617 703 C 532 578 467 466 422 367 C 377 267 334 145 294 0 L 188 0 Z" unicode="7" />
<glyph horiz-adv-x="662" d="M 281 -10 C 193 -10 132 7 97 41 C 61 75 48 130 58 206 L 61 228 C 67 278 84 320 114 352 C 143 384 181 402 227 407 L 231 436 C 195 439 166 454 146 481 C 125 507 117 543 123 587 L 127 619 C 135 685 159 734 199 764 C 239 794 300 810 381 810 C 462 810 519 794 552 764 C 584 734 597 685 589 619 L 585 587 C 579 543 563 507 536 481 C 508 454 477 439 441 436 L 437 407 C 481 402 514 383 536 351 C 557 319 565 278 559 228 L 556 206 C 546 130 520 75 477 41 C 433 7 368 -10 281 -10 Z M 339 464 C 389 464 424 472 446 490 C 468 507 481 538 487 582 L 491 609 C 496 652 490 682 472 699 C 454 716 421 725 371 725 C 321 725 285 716 263 699 C 241 682 228 652 223 609 L 219 582 C 213 538 219 507 237 490 C 255 472 289 464 339 464 Z M 291 75 C 347 75 388 85 413 106 C 438 126 454 163 461 216 L 463 233 C 469 287 463 324 443 345 C 423 365 384 376 328 376 C 271 376 230 365 206 345 C 181 324 165 287 159 233 L 157 216 C 150 163 156 126 176 106 C 196 85 234 75 291 75 Z" unicode="8" />
<glyph horiz-adv-x="662" d="M 331 389 C 382 389 421 402 449 428 C 477 454 494 494 501 549 L 503 562 C 509 616 502 657 481 683 C 459 709 423 723 372 723 C 320 723 281 709 253 683 C 225 657 207 616 201 562 L 199 549 C 192 494 199 454 221 428 C 243 402 279 389 331 389 Z M 279 -10 C 205 -10 151 4 118 33 C 85 61 66 108 62 172 L 170 195 C 173 149 183 117 200 101 C 217 85 248 77 292 77 C 346 77 386 92 414 123 C 441 153 459 204 468 274 L 480 378 L 463 378 C 444 352 420 333 392 320 C 363 307 329 301 289 301 C 217 301 165 322 133 365 C 101 407 90 465 99 538 L 102 560 C 112 641 140 703 188 746 C 236 788 300 810 381 810 C 466 810 526 784 560 734 C 594 683 606 613 595 524 L 565 274 C 553 185 524 115 478 65 C 431 15 365 -10 279 -10 Z" unicode="9" />
<glyph horiz-adv-x="662" d="M 331 393 C 300 393 276 399 258 413 C 240 426 233 447 237 476 L 243 521 C 246 550 258 571 279 585 C 300 599 326 606 357 606 C 387 606 411 599 429 585 C 446 571 453 550 450 521 L 444 476 C 440 447 428 426 407 413 C 386 399 361 393 331 393 Z M 282 -10 C 251 -10 227 -3 209 10 C 191 23 184 44 188 73 L 193 118 C 197 147 209 168 230 182 C 251 196 277 203 308 203 C 338 203 362 196 380 182 C 397 168 404 147 400 118 L 395 73 C 391 44 379 23 358 10 C 337 -3 312 -10 282 -10 Z" unicode=":" />
<glyph horiz-adv-x="662" d="M 331 393 C 300 393 276 399 258 413 C 240 426 233 447 237 476 L 243 521 C 246 550 258 571 279 585 C 300 599 326 606 357 606 C 387 606 411 599 429 585 C 446 571 453 550 450 521 L 444 476 C 440 447 428 426 407 413 C 386 399 361 393 331 393 Z M 119 -204 L 249 196 L 435 196 L 197 -204 L 119 -204 Z" unicode=";" />
<glyph horiz-adv-x="662" d="M 515 21 L 89 302 L 101 398 L 595 679 L 584 587 L 167 350 L 526 113 L 515 21 Z" unicode="&#x3C;" />
<glyph horiz-adv-x="662" d="M 78 434 L 90 531 L 604 531 L 592 434 L 78 434 Z M 46 169 L 58 266 L 572 266 L 560 169 L 46 169 Z" unicode="=" />
<glyph horiz-adv-x="662" d="M 55 21 L 66 113 L 482 350 L 124 587 L 135 679 L 561 398 L 549 302 L 55 21 Z" unicode="&#x3E;" />
<glyph horiz-adv-x="662" d="M 248 316 L 238 394 C 347 412 421 433 459 457 C 497 480 519 512 525 552 L 529 583 C 533 625 526 659 506 685 C 486 710 442 723 374 723 C 300 723 251 710 227 685 C 203 660 184 615 171 549 L 76 559 C 92 652 122 717 166 754 C 210 791 282 810 383 810 C 480 810 547 790 583 750 C 619 710 634 659 626 595 L 620 548 C 611 478 577 426 519 394 C 461 362 370 336 248 316 Z M 242 -10 C 210 -10 188 -3 175 10 C 162 24 157 45 161 74 L 165 102 C 168 131 178 153 194 167 C 210 181 234 188 266 188 C 297 188 319 181 333 167 C 346 153 351 131 348 102 L 344 74 C 340 45 330 24 313 10 C 296 -3 272 -10 242 -10 Z" unicode="?" />
<glyph horiz-adv-x="662" d="M 325 -110 C 224 -110 151 -82 107 -27 C 63 28 46 103 58 199 L 97 517 C 108 605 138 676 187 730 C 236 783 303 810 389 810 C 466 810 522 783 558 730 C 593 676 605 605 594 517 L 565 273 C 555 219 535 178 505 151 C 475 123 434 110 384 110 C 329 110 290 124 268 154 C 246 184 238 225 245 279 L 261 407 C 267 459 285 500 314 532 C 342 564 375 580 412 580 C 433 580 449 574 461 564 C 473 554 482 542 488 528 L 514 528 C 520 594 513 645 492 681 C 470 717 433 736 379 736 C 317 736 270 716 239 678 C 207 640 187 586 179 517 L 140 199 C 131 125 141 67 171 26 C 201 -14 255 -35 335 -35 C 368 -35 400 -32 430 -27 C 460 -21 486 -15 510 -7 L 501 -83 C 477 -89 450 -95 418 -101 C 386 -107 355 -110 325 -110 Z M 394 190 C 417 190 436 195 451 207 C 466 219 476 244 481 282 L 495 401 C 499 435 495 460 483 476 C 470 492 453 500 432 500 C 408 500 389 492 375 477 C 360 461 350 436 346 400 L 332 288 C 328 252 331 227 341 212 C 351 197 369 190 394 190 Z" unicode="@" />
<glyph horiz-adv-x="662" d="M 420 319 L 367 689 L 220 319 L 420 319 Z M 467 0 L 433 233 L 186 233 L 94 0 L -4 0 L 329 800 L 432 800 L 569 0 L 467 0 Z" unicode="A" />
<glyph horiz-adv-x="662" d="M 50 0 L 148 800 L 379 800 C 455 800 509 784 543 753 C 576 722 589 675 581 612 L 575 566 C 571 532 558 504 537 481 C 516 458 489 444 456 438 L 452 409 C 492 405 522 388 543 359 C 563 330 571 293 565 248 L 560 204 C 551 135 524 84 479 50 C 434 16 370 0 287 0 L 50 0 Z M 203 459 L 344 459 C 386 459 419 467 441 485 C 463 503 476 532 481 572 L 485 599 C 489 639 483 668 466 686 C 448 704 418 713 376 713 L 235 713 L 203 459 Z M 158 87 L 316 87 C 362 87 396 97 420 117 C 444 137 458 170 464 215 L 468 246 C 473 290 466 323 448 343 C 429 363 397 373 351 373 L 193 373 L 158 87 Z" unicode="B" />
<glyph horiz-adv-x="662" d="M 291 -10 C 204 -10 142 13 105 60 C 67 107 54 177 66 271 L 97 525 C 109 619 139 690 188 738 C 236 786 304 810 392 810 C 476 810 536 788 572 745 C 608 701 622 633 616 540 L 518 530 C 522 603 514 653 494 681 C 474 709 436 723 381 723 C 321 723 277 708 249 678 C 221 648 203 598 195 526 L 163 270 C 155 201 161 152 182 122 C 203 92 243 77 301 77 C 357 77 398 90 424 118 C 450 145 471 194 486 266 L 581 256 C 565 164 533 96 487 54 C 441 11 375 -10 291 -10 Z" unicode="C" />
<glyph horiz-adv-x="662" d="M 50 0 L 148 800 L 355 800 C 440 800 504 774 546 722 C 588 670 604 602 594 516 L 565 280 C 555 194 522 126 467 76 C 411 25 341 0 256 0 L 50 0 Z M 158 87 L 266 87 C 326 87 372 104 406 139 C 440 173 460 220 468 279 L 497 517 C 504 576 495 623 470 659 C 445 695 403 713 343 713 L 235 713 L 158 87 Z" unicode="D" />
<glyph horiz-adv-x="662" d="M 50 0 L 148 800 L 629 800 L 619 713 L 235 713 L 206 479 L 544 479 L 533 392 L 195 392 L 158 87 L 542 87 L 531 0 L 50 0 Z" unicode="E" />
<glyph horiz-adv-x="662" d="M 53 0 L 151 800 L 630 800 L 620 713 L 238 713 L 199 397 L 517 397 L 506 311 L 188 311 L 150 0 L 53 0 Z" unicode="F" />
<glyph horiz-adv-x="662" d="M 297 -10 C 211 -10 148 14 109 64 C 69 113 55 182 66 271 L 97 525 C 108 617 139 687 190 736 C 240 785 307 810 391 810 C 467 810 523 789 557 748 C 591 707 605 644 600 559 L 501 549 C 504 612 496 657 478 683 C 459 709 426 723 379 723 C 321 723 278 708 250 678 C 222 648 203 597 195 526 L 163 270 C 154 200 161 151 183 121 C 205 91 247 77 308 77 C 363 77 404 94 432 128 C 460 162 479 219 489 300 L 319 300 L 329 386 L 596 386 L 584 281 C 572 187 541 115 492 65 C 443 15 378 -10 297 -10 Z" unicode="G" />
<glyph horiz-adv-x="662" d="M 50 0 L 148 800 L 245 800 L 206 478 L 476 478 L 515 800 L 612 800 L 514 0 L 417 0 L 465 391 L 195 391 L 147 0 L 50 0 Z" unicode="H" />
<glyph horiz-adv-x="662" d="M 50 0 L 61 87 L 245 87 L 322 713 L 138 713 L 148 800 L 612 800 L 602 713 L 419 713 L 342 87 L 525 87 L 514 0 L 50 0 Z" unicode="I" />
<glyph horiz-adv-x="662" d="M 263 -10 C 180 -10 121 11 87 53 C 52 95 38 163 45 255 L 144 266 C 139 190 145 140 163 115 C 181 89 218 77 274 77 C 324 77 364 91 393 120 C 421 148 439 192 447 252 L 504 713 L 319 713 L 329 800 L 611 800 L 544 253 C 533 167 504 102 456 57 C 408 12 344 -10 263 -10 Z" unicode="J" />
<glyph horiz-adv-x="662" d="M 194 382 L 147 0 L 50 0 L 148 800 L 245 800 L 205 469 L 236 469 L 554 800 L 665 800 L 307 432 L 564 0 L 450 0 L 228 382 L 194 382 Z" unicode="K" />
<glyph horiz-adv-x="662" d="M 96 0 L 194 800 L 291 800 L 204 87 L 525 87 L 514 0 L 96 0 Z" unicode="L" />
<glyph horiz-adv-x="662" d="M 261 197 L 186 646 L 109 0 L 22 0 L 120 800 L 246 800 L 324 316 L 519 800 L 640 800 L 542 0 L 455 0 L 536 646 L 351 197 L 261 197 Z" unicode="M" />
<glyph horiz-adv-x="662" d="M 378 0 L 220 680 L 137 0 L 50 0 L 148 800 L 278 800 L 441 110 L 525 800 L 612 800 L 514 0 L 378 0 Z" unicode="N" />
<glyph horiz-adv-x="662" d="M 281 -10 C 199 -10 140 14 104 62 C 68 110 55 180 66 272 L 97 524 C 109 617 139 688 187 737 C 235 785 300 810 382 810 C 462 810 521 785 558 737 C 594 688 607 617 595 524 L 564 272 C 553 180 523 110 475 62 C 427 14 362 -10 281 -10 Z M 291 77 C 346 77 387 91 414 121 C 440 150 458 200 467 271 L 498 525 C 507 597 502 648 483 678 C 463 708 426 723 371 723 C 315 723 274 708 248 678 C 221 648 203 597 194 525 L 163 271 C 154 200 159 150 179 121 C 198 91 235 77 291 77 Z" unicode="O" />
<glyph horiz-adv-x="662" d="M 50 0 L 148 800 L 408 800 C 486 800 541 782 575 748 C 608 713 620 660 612 589 L 601 494 C 591 422 566 368 524 334 C 482 299 422 282 344 282 L 182 282 L 147 0 L 50 0 Z M 192 367 L 352 367 C 400 367 436 376 460 396 C 483 415 498 448 504 494 L 515 586 C 520 632 513 664 495 684 C 477 703 443 713 395 713 L 235 713 L 192 367 Z" unicode="P" />
<glyph horiz-adv-x="662" d="M 532 -190 C 442 -209 374 -205 326 -178 C 278 -150 258 -95 267 -11 C 190 -8 135 17 101 65 C 67 113 55 181 66 270 L 97 524 C 109 617 139 688 187 737 C 235 785 300 810 382 810 C 463 810 522 785 558 737 C 594 688 607 617 595 524 L 564 270 C 554 194 532 134 498 88 C 464 42 418 12 362 -2 C 357 -53 370 -85 400 -99 C 430 -113 472 -114 528 -104 L 532 -190 Z M 292 83 C 346 83 387 97 414 125 C 441 153 459 201 467 267 L 499 527 C 507 595 501 643 481 673 C 461 702 424 717 370 717 C 315 717 274 702 247 673 C 220 643 203 595 195 527 L 163 267 C 155 201 160 153 180 125 C 200 97 237 83 292 83 Z" unicode="Q" />
<glyph horiz-adv-x="662" d="M 196 396 L 374 396 C 422 396 457 406 481 427 C 504 447 519 481 525 528 L 532 590 C 538 634 531 665 513 684 C 494 703 461 713 413 713 L 235 713 L 196 396 Z M 147 0 L 50 0 L 148 800 L 426 800 C 502 800 557 782 591 747 C 625 712 637 660 629 590 L 622 528 C 614 464 593 414 559 379 C 525 343 478 322 418 315 L 566 0 L 456 0 L 310 312 L 185 312 L 147 0 Z" unicode="R" />
<glyph horiz-adv-x="662" d="M 291 -7 C 237 -7 187 2 141 20 C 95 38 57 69 26 112 L 91 182 C 115 148 145 122 181 105 C 217 88 259 80 307 80 C 353 80 391 91 422 115 C 452 138 470 170 476 211 C 480 248 472 277 450 297 C 428 317 382 340 313 365 C 227 394 170 425 141 458 C 111 491 100 537 108 595 C 116 662 143 714 191 750 C 239 786 296 804 362 804 C 412 804 458 794 502 776 C 546 757 582 727 611 686 L 548 614 C 524 648 495 673 460 691 C 425 708 389 717 351 717 C 311 717 278 707 252 689 C 226 671 211 642 207 604 C 203 568 212 540 235 520 C 257 500 306 477 380 452 C 461 424 515 394 543 362 C 571 330 581 285 574 228 C 564 152 532 94 477 54 C 422 13 360 -7 291 -7 Z" unicode="S" />
<glyph horiz-adv-x="662" d="M 234 0 L 322 713 L 95 713 L 105 800 L 655 800 L 645 713 L 419 713 L 331 0 L 234 0 Z" unicode="T" />
<glyph horiz-adv-x="662" d="M 281 -10 C 203 -10 147 13 115 59 C 82 105 71 176 83 270 L 148 800 L 245 800 L 180 268 C 171 198 175 148 192 119 C 208 90 241 76 291 76 C 340 76 377 90 401 119 C 425 148 441 198 450 268 L 515 800 L 612 800 L 547 270 C 535 176 508 105 464 59 C 420 13 359 -10 281 -10 Z" unicode="U" />
<glyph horiz-adv-x="662" d="M 335 0 L 230 0 L 94 800 L 198 800 L 300 129 L 566 800 L 667 800 L 335 0 Z" unicode="V" />
<glyph horiz-adv-x="662" d="M 388 0 L 341 480 L 177 0 L 81 0 L 80 800 L 175 800 L 159 149 L 309 600 L 407 600 L 445 149 L 590 800 L 680 800 L 483 0 L 388 0 Z" unicode="W" />
<glyph horiz-adv-x="662" d="M 474 0 L 323 323 L 91 0 L -20 0 L 283 408 L 100 800 L 211 800 L 355 494 L 574 800 L 684 800 L 393 409 L 583 0 L 474 0 Z" unicode="X" />
<glyph horiz-adv-x="662" d="M 331 0 L 234 0 L 271 300 L 72 800 L 179 800 L 335 391 L 582 800 L 687 800 L 368 300 L 331 0 Z" unicode="Y" />
<glyph horiz-adv-x="662" d="M 531 0 L 33 0 L 44 87 L 506 713 L 121 713 L 131 800 L 629 800 L 619 713 L 157 87 L 542 87 L 531 0 Z" unicode="Z" />
<glyph horiz-adv-x="662" d="M 117 -200 L 240 800 L 566 800 L 556 713 L 327 713 L 224 -125 L 453 -125 L 443 -200 L 117 -200 Z" unicode="[" />
<glyph horiz-adv-x="662" d="M 393 -200 L 149 800 L 244 800 L 488 -200 L 393 -200 Z" unicode="\" />
<glyph horiz-adv-x="662" d="M 71 -200 L 81 -125 L 310 -125 L 413 713 L 184 713 L 194 800 L 520 800 L 397 -200 L 71 -200 Z" unicode="]" />
<glyph horiz-adv-x="662" d="M 500 200 L 367 685 L 123 200 L 30 200 L 332 800 L 429 800 L 592 200 L 500 200 Z" unicode="^" />
<glyph horiz-adv-x="662" d="M 0 -200 L 12 -104 L 526 -104 L 514 -200 L 0 -200 Z" unicode="_" />
<glyph horiz-adv-x="662" d="M 372 403 L 213 800 L 401 800 L 452 403 L 372 403 Z" unicode="`" />
<glyph horiz-adv-x="662" d="M 225 74 C 257 74 287 80 315 93 C 343 105 368 127 390 157 L 402 256 L 245 256 C 216 256 192 249 174 236 C 155 222 144 199 140 167 C 136 137 140 114 153 98 C 166 82 190 74 225 74 Z M 201 -10 C 151 -10 111 4 80 32 C 48 60 36 103 44 161 C 50 213 71 254 107 284 C 143 314 184 330 231 330 L 412 330 L 423 420 C 426 450 419 475 402 494 C 385 512 357 522 319 522 C 279 522 248 515 227 501 C 206 487 187 459 171 415 L 90 439 C 107 495 136 538 176 567 C 216 595 267 610 329 610 C 390 610 439 595 476 566 C 513 537 528 493 521 433 L 487 155 C 483 121 489 99 506 90 C 522 80 549 79 587 86 L 576 -3 C 532 -9 496 -6 466 6 C 436 19 422 49 425 97 L 406 97 C 385 66 356 40 320 20 C 283 0 243 -10 201 -10 Z" unicode="a" />
<glyph horiz-adv-x="662" d="M 274 -10 C 234 -10 196 -4 158 7 C 120 19 87 35 58 57 L 149 800 L 245 800 L 209 507 L 237 507 C 255 539 280 565 311 583 C 341 601 375 610 411 610 C 467 610 508 590 534 552 C 560 513 569 458 561 387 L 539 212 C 530 141 502 86 456 48 C 410 9 349 -10 274 -10 Z M 284 75 C 332 75 369 86 395 108 C 421 130 437 166 443 214 L 465 388 C 470 432 465 465 450 486 C 435 507 409 518 373 518 C 342 518 312 509 284 493 C 255 476 226 451 198 417 L 161 110 C 178 98 197 89 217 83 C 237 77 259 75 284 75 Z" unicode="b" />
<glyph horiz-adv-x="662" d="M 294 -10 C 212 -10 154 8 118 46 C 82 84 68 138 77 210 L 98 386 C 107 459 134 515 180 553 C 225 591 288 610 369 610 C 440 610 493 593 527 559 C 561 525 576 473 573 405 L 477 400 C 479 444 471 475 452 494 C 432 513 401 523 357 523 C 308 523 270 512 243 490 C 216 468 200 433 195 387 L 173 209 C 167 163 174 130 196 109 C 218 87 253 77 303 77 C 347 77 380 84 404 100 C 428 116 443 142 450 180 L 544 175 C 532 113 506 66 464 36 C 422 5 366 -10 294 -10 Z" unicode="c" />
<glyph horiz-adv-x="662" d="M 265 82 C 295 82 325 90 353 107 C 381 123 410 149 439 183 L 477 486 C 459 499 440 509 420 515 C 400 521 378 525 354 525 C 305 525 268 513 242 491 C 216 468 200 433 194 386 L 173 211 C 167 167 172 134 188 113 C 203 92 229 82 265 82 Z M 400 93 C 381 60 356 35 326 17 C 296 -1 263 -10 227 -10 C 171 -10 129 9 103 49 C 77 88 68 143 77 213 L 99 388 C 107 458 135 512 181 551 C 227 590 287 610 362 610 C 383 610 404 607 426 602 C 448 597 468 590 488 582 L 515 800 L 611 800 L 513 0 L 417 0 L 428 93 L 400 93 Z" unicode="d" />
<glyph horiz-adv-x="662" d="M 532 131 C 509 81 479 45 442 23 C 405 1 352 -10 282 -10 C 209 -10 154 8 118 46 C 82 83 68 138 77 211 L 98 386 C 107 460 135 516 183 554 C 231 591 289 610 358 610 C 427 610 480 591 518 553 C 555 515 569 456 559 378 L 548 281 L 182 281 L 173 211 C 167 161 173 126 193 105 C 213 83 246 73 292 73 C 335 73 367 79 389 93 C 410 107 428 129 443 159 L 532 131 Z M 194 385 L 191 355 L 461 355 L 463 376 C 469 428 463 467 443 491 C 423 515 391 527 347 527 C 302 527 267 515 241 492 C 215 468 200 433 194 385 Z" unicode="e" />
<glyph horiz-adv-x="662" d="M 164 -200 L 252 513 L 96 513 L 107 600 L 263 600 L 268 640 C 274 693 298 734 340 764 C 382 793 432 808 489 808 C 513 808 538 805 564 799 C 590 793 610 787 626 780 L 598 698 C 580 706 561 711 541 715 C 521 719 500 721 480 721 C 448 721 421 714 401 702 C 380 690 368 670 365 642 L 360 600 L 587 600 L 576 513 L 349 513 L 261 -200 L 164 -200 Z" unicode="f" />
<glyph horiz-adv-x="662" d="M 552 -49 C 545 -103 522 -143 482 -170 C 442 -196 396 -210 343 -210 L 171 -210 C 115 -210 70 -198 38 -174 C 5 -150 -8 -113 -2 -63 C 2 -31 13 -5 31 13 C 49 32 74 43 104 46 L 106 67 C 85 71 69 80 57 96 C 45 111 41 135 45 167 C 48 195 59 221 79 244 C 99 266 128 279 168 283 L 170 302 C 142 312 123 329 115 351 C 107 373 104 393 107 413 L 110 441 C 116 487 138 525 178 555 C 218 585 271 600 337 600 L 611 600 L 600 511 L 460 535 L 457 516 C 480 508 497 494 507 474 C 517 453 522 432 520 412 L 516 385 C 510 339 489 301 452 273 C 415 245 361 231 289 231 L 180 231 C 163 231 150 226 140 217 C 130 208 124 193 122 171 C 119 150 123 134 134 124 C 144 114 161 109 185 109 L 391 109 C 443 109 484 96 515 72 C 546 47 558 7 552 -49 Z M 302 306 C 338 306 367 313 388 328 C 408 342 421 366 425 399 L 429 430 C 433 462 426 485 409 499 C 391 513 364 521 328 521 C 291 521 262 513 242 499 C 221 485 209 462 205 430 L 201 399 C 197 366 203 342 221 328 C 238 313 265 306 302 306 Z M 179 -132 L 364 -132 C 390 -132 413 -126 431 -114 C 449 -102 460 -82 464 -54 C 467 -27 462 -8 449 3 C 435 15 416 21 392 21 L 105 21 L 96 -48 C 92 -76 98 -97 112 -111 C 126 -125 148 -132 179 -132 Z" unicode="g" />
<glyph horiz-adv-x="662" d="M 51 0 L 149 800 L 245 800 L 209 507 L 237 507 C 253 538 277 563 309 582 C 340 600 374 610 412 610 C 466 610 506 592 534 556 C 561 520 571 471 563 411 L 513 0 L 417 0 L 465 392 C 470 433 465 464 449 486 C 433 507 409 518 375 518 C 347 518 317 509 287 493 C 257 476 227 451 198 419 L 147 0 L 51 0 Z" unicode="h" />
<glyph horiz-adv-x="662" d="M 51 0 L 62 87 L 245 87 L 297 513 L 114 513 L 125 600 L 405 600 L 342 87 L 524 87 L 513 0 L 51 0 Z M 370 711 C 346 711 327 715 313 723 C 299 731 294 745 297 767 L 298 774 C 300 796 309 811 325 819 C 341 827 361 832 385 832 C 409 832 427 827 441 819 C 455 811 460 796 458 774 L 457 767 C 454 745 445 731 429 723 C 413 715 393 711 370 711 Z" unicode="i" />
<glyph horiz-adv-x="662" d="M 170 -208 C 146 -208 123 -206 101 -203 C 78 -200 54 -194 28 -186 L 58 -92 C 79 -100 99 -106 119 -109 C 139 -112 158 -114 178 -114 C 218 -114 251 -104 278 -86 C 304 -67 320 -36 326 7 L 388 513 L 132 513 L 143 600 L 496 600 L 421 -6 C 413 -74 385 -125 337 -158 C 289 -191 234 -208 170 -208 Z M 457 711 C 433 711 414 715 400 723 C 386 731 381 745 384 767 L 385 774 C 387 796 396 811 412 819 C 428 827 448 832 472 832 C 496 832 514 827 528 819 C 542 811 547 796 545 774 L 544 767 C 541 745 532 731 516 723 C 500 715 480 711 457 711 Z" unicode="j" />
<glyph horiz-adv-x="662" d="M 225 274 L 191 0 L 94 0 L 192 800 L 289 800 L 235 356 L 281 356 L 486 600 L 602 600 L 352 321 L 525 0 L 415 0 L 271 274 L 225 274 Z" unicode="k" />
<glyph horiz-adv-x="662" d="M 52 0 L 63 87 L 246 87 L 323 713 L 140 713 L 150 800 L 430 800 L 343 87 L 525 87 L 514 0 L 52 0 Z" unicode="l" />
<glyph horiz-adv-x="662" d="M 156 434 L 103 0 L 15 0 L 89 600 L 177 600 L 167 523 L 186 523 C 200 550 217 571 238 587 C 258 602 279 610 301 610 C 325 610 344 602 358 587 C 372 572 380 551 384 523 L 404 523 C 418 550 436 571 458 587 C 480 602 502 610 526 610 C 556 610 579 597 593 571 C 607 545 611 509 606 463 L 549 0 L 461 0 L 516 449 C 519 477 518 498 513 513 C 508 527 499 535 485 535 C 472 535 456 526 438 508 C 419 490 399 466 379 434 L 326 0 L 238 0 L 293 449 C 296 477 295 499 290 513 C 284 527 275 535 261 535 C 248 535 233 526 215 509 C 197 491 177 466 156 434 Z" unicode="m" />
<glyph horiz-adv-x="662" d="M 51 0 L 125 600 L 221 600 L 209 507 L 237 507 C 255 539 280 564 312 582 C 343 600 377 610 413 610 C 467 610 507 592 534 556 C 561 520 571 472 563 410 L 513 0 L 417 0 L 465 391 C 470 433 465 464 449 486 C 433 507 409 518 375 518 C 347 518 317 509 287 492 C 257 475 227 450 198 418 L 147 0 L 51 0 Z" unicode="n" />
<glyph horiz-adv-x="662" d="M 281 -10 C 207 -10 152 9 117 47 C 81 85 68 139 77 210 L 98 386 C 107 457 134 512 179 551 C 223 590 283 610 358 610 C 431 610 485 590 521 551 C 556 512 569 457 560 386 L 539 211 C 530 139 503 85 459 47 C 414 9 355 -10 281 -10 Z M 291 77 C 336 77 371 87 396 109 C 421 130 437 164 443 210 L 464 386 C 470 432 463 467 443 489 C 423 511 391 523 346 523 C 300 523 265 511 240 489 C 215 467 200 432 194 386 L 173 210 C 167 164 173 130 193 109 C 213 87 245 77 291 77 Z" unicode="o" />
<glyph horiz-adv-x="662" d="M 284 75 C 332 75 369 86 395 108 C 421 130 437 166 443 214 L 465 390 C 470 434 465 466 450 487 C 435 507 409 518 373 518 C 342 518 313 509 285 493 C 257 477 228 451 198 417 L 161 114 C 178 101 196 91 216 85 C 236 78 258 75 284 75 Z M 276 -10 C 255 -10 234 -7 212 -2 C 190 2 169 9 149 18 L 122 -200 L 26 -200 L 125 600 L 221 600 L 209 507 L 237 507 C 255 539 280 564 311 582 C 342 600 375 610 411 610 C 466 610 507 590 533 550 C 559 510 569 456 561 387 L 539 212 C 530 143 502 89 456 49 C 409 9 349 -10 276 -10 Z" unicode="p" />
<glyph horiz-adv-x="662" d="M 392 -200 L 428 93 L 400 93 C 380 59 355 34 325 16 C 295 -1 262 -10 227 -10 C 170 -10 129 9 103 48 C 77 86 68 141 77 213 L 99 388 C 107 459 136 514 186 552 C 235 590 294 610 364 610 C 404 610 443 604 481 594 C 518 584 551 569 581 551 L 488 -200 L 392 -200 Z M 265 82 C 295 82 324 90 353 107 C 381 123 410 149 439 183 L 477 490 C 459 502 439 510 419 516 C 399 522 377 525 354 525 C 312 525 276 513 247 490 C 217 467 200 432 194 386 L 174 221 C 168 174 173 139 188 116 C 203 93 229 82 265 82 Z" unicode="q" />
<glyph horiz-adv-x="662" d="M 95 0 L 169 600 L 266 600 L 254 504 L 281 504 C 298 540 321 567 350 584 C 378 601 411 610 449 610 C 491 610 523 595 547 566 C 571 537 579 496 573 443 L 562 351 L 470 351 L 477 408 C 481 446 477 473 465 491 C 452 509 430 518 398 518 C 369 518 342 510 316 495 C 290 479 266 456 244 425 L 192 0 L 95 0 Z" unicode="r" />
<glyph horiz-adv-x="662" d="M 290 -10 C 242 -10 197 -3 155 11 C 112 25 75 46 43 75 L 94 152 C 120 128 152 110 188 97 C 224 83 261 77 300 77 C 334 77 366 82 394 94 C 422 105 439 127 443 160 C 446 190 437 211 415 223 C 393 235 352 247 292 257 C 222 268 172 287 141 313 C 110 339 98 379 105 432 C 112 490 138 534 183 564 C 227 594 279 610 337 610 C 380 610 421 602 460 587 C 499 571 534 550 564 524 L 514 447 C 488 469 460 487 428 501 C 396 515 363 523 327 523 C 295 523 267 516 243 504 C 219 491 206 469 202 439 C 198 410 207 389 228 377 C 249 364 290 353 352 343 C 422 331 472 312 503 284 C 533 256 546 217 540 168 C 532 108 504 63 456 34 C 407 4 352 -10 290 -10 Z" unicode="s" />
<glyph horiz-adv-x="662" d="M 377 -9 C 315 -9 268 7 238 41 C 207 74 196 123 204 187 L 244 513 L 90 513 L 101 600 L 255 600 L 279 800 L 376 800 L 352 600 L 588 600 L 577 513 L 341 513 L 302 197 C 297 159 302 130 318 111 C 333 92 358 83 392 83 C 414 83 436 84 457 88 C 477 91 497 96 517 103 L 525 14 C 504 7 481 1 457 -2 C 432 -6 405 -9 377 -9 Z" unicode="t" />
<glyph horiz-adv-x="662" d="M 226 -10 C 172 -10 132 8 104 45 C 76 81 66 130 74 190 L 125 600 L 221 600 L 173 208 C 167 166 172 134 187 113 C 201 92 227 82 263 82 C 291 82 320 90 350 106 C 379 122 409 147 439 181 L 491 600 L 587 600 L 513 0 L 417 0 L 428 93 L 400 93 C 384 62 361 37 329 18 C 297 0 262 -10 226 -10 Z" unicode="u" />
<glyph horiz-adv-x="662" d="M 343 0 L 221 0 L 101 600 L 205 600 L 293 81 L 509 600 L 610 600 L 343 0 Z" unicode="v" />
<glyph horiz-adv-x="662" d="M 362 0 L 330 392 L 205 0 L 98 0 L 69 600 L 161 600 L 164 77 L 288 501 L 396 501 L 423 93 L 551 600 L 643 600 L 466 0 L 362 0 Z" unicode="w" />
<glyph horiz-adv-x="662" d="M 417 0 L 304 225 L 143 0 L 36 0 L 266 301 L 117 600 L 225 600 L 332 384 L 494 600 L 601 600 L 371 306 L 524 0 L 417 0 Z" unicode="x" />
<glyph horiz-adv-x="662" d="M 98 -206 C 83 -206 68 -205 53 -203 C 37 -201 22 -198 6 -195 L 33 -108 C 49 -112 63 -115 77 -117 C 90 -119 103 -120 115 -120 C 145 -120 172 -111 195 -94 C 218 -77 238 -50 255 -12 L 259 -2 L 219 -2 L 100 600 L 205 600 L 294 81 L 510 600 L 611 600 L 337 -21 C 308 -87 273 -135 233 -163 C 193 -191 148 -206 98 -206 Z" unicode="y" />
<glyph horiz-adv-x="662" d="M 496 0 L 68 0 L 79 87 L 445 513 L 131 513 L 142 600 L 570 600 L 559 513 L 196 87 L 507 87 L 496 0 Z" unicode="z" />
<glyph horiz-adv-x="662" d="M 442 -210 C 310 -212 217 -200 162 -172 C 107 -144 83 -102 91 -44 C 95 -10 104 17 119 40 C 134 62 150 82 167 99 C 184 116 200 132 214 147 C 228 161 237 177 239 194 C 243 225 230 247 201 260 C 171 273 117 281 39 283 L 46 341 C 125 343 181 350 213 363 C 245 375 264 397 268 428 C 270 444 265 459 254 471 C 242 483 230 496 218 511 C 204 525 193 543 183 564 C 173 585 171 613 175 647 C 182 703 216 744 278 772 C 340 800 436 812 567 810 L 557 723 C 455 725 382 719 340 705 C 298 691 275 668 271 636 C 269 620 272 605 280 591 C 288 577 301 560 319 540 C 337 520 349 501 357 485 C 364 468 367 449 365 429 C 360 392 341 364 309 345 C 276 326 229 315 169 313 L 169 308 C 228 301 271 287 299 266 C 327 244 338 214 334 176 C 331 157 324 140 312 124 C 300 108 282 90 259 70 C 237 51 220 34 209 19 C 198 4 191 -13 189 -33 C 185 -67 202 -91 241 -106 C 279 -120 350 -127 453 -125 L 442 -210 Z" unicode="{" />
<glyph horiz-adv-x="662" d="M 214 -200 L 337 800 L 423 800 L 300 -200 L 214 -200 Z" unicode="|" />
<glyph horiz-adv-x="662" d="M 463 -44 C 455 -102 421 -144 359 -172 C 297 -200 201 -212 70 -210 L 81 -125 C 182 -127 254 -120 297 -106 C 339 -91 363 -67 367 -33 C 369 -13 367 4 359 19 C 351 34 339 51 323 70 C 304 90 290 108 282 124 C 274 140 271 157 274 176 C 278 214 297 244 330 266 C 363 287 410 301 471 308 L 471 313 C 411 315 368 326 340 345 C 312 364 300 392 305 429 C 307 449 314 468 326 485 C 338 501 355 520 377 540 C 400 560 417 577 429 591 C 440 605 447 620 449 636 C 453 668 435 691 396 705 C 357 719 287 725 185 723 L 195 810 C 327 812 420 800 475 772 C 530 744 554 703 547 647 C 543 613 533 585 518 564 C 503 543 488 525 472 511 C 455 496 440 483 426 471 C 412 459 404 444 402 428 C 398 397 410 375 439 363 C 468 350 522 343 602 341 L 595 283 C 515 281 459 273 427 260 C 395 247 377 225 373 194 C 371 177 375 161 385 147 C 395 132 407 116 421 99 C 433 82 444 62 454 40 C 464 17 467 -10 463 -44 Z" unicode="}" />
<glyph horiz-adv-x="662" d="M 430 216 C 394 216 366 226 346 248 C 326 269 308 308 293 364 C 279 414 267 447 257 464 C 247 481 234 490 218 490 C 200 490 184 481 172 465 C 160 448 151 419 146 377 L 128 226 L 43 226 L 62 383 C 70 446 90 495 122 531 C 154 566 191 584 232 584 C 268 584 296 573 316 552 C 336 531 353 492 369 435 C 382 385 393 351 403 334 C 413 317 426 309 444 309 C 460 309 475 318 488 336 C 501 354 510 384 515 426 L 534 575 L 619 575 L 599 419 C 591 355 572 305 540 269 C 508 233 472 216 430 216 Z" unicode="~" />
<glyph horiz-adv-x="662" d="" unicode=" " />
<glyph horiz-adv-x="662" d="M 381 810 C 412 810 434 803 448 789 C 461 775 466 754 463 726 L 460 698 C 456 668 445 647 429 633 C 412 619 388 612 357 612 C 325 612 303 619 290 633 C 277 647 273 668 277 698 L 280 726 C 283 754 293 775 310 789 C 326 803 350 810 381 810 Z M 384 500 L 350 0 L 216 0 L 305 500 L 384 500 Z" unicode="¡" />
<glyph horiz-adv-x="662" d="M 185 316 C 179 272 185 239 201 217 C 217 195 244 182 284 178 L 338 622 C 298 618 267 606 246 584 C 224 562 211 528 205 484 L 185 316 Z M 247 -50 L 264 92 C 193 98 144 121 117 161 C 90 201 81 256 90 327 L 109 477 C 117 546 139 600 176 640 C 213 679 268 702 340 708 L 357 850 L 432 850 L 415 709 C 478 704 523 684 549 649 C 575 613 587 562 584 495 L 493 489 C 496 537 490 570 475 590 C 459 609 433 620 395 622 L 341 178 C 379 179 408 188 428 206 C 447 223 461 255 470 301 L 559 295 C 547 229 523 179 488 147 C 453 114 403 95 339 91 L 322 -50 L 247 -50 Z" unicode="¢" />
<glyph horiz-adv-x="662" d="M 576 214 C 563 140 538 85 500 47 C 462 9 416 -10 360 -10 C 339 -10 319 -4 300 5 C 280 15 259 27 236 41 C 216 51 198 58 182 62 C 166 66 149 62 131 51 L 40 -9 L -4 63 L 78 112 C 101 126 123 151 143 185 C 163 219 176 253 180 286 C 182 306 183 325 181 341 C 179 357 176 373 172 387 L 45 387 L 55 476 L 136 476 C 130 492 125 509 123 529 C 121 549 121 572 125 599 C 132 662 157 713 201 752 C 244 790 302 810 375 810 C 453 810 509 792 543 757 C 577 722 592 667 587 592 L 489 582 C 491 636 484 673 466 693 C 448 713 415 723 365 723 C 321 723 287 712 264 692 C 241 671 227 639 222 597 C 219 572 220 550 225 531 C 229 511 235 493 242 476 L 425 476 L 415 387 L 274 387 C 276 373 278 359 279 344 C 279 328 279 312 277 294 C 274 269 265 242 250 214 C 235 186 210 159 174 134 L 183 118 C 201 129 218 134 234 133 C 249 132 265 128 282 121 C 298 114 312 106 326 97 C 340 88 355 84 373 84 C 403 84 426 94 442 114 C 458 134 471 170 482 224 L 576 214 Z" unicode="£" />
<glyph horiz-adv-x="662" d="M 304 177 C 340 177 368 187 388 208 C 408 228 422 262 428 310 L 450 486 C 455 532 450 567 435 589 C 419 611 394 623 358 623 C 322 623 293 611 273 589 C 252 567 239 532 234 486 L 212 310 C 206 262 210 228 226 208 C 242 187 268 177 304 177 Z M 293 90 C 262 90 235 94 211 103 C 187 112 167 126 153 144 L 63 57 L 12 119 L 117 222 C 115 234 114 248 114 263 C 114 277 115 293 117 310 L 139 486 C 141 503 144 519 148 535 C 152 550 156 564 162 578 L 81 681 L 147 743 L 215 655 C 235 673 259 687 285 696 C 311 705 339 710 370 710 C 400 710 428 705 452 696 C 476 686 495 672 510 654 L 599 738 L 650 676 L 545 575 C 546 562 547 548 547 533 C 547 518 547 502 545 486 L 523 310 C 521 294 518 279 515 265 C 511 251 507 237 502 225 L 582 124 L 516 62 L 449 145 C 428 126 404 112 378 103 C 352 94 323 90 293 90 Z" unicode="¤" />
<glyph horiz-adv-x="662" d="M 526 100 L 343 100 L 331 0 L 234 0 L 246 100 L 62 100 L 73 189 L 257 189 L 271 300 L 87 300 L 98 389 L 235 389 L 69 800 L 174 800 L 328 369 L 587 800 L 690 800 L 425 389 L 562 389 L 551 300 L 368 300 L 354 189 L 537 189 L 526 100 Z" unicode="¥" />
<glyph horiz-adv-x="662" d="M 288 400 L 337 800 L 423 800 L 374 400 L 288 400 Z M 214 -200 L 264 200 L 350 200 L 300 -200 L 214 -200 Z" unicode="¦" />
<glyph horiz-adv-x="662" d="M 298 200 C 302 199 308 198 314 196 C 320 194 325 193 331 192 C 361 192 389 200 415 216 C 440 232 455 258 460 295 C 464 327 455 349 433 363 C 411 377 381 388 345 397 C 339 397 334 398 328 400 C 322 402 316 403 312 405 C 281 404 253 396 227 380 C 201 364 185 338 181 302 C 177 270 186 247 208 233 C 230 219 260 208 298 200 Z M 274 -207 C 230 -207 188 -198 150 -182 C 111 -166 79 -143 53 -113 L 108 -35 C 136 -63 164 -85 192 -99 C 220 -113 252 -120 288 -120 C 322 -120 352 -112 380 -98 C 407 -84 423 -59 427 -25 C 431 15 419 45 389 63 C 359 81 321 96 275 108 C 205 122 154 143 122 170 C 89 197 76 236 82 287 C 87 328 102 361 128 385 C 153 409 183 426 219 437 C 183 455 156 477 139 505 C 122 533 116 568 122 610 C 130 676 158 725 206 757 C 254 788 309 804 369 804 C 413 804 454 795 492 779 C 530 763 563 740 589 710 L 533 632 C 505 660 477 682 449 696 C 421 710 390 717 354 717 C 318 717 286 708 260 692 C 234 676 219 653 215 623 C 210 581 222 551 252 533 C 282 515 321 500 370 490 C 437 474 487 453 519 426 C 551 399 565 360 559 308 C 553 268 538 236 513 212 C 487 188 457 170 422 160 C 457 142 483 120 501 92 C 518 64 524 29 519 -13 C 511 -77 484 -126 438 -158 C 392 -190 338 -207 274 -207 Z" unicode="§" />
<glyph horiz-adv-x="662" d="M 263 711 C 244 711 229 715 219 723 C 209 731 205 745 208 767 L 209 774 C 211 796 219 811 231 819 C 243 827 259 832 278 832 C 296 832 311 827 321 819 C 331 811 334 796 332 774 L 331 767 C 328 745 320 731 308 723 C 296 715 281 711 263 711 Z M 475 711 C 456 711 442 715 432 723 C 422 731 418 745 421 767 L 422 774 C 424 796 432 811 444 819 C 456 827 471 832 490 832 C 508 832 523 827 533 819 C 543 811 547 796 545 774 L 544 767 C 541 745 533 731 521 723 C 508 715 493 711 475 711 Z" unicode="¨" />
<glyph horiz-adv-x="662" d="M 331 -110 C 225 -110 148 -78 100 -14 C 52 49 28 139 28 257 L 28 479 C 28 597 52 689 101 753 C 149 817 226 850 332 850 C 437 850 514 817 562 753 C 610 689 634 597 634 479 L 634 257 C 634 139 609 49 561 -14 C 513 -78 436 -110 331 -110 Z M 331 -47 C 416 -47 476 -21 512 29 C 548 80 566 158 566 263 L 566 472 C 566 576 548 655 512 708 C 476 760 416 787 331 787 C 245 787 185 760 149 708 C 113 655 96 576 96 472 L 96 264 C 96 159 113 81 149 30 C 185 -21 245 -47 331 -47 Z M 339 102 C 287 102 249 117 227 149 C 205 180 194 226 194 286 L 194 456 C 194 515 205 560 228 591 C 250 622 287 638 339 638 C 383 638 415 623 435 595 C 455 567 467 523 471 465 L 392 459 C 389 499 384 525 377 539 C 369 552 356 559 338 559 C 317 559 302 551 293 537 C 283 522 279 498 279 464 L 279 276 C 279 242 283 217 293 203 C 303 188 318 181 339 181 C 357 181 370 186 377 198 C 384 210 389 235 392 273 L 471 267 C 467 209 455 167 435 141 C 415 115 383 102 339 102 Z" unicode="©" />
<glyph horiz-adv-x="662" d="M 276 396 C 299 396 321 401 343 412 C 364 422 384 440 402 466 L 409 522 L 285 522 C 262 522 243 517 227 508 C 211 499 202 483 199 460 C 197 439 201 423 213 412 C 224 401 245 396 276 396 Z M 248 323 C 207 323 173 333 147 355 C 121 377 110 410 116 456 C 120 496 138 527 168 551 C 198 575 232 587 270 587 L 417 587 L 425 648 C 427 674 422 695 410 712 C 397 729 375 738 344 738 C 312 738 288 733 270 723 C 252 713 237 690 223 654 L 153 675 C 167 719 189 752 220 775 C 251 798 294 810 350 810 C 401 810 442 797 472 772 C 502 747 515 709 509 658 L 485 464 C 481 434 485 415 497 408 C 509 401 531 400 565 405 L 555 328 C 517 325 486 329 463 339 C 440 349 430 374 433 415 L 417 415 C 399 389 376 367 346 349 C 316 331 283 323 248 323 Z" unicode="ª" />
<glyph horiz-adv-x="662" d="M 555 103 L 339 302 L 351 396 L 615 595 L 604 504 L 398 349 L 566 194 L 555 103 Z M 277 103 L 61 302 L 73 396 L 337 595 L 326 504 L 120 349 L 288 194 L 277 103 Z" unicode="«" />
<glyph horiz-adv-x="662" d="M 445 0 L 482 302 L 62 302 L 74 398 L 588 398 L 539 0 L 445 0 Z" unicode="¬" />
<glyph horiz-adv-x="662" d="M 62 302 L 74 398 L 588 398 L 576 302 L 62 302 Z" unicode="­" />
<glyph horiz-adv-x="662" d="M 331 139 C 241 139 175 163 134 213 C 93 263 73 329 73 412 L 73 585 C 73 668 93 735 134 785 C 175 835 241 860 332 860 C 421 860 486 835 527 785 C 568 735 589 668 589 585 L 589 412 C 589 329 568 263 527 213 C 486 163 421 139 331 139 Z M 331 194 C 402 194 453 213 484 251 C 514 289 530 346 530 422 L 530 574 C 530 650 514 708 484 747 C 453 786 402 806 331 806 C 259 806 208 786 178 747 C 147 708 132 650 132 574 L 132 422 C 132 346 147 289 178 251 C 208 213 259 194 331 194 Z M 284 501 L 340 501 C 354 501 364 504 372 510 C 379 516 383 527 383 543 L 383 571 C 383 589 379 603 372 611 C 364 619 354 623 340 623 L 284 623 L 284 501 Z M 284 325 L 220 325 L 220 680 L 341 680 C 375 680 401 670 419 651 C 437 632 447 605 447 571 L 447 543 C 447 519 441 499 431 483 C 421 467 406 456 387 450 L 454 325 L 382 325 L 321 443 L 284 443 L 284 325 Z" unicode="®" />
<glyph horiz-adv-x="662" d="M 190 757 L 201 843 L 571 843 L 560 757 L 190 757 Z" unicode="¯" />
<glyph horiz-adv-x="662" d="M 331 348 C 275 348 231 362 197 392 C 163 421 146 466 146 526 L 146 624 C 146 685 163 731 197 761 C 231 791 275 806 331 806 C 387 806 431 791 465 761 C 499 731 516 685 516 624 L 516 526 C 516 466 499 421 465 392 C 431 362 386 348 331 348 Z M 331 432 C 362 432 386 439 402 453 C 418 467 426 491 426 525 L 426 625 C 426 657 418 681 402 697 C 386 713 362 721 331 721 C 299 721 275 713 259 697 C 243 681 236 657 236 625 L 236 525 C 236 491 243 467 259 453 C 275 439 299 432 331 432 Z" unicode="°" />
<glyph horiz-adv-x="662" d="M 240 141 L 272 402 L 62 402 L 74 498 L 284 498 L 316 759 L 411 759 L 379 498 L 588 498 L 576 402 L 367 402 L 335 141 L 240 141 Z M 62 0 L 74 96 L 588 96 L 576 0 L 62 0 Z" unicode="±" />
<glyph horiz-adv-x="662" d="M 134 304 L 147 407 C 151 445 163 476 183 502 C 203 528 232 545 272 554 L 387 579 C 409 583 425 591 436 601 C 446 611 453 627 456 648 L 458 668 C 460 688 456 705 445 718 C 433 731 409 738 373 738 C 336 738 311 730 297 716 C 283 702 274 678 268 644 L 182 651 C 191 703 210 741 240 767 C 270 793 317 806 381 806 C 446 806 491 793 515 769 C 539 745 549 712 544 671 L 540 636 C 535 600 522 571 501 551 C 480 531 453 517 420 511 L 305 486 C 285 482 269 475 257 465 C 244 455 236 436 233 408 L 229 375 L 514 375 L 505 304 L 134 304 Z" unicode="²" />
<glyph horiz-adv-x="662" d="M 318 298 C 250 298 204 310 179 334 C 153 358 142 395 145 443 L 232 449 C 231 419 236 397 247 385 C 257 373 284 367 326 367 C 366 367 393 373 408 386 C 423 399 432 417 435 441 L 437 457 C 440 481 436 500 424 512 C 412 524 388 530 350 530 L 270 530 L 279 600 L 359 600 C 390 600 412 603 426 611 C 439 618 447 633 450 655 L 453 676 C 455 698 449 714 433 723 C 417 732 395 737 367 737 C 336 737 313 731 299 720 C 285 709 275 691 271 666 L 185 672 C 193 720 213 754 243 775 C 273 795 318 806 376 806 C 430 806 472 796 502 778 C 532 760 545 727 540 681 L 538 665 C 534 638 524 617 506 602 C 488 587 466 578 441 576 L 439 558 C 467 555 489 544 505 525 C 521 506 527 482 524 453 L 522 439 C 516 391 496 355 463 332 C 429 309 381 298 318 298 Z" unicode="³" />
<glyph horiz-adv-x="662" d="M 262 700 L 411 900 L 553 900 L 348 700 L 262 700 Z" unicode="´" />
<glyph horiz-adv-x="662" d="M 141 20 L 123 -200 L 8 -200 L 44 20 L 116 600 L 213 600 L 163 194 C 157 154 164 125 182 108 C 200 90 224 82 254 82 C 280 82 304 88 326 102 C 348 115 369 134 390 158 L 445 600 L 542 600 L 487 157 C 483 121 487 99 501 90 C 514 80 537 79 569 86 L 558 -3 C 512 -10 478 -5 456 12 C 434 29 424 59 426 101 L 407 101 C 387 69 363 42 335 21 C 306 0 273 -10 235 -10 C 215 -10 198 -6 183 2 C 167 10 154 22 144 38 L 141 20 Z" unicode="µ" />
<glyph horiz-adv-x="662" d="M 462 340 L 370 340 L 303 -200 L 206 -200 L 273 340 C 215 340 167 355 129 387 C 91 419 77 469 86 537 L 92 589 C 100 659 127 712 173 747 C 218 782 270 800 328 800 L 615 800 L 492 -200 L 395 -200 L 462 340 Z" unicode="¶" />
<glyph horiz-adv-x="662" d="M 319 292 C 287 292 263 299 245 314 C 227 329 221 353 225 385 L 228 410 C 232 442 244 466 266 482 C 287 497 313 505 345 505 C 376 505 400 497 417 482 C 434 466 441 442 437 410 L 434 385 C 430 353 417 329 396 314 C 375 299 349 292 319 292 Z" unicode="·" />
<glyph horiz-adv-x="662" d="M 254 0 L 278 42 C 308 36 333 22 354 2 C 375 -18 383 -49 379 -91 C 373 -133 355 -165 325 -185 C 294 -205 261 -215 227 -215 C 185 -215 152 -207 128 -191 C 104 -175 93 -149 95 -111 L 182 -101 C 180 -113 183 -122 191 -127 C 199 -132 212 -135 231 -135 C 249 -135 263 -130 273 -122 C 283 -114 290 -98 294 -76 C 296 -52 295 -35 289 -24 C 283 -13 271 -5 254 0 Z" unicode="¸" />
<glyph horiz-adv-x="662" d="M 180 304 L 189 375 L 314 375 L 353 696 L 339 696 C 329 669 312 648 288 632 C 264 616 238 607 211 607 L 214 680 C 245 681 275 692 305 712 C 334 732 355 761 368 800 L 452 800 L 400 375 L 514 375 L 505 304 L 180 304 Z" unicode="¹" />
<glyph horiz-adv-x="662" d="M 322 323 C 261 323 214 338 182 368 C 150 398 137 444 145 504 L 160 624 C 167 685 190 731 230 763 C 270 794 320 810 381 810 C 441 810 488 794 520 763 C 552 731 564 685 557 624 L 542 504 C 534 444 511 398 471 368 C 431 338 382 323 322 323 Z M 331 398 C 369 398 399 406 420 422 C 441 438 454 466 459 504 L 474 624 C 478 662 472 689 455 707 C 438 725 410 734 372 734 C 333 734 303 725 282 707 C 260 689 247 662 243 624 L 228 504 C 223 466 229 438 247 422 C 264 406 292 398 331 398 Z" unicode="º" />
<glyph horiz-adv-x="662" d="M 36 104 L 47 195 L 254 350 L 85 505 L 96 596 L 313 397 L 301 303 L 36 104 Z M 314 104 L 325 195 L 532 350 L 363 505 L 374 596 L 590 397 L 578 303 L 314 104 Z" unicode="»" />
<glyph horiz-adv-x="662" d="M 175 410 L 184 482 L 309 482 L 336 702 L 322 702 C 317 688 310 676 302 666 C 293 655 283 646 271 638 C 259 630 247 623 234 619 C 220 615 207 613 194 613 L 198 686 C 213 686 228 689 244 695 C 260 700 275 708 289 718 C 303 728 315 740 326 755 C 337 770 345 787 351 806 L 436 806 L 396 482 L 510 482 L 501 410 L 175 410 Z M -8 250 L 4 349 L 293 329 L 286 270 L -8 250 Z M 357 270 L 364 329 L 646 349 L 634 250 L 357 270 Z M 482 -114 L 397 -114 L 385 -210 L 299 -210 L 311 -114 L 77 -114 L 85 -46 L 326 216 L 438 216 L 405 -46 L 490 -46 L 482 -114 Z M 160 -46 L 319 -46 L 344 151 L 160 -46 Z" unicode="¼" />
<glyph horiz-adv-x="662" d="M 175 410 L 184 482 L 309 482 L 336 702 L 322 702 C 317 688 310 676 302 666 C 293 655 283 646 271 638 C 259 630 247 623 234 619 C 220 615 207 613 194 613 L 198 686 C 212 686 227 689 243 694 C 258 699 273 707 287 717 C 301 727 313 739 324 754 C 335 768 344 786 351 806 L 436 806 L 396 482 L 510 482 L 501 410 L 175 410 Z M -8 250 L 4 349 L 293 329 L 286 270 L -8 250 Z M 357 270 L 364 329 L 646 349 L 634 250 L 357 270 Z M 71 -210 L 81 -127 C 83 -111 86 -96 92 -83 C 98 -69 106 -57 116 -46 C 125 -35 137 -26 152 -18 C 166 -10 184 -5 204 -1 L 319 24 C 330 26 339 29 347 32 C 355 34 361 37 367 41 C 372 45 376 49 379 54 C 382 59 384 65 385 73 L 387 93 C 388 101 387 108 385 114 C 383 120 378 125 372 130 C 366 134 357 137 345 139 C 333 141 318 143 300 143 C 281 143 266 141 254 139 C 242 136 232 132 224 126 C 217 120 212 113 208 104 C 204 95 200 83 197 69 L 111 76 C 115 99 122 119 131 136 C 139 153 151 167 167 178 C 182 189 201 197 224 203 C 247 209 275 212 308 212 C 340 212 367 209 389 204 C 411 198 429 191 443 181 C 455 171 464 159 469 145 C 474 131 476 114 474 96 L 470 62 C 468 46 463 32 457 20 C 450 8 442 -1 432 -10 C 421 -18 409 -24 396 -30 C 383 -35 368 -40 352 -44 L 237 -69 C 225 -71 215 -74 208 -76 C 200 -78 194 -82 188 -87 C 182 -91 177 -98 173 -106 C 169 -114 167 -125 166 -139 L 451 -139 L 442 -210 L 71 -210 Z" unicode="½" />
<glyph horiz-adv-x="662" d="M 331 404 C 297 404 268 406 245 411 C 221 416 203 424 190 435 C 176 445 167 457 162 473 C 156 489 154 507 156 529 L 243 535 C 242 523 243 513 246 505 C 248 497 253 491 260 487 C 266 482 275 479 288 477 C 300 475 317 474 339 474 C 359 474 375 475 389 477 C 402 479 413 481 421 485 C 428 489 433 493 437 498 C 441 503 443 509 444 517 L 446 533 C 447 540 446 546 444 551 C 442 556 437 561 430 565 C 423 568 413 570 401 572 C 388 574 372 575 353 575 L 302 575 L 310 646 L 361 646 C 377 646 391 646 403 648 C 414 649 423 651 430 655 C 438 658 443 663 447 669 C 451 675 453 682 455 691 L 457 712 C 457 717 456 722 452 726 C 448 730 443 733 436 736 C 428 738 419 739 408 740 C 396 741 383 742 368 742 C 352 742 339 741 328 739 C 317 737 308 734 301 731 C 293 727 287 721 283 715 C 279 709 276 701 274 692 L 188 698 C 192 718 198 736 208 750 C 217 764 229 776 244 785 C 259 794 278 801 300 805 C 322 809 347 812 377 812 C 404 812 428 810 449 807 C 470 804 488 799 503 792 C 518 784 529 774 536 762 C 543 750 546 735 544 717 L 542 701 C 540 689 537 679 532 670 C 527 660 520 652 511 646 C 503 639 493 634 482 630 C 471 626 459 623 446 622 L 444 604 C 458 602 470 600 482 596 C 493 592 503 586 512 580 C 520 574 525 566 529 557 C 533 548 534 539 533 529 L 531 515 C 529 495 523 479 514 465 C 504 451 491 440 475 431 C 458 421 438 414 414 410 C 390 406 363 404 331 404 Z M -8 250 L 4 349 L 293 329 L 286 270 L -8 250 Z M 357 270 L 364 329 L 646 349 L 634 250 L 357 270 Z M 482 -114 L 397 -114 L 385 -210 L 299 -210 L 311 -114 L 77 -114 L 85 -46 L 326 216 L 438 216 L 405 -46 L 490 -46 L 482 -114 Z M 160 -46 L 319 -46 L 344 151 L 160 -46 Z" unicode="¾" />
<glyph horiz-adv-x="662" d="M 420 810 C 451 810 473 803 486 789 C 499 775 504 754 501 726 L 498 698 C 494 668 483 647 467 633 C 451 619 427 612 396 612 C 364 612 342 619 329 633 C 315 647 311 668 315 698 L 318 726 C 321 754 331 775 348 789 C 365 803 389 810 420 810 Z M 414 484 L 424 406 C 314 387 240 366 202 343 C 164 319 142 288 137 248 L 134 217 C 128 173 135 139 155 114 C 175 89 219 77 288 77 C 362 77 411 89 435 114 C 459 139 478 185 491 251 L 587 241 C 570 147 540 82 496 45 C 452 8 379 -10 279 -10 C 181 -10 114 9 78 49 C 42 89 28 141 36 205 L 42 252 C 50 322 84 373 142 405 C 200 437 291 464 414 484 Z" unicode="¿" />
<glyph horiz-adv-x="662" d="M 420 319 L 367 689 L 220 319 L 420 319 Z M 467 0 L 433 233 L 186 233 L 94 0 L -4 0 L 329 800 L 432 800 L 569 0 L 467 0 Z M 391 900 L 235 1100 L 378 1100 L 476 900 L 391 900 Z" unicode="À" />
<glyph horiz-adv-x="662" d="M 420 319 L 367 689 L 220 319 L 420 319 Z M 467 0 L 433 233 L 186 233 L 94 0 L -4 0 L 329 800 L 432 800 L 569 0 L 467 0 Z M 285 900 L 434 1100 L 576 1100 L 371 900 L 285 900 Z" unicode="Á" />
<glyph horiz-adv-x="662" d="M 420 319 L 367 689 L 220 319 L 420 319 Z M 467 0 L 433 233 L 186 233 L 94 0 L -4 0 L 329 800 L 432 800 L 569 0 L 467 0 Z M 232 908 L 200 968 L 381 1116 L 451 1116 L 598 968 L 552 908 L 405 1022 L 232 908 Z" unicode="Â" />
<glyph horiz-adv-x="662" d="M 420 319 L 367 689 L 220 319 L 420 319 Z M 467 0 L 433 233 L 186 233 L 94 0 L -4 0 L 329 800 L 432 800 L 569 0 L 467 0 Z M 465 910 C 442 910 424 916 412 928 C 399 940 388 953 379 968 C 370 982 362 996 354 1008 C 346 1020 337 1026 326 1026 C 314 1026 303 1019 293 1005 C 283 991 277 967 274 931 L 272 920 L 198 920 L 200 935 C 206 985 221 1026 247 1059 C 272 1092 304 1109 344 1109 C 368 1109 387 1103 400 1091 C 413 1079 424 1065 433 1051 C 442 1036 450 1023 456 1011 C 462 999 471 993 482 993 C 494 993 504 999 514 1013 C 524 1027 531 1052 536 1088 L 537 1099 L 610 1099 L 609 1084 C 602 1033 586 991 561 959 C 536 926 504 910 465 910 Z" unicode="Ã" />
<glyph horiz-adv-x="662" d="M 420 319 L 367 689 L 220 319 L 420 319 Z M 467 0 L 433 233 L 186 233 L 94 0 L -4 0 L 329 800 L 432 800 L 569 0 L 467 0 Z M 286 911 C 267 911 252 915 242 923 C 232 931 228 945 231 967 L 232 974 C 234 996 242 1011 254 1019 C 266 1027 282 1032 301 1032 C 319 1032 334 1027 344 1019 C 354 1011 357 996 355 974 L 354 967 C 351 945 343 931 331 923 C 319 915 304 911 286 911 Z M 498 911 C 479 911 465 915 455 923 C 445 931 441 945 444 967 L 445 974 C 447 996 455 1011 467 1019 C 479 1027 494 1032 513 1032 C 531 1032 546 1027 556 1019 C 566 1011 570 996 568 974 L 567 967 C 564 945 556 931 544 923 C 531 915 516 911 498 911 Z" unicode="Ä" />
<glyph horiz-adv-x="662" d="M 420 319 L 367 689 L 220 319 L 420 319 Z M 467 0 L 433 233 L 186 233 L 94 0 L -4 0 L 329 800 L 432 800 L 569 0 L 467 0 Z M 389 886 C 344 886 309 897 285 921 C 261 944 252 980 258 1030 L 262 1062 C 268 1112 286 1149 316 1173 C 346 1197 384 1209 429 1209 C 473 1209 508 1197 532 1173 C 556 1149 566 1112 560 1062 L 556 1030 C 550 980 531 944 501 921 C 471 897 433 886 389 886 Z M 398 955 C 422 955 442 960 456 972 C 470 984 478 1003 482 1030 L 486 1062 C 489 1088 485 1108 474 1121 C 462 1133 444 1140 420 1140 C 395 1140 376 1133 362 1121 C 348 1108 339 1088 336 1062 L 332 1030 C 328 1003 332 984 344 972 C 355 960 373 955 398 955 Z" unicode="Å" />
<glyph horiz-adv-x="662" d="M 322 723 L 162 309 L 328 309 L 379 723 L 322 723 Z M 319 233 L 133 233 L 43 0 L -38 0 L 280 800 L 691 800 L 682 723 L 465 723 L 433 468 L 641 468 L 632 392 L 424 392 L 385 77 L 602 77 L 593 0 L 290 0 L 319 233 Z" unicode="Æ" />
<glyph horiz-adv-x="662" d="M 291 -10 C 204 -10 142 13 105 60 C 67 107 54 177 66 271 L 97 525 C 109 619 139 690 188 738 C 236 786 304 810 392 810 C 476 810 536 788 572 745 C 608 701 622 633 616 540 L 518 530 C 522 603 514 653 494 681 C 474 709 436 723 381 723 C 321 723 277 708 249 678 C 221 648 203 598 195 526 L 163 270 C 155 201 161 152 182 122 C 203 92 243 77 301 77 C 357 77 398 90 424 118 C 450 145 471 194 486 266 L 581 256 C 565 164 533 96 487 54 C 441 11 375 -10 291 -10 Z M 264 0 L 288 42 C 318 36 343 22 364 2 C 385 -18 393 -49 389 -91 C 383 -133 365 -165 335 -185 C 304 -205 271 -215 237 -215 C 195 -215 162 -207 138 -191 C 114 -175 103 -149 105 -111 L 192 -101 C 190 -113 193 -122 201 -127 C 209 -132 222 -135 241 -135 C 259 -135 273 -130 283 -122 C 293 -114 300 -98 304 -76 C 306 -52 305 -35 299 -24 C 293 -13 281 -5 264 0 Z" unicode="Ç" />
<glyph horiz-adv-x="662" d="M 50 0 L 148 800 L 629 800 L 619 713 L 235 713 L 206 479 L 544 479 L 533 392 L 195 392 L 158 87 L 542 87 L 531 0 L 50 0 Z M 400 900 L 244 1100 L 387 1100 L 485 900 L 400 900 Z" unicode="È" />
<glyph horiz-adv-x="662" d="M 50 0 L 148 800 L 629 800 L 619 713 L 235 713 L 206 479 L 544 479 L 533 392 L 195 392 L 158 87 L 542 87 L 531 0 L 50 0 Z M 312 900 L 461 1100 L 603 1100 L 398 900 L 312 900 Z" unicode="É" />
<glyph horiz-adv-x="662" d="M 50 0 L 148 800 L 629 800 L 619 713 L 235 713 L 206 479 L 544 479 L 533 392 L 195 392 L 158 87 L 542 87 L 531 0 L 50 0 Z M 249 908 L 217 968 L 398 1116 L 468 1116 L 615 968 L 569 908 L 422 1022 L 249 908 Z" unicode="Ê" />
<glyph horiz-adv-x="662" d="M 50 0 L 148 800 L 629 800 L 619 713 L 235 713 L 206 479 L 544 479 L 533 392 L 195 392 L 158 87 L 542 87 L 531 0 L 50 0 Z M 303 911 C 284 911 269 915 259 923 C 249 931 245 945 248 967 L 249 974 C 251 996 259 1011 271 1019 C 283 1027 299 1032 318 1032 C 336 1032 351 1027 361 1019 C 371 1011 374 996 372 974 L 371 967 C 368 945 360 931 348 923 C 336 915 321 911 303 911 Z M 515 911 C 496 911 482 915 472 923 C 462 931 458 945 461 967 L 462 974 C 464 996 472 1011 484 1019 C 496 1027 511 1032 530 1032 C 548 1032 563 1027 573 1019 C 583 1011 587 996 585 974 L 584 967 C 581 945 573 931 561 923 C 548 915 533 911 515 911 Z" unicode="Ë" />
<glyph horiz-adv-x="662" d="M 50 0 L 61 87 L 245 87 L 322 713 L 138 713 L 148 800 L 612 800 L 602 713 L 419 713 L 342 87 L 525 87 L 514 0 L 50 0 Z M 390 900 L 234 1100 L 377 1100 L 475 900 L 390 900 Z" unicode="Ì" />
<glyph horiz-adv-x="662" d="M 50 0 L 61 87 L 245 87 L 322 713 L 138 713 L 148 800 L 612 800 L 602 713 L 419 713 L 342 87 L 525 87 L 514 0 L 50 0 Z M 284 900 L 433 1100 L 575 1100 L 370 900 L 284 900 Z" unicode="Í" />
<glyph horiz-adv-x="662" d="M 50 0 L 61 87 L 245 87 L 322 713 L 138 713 L 148 800 L 612 800 L 602 713 L 419 713 L 342 87 L 525 87 L 514 0 L 50 0 Z M 231 908 L 199 968 L 380 1116 L 450 1116 L 597 968 L 551 908 L 404 1022 L 231 908 Z" unicode="Î" />
<glyph horiz-adv-x="662" d="M 50 0 L 61 87 L 245 87 L 322 713 L 138 713 L 148 800 L 612 800 L 602 713 L 419 713 L 342 87 L 525 87 L 514 0 L 50 0 Z M 285 911 C 266 911 251 915 241 923 C 231 931 227 945 230 967 L 231 974 C 233 996 241 1011 253 1019 C 265 1027 281 1032 300 1032 C 318 1032 333 1027 343 1019 C 353 1011 356 996 354 974 L 353 967 C 350 945 342 931 330 923 C 318 915 303 911 285 911 Z M 497 911 C 478 911 464 915 454 923 C 444 931 440 945 443 967 L 444 974 C 446 996 454 1011 466 1019 C 478 1027 493 1032 512 1032 C 530 1032 545 1027 555 1019 C 565 1011 569 996 567 974 L 566 967 C 563 945 555 931 543 923 C 530 915 515 911 497 911 Z" unicode="Ï" />
<glyph horiz-adv-x="662" d="M 50 0 L 99 396 L 10 396 L 20 484 L 109 484 L 148 800 L 355 800 C 440 800 504 774 546 722 C 588 670 604 602 594 516 L 565 280 C 555 194 522 126 467 76 C 411 25 341 0 256 0 L 50 0 Z M 158 87 L 266 87 C 326 87 372 104 406 139 C 440 173 460 220 468 279 L 497 517 C 504 576 495 623 470 659 C 445 695 403 713 343 713 L 235 713 L 206 484 L 341 484 L 331 396 L 196 396 L 158 87 Z" unicode="Ð" />
<glyph horiz-adv-x="662" d="M 378 0 L 220 680 L 137 0 L 50 0 L 148 800 L 278 800 L 441 110 L 525 800 L 612 800 L 514 0 L 378 0 Z M 481 910 C 458 910 440 916 428 928 C 415 940 404 953 395 968 C 386 982 378 996 370 1008 C 362 1020 353 1026 342 1026 C 330 1026 319 1019 309 1005 C 299 991 293 967 290 931 L 288 920 L 214 920 L 216 935 C 222 985 237 1026 263 1059 C 288 1092 320 1109 360 1109 C 384 1109 403 1103 416 1091 C 429 1079 440 1065 449 1051 C 458 1036 466 1023 472 1011 C 478 999 487 993 498 993 C 510 993 520 999 530 1013 C 540 1027 547 1052 552 1088 L 553 1099 L 626 1099 L 625 1084 C 618 1033 602 991 577 959 C 552 926 520 910 481 910 Z" unicode="Ñ" />
<glyph horiz-adv-x="662" d="M 281 -10 C 199 -10 140 14 104 62 C 68 110 55 180 66 272 L 97 524 C 109 617 139 688 187 737 C 235 785 300 810 382 810 C 462 810 521 785 558 737 C 594 688 607 617 595 524 L 564 272 C 553 180 523 110 475 62 C 427 14 362 -10 281 -10 Z M 291 77 C 346 77 387 91 414 121 C 440 150 458 200 467 271 L 498 525 C 507 597 502 648 483 678 C 463 708 426 723 371 723 C 315 723 274 708 248 678 C 221 648 203 597 194 525 L 163 271 C 154 200 159 150 179 121 C 198 91 235 77 291 77 Z M 390 900 L 234 1100 L 377 1100 L 475 900 L 390 900 Z" unicode="Ò" />
<glyph horiz-adv-x="662" d="M 281 -10 C 199 -10 140 14 104 62 C 68 110 55 180 66 272 L 97 524 C 109 617 139 688 187 737 C 235 785 300 810 382 810 C 462 810 521 785 558 737 C 594 688 607 617 595 524 L 564 272 C 553 180 523 110 475 62 C 427 14 362 -10 281 -10 Z M 291 77 C 346 77 387 91 414 121 C 440 150 458 200 467 271 L 498 525 C 507 597 502 648 483 678 C 463 708 426 723 371 723 C 315 723 274 708 248 678 C 221 648 203 597 194 525 L 163 271 C 154 200 159 150 179 121 C 198 91 235 77 291 77 Z M 320 900 L 469 1100 L 611 1100 L 406 900 L 320 900 Z" unicode="Ó" />
<glyph horiz-adv-x="662" d="M 281 -10 C 199 -10 140 14 104 62 C 68 110 55 180 66 272 L 97 524 C 109 617 139 688 187 737 C 235 785 300 810 382 810 C 462 810 521 785 558 737 C 594 688 607 617 595 524 L 564 272 C 553 180 523 110 475 62 C 427 14 362 -10 281 -10 Z M 291 77 C 346 77 387 91 414 121 C 440 150 458 200 467 271 L 498 525 C 507 597 502 648 483 678 C 463 708 426 723 371 723 C 315 723 274 708 248 678 C 221 648 203 597 194 525 L 163 271 C 154 200 159 150 179 121 C 198 91 235 77 291 77 Z M 231 908 L 199 968 L 380 1116 L 450 1116 L 597 968 L 551 908 L 404 1022 L 231 908 Z" unicode="Ô" />
<glyph horiz-adv-x="662" d="M 281 -10 C 199 -10 140 14 104 62 C 68 110 55 180 66 272 L 97 524 C 109 617 139 688 187 737 C 235 785 300 810 382 810 C 462 810 521 785 558 737 C 594 688 607 617 595 524 L 564 272 C 553 180 523 110 475 62 C 427 14 362 -10 281 -10 Z M 291 77 C 346 77 387 91 414 121 C 440 150 458 200 467 271 L 498 525 C 507 597 502 648 483 678 C 463 708 426 723 371 723 C 315 723 274 708 248 678 C 221 648 203 597 194 525 L 163 271 C 154 200 159 150 179 121 C 198 91 235 77 291 77 Z M 464 910 C 441 910 423 916 411 928 C 398 940 387 953 378 968 C 369 982 361 996 353 1008 C 345 1020 336 1026 325 1026 C 313 1026 302 1019 292 1005 C 282 991 276 967 273 931 L 271 920 L 197 920 L 199 935 C 205 985 220 1026 246 1059 C 271 1092 303 1109 343 1109 C 367 1109 386 1103 399 1091 C 412 1079 423 1065 432 1051 C 441 1036 449 1023 455 1011 C 461 999 470 993 481 993 C 493 993 503 999 513 1013 C 523 1027 530 1052 535 1088 L 536 1099 L 609 1099 L 608 1084 C 601 1033 585 991 560 959 C 535 926 503 910 464 910 Z" unicode="Õ" />
<glyph horiz-adv-x="662" d="M 281 -10 C 199 -10 140 14 104 62 C 68 110 55 180 66 272 L 97 524 C 109 617 139 688 187 737 C 235 785 300 810 382 810 C 462 810 521 785 558 737 C 594 688 607 617 595 524 L 564 272 C 553 180 523 110 475 62 C 427 14 362 -10 281 -10 Z M 291 77 C 346 77 387 91 414 121 C 440 150 458 200 467 271 L 498 525 C 507 597 502 648 483 678 C 463 708 426 723 371 723 C 315 723 274 708 248 678 C 221 648 203 597 194 525 L 163 271 C 154 200 159 150 179 121 C 198 91 235 77 291 77 Z M 285 911 C 266 911 251 915 241 923 C 231 931 227 945 230 967 L 231 974 C 233 996 241 1011 253 1019 C 265 1027 281 1032 300 1032 C 318 1032 333 1027 343 1019 C 353 1011 356 996 354 974 L 353 967 C 350 945 342 931 330 923 C 318 915 303 911 285 911 Z M 497 911 C 478 911 464 915 454 923 C 444 931 440 945 443 967 L 444 974 C 446 996 454 1011 466 1019 C 478 1027 493 1032 512 1032 C 530 1032 545 1027 555 1019 C 565 1011 569 996 567 974 L 566 967 C 563 945 555 931 543 923 C 530 915 515 911 497 911 Z" unicode="Ö" />
<glyph horiz-adv-x="662" d="M 94 50 L 39 108 L 265 350 L 99 592 L 168 650 L 332 411 L 555 645 L 610 587 L 385 350 L 552 113 L 483 55 L 317 289 L 94 50 Z" unicode="×" />
<glyph horiz-adv-x="662" d="M 165 151 L 438 714 C 428 716 418 718 407 720 C 396 722 384 723 371 723 C 315 723 273 708 247 678 C 220 648 202 597 194 526 L 162 270 C 158 244 157 222 157 202 C 157 182 160 165 165 151 Z M 291 77 C 347 77 388 91 415 121 C 441 150 459 200 468 270 L 500 526 C 503 558 504 585 503 609 C 501 632 497 651 490 667 L 211 92 C 221 87 232 83 246 81 C 259 78 274 77 291 77 Z M 281 -10 C 261 -10 242 -8 225 -5 C 207 -2 192 2 178 8 L 125 -100 L 31 -100 L 108 57 C 88 80 74 110 68 146 C 61 182 60 223 66 271 L 97 525 C 108 617 138 687 187 736 C 235 785 300 810 382 810 C 398 810 414 809 429 807 C 443 805 457 802 470 798 L 521 900 L 615 900 L 542 755 C 566 731 582 699 591 661 C 600 622 601 577 595 525 L 564 271 C 553 180 523 110 475 62 C 426 14 361 -10 281 -10 Z" unicode="Ø" />
<glyph horiz-adv-x="662" d="M 281 -10 C 203 -10 147 13 115 59 C 82 105 71 176 83 270 L 148 800 L 245 800 L 180 268 C 171 198 175 148 192 119 C 208 90 241 76 291 76 C 340 76 377 90 401 119 C 425 148 441 198 450 268 L 515 800 L 612 800 L 547 270 C 535 176 508 105 464 59 C 420 13 359 -10 281 -10 Z M 390 900 L 234 1100 L 377 1100 L 475 900 L 390 900 Z" unicode="Ù" />
<glyph horiz-adv-x="662" d="M 281 -10 C 203 -10 147 13 115 59 C 82 105 71 176 83 270 L 148 800 L 245 800 L 180 268 C 171 198 175 148 192 119 C 208 90 241 76 291 76 C 340 76 377 90 401 119 C 425 148 441 198 450 268 L 515 800 L 612 800 L 547 270 C 535 176 508 105 464 59 C 420 13 359 -10 281 -10 Z M 284 900 L 433 1100 L 575 1100 L 370 900 L 284 900 Z" unicode="Ú" />
<glyph horiz-adv-x="662" d="M 281 -10 C 203 -10 147 13 115 59 C 82 105 71 176 83 270 L 148 800 L 245 800 L 180 268 C 171 198 175 148 192 119 C 208 90 241 76 291 76 C 340 76 377 90 401 119 C 425 148 441 198 450 268 L 515 800 L 612 800 L 547 270 C 535 176 508 105 464 59 C 420 13 359 -10 281 -10 Z M 231 908 L 199 968 L 380 1116 L 450 1116 L 597 968 L 551 908 L 404 1022 L 231 908 Z" unicode="Û" />
<glyph horiz-adv-x="662" d="M 281 -10 C 203 -10 147 13 115 59 C 82 105 71 176 83 270 L 148 800 L 245 800 L 180 268 C 171 198 175 148 192 119 C 208 90 241 76 291 76 C 340 76 377 90 401 119 C 425 148 441 198 450 268 L 515 800 L 612 800 L 547 270 C 535 176 508 105 464 59 C 420 13 359 -10 281 -10 Z M 285 911 C 266 911 251 915 241 923 C 231 931 227 945 230 967 L 231 974 C 233 996 241 1011 253 1019 C 265 1027 281 1032 300 1032 C 318 1032 333 1027 343 1019 C 353 1011 356 996 354 974 L 353 967 C 350 945 342 931 330 923 C 318 915 303 911 285 911 Z M 497 911 C 478 911 464 915 454 923 C 444 931 440 945 443 967 L 444 974 C 446 996 454 1011 466 1019 C 478 1027 493 1032 512 1032 C 530 1032 545 1027 555 1019 C 565 1011 569 996 567 974 L 566 967 C 563 945 555 931 543 923 C 530 915 515 911 497 911 Z" unicode="Ü" />
<glyph horiz-adv-x="662" d="M 331 0 L 234 0 L 271 300 L 72 800 L 179 800 L 335 391 L 582 800 L 687 800 L 368 300 L 331 0 Z M 284 900 L 433 1100 L 575 1100 L 370 900 L 284 900 Z" unicode="Ý" />
<glyph horiz-adv-x="662" d="M 50 0 L 148 800 L 245 800 L 229 669 L 392 669 C 467 669 522 651 557 615 C 591 579 604 527 596 458 L 585 370 C 576 298 550 244 506 207 C 462 169 403 151 328 151 L 166 151 L 147 0 L 50 0 Z M 176 236 L 336 236 C 385 236 421 246 444 266 C 467 286 482 320 488 368 L 499 460 C 505 504 498 535 480 554 C 462 573 428 583 379 583 L 219 583 L 176 236 Z" unicode="Þ" />
<glyph horiz-adv-x="662" d="M 379 -6 C 341 -6 305 1 271 16 C 237 31 210 53 189 82 L 249 160 C 267 139 288 121 314 106 C 339 90 367 83 397 83 C 425 83 450 89 472 101 C 494 113 506 134 510 164 C 514 194 507 216 491 229 C 474 242 445 253 404 263 C 358 273 317 290 282 312 C 247 334 233 374 241 433 C 247 485 271 526 312 557 C 352 587 401 604 457 606 C 457 645 445 673 422 691 C 398 708 368 717 330 717 C 292 717 257 705 227 681 C 197 657 179 619 173 567 L 78 -200 L -19 -200 L 77 580 C 86 654 116 711 167 750 C 217 788 276 808 342 808 C 413 808 468 787 506 745 C 544 703 559 648 551 580 L 546 535 C 484 535 435 528 399 515 C 362 501 341 477 337 442 C 333 412 342 392 364 382 C 385 371 419 360 465 350 C 507 339 543 321 573 297 C 602 273 613 231 606 173 C 598 112 573 67 529 38 C 485 8 435 -6 379 -6 Z" unicode="ß" />
<glyph horiz-adv-x="662" d="M 225 74 C 257 74 287 80 315 93 C 343 105 368 127 390 157 L 402 256 L 245 256 C 216 256 192 249 174 236 C 155 222 144 199 140 167 C 136 137 140 114 153 98 C 166 82 190 74 225 74 Z M 201 -10 C 151 -10 111 4 80 32 C 48 60 36 103 44 161 C 50 213 71 254 107 284 C 143 314 184 330 231 330 L 412 330 L 423 420 C 426 450 419 475 402 494 C 385 512 357 522 319 522 C 279 522 248 515 227 501 C 206 487 187 459 171 415 L 90 439 C 107 495 136 538 176 567 C 216 595 267 610 329 610 C 390 610 439 595 476 566 C 513 537 528 493 521 433 L 487 155 C 483 121 489 99 506 90 C 522 80 549 79 587 86 L 576 -3 C 532 -9 496 -6 466 6 C 436 19 422 49 425 97 L 406 97 C 385 66 356 40 320 20 C 283 0 243 -10 201 -10 Z M 350 700 L 194 900 L 337 900 L 435 700 L 350 700 Z" unicode="à" />
<glyph horiz-adv-x="662" d="M 225 74 C 257 74 287 80 315 93 C 343 105 368 127 390 157 L 402 256 L 245 256 C 216 256 192 249 174 236 C 155 222 144 199 140 167 C 136 137 140 114 153 98 C 166 82 190 74 225 74 Z M 201 -10 C 151 -10 111 4 80 32 C 48 60 36 103 44 161 C 50 213 71 254 107 284 C 143 314 184 330 231 330 L 412 330 L 423 420 C 426 450 419 475 402 494 C 385 512 357 522 319 522 C 279 522 248 515 227 501 C 206 487 187 459 171 415 L 90 439 C 107 495 136 538 176 567 C 216 595 267 610 329 610 C 390 610 439 595 476 566 C 513 537 528 493 521 433 L 487 155 C 483 121 489 99 506 90 C 522 80 549 79 587 86 L 576 -3 C 532 -9 496 -6 466 6 C 436 19 422 49 425 97 L 406 97 C 385 66 356 40 320 20 C 283 0 243 -10 201 -10 Z M 244 700 L 393 900 L 535 900 L 330 700 L 244 700 Z" unicode="á" />
<glyph horiz-adv-x="662" d="M 225 74 C 257 74 287 80 315 93 C 343 105 368 127 390 157 L 402 256 L 245 256 C 216 256 192 249 174 236 C 155 222 144 199 140 167 C 136 137 140 114 153 98 C 166 82 190 74 225 74 Z M 201 -10 C 151 -10 111 4 80 32 C 48 60 36 103 44 161 C 50 213 71 254 107 284 C 143 314 184 330 231 330 L 412 330 L 423 420 C 426 450 419 475 402 494 C 385 512 357 522 319 522 C 279 522 248 515 227 501 C 206 487 187 459 171 415 L 90 439 C 107 495 136 538 176 567 C 216 595 267 610 329 610 C 390 610 439 595 476 566 C 513 537 528 493 521 433 L 487 155 C 483 121 489 99 506 90 C 522 80 549 79 587 86 L 576 -3 C 532 -9 496 -6 466 6 C 436 19 422 49 425 97 L 406 97 C 385 66 356 40 320 20 C 283 0 243 -10 201 -10 Z M 200 708 L 168 768 L 349 916 L 419 916 L 566 768 L 520 708 L 373 822 L 200 708 Z" unicode="â" />
<glyph horiz-adv-x="662" d="M 225 74 C 257 74 287 80 315 93 C 343 105 368 127 390 157 L 402 256 L 245 256 C 216 256 192 249 174 236 C 155 222 144 199 140 167 C 136 137 140 114 153 98 C 166 82 190 74 225 74 Z M 201 -10 C 151 -10 111 4 80 32 C 48 60 36 103 44 161 C 50 213 71 254 107 284 C 143 314 184 330 231 330 L 412 330 L 423 420 C 426 450 419 475 402 494 C 385 512 357 522 319 522 C 279 522 248 515 227 501 C 206 487 187 459 171 415 L 90 439 C 107 495 136 538 176 567 C 216 595 267 610 329 610 C 390 610 439 595 476 566 C 513 537 528 493 521 433 L 487 155 C 483 121 489 99 506 90 C 522 80 549 79 587 86 L 576 -3 C 532 -9 496 -6 466 6 C 436 19 422 49 425 97 L 406 97 C 385 66 356 40 320 20 C 283 0 243 -10 201 -10 Z M 424 710 C 401 710 383 716 371 728 C 358 740 347 753 338 768 C 329 782 321 796 313 808 C 305 820 296 826 285 826 C 273 826 262 819 252 805 C 242 791 236 767 233 731 L 231 720 L 157 720 L 159 735 C 165 785 180 826 206 859 C 231 892 263 909 303 909 C 327 909 346 903 359 891 C 372 879 383 865 392 851 C 401 836 409 823 415 811 C 421 799 430 793 441 793 C 453 793 463 799 473 813 C 483 827 490 852 495 888 L 496 899 L 569 899 L 568 884 C 561 833 545 791 520 759 C 495 726 463 710 424 710 Z" unicode="ã" />
<glyph horiz-adv-x="662" d="M 225 74 C 257 74 287 80 315 93 C 343 105 368 127 390 157 L 402 256 L 245 256 C 216 256 192 249 174 236 C 155 222 144 199 140 167 C 136 137 140 114 153 98 C 166 82 190 74 225 74 Z M 201 -10 C 151 -10 111 4 80 32 C 48 60 36 103 44 161 C 50 213 71 254 107 284 C 143 314 184 330 231 330 L 412 330 L 423 420 C 426 450 419 475 402 494 C 385 512 357 522 319 522 C 279 522 248 515 227 501 C 206 487 187 459 171 415 L 90 439 C 107 495 136 538 176 567 C 216 595 267 610 329 610 C 390 610 439 595 476 566 C 513 537 528 493 521 433 L 487 155 C 483 121 489 99 506 90 C 522 80 549 79 587 86 L 576 -3 C 532 -9 496 -6 466 6 C 436 19 422 49 425 97 L 406 97 C 385 66 356 40 320 20 C 283 0 243 -10 201 -10 Z M 245 711 C 226 711 211 715 201 723 C 191 731 187 745 190 767 L 191 774 C 193 796 201 811 213 819 C 225 827 241 832 260 832 C 278 832 293 827 303 819 C 313 811 316 796 314 774 L 313 767 C 310 745 302 731 290 723 C 278 715 263 711 245 711 Z M 457 711 C 438 711 424 715 414 723 C 404 731 400 745 403 767 L 404 774 C 406 796 414 811 426 819 C 438 827 453 832 472 832 C 490 832 505 827 515 819 C 525 811 529 796 527 774 L 526 767 C 523 745 515 731 503 723 C 490 715 475 711 457 711 Z" unicode="ä" />
<glyph horiz-adv-x="662" d="M 225 74 C 257 74 287 80 315 93 C 343 105 368 127 390 157 L 402 256 L 245 256 C 216 256 192 249 174 236 C 155 222 144 199 140 167 C 136 137 140 114 153 98 C 166 82 190 74 225 74 Z M 201 -10 C 151 -10 111 4 80 32 C 48 60 36 103 44 161 C 50 213 71 254 107 284 C 143 314 184 330 231 330 L 412 330 L 423 420 C 426 450 419 475 402 494 C 385 512 357 522 319 522 C 279 522 248 515 227 501 C 206 487 187 459 171 415 L 90 439 C 107 495 136 538 176 567 C 216 595 267 610 329 610 C 390 610 439 595 476 566 C 513 537 528 493 521 433 L 487 155 C 483 121 489 99 506 90 C 522 80 549 79 587 86 L 576 -3 C 532 -9 496 -6 466 6 C 436 19 422 49 425 97 L 406 97 C 385 66 356 40 320 20 C 283 0 243 -10 201 -10 Z M 348 686 C 303 686 268 697 244 721 C 220 744 211 780 217 830 L 221 862 C 227 912 245 949 275 973 C 305 997 343 1009 388 1009 C 432 1009 467 997 491 973 C 515 949 525 912 519 862 L 515 830 C 509 780 490 744 460 721 C 430 697 392 686 348 686 Z M 357 755 C 381 755 401 760 415 772 C 429 784 437 803 441 830 L 445 862 C 448 888 444 908 433 921 C 421 933 403 940 379 940 C 354 940 335 933 321 921 C 307 908 298 888 295 862 L 291 830 C 287 803 291 784 303 772 C 314 760 332 755 357 755 Z" unicode="å" />
<glyph horiz-adv-x="662" d="M 595 144 C 581 91 560 52 532 27 C 504 2 465 -10 415 -10 C 381 -10 352 -2 329 12 C 306 26 291 49 283 80 L 268 80 C 250 53 230 31 208 15 C 185 -1 157 -10 123 -10 C 88 -10 58 4 34 32 C 9 60 0 103 8 161 C 14 213 33 255 66 285 C 98 315 134 330 174 330 L 285 330 L 295 418 C 299 452 296 480 284 501 C 272 522 253 533 225 533 C 200 533 182 527 170 515 C 158 503 144 476 129 436 L 56 460 C 71 509 93 546 122 572 C 150 597 190 610 240 610 C 266 610 288 604 308 593 C 327 582 342 565 352 543 C 368 565 387 582 409 593 C 431 604 456 610 483 610 C 533 610 572 593 599 561 C 625 528 634 477 626 409 L 611 281 L 356 281 L 343 181 C 337 139 341 108 353 90 C 365 71 385 62 414 62 C 442 62 463 68 477 80 C 491 92 502 116 512 151 L 595 144 Z M 372 415 L 363 344 L 533 344 L 541 406 C 546 452 543 485 532 506 C 520 526 500 537 472 537 C 444 537 422 527 405 507 C 388 487 377 457 372 415 Z M 261 139 L 277 266 L 192 266 C 167 266 146 258 128 244 C 110 230 99 204 95 167 C 90 134 92 109 101 91 C 109 73 126 64 152 64 C 172 64 191 70 209 84 C 226 98 243 116 261 139 Z" unicode="æ" />
<glyph horiz-adv-x="662" d="M 294 -10 C 212 -10 154 8 118 46 C 82 84 68 138 77 210 L 98 386 C 107 459 134 515 180 553 C 225 591 288 610 369 610 C 440 610 493 593 527 559 C 561 525 576 473 573 405 L 477 400 C 479 444 471 475 452 494 C 432 513 401 523 357 523 C 308 523 270 512 243 490 C 216 468 200 433 195 387 L 173 209 C 167 163 174 130 196 109 C 218 87 253 77 303 77 C 347 77 380 84 404 100 C 428 116 443 142 450 180 L 544 175 C 532 113 506 66 464 36 C 422 5 366 -10 294 -10 Z M 253 0 L 277 42 C 307 36 332 22 353 2 C 374 -18 382 -49 378 -91 C 372 -133 354 -165 324 -185 C 293 -205 260 -215 226 -215 C 184 -215 151 -207 127 -191 C 103 -175 92 -149 94 -111 L 181 -101 C 179 -113 182 -122 190 -127 C 198 -132 211 -135 230 -135 C 248 -135 262 -130 272 -122 C 282 -114 289 -98 293 -76 C 295 -52 294 -35 288 -24 C 282 -13 270 -5 253 0 Z" unicode="ç" />
<glyph horiz-adv-x="662" d="M 532 131 C 509 81 479 45 442 23 C 405 1 352 -10 282 -10 C 209 -10 154 8 118 46 C 82 83 68 138 77 211 L 98 386 C 107 460 135 516 183 554 C 231 591 289 610 358 610 C 427 610 480 591 518 553 C 555 515 569 456 559 378 L 548 281 L 182 281 L 173 211 C 167 161 173 126 193 105 C 213 83 246 73 292 73 C 335 73 367 79 389 93 C 410 107 428 129 443 159 L 532 131 Z M 194 385 L 191 355 L 461 355 L 463 376 C 469 428 463 467 443 491 C 423 515 391 527 347 527 C 302 527 267 515 241 492 C 215 468 200 433 194 385 Z M 369 700 L 213 900 L 356 900 L 454 700 L 369 700 Z" unicode="è" />
<glyph horiz-adv-x="662" d="M 532 131 C 509 81 479 45 442 23 C 405 1 352 -10 282 -10 C 209 -10 154 8 118 46 C 82 83 68 138 77 211 L 98 386 C 107 460 135 516 183 554 C 231 591 289 610 358 610 C 427 610 480 591 518 553 C 555 515 569 456 559 378 L 548 281 L 182 281 L 173 211 C 167 161 173 126 193 105 C 213 83 246 73 292 73 C 335 73 367 79 389 93 C 410 107 428 129 443 159 L 532 131 Z M 194 385 L 191 355 L 461 355 L 463 376 C 469 428 463 467 443 491 C 423 515 391 527 347 527 C 302 527 267 515 241 492 C 215 468 200 433 194 385 Z M 264 700 L 413 900 L 555 900 L 350 700 L 264 700 Z" unicode="é" />
<glyph horiz-adv-x="662" d="M 532 131 C 509 81 479 45 442 23 C 405 1 352 -10 282 -10 C 209 -10 154 8 118 46 C 82 83 68 138 77 211 L 98 386 C 107 460 135 516 183 554 C 231 591 289 610 358 610 C 427 610 480 591 518 553 C 555 515 569 456 559 378 L 548 281 L 182 281 L 173 211 C 167 161 173 126 193 105 C 213 83 246 73 292 73 C 335 73 367 79 389 93 C 410 107 428 129 443 159 L 532 131 Z M 194 385 L 191 355 L 461 355 L 463 376 C 469 428 463 467 443 491 C 423 515 391 527 347 527 C 302 527 267 515 241 492 C 215 468 200 433 194 385 Z M 210 708 L 178 768 L 359 916 L 429 916 L 576 768 L 530 708 L 383 822 L 210 708 Z" unicode="ê" />
<glyph horiz-adv-x="662" d="M 532 131 C 509 81 479 45 442 23 C 405 1 352 -10 282 -10 C 209 -10 154 8 118 46 C 82 83 68 138 77 211 L 98 386 C 107 460 135 516 183 554 C 231 591 289 610 358 610 C 427 610 480 591 518 553 C 555 515 569 456 559 378 L 548 281 L 182 281 L 173 211 C 167 161 173 126 193 105 C 213 83 246 73 292 73 C 335 73 367 79 389 93 C 410 107 428 129 443 159 L 532 131 Z M 194 385 L 191 355 L 461 355 L 463 376 C 469 428 463 467 443 491 C 423 515 391 527 347 527 C 302 527 267 515 241 492 C 215 468 200 433 194 385 Z M 264 711 C 245 711 230 715 220 723 C 210 731 206 745 209 767 L 210 774 C 212 796 220 811 232 819 C 244 827 260 832 279 832 C 297 832 312 827 322 819 C 332 811 335 796 333 774 L 332 767 C 329 745 321 731 309 723 C 297 715 282 711 264 711 Z M 476 711 C 457 711 443 715 433 723 C 423 731 419 745 422 767 L 423 774 C 425 796 433 811 445 819 C 457 827 472 832 491 832 C 509 832 524 827 534 819 C 544 811 548 796 546 774 L 545 767 C 542 745 534 731 522 723 C 509 715 494 711 476 711 Z" unicode="ë" />
<glyph horiz-adv-x="662" d="M 51 0 L 62 87 L 245 87 L 297 513 L 114 513 L 125 600 L 405 600 L 342 87 L 524 87 L 513 0 L 51 0 Z M 369 700 L 213 900 L 356 900 L 454 700 L 369 700 Z" unicode="ì" />
<glyph horiz-adv-x="662" d="M 51 0 L 62 87 L 245 87 L 297 513 L 114 513 L 125 600 L 405 600 L 342 87 L 524 87 L 513 0 L 51 0 Z M 262 700 L 411 900 L 553 900 L 348 700 L 262 700 Z" unicode="í" />
<glyph horiz-adv-x="662" d="M 51 0 L 62 87 L 245 87 L 297 513 L 114 513 L 125 600 L 405 600 L 342 87 L 524 87 L 513 0 L 51 0 Z M 209 708 L 177 768 L 358 916 L 428 916 L 575 768 L 529 708 L 382 822 L 209 708 Z" unicode="î" />
<glyph horiz-adv-x="662" d="M 51 0 L 62 87 L 245 87 L 297 513 L 114 513 L 125 600 L 405 600 L 342 87 L 524 87 L 513 0 L 51 0 Z M 263 711 C 244 711 229 715 219 723 C 209 731 205 745 208 767 L 209 774 C 211 796 219 811 231 819 C 243 827 259 832 278 832 C 296 832 311 827 321 819 C 331 811 334 796 332 774 L 331 767 C 328 745 320 731 308 723 C 296 715 281 711 263 711 Z M 475 711 C 456 711 442 715 432 723 C 422 731 418 745 421 767 L 422 774 C 424 796 432 811 444 819 C 456 827 471 832 490 832 C 508 832 523 827 533 819 C 543 811 547 796 545 774 L 544 767 C 541 745 533 731 521 723 C 508 715 493 711 475 711 Z" unicode="ï" />
<glyph horiz-adv-x="662" d="M 281 -10 C 211 -10 158 8 120 46 C 82 83 67 140 77 216 L 86 296 C 94 358 119 408 162 445 C 205 481 258 500 320 500 C 358 500 388 492 412 478 C 435 463 450 446 457 426 L 477 426 C 479 468 478 505 472 539 C 466 573 456 602 441 627 L 254 541 L 264 619 L 394 680 C 375 696 353 710 328 722 C 302 734 273 745 241 755 L 278 821 C 321 807 359 792 392 775 C 425 758 453 739 476 718 L 653 799 L 644 721 L 521 664 C 543 628 557 586 563 539 C 569 492 568 438 560 378 L 541 222 C 531 141 502 82 455 45 C 408 8 350 -10 281 -10 Z M 292 77 C 340 77 376 88 400 111 C 423 134 437 169 443 215 L 452 284 C 457 326 451 358 433 380 C 415 401 382 412 334 412 C 285 412 249 401 226 380 C 203 358 189 326 184 284 L 175 215 C 169 169 175 134 193 111 C 210 88 243 77 292 77 Z" unicode="ð" />
<glyph horiz-adv-x="662" d="M 51 0 L 125 600 L 221 600 L 209 507 L 237 507 C 255 539 280 564 312 582 C 343 600 377 610 413 610 C 467 610 507 592 534 556 C 561 520 571 472 563 410 L 513 0 L 417 0 L 465 391 C 470 433 465 464 449 486 C 433 507 409 518 375 518 C 347 518 317 509 287 492 C 257 475 227 450 198 418 L 147 0 L 51 0 Z M 461 710 C 438 710 420 716 408 728 C 395 740 384 753 375 768 C 366 782 358 796 350 808 C 342 820 333 826 322 826 C 310 826 299 819 289 805 C 279 791 273 767 270 731 L 268 720 L 194 720 L 196 735 C 202 785 217 826 243 859 C 268 892 300 909 340 909 C 364 909 383 903 396 891 C 409 879 420 865 429 851 C 438 836 446 823 452 811 C 458 799 467 793 478 793 C 490 793 500 799 510 813 C 520 827 527 852 532 888 L 533 899 L 606 899 L 605 884 C 598 833 582 791 557 759 C 532 726 500 710 461 710 Z" unicode="ñ" />
<glyph horiz-adv-x="662" d="M 281 -10 C 207 -10 152 9 117 47 C 81 85 68 139 77 210 L 98 386 C 107 457 134 512 179 551 C 223 590 283 610 358 610 C 431 610 485 590 521 551 C 556 512 569 457 560 386 L 539 211 C 530 139 503 85 459 47 C 414 9 355 -10 281 -10 Z M 291 77 C 336 77 371 87 396 109 C 421 130 437 164 443 210 L 464 386 C 470 432 463 467 443 489 C 423 511 391 523 346 523 C 300 523 265 511 240 489 C 215 467 200 432 194 386 L 173 210 C 167 164 173 130 193 109 C 213 87 245 77 291 77 Z M 368 700 L 212 900 L 355 900 L 453 700 L 368 700 Z" unicode="ò" />
<glyph horiz-adv-x="662" d="M 281 -10 C 207 -10 152 9 117 47 C 81 85 68 139 77 210 L 98 386 C 107 457 134 512 179 551 C 223 590 283 610 358 610 C 431 610 485 590 521 551 C 556 512 569 457 560 386 L 539 211 C 530 139 503 85 459 47 C 414 9 355 -10 281 -10 Z M 291 77 C 336 77 371 87 396 109 C 421 130 437 164 443 210 L 464 386 C 470 432 463 467 443 489 C 423 511 391 523 346 523 C 300 523 265 511 240 489 C 215 467 200 432 194 386 L 173 210 C 167 164 173 130 193 109 C 213 87 245 77 291 77 Z M 262 700 L 411 900 L 553 900 L 348 700 L 262 700 Z" unicode="ó" />
<glyph horiz-adv-x="662" d="M 281 -10 C 207 -10 152 9 117 47 C 81 85 68 139 77 210 L 98 386 C 107 457 134 512 179 551 C 223 590 283 610 358 610 C 431 610 485 590 521 551 C 556 512 569 457 560 386 L 539 211 C 530 139 503 85 459 47 C 414 9 355 -10 281 -10 Z M 291 77 C 336 77 371 87 396 109 C 421 130 437 164 443 210 L 464 386 C 470 432 463 467 443 489 C 423 511 391 523 346 523 C 300 523 265 511 240 489 C 215 467 200 432 194 386 L 173 210 C 167 164 173 130 193 109 C 213 87 245 77 291 77 Z M 209 708 L 177 768 L 358 916 L 428 916 L 575 768 L 529 708 L 382 822 L 209 708 Z" unicode="ô" />
<glyph horiz-adv-x="662" d="M 281 -10 C 207 -10 152 9 117 47 C 81 85 68 139 77 210 L 98 386 C 107 457 134 512 179 551 C 223 590 283 610 358 610 C 431 610 485 590 521 551 C 556 512 569 457 560 386 L 539 211 C 530 139 503 85 459 47 C 414 9 355 -10 281 -10 Z M 291 77 C 336 77 371 87 396 109 C 421 130 437 164 443 210 L 464 386 C 470 432 463 467 443 489 C 423 511 391 523 346 523 C 300 523 265 511 240 489 C 215 467 200 432 194 386 L 173 210 C 167 164 173 130 193 109 C 213 87 245 77 291 77 Z M 442 710 C 419 710 401 716 389 728 C 376 740 365 753 356 768 C 347 782 339 796 331 808 C 323 820 314 826 303 826 C 291 826 280 819 270 805 C 260 791 254 767 251 731 L 249 720 L 175 720 L 177 735 C 183 785 198 826 224 859 C 249 892 281 909 321 909 C 345 909 364 903 377 891 C 390 879 401 865 410 851 C 419 836 427 823 433 811 C 439 799 448 793 459 793 C 471 793 481 799 491 813 C 501 827 508 852 513 888 L 514 899 L 587 899 L 586 884 C 579 833 563 791 538 759 C 513 726 481 710 442 710 Z" unicode="õ" />
<glyph horiz-adv-x="662" d="M 281 -10 C 207 -10 152 9 117 47 C 81 85 68 139 77 210 L 98 386 C 107 457 134 512 179 551 C 223 590 283 610 358 610 C 431 610 485 590 521 551 C 556 512 569 457 560 386 L 539 211 C 530 139 503 85 459 47 C 414 9 355 -10 281 -10 Z M 291 77 C 336 77 371 87 396 109 C 421 130 437 164 443 210 L 464 386 C 470 432 463 467 443 489 C 423 511 391 523 346 523 C 300 523 265 511 240 489 C 215 467 200 432 194 386 L 173 210 C 167 164 173 130 193 109 C 213 87 245 77 291 77 Z M 263 711 C 244 711 229 715 219 723 C 209 731 205 745 208 767 L 209 774 C 211 796 219 811 231 819 C 243 827 259 832 278 832 C 296 832 311 827 321 819 C 331 811 334 796 332 774 L 331 767 C 328 745 320 731 308 723 C 296 715 281 711 263 711 Z M 475 711 C 456 711 442 715 432 723 C 422 731 418 745 421 767 L 422 774 C 424 796 432 811 444 819 C 456 827 471 832 490 832 C 508 832 523 827 533 819 C 543 811 547 796 545 774 L 544 767 C 541 745 533 731 521 723 C 508 715 493 711 475 711 Z" unicode="ö" />
<glyph horiz-adv-x="662" d="M 347 527 C 323 527 305 532 291 542 C 277 552 272 568 274 590 L 277 607 C 279 629 289 645 305 656 C 321 666 341 672 365 672 C 388 672 406 666 420 656 C 433 645 438 629 436 607 L 433 590 C 431 568 422 552 406 542 C 390 532 370 527 347 527 Z M 62 301 L 74 399 L 588 399 L 576 301 L 62 301 Z M 285 27 C 261 27 243 32 229 42 C 215 52 210 68 213 90 L 215 107 C 217 129 227 145 243 156 C 259 166 279 172 303 172 C 326 172 344 166 358 156 C 371 145 376 129 374 107 L 372 90 C 369 68 360 52 344 42 C 328 32 308 27 285 27 Z" unicode="÷" />
<glyph horiz-adv-x="662" d="M 172 210 C 169 191 169 175 171 161 C 173 147 176 134 182 124 L 406 514 C 398 516 388 518 378 520 C 368 521 357 522 346 522 C 299 522 263 511 239 489 C 214 467 199 433 193 386 L 172 210 Z M 292 78 C 338 78 374 88 398 109 C 422 130 438 164 444 210 L 465 386 C 467 404 468 421 466 435 C 464 449 460 462 455 473 L 232 86 C 240 83 249 81 259 80 C 269 78 280 78 292 78 Z M 281 -10 C 265 -10 249 -9 235 -7 C 220 -5 206 -2 192 2 L 133 -100 L 40 -100 L 123 40 C 103 58 89 81 81 110 C 73 138 71 172 76 210 L 97 386 C 106 461 134 517 182 554 C 230 591 288 610 358 610 C 374 610 390 609 404 607 C 418 605 432 602 445 598 L 505 700 L 598 700 L 515 559 C 533 540 547 516 556 488 C 564 459 566 425 561 386 L 540 210 C 530 135 502 80 455 44 C 408 8 350 -10 281 -10 Z" unicode="ø" />
<glyph horiz-adv-x="662" d="M 226 -10 C 172 -10 132 8 104 45 C 76 81 66 130 74 190 L 125 600 L 221 600 L 173 208 C 167 166 172 134 187 113 C 201 92 227 82 263 82 C 291 82 320 90 350 106 C 379 122 409 147 439 181 L 491 600 L 587 600 L 513 0 L 417 0 L 428 93 L 400 93 C 384 62 361 37 329 18 C 297 0 262 -10 226 -10 Z M 342 700 L 186 900 L 329 900 L 427 700 L 342 700 Z" unicode="ù" />
<glyph horiz-adv-x="662" d="M 226 -10 C 172 -10 132 8 104 45 C 76 81 66 130 74 190 L 125 600 L 221 600 L 173 208 C 167 166 172 134 187 113 C 201 92 227 82 263 82 C 291 82 320 90 350 106 C 379 122 409 147 439 181 L 491 600 L 587 600 L 513 0 L 417 0 L 428 93 L 400 93 C 384 62 361 37 329 18 C 297 0 262 -10 226 -10 Z M 299 700 L 448 900 L 590 900 L 385 700 L 299 700 Z" unicode="ú" />
<glyph horiz-adv-x="662" d="M 226 -10 C 172 -10 132 8 104 45 C 76 81 66 130 74 190 L 125 600 L 221 600 L 173 208 C 167 166 172 134 187 113 C 201 92 227 82 263 82 C 291 82 320 90 350 106 C 379 122 409 147 439 181 L 491 600 L 587 600 L 513 0 L 417 0 L 428 93 L 400 93 C 384 62 361 37 329 18 C 297 0 262 -10 226 -10 Z M 210 708 L 178 768 L 359 916 L 429 916 L 576 768 L 530 708 L 383 822 L 210 708 Z" unicode="û" />
<glyph horiz-adv-x="662" d="M 226 -10 C 172 -10 132 8 104 45 C 76 81 66 130 74 190 L 125 600 L 221 600 L 173 208 C 167 166 172 134 187 113 C 201 92 227 82 263 82 C 291 82 320 90 350 106 C 379 122 409 147 439 181 L 491 600 L 587 600 L 513 0 L 417 0 L 428 93 L 400 93 C 384 62 361 37 329 18 C 297 0 262 -10 226 -10 Z M 264 711 C 245 711 230 715 220 723 C 210 731 206 745 209 767 L 210 774 C 212 796 220 811 232 819 C 244 827 260 832 279 832 C 297 832 312 827 322 819 C 332 811 335 796 333 774 L 332 767 C 329 745 321 731 309 723 C 297 715 282 711 264 711 Z M 476 711 C 457 711 443 715 433 723 C 423 731 419 745 422 767 L 423 774 C 425 796 433 811 445 819 C 457 827 472 832 491 832 C 509 832 524 827 534 819 C 544 811 548 796 546 774 L 545 767 C 542 745 534 731 522 723 C 509 715 494 711 476 711 Z" unicode="ü" />
<glyph horiz-adv-x="662" d="M 98 -206 C 83 -206 68 -205 53 -203 C 37 -201 22 -198 6 -195 L 33 -108 C 49 -112 63 -115 77 -117 C 90 -119 103 -120 115 -120 C 145 -120 172 -111 195 -94 C 218 -77 238 -50 255 -12 L 259 -2 L 219 -2 L 100 600 L 205 600 L 294 81 L 510 600 L 611 600 L 337 -21 C 308 -87 273 -135 233 -163 C 193 -191 148 -206 98 -206 Z M 262 700 L 411 900 L 553 900 L 348 700 L 262 700 Z" unicode="ý" />
<glyph horiz-adv-x="662" d="M 284 75 C 332 75 369 86 395 108 C 421 130 437 166 443 214 L 465 390 C 470 434 465 466 451 487 C 436 507 410 518 373 518 C 342 518 312 509 284 493 C 256 477 227 451 198 417 L 161 114 C 179 100 198 90 218 84 C 237 78 259 75 284 75 Z M 276 -10 C 254 -10 232 -7 210 -2 C 187 2 167 9 149 18 L 122 -200 L 26 -200 L 149 800 L 245 800 L 209 507 L 237 507 C 255 539 280 565 311 583 C 342 601 375 610 411 610 C 466 610 507 590 533 550 C 559 510 569 456 561 387 L 539 212 C 530 142 502 88 456 49 C 409 9 349 -10 276 -10 Z" unicode="þ" />
<glyph horiz-adv-x="662" d="M 98 -206 C 83 -206 68 -205 53 -203 C 37 -201 22 -198 6 -195 L 33 -108 C 49 -112 63 -115 77 -117 C 90 -119 103 -120 115 -120 C 145 -120 172 -111 195 -94 C 218 -77 238 -50 255 -12 L 259 -2 L 219 -2 L 100 600 L 205 600 L 294 81 L 510 600 L 611 600 L 337 -21 C 308 -87 273 -135 233 -163 C 193 -191 148 -206 98 -206 Z M 263 711 C 244 711 229 715 219 723 C 209 731 205 745 208 767 L 209 774 C 211 796 219 811 231 819 C 243 827 259 832 278 832 C 296 832 311 827 321 819 C 331 811 334 796 332 774 L 331 767 C 328 745 320 731 308 723 C 296 715 281 711 263 711 Z M 475 711 C 456 711 442 715 432 723 C 422 731 418 745 421 767 L 422 774 C 424 796 432 811 444 819 C 456 827 471 832 490 832 C 508 832 523 827 533 819 C 543 811 547 796 545 774 L 544 767 C 541 745 533 731 521 723 C 508 715 493 711 475 711 Z" unicode="ÿ" />
<glyph horiz-adv-x="662" d="M 420 319 L 367 689 L 220 319 L 420 319 Z M 467 0 L 433 233 L 186 233 L 94 0 L -4 0 L 329 800 L 432 800 L 569 0 L 467 0 Z M 213 957 L 224 1043 L 594 1043 L 583 957 L 213 957 Z" unicode="Ā" />
<glyph horiz-adv-x="662" d="M 225 74 C 257 74 287 80 315 93 C 343 105 368 127 390 157 L 402 256 L 245 256 C 216 256 192 249 174 236 C 155 222 144 199 140 167 C 136 137 140 114 153 98 C 166 82 190 74 225 74 Z M 201 -10 C 151 -10 111 4 80 32 C 48 60 36 103 44 161 C 50 213 71 254 107 284 C 143 314 184 330 231 330 L 412 330 L 423 420 C 426 450 419 475 402 494 C 385 512 357 522 319 522 C 279 522 248 515 227 501 C 206 487 187 459 171 415 L 90 439 C 107 495 136 538 176 567 C 216 595 267 610 329 610 C 390 610 439 595 476 566 C 513 537 528 493 521 433 L 487 155 C 483 121 489 99 506 90 C 522 80 549 79 587 86 L 576 -3 C 532 -9 496 -6 466 6 C 436 19 422 49 425 97 L 406 97 C 385 66 356 40 320 20 C 283 0 243 -10 201 -10 Z M 172 757 L 183 843 L 553 843 L 542 757 L 172 757 Z" unicode="ā" />
<glyph horiz-adv-x="662" d="M 420 319 L 367 689 L 220 319 L 420 319 Z M 467 0 L 433 233 L 186 233 L 94 0 L -4 0 L 329 800 L 432 800 L 569 0 L 467 0 Z M 390 893 C 327 893 278 909 242 942 C 206 974 192 1027 201 1101 L 296 1101 C 290 1053 296 1019 314 999 C 331 979 360 970 400 970 C 440 970 471 979 493 999 C 515 1019 529 1053 536 1101 L 631 1101 C 621 1027 594 974 550 942 C 506 909 452 893 390 893 Z" unicode="Ă" />
<glyph horiz-adv-x="662" d="M 225 74 C 257 74 287 80 315 93 C 343 105 368 127 390 157 L 402 256 L 245 256 C 216 256 192 249 174 236 C 155 222 144 199 140 167 C 136 137 140 114 153 98 C 166 82 190 74 225 74 Z M 201 -10 C 151 -10 111 4 80 32 C 48 60 36 103 44 161 C 50 213 71 254 107 284 C 143 314 184 330 231 330 L 412 330 L 423 420 C 426 450 419 475 402 494 C 385 512 357 522 319 522 C 279 522 248 515 227 501 C 206 487 187 459 171 415 L 90 439 C 107 495 136 538 176 567 C 216 595 267 610 329 610 C 390 610 439 595 476 566 C 513 537 528 493 521 433 L 487 155 C 483 121 489 99 506 90 C 522 80 549 79 587 86 L 576 -3 C 532 -9 496 -6 466 6 C 436 19 422 49 425 97 L 406 97 C 385 66 356 40 320 20 C 283 0 243 -10 201 -10 Z M 349 693 C 286 693 237 709 201 742 C 165 774 151 827 160 901 L 255 901 C 249 853 255 819 273 799 C 290 779 319 770 359 770 C 399 770 430 779 452 799 C 474 819 488 853 495 901 L 590 901 C 580 827 553 774 509 742 C 465 709 411 693 349 693 Z" unicode="ă" />
<glyph horiz-adv-x="662" d="M 420 319 L 367 689 L 220 319 L 420 319 Z M 467 0 L 433 233 L 186 233 L 94 0 L -4 0 L 329 800 L 432 800 L 569 0 L 467 0 Z M 500 -215 C 460 -215 428 -204 404 -183 C 380 -161 370 -132 375 -96 C 379 -64 394 -35 421 -10 C 447 14 476 33 507 45 L 529 23 C 506 9 490 -6 480 -23 C 470 -40 465 -55 464 -69 C 461 -87 465 -101 476 -111 C 486 -121 502 -126 523 -126 C 533 -126 547 -125 564 -123 C 580 -121 594 -118 606 -116 L 595 -205 C 581 -207 566 -210 548 -212 C 530 -214 514 -215 500 -215 Z" unicode="Ą" />
<glyph horiz-adv-x="662" d="M 225 74 C 257 74 287 80 315 93 C 343 105 368 127 390 157 L 402 256 L 245 256 C 216 256 192 249 174 236 C 155 222 144 199 140 167 C 136 137 140 114 153 98 C 166 82 190 74 225 74 Z M 201 -10 C 151 -10 111 4 80 32 C 48 60 36 103 44 161 C 50 213 71 254 107 284 C 143 314 184 330 231 330 L 412 330 L 423 420 C 426 450 419 475 402 494 C 385 512 357 522 319 522 C 279 522 248 515 227 501 C 206 487 187 459 171 415 L 90 439 C 107 495 136 538 176 567 C 216 595 267 610 329 610 C 390 610 439 595 476 566 C 513 537 528 493 521 433 L 487 155 C 483 121 489 99 506 90 C 522 80 549 79 587 86 L 576 -3 C 532 -9 496 -6 466 6 C 436 19 422 49 425 97 L 406 97 C 385 66 356 40 320 20 C 283 0 243 -10 201 -10 Z M 484 -215 C 444 -215 412 -204 388 -183 C 364 -161 354 -132 359 -96 C 363 -64 378 -35 405 -10 C 431 14 460 33 491 45 L 513 23 C 490 9 474 -6 464 -23 C 454 -40 449 -55 448 -69 C 445 -87 449 -101 460 -111 C 470 -121 486 -126 507 -126 C 517 -126 531 -125 548 -123 C 564 -121 578 -118 590 -116 L 579 -205 C 565 -207 550 -210 532 -212 C 514 -214 498 -215 484 -215 Z" unicode="ą" />
<glyph horiz-adv-x="662" d="M 291 -10 C 204 -10 142 13 105 60 C 67 107 54 177 66 271 L 97 525 C 109 619 139 690 188 738 C 236 786 304 810 392 810 C 476 810 536 788 572 745 C 608 701 622 633 616 540 L 518 530 C 522 603 514 653 494 681 C 474 709 436 723 381 723 C 321 723 277 708 249 678 C 221 648 203 598 195 526 L 163 270 C 155 201 161 152 182 122 C 203 92 243 77 301 77 C 357 77 398 90 424 118 C 450 145 471 194 486 266 L 581 256 C 565 164 533 96 487 54 C 441 11 375 -10 291 -10 Z M 329 900 L 478 1100 L 620 1100 L 415 900 L 329 900 Z" unicode="Ć" />
<glyph horiz-adv-x="662" d="M 294 -10 C 212 -10 154 8 118 46 C 82 84 68 138 77 210 L 98 386 C 107 459 134 515 180 553 C 225 591 288 610 369 610 C 440 610 493 593 527 559 C 561 525 576 473 573 405 L 477 400 C 479 444 471 475 452 494 C 432 513 401 523 357 523 C 308 523 270 512 243 490 C 216 468 200 433 195 387 L 173 209 C 167 163 174 130 196 109 C 218 87 253 77 303 77 C 347 77 380 84 404 100 C 428 116 443 142 450 180 L 544 175 C 532 113 506 66 464 36 C 422 5 366 -10 294 -10 Z M 270 700 L 419 900 L 561 900 L 356 700 L 270 700 Z" unicode="ć" />
<glyph horiz-adv-x="662" d="M 291 -10 C 204 -10 142 13 105 60 C 67 107 54 177 66 271 L 97 525 C 109 619 139 690 188 738 C 236 786 304 810 392 810 C 476 810 536 788 572 745 C 608 701 622 633 616 540 L 518 530 C 522 603 514 653 494 681 C 474 709 436 723 381 723 C 321 723 277 708 249 678 C 221 648 203 598 195 526 L 163 270 C 155 201 161 152 182 122 C 203 92 243 77 301 77 C 357 77 398 90 424 118 C 450 145 471 194 486 266 L 581 256 C 565 164 533 96 487 54 C 441 11 375 -10 291 -10 Z M 241 908 L 209 968 L 390 1116 L 460 1116 L 607 968 L 561 908 L 414 1022 L 241 908 Z" unicode="Ĉ" />
<glyph horiz-adv-x="662" d="M 294 -10 C 212 -10 154 8 118 46 C 82 84 68 138 77 210 L 98 386 C 107 459 134 515 180 553 C 225 591 288 610 369 610 C 440 610 493 593 527 559 C 561 525 576 473 573 405 L 477 400 C 479 444 471 475 452 494 C 432 513 401 523 357 523 C 308 523 270 512 243 490 C 216 468 200 433 195 387 L 173 209 C 167 163 174 130 196 109 C 218 87 253 77 303 77 C 347 77 380 84 404 100 C 428 116 443 142 450 180 L 544 175 C 532 113 506 66 464 36 C 422 5 366 -10 294 -10 Z M 223 708 L 191 768 L 372 916 L 442 916 L 589 768 L 543 708 L 396 822 L 223 708 Z" unicode="ĉ" />
<glyph horiz-adv-x="662" d="M 291 -10 C 204 -10 142 13 105 60 C 67 107 54 177 66 271 L 97 525 C 109 619 139 690 188 738 C 236 786 304 810 392 810 C 476 810 536 788 572 745 C 608 701 622 633 616 540 L 518 530 C 522 603 514 653 494 681 C 474 709 436 723 381 723 C 321 723 277 708 249 678 C 221 648 203 598 195 526 L 163 270 C 155 201 161 152 182 122 C 203 92 243 77 301 77 C 357 77 398 90 424 118 C 450 145 471 194 486 266 L 581 256 C 565 164 533 96 487 54 C 441 11 375 -10 291 -10 Z M 401 911 C 377 911 358 915 344 923 C 330 931 325 945 328 967 L 329 974 C 331 996 340 1011 356 1019 C 372 1027 392 1032 416 1032 C 440 1032 458 1027 472 1019 C 486 1011 491 996 489 974 L 488 967 C 485 945 476 931 460 923 C 444 915 424 911 401 911 Z" unicode="Ċ" />
<glyph horiz-adv-x="662" d="M 294 -10 C 212 -10 154 8 118 46 C 82 84 68 138 77 210 L 98 386 C 107 459 134 515 180 553 C 225 591 288 610 369 610 C 440 610 493 593 527 559 C 561 525 576 473 573 405 L 477 400 C 479 444 471 475 452 494 C 432 513 401 523 357 523 C 308 523 270 512 243 490 C 216 468 200 433 195 387 L 173 209 C 167 163 174 130 196 109 C 218 87 253 77 303 77 C 347 77 380 84 404 100 C 428 116 443 142 450 180 L 544 175 C 532 113 506 66 464 36 C 422 5 366 -10 294 -10 Z M 375 711 C 351 711 332 715 318 723 C 304 731 299 745 302 767 L 303 774 C 305 796 314 811 330 819 C 346 827 366 832 390 832 C 414 832 432 827 446 819 C 460 811 465 796 463 774 L 462 767 C 459 745 450 731 434 723 C 418 715 398 711 375 711 Z" unicode="ċ" />
<glyph horiz-adv-x="662" d="M 291 -10 C 204 -10 142 13 105 60 C 67 107 54 177 66 271 L 97 525 C 109 619 139 690 188 738 C 236 786 304 810 392 810 C 476 810 536 788 572 745 C 608 701 622 633 616 540 L 518 530 C 522 603 514 653 494 681 C 474 709 436 723 381 723 C 321 723 277 708 249 678 C 221 648 203 598 195 526 L 163 270 C 155 201 161 152 182 122 C 203 92 243 77 301 77 C 357 77 398 90 424 118 C 450 145 471 194 486 266 L 581 256 C 565 164 533 96 487 54 C 441 11 375 -10 291 -10 Z M 366 904 L 220 1052 L 266 1112 L 413 999 L 586 1112 L 618 1052 L 436 904 L 366 904 Z" unicode="Č" />
<glyph horiz-adv-x="662" d="M 294 -10 C 212 -10 154 8 118 46 C 82 84 68 138 77 210 L 98 386 C 107 459 134 515 180 553 C 225 591 288 610 369 610 C 440 610 493 593 527 559 C 561 525 576 473 573 405 L 477 400 C 479 444 471 475 452 494 C 432 513 401 523 357 523 C 308 523 270 512 243 490 C 216 468 200 433 195 387 L 173 209 C 167 163 174 130 196 109 C 218 87 253 77 303 77 C 347 77 380 84 404 100 C 428 116 443 142 450 180 L 544 175 C 532 113 506 66 464 36 C 422 5 366 -10 294 -10 Z M 340 704 L 194 852 L 240 912 L 387 799 L 560 912 L 592 852 L 410 704 L 340 704 Z" unicode="č" />
<glyph horiz-adv-x="662" d="M 50 0 L 148 800 L 355 800 C 440 800 504 774 546 722 C 588 670 604 602 594 516 L 565 280 C 555 194 522 126 467 76 C 411 25 341 0 256 0 L 50 0 Z M 158 87 L 266 87 C 326 87 372 104 406 139 C 440 173 460 220 468 279 L 497 517 C 504 576 495 623 470 659 C 445 695 403 713 343 713 L 235 713 L 158 87 Z M 356 904 L 210 1052 L 256 1112 L 403 999 L 576 1112 L 608 1052 L 426 904 L 356 904 Z" unicode="Ď" />
<glyph horiz-adv-x="662" d="M 265 82 C 295 82 325 90 353 107 C 381 123 410 149 439 183 L 477 486 C 459 499 440 509 420 515 C 400 521 378 525 354 525 C 305 525 268 513 242 491 C 216 468 200 433 194 386 L 173 211 C 167 167 172 134 188 113 C 203 92 229 82 265 82 Z M 400 93 C 381 60 356 35 326 17 C 296 -1 263 -10 227 -10 C 171 -10 129 9 103 49 C 77 88 68 143 77 213 L 99 388 C 107 458 135 512 181 551 C 227 590 287 610 362 610 C 383 610 404 607 426 602 C 448 597 468 590 488 582 L 515 800 L 611 800 L 513 0 L 417 0 L 428 93 L 400 93 Z M 661 705 L 770 1000 L 910 1000 L 730 705 L 661 705 Z" unicode="ď" />
<glyph horiz-adv-x="662" d="M 50 0 L 99 396 L 10 396 L 20 484 L 109 484 L 148 800 L 355 800 C 440 800 504 774 546 722 C 588 670 604 602 594 516 L 565 280 C 555 194 522 126 467 76 C 411 25 341 0 256 0 L 50 0 Z M 158 87 L 266 87 C 326 87 372 104 406 139 C 440 173 460 220 468 279 L 497 517 C 504 576 495 623 470 659 C 445 695 403 713 343 713 L 235 713 L 206 484 L 341 484 L 331 396 L 196 396 L 158 87 Z" unicode="Đ" />
<glyph horiz-adv-x="662" d="M 265 82 C 295 82 325 90 353 107 C 381 123 410 149 439 183 L 471 437 C 453 449 434 459 414 466 C 394 472 371 476 347 476 C 299 476 262 464 237 442 C 211 419 196 384 190 337 L 176 221 C 170 173 174 138 189 116 C 203 93 229 82 265 82 Z M 400 93 C 381 60 356 35 326 17 C 295 -1 262 -10 227 -10 C 171 -10 130 9 104 49 C 77 89 68 143 77 213 L 93 339 C 101 408 128 462 175 502 C 222 541 282 561 356 561 C 377 561 398 558 420 553 C 442 547 462 540 482 532 L 495 632 L 313 632 L 322 711 L 504 711 L 515 800 L 611 800 L 600 711 L 692 711 L 683 632 L 591 632 L 513 0 L 417 0 L 428 93 L 400 93 Z" unicode="đ" />
<glyph horiz-adv-x="662" d="M 50 0 L 148 800 L 629 800 L 619 713 L 235 713 L 206 479 L 544 479 L 533 392 L 195 392 L 158 87 L 542 87 L 531 0 L 50 0 Z M 230 957 L 241 1043 L 611 1043 L 600 957 L 230 957 Z" unicode="Ē" />
<glyph horiz-adv-x="662" d="M 532 131 C 509 81 479 45 442 23 C 405 1 352 -10 282 -10 C 209 -10 154 8 118 46 C 82 83 68 138 77 211 L 98 386 C 107 460 135 516 183 554 C 231 591 289 610 358 610 C 427 610 480 591 518 553 C 555 515 569 456 559 378 L 548 281 L 182 281 L 173 211 C 167 161 173 126 193 105 C 213 83 246 73 292 73 C 335 73 367 79 389 93 C 410 107 428 129 443 159 L 532 131 Z M 194 385 L 191 355 L 461 355 L 463 376 C 469 428 463 467 443 491 C 423 515 391 527 347 527 C 302 527 267 515 241 492 C 215 468 200 433 194 385 Z M 191 757 L 202 843 L 572 843 L 561 757 L 191 757 Z" unicode="ē" />
<glyph horiz-adv-x="662" d="M 50 0 L 148 800 L 629 800 L 619 713 L 235 713 L 206 479 L 544 479 L 533 392 L 195 392 L 158 87 L 542 87 L 531 0 L 50 0 Z M 407 893 C 344 893 295 909 259 942 C 223 974 209 1027 218 1101 L 313 1101 C 307 1053 313 1019 331 999 C 348 979 377 970 417 970 C 457 970 488 979 510 999 C 532 1019 546 1053 553 1101 L 648 1101 C 638 1027 611 974 567 942 C 523 909 469 893 407 893 Z" unicode="Ĕ" />
<glyph horiz-adv-x="662" d="M 532 131 C 509 81 479 45 442 23 C 405 1 352 -10 282 -10 C 209 -10 154 8 118 46 C 82 83 68 138 77 211 L 98 386 C 107 460 135 516 183 554 C 231 591 289 610 358 610 C 427 610 480 591 518 553 C 555 515 569 456 559 378 L 548 281 L 182 281 L 173 211 C 167 161 173 126 193 105 C 213 83 246 73 292 73 C 335 73 367 79 389 93 C 410 107 428 129 443 159 L 532 131 Z M 194 385 L 191 355 L 461 355 L 463 376 C 469 428 463 467 443 491 C 423 515 391 527 347 527 C 302 527 267 515 241 492 C 215 468 200 433 194 385 Z M 368 693 C 305 693 256 709 220 742 C 184 774 170 827 179 901 L 274 901 C 268 853 274 819 292 799 C 309 779 338 770 378 770 C 418 770 449 779 471 799 C 493 819 507 853 514 901 L 609 901 C 599 827 572 774 528 742 C 484 709 430 693 368 693 Z" unicode="ĕ" />
<glyph horiz-adv-x="662" d="M 50 0 L 148 800 L 629 800 L 619 713 L 235 713 L 206 479 L 544 479 L 533 392 L 195 392 L 158 87 L 542 87 L 531 0 L 50 0 Z M 409 911 C 385 911 366 915 352 923 C 338 931 333 945 336 967 L 337 974 C 339 996 348 1011 364 1019 C 380 1027 400 1032 424 1032 C 448 1032 466 1027 480 1019 C 494 1011 499 996 497 974 L 496 967 C 493 945 484 931 468 923 C 452 915 432 911 409 911 Z" unicode="Ė" />
<glyph horiz-adv-x="662" d="M 532 131 C 509 81 479 45 442 23 C 405 1 352 -10 282 -10 C 209 -10 154 8 118 46 C 82 83 68 138 77 211 L 98 386 C 107 460 135 516 183 554 C 231 591 289 610 358 610 C 427 610 480 591 518 553 C 555 515 569 456 559 378 L 548 281 L 182 281 L 173 211 C 167 161 173 126 193 105 C 213 83 246 73 292 73 C 335 73 367 79 389 93 C 410 107 428 129 443 159 L 532 131 Z M 194 385 L 191 355 L 461 355 L 463 376 C 469 428 463 467 443 491 C 423 515 391 527 347 527 C 302 527 267 515 241 492 C 215 468 200 433 194 385 Z M 370 711 C 346 711 327 715 313 723 C 299 731 294 745 297 767 L 298 774 C 300 796 309 811 325 819 C 341 827 361 832 385 832 C 409 832 427 827 441 819 C 455 811 460 796 458 774 L 457 767 C 454 745 445 731 429 723 C 413 715 393 711 370 711 Z" unicode="ė" />
<glyph horiz-adv-x="662" d="M 412 -215 C 372 -215 340 -204 316 -183 C 292 -161 282 -132 287 -96 C 291 -64 306 -35 333 -10 C 359 14 388 33 419 45 L 441 23 C 418 9 402 -6 392 -23 C 382 -40 377 -55 376 -69 C 373 -87 377 -101 388 -111 C 398 -121 414 -126 435 -126 C 445 -126 459 -125 476 -123 C 492 -121 506 -118 518 -116 L 507 -205 C 493 -207 478 -210 460 -212 C 442 -214 426 -215 412 -215 Z M 50 0 L 148 800 L 629 800 L 619 713 L 235 713 L 206 479 L 544 479 L 533 392 L 195 392 L 158 87 L 542 87 L 531 0 L 50 0 Z" unicode="Ę" />
<glyph horiz-adv-x="662" d="M 384 -215 C 344 -215 312 -204 288 -183 C 264 -161 254 -132 259 -96 C 263 -64 278 -35 305 -10 C 331 14 360 33 391 45 L 413 23 C 390 9 374 -6 364 -23 C 354 -40 349 -55 348 -69 C 345 -87 349 -101 360 -111 C 370 -121 386 -126 407 -126 C 417 -126 431 -125 448 -123 C 464 -121 478 -118 490 -116 L 479 -205 C 465 -207 450 -210 432 -212 C 414 -214 398 -215 384 -215 Z M 532 131 C 509 81 479 45 442 23 C 405 1 352 -10 282 -10 C 209 -10 154 8 118 46 C 82 83 68 138 77 211 L 98 386 C 107 460 135 516 183 554 C 231 591 289 610 358 610 C 427 610 480 591 518 553 C 555 515 569 456 559 378 L 548 281 L 182 281 L 173 211 C 167 161 173 126 193 105 C 213 83 246 73 292 73 C 335 73 367 79 389 93 C 410 107 428 129 443 159 L 532 131 Z M 194 385 L 191 355 L 461 355 L 463 376 C 469 428 463 467 443 491 C 423 515 391 527 347 527 C 302 527 267 515 241 492 C 215 468 200 433 194 385 Z" unicode="ę" />
<glyph horiz-adv-x="662" d="M 50 0 L 148 800 L 629 800 L 619 713 L 235 713 L 206 479 L 544 479 L 533 392 L 195 392 L 158 87 L 542 87 L 531 0 L 50 0 Z M 383 904 L 237 1052 L 283 1112 L 430 999 L 603 1112 L 635 1052 L 453 904 L 383 904 Z" unicode="Ě" />
<glyph horiz-adv-x="662" d="M 532 131 C 509 81 479 45 442 23 C 405 1 352 -10 282 -10 C 209 -10 154 8 118 46 C 82 83 68 138 77 211 L 98 386 C 107 460 135 516 183 554 C 231 591 289 610 358 610 C 427 610 480 591 518 553 C 555 515 569 456 559 378 L 548 281 L 182 281 L 173 211 C 167 161 173 126 193 105 C 213 83 246 73 292 73 C 335 73 367 79 389 93 C 410 107 428 129 443 159 L 532 131 Z M 194 385 L 191 355 L 461 355 L 463 376 C 469 428 463 467 443 491 C 423 515 391 527 347 527 C 302 527 267 515 241 492 C 215 468 200 433 194 385 Z M 335 704 L 189 852 L 235 912 L 382 799 L 555 912 L 587 852 L 405 704 L 335 704 Z" unicode="ě" />
<glyph horiz-adv-x="662" d="M 297 -10 C 211 -10 148 14 109 64 C 69 113 55 182 66 271 L 97 525 C 108 617 139 687 190 736 C 240 785 307 810 391 810 C 467 810 523 789 557 748 C 591 707 605 644 600 559 L 501 549 C 504 612 496 657 478 683 C 459 709 426 723 379 723 C 321 723 278 708 250 678 C 222 648 203 597 195 526 L 163 270 C 154 200 161 151 183 121 C 205 91 247 77 308 77 C 363 77 404 94 432 128 C 460 162 479 219 489 300 L 319 300 L 329 386 L 596 386 L 584 281 C 572 187 541 115 492 65 C 443 15 378 -10 297 -10 Z M 248 908 L 216 968 L 397 1116 L 467 1116 L 614 968 L 568 908 L 421 1022 L 248 908 Z" unicode="Ĝ" />
<glyph horiz-adv-x="662" d="M 552 -49 C 545 -103 522 -143 482 -170 C 442 -196 396 -210 343 -210 L 171 -210 C 115 -210 70 -198 38 -174 C 5 -150 -8 -113 -2 -63 C 2 -31 13 -5 31 13 C 49 32 74 43 104 46 L 106 67 C 85 71 69 80 57 96 C 45 111 41 135 45 167 C 48 195 59 221 79 244 C 99 266 128 279 168 283 L 170 302 C 142 312 123 329 115 351 C 107 373 104 393 107 413 L 110 441 C 116 487 138 525 178 555 C 218 585 271 600 337 600 L 611 600 L 600 511 L 460 535 L 457 516 C 480 508 497 494 507 474 C 517 453 522 432 520 412 L 516 385 C 510 339 489 301 452 273 C 415 245 361 231 289 231 L 180 231 C 163 231 150 226 140 217 C 130 208 124 193 122 171 C 119 150 123 134 134 124 C 144 114 161 109 185 109 L 391 109 C 443 109 484 96 515 72 C 546 47 558 7 552 -49 Z M 302 306 C 338 306 367 313 388 328 C 408 342 421 366 425 399 L 429 430 C 433 462 426 485 409 499 C 391 513 364 521 328 521 C 291 521 262 513 242 499 C 221 485 209 462 205 430 L 201 399 C 197 366 203 342 221 328 C 238 313 265 306 302 306 Z M 179 -132 L 364 -132 C 390 -132 413 -126 431 -114 C 449 -102 460 -82 464 -54 C 467 -27 462 -8 449 3 C 435 15 416 21 392 21 L 105 21 L 96 -48 C 92 -76 98 -97 112 -111 C 126 -125 148 -132 179 -132 Z M 201 708 L 169 768 L 350 916 L 420 916 L 567 768 L 521 708 L 374 822 L 201 708 Z" unicode="ĝ" />
<glyph horiz-adv-x="662" d="M 297 -10 C 211 -10 148 14 109 64 C 69 113 55 182 66 271 L 97 525 C 108 617 139 687 190 736 C 240 785 307 810 391 810 C 467 810 523 789 557 748 C 591 707 605 644 600 559 L 501 549 C 504 612 496 657 478 683 C 459 709 426 723 379 723 C 321 723 278 708 250 678 C 222 648 203 597 195 526 L 163 270 C 154 200 161 151 183 121 C 205 91 247 77 308 77 C 363 77 404 94 432 128 C 460 162 479 219 489 300 L 319 300 L 329 386 L 596 386 L 584 281 C 572 187 541 115 492 65 C 443 15 378 -10 297 -10 Z M 406 893 C 343 893 294 909 258 942 C 222 974 208 1027 217 1101 L 312 1101 C 306 1053 312 1019 330 999 C 347 979 376 970 416 970 C 456 970 487 979 509 999 C 531 1019 545 1053 552 1101 L 647 1101 C 637 1027 610 974 566 942 C 522 909 468 893 406 893 Z" unicode="Ğ" />
<glyph horiz-adv-x="662" d="M 552 -49 C 545 -103 522 -143 482 -170 C 442 -196 396 -210 343 -210 L 171 -210 C 115 -210 70 -198 38 -174 C 5 -150 -8 -113 -2 -63 C 2 -31 13 -5 31 13 C 49 32 74 43 104 46 L 106 67 C 85 71 69 80 57 96 C 45 111 41 135 45 167 C 48 195 59 221 79 244 C 99 266 128 279 168 283 L 170 302 C 142 312 123 329 115 351 C 107 373 104 393 107 413 L 110 441 C 116 487 138 525 178 555 C 218 585 271 600 337 600 L 611 600 L 600 511 L 460 535 L 457 516 C 480 508 497 494 507 474 C 517 453 522 432 520 412 L 516 385 C 510 339 489 301 452 273 C 415 245 361 231 289 231 L 180 231 C 163 231 150 226 140 217 C 130 208 124 193 122 171 C 119 150 123 134 134 124 C 144 114 161 109 185 109 L 391 109 C 443 109 484 96 515 72 C 546 47 558 7 552 -49 Z M 302 306 C 338 306 367 313 388 328 C 408 342 421 366 425 399 L 429 430 C 433 462 426 485 409 499 C 391 513 364 521 328 521 C 291 521 262 513 242 499 C 221 485 209 462 205 430 L 201 399 C 197 366 203 342 221 328 C 238 313 265 306 302 306 Z M 179 -132 L 364 -132 C 390 -132 413 -126 431 -114 C 449 -102 460 -82 464 -54 C 467 -27 462 -8 449 3 C 435 15 416 21 392 21 L 105 21 L 96 -48 C 92 -76 98 -97 112 -111 C 126 -125 148 -132 179 -132 Z M 367 693 C 304 693 255 709 219 742 C 183 774 169 827 178 901 L 273 901 C 267 853 273 819 291 799 C 308 779 337 770 377 770 C 417 770 448 779 470 799 C 492 819 506 853 513 901 L 608 901 C 598 827 571 774 527 742 C 483 709 429 693 367 693 Z" unicode="ğ" />
<glyph horiz-adv-x="662" d="M 297 -10 C 211 -10 148 14 109 64 C 69 113 55 182 66 271 L 97 525 C 108 617 139 687 190 736 C 240 785 307 810 391 810 C 467 810 523 789 557 748 C 591 707 605 644 600 559 L 501 549 C 504 612 496 657 478 683 C 459 709 426 723 379 723 C 321 723 278 708 250 678 C 222 648 203 597 195 526 L 163 270 C 154 200 161 151 183 121 C 205 91 247 77 308 77 C 363 77 404 94 432 128 C 460 162 479 219 489 300 L 319 300 L 329 386 L 596 386 L 584 281 C 572 187 541 115 492 65 C 443 15 378 -10 297 -10 Z M 400 911 C 376 911 357 915 343 923 C 329 931 324 945 327 967 L 328 974 C 330 996 339 1011 355 1019 C 371 1027 391 1032 415 1032 C 439 1032 457 1027 471 1019 C 485 1011 490 996 488 974 L 487 967 C 484 945 475 931 459 923 C 443 915 423 911 400 911 Z" unicode="Ġ" />
<glyph horiz-adv-x="662" d="M 552 -49 C 545 -103 522 -143 482 -170 C 442 -196 396 -210 343 -210 L 171 -210 C 115 -210 70 -198 38 -174 C 5 -150 -8 -113 -2 -63 C 2 -31 13 -5 31 13 C 49 32 74 43 104 46 L 106 67 C 85 71 69 80 57 96 C 45 111 41 135 45 167 C 48 195 59 221 79 244 C 99 266 128 279 168 283 L 170 302 C 142 312 123 329 115 351 C 107 373 104 393 107 413 L 110 441 C 116 487 138 525 178 555 C 218 585 271 600 337 600 L 611 600 L 600 511 L 460 535 L 457 516 C 480 508 497 494 507 474 C 517 453 522 432 520 412 L 516 385 C 510 339 489 301 452 273 C 415 245 361 231 289 231 L 180 231 C 163 231 150 226 140 217 C 130 208 124 193 122 171 C 119 150 123 134 134 124 C 144 114 161 109 185 109 L 391 109 C 443 109 484 96 515 72 C 546 47 558 7 552 -49 Z M 302 306 C 338 306 367 313 388 328 C 408 342 421 366 425 399 L 429 430 C 433 462 426 485 409 499 C 391 513 364 521 328 521 C 291 521 262 513 242 499 C 221 485 209 462 205 430 L 201 399 C 197 366 203 342 221 328 C 238 313 265 306 302 306 Z M 179 -132 L 364 -132 C 390 -132 413 -126 431 -114 C 449 -102 460 -82 464 -54 C 467 -27 462 -8 449 3 C 435 15 416 21 392 21 L 105 21 L 96 -48 C 92 -76 98 -97 112 -111 C 126 -125 148 -132 179 -132 Z M 369 711 C 345 711 326 715 312 723 C 298 731 293 745 296 767 L 297 774 C 299 796 308 811 324 819 C 340 827 360 832 384 832 C 408 832 426 827 440 819 C 454 811 459 796 457 774 L 456 767 C 453 745 444 731 428 723 C 412 715 392 711 369 711 Z" unicode="ġ" />
<glyph horiz-adv-x="662" d="M 129 -300 L 241 -100 L 384 -100 L 215 -300 L 129 -300 Z M 297 -10 C 211 -10 148 14 109 64 C 69 113 55 182 66 271 L 97 525 C 108 617 139 687 190 736 C 240 785 307 810 391 810 C 467 810 523 789 557 748 C 591 707 605 644 600 559 L 501 549 C 504 612 496 657 478 683 C 459 709 426 723 379 723 C 321 723 278 708 250 678 C 222 648 203 597 195 526 L 163 270 C 154 200 161 151 183 121 C 205 91 247 77 308 77 C 363 77 404 94 432 128 C 460 162 479 219 489 300 L 319 300 L 329 386 L 596 386 L 584 281 C 572 187 541 115 492 65 C 443 15 378 -10 297 -10 Z" unicode="Ģ" />
<glyph horiz-adv-x="662" d="M 552 -49 C 545 -103 522 -143 482 -170 C 442 -196 396 -210 343 -210 L 171 -210 C 115 -210 70 -198 38 -174 C 5 -150 -8 -113 -2 -63 C 2 -31 13 -5 31 13 C 49 32 74 43 104 46 L 106 67 C 85 71 69 80 57 96 C 45 111 41 135 45 167 C 48 195 59 221 79 244 C 99 266 128 279 168 283 L 170 302 C 142 312 123 329 115 351 C 107 373 104 393 107 413 L 110 441 C 116 487 138 525 178 555 C 218 585 271 600 337 600 L 611 600 L 600 511 L 460 535 L 457 516 C 480 508 497 494 507 474 C 517 453 522 432 520 412 L 516 385 C 510 339 489 301 452 273 C 415 245 361 231 289 231 L 180 231 C 163 231 150 226 140 217 C 130 208 124 193 122 171 C 119 150 123 134 134 124 C 144 114 161 109 185 109 L 391 109 C 443 109 484 96 515 72 C 546 47 558 7 552 -49 Z M 302 306 C 338 306 367 313 388 328 C 408 342 421 366 425 399 L 429 430 C 433 462 426 485 409 499 C 391 513 364 521 328 521 C 291 521 262 513 242 499 C 221 485 209 462 205 430 L 201 399 C 197 366 203 342 221 328 C 238 313 265 306 302 306 Z M 179 -132 L 364 -132 C 390 -132 413 -126 431 -114 C 449 -102 460 -82 464 -54 C 467 -27 462 -8 449 3 C 435 15 416 21 392 21 L 105 21 L 96 -48 C 92 -76 98 -97 112 -111 C 126 -125 148 -132 179 -132 Z M 280 700 L 449 900 L 534 900 L 423 700 L 280 700 Z" unicode="ģ" />
<glyph horiz-adv-x="662" d="M 50 0 L 148 800 L 245 800 L 206 478 L 476 478 L 515 800 L 612 800 L 514 0 L 417 0 L 465 391 L 195 391 L 147 0 L 50 0 Z M 231 908 L 199 968 L 380 1116 L 450 1116 L 597 968 L 551 908 L 404 1022 L 231 908 Z" unicode="Ĥ" />
<glyph horiz-adv-x="662" d="M 51 0 L 149 800 L 245 800 L 209 507 L 237 507 C 253 538 277 563 309 582 C 340 600 374 610 412 610 C 466 610 506 592 534 556 C 561 520 571 471 563 411 L 513 0 L 417 0 L 465 392 C 470 433 465 464 449 486 C 433 507 409 518 375 518 C 347 518 317 509 287 493 C 257 476 227 451 198 419 L 147 0 L 51 0 Z M 53 908 L 21 968 L 202 1116 L 272 1116 L 419 968 L 373 908 L 226 1022 L 53 908 Z" unicode="ĥ" />
<glyph horiz-adv-x="662" d="M 200 431 L 470 431 L 486 561 L 216 561 L 200 431 Z M 189 344 L 147 0 L 50 0 L 119 561 L 27 561 L 38 649 L 130 649 L 148 800 L 245 800 L 227 649 L 497 649 L 515 800 L 612 800 L 594 649 L 686 649 L 675 561 L 583 561 L 514 0 L 417 0 L 459 344 L 189 344 Z" unicode="Ħ" />
<glyph horiz-adv-x="662" d="M 192 366 L 147 0 L 51 0 L 129 632 L 37 632 L 46 711 L 138 711 L 149 800 L 245 800 L 234 711 L 416 711 L 407 632 L 225 632 L 203 455 L 231 455 C 247 487 272 513 305 532 C 338 551 374 561 413 561 C 465 561 504 544 530 512 C 556 480 566 436 560 382 L 513 0 L 417 0 L 461 360 C 465 396 460 423 445 441 C 430 459 405 469 369 469 C 340 469 311 460 282 443 C 252 426 222 400 192 366 Z" unicode="ħ" />
<glyph horiz-adv-x="662" d="M 50 0 L 61 87 L 245 87 L 322 713 L 138 713 L 148 800 L 612 800 L 602 713 L 419 713 L 342 87 L 525 87 L 514 0 L 50 0 Z M 464 910 C 441 910 423 916 411 928 C 398 940 387 953 378 968 C 369 982 361 996 353 1008 C 345 1020 336 1026 325 1026 C 313 1026 302 1019 292 1005 C 282 991 276 967 273 931 L 271 920 L 197 920 L 199 935 C 205 985 220 1026 246 1059 C 271 1092 303 1109 343 1109 C 367 1109 386 1103 399 1091 C 412 1079 423 1065 432 1051 C 441 1036 449 1023 455 1011 C 461 999 470 993 481 993 C 493 993 503 999 513 1013 C 523 1027 530 1052 535 1088 L 536 1099 L 609 1099 L 608 1084 C 601 1033 585 991 560 959 C 535 926 503 910 464 910 Z" unicode="Ĩ" />
<glyph horiz-adv-x="662" d="M 51 0 L 62 87 L 245 87 L 297 513 L 114 513 L 125 600 L 405 600 L 342 87 L 524 87 L 513 0 L 51 0 Z M 442 710 C 419 710 401 716 389 728 C 376 740 365 753 356 768 C 347 782 339 796 331 808 C 323 820 314 826 303 826 C 291 826 280 819 270 805 C 260 791 254 767 251 731 L 249 720 L 175 720 L 177 735 C 183 785 198 826 224 859 C 249 892 281 909 321 909 C 345 909 364 903 377 891 C 390 879 401 865 410 851 C 419 836 427 823 433 811 C 439 799 448 793 459 793 C 471 793 481 799 491 813 C 501 827 508 852 513 888 L 514 899 L 587 899 L 586 884 C 579 833 563 791 538 759 C 513 726 481 710 442 710 Z" unicode="ĩ" />
<glyph horiz-adv-x="662" d="M 50 0 L 61 87 L 245 87 L 322 713 L 138 713 L 148 800 L 612 800 L 602 713 L 419 713 L 342 87 L 525 87 L 514 0 L 50 0 Z M 212 957 L 223 1043 L 593 1043 L 582 957 L 212 957 Z" unicode="Ī" />
<glyph horiz-adv-x="662" d="M 51 0 L 62 87 L 245 87 L 297 513 L 114 513 L 125 600 L 405 600 L 342 87 L 524 87 L 513 0 L 51 0 Z M 190 757 L 201 843 L 571 843 L 560 757 L 190 757 Z" unicode="ī" />
<glyph horiz-adv-x="662" d="M 50 0 L 61 87 L 245 87 L 322 713 L 138 713 L 148 800 L 612 800 L 602 713 L 419 713 L 342 87 L 525 87 L 514 0 L 50 0 Z M 389 893 C 326 893 277 909 241 942 C 205 974 191 1027 200 1101 L 295 1101 C 289 1053 295 1019 313 999 C 330 979 359 970 399 970 C 439 970 470 979 492 999 C 514 1019 528 1053 535 1101 L 630 1101 C 620 1027 593 974 549 942 C 505 909 451 893 389 893 Z" unicode="Ĭ" />
<glyph horiz-adv-x="662" d="M 51 0 L 62 87 L 245 87 L 297 513 L 114 513 L 125 600 L 405 600 L 342 87 L 524 87 L 513 0 L 51 0 Z M 367 693 C 304 693 255 709 219 742 C 183 774 169 827 178 901 L 273 901 C 267 853 273 819 291 799 C 308 779 337 770 377 770 C 417 770 448 779 470 799 C 492 819 506 853 513 901 L 608 901 C 598 827 571 774 527 742 C 483 709 429 693 367 693 Z" unicode="ĭ" />
<glyph horiz-adv-x="662" d="M 50 0 L 61 87 L 245 87 L 322 713 L 138 713 L 148 800 L 612 800 L 602 713 L 419 713 L 342 87 L 525 87 L 514 0 L 50 0 Z M 324 -215 C 284 -215 252 -204 228 -183 C 204 -161 194 -132 199 -96 C 203 -64 218 -35 245 -10 C 271 14 300 33 331 45 L 353 23 C 330 9 314 -6 304 -23 C 294 -40 289 -55 288 -69 C 285 -87 289 -101 300 -111 C 310 -121 326 -126 347 -126 C 357 -126 371 -125 388 -123 C 404 -121 418 -118 430 -116 L 419 -205 C 405 -207 390 -210 372 -212 C 354 -214 338 -215 324 -215 Z" unicode="Į" />
<glyph horiz-adv-x="662" d="M 370 711 C 346 711 327 715 313 723 C 299 731 294 745 297 767 L 298 774 C 300 796 309 811 325 819 C 341 827 361 832 385 832 C 409 832 427 827 441 819 C 455 811 460 796 458 774 L 457 767 C 454 745 445 731 429 723 C 413 715 393 711 370 711 Z M 51 0 L 62 87 L 245 87 L 297 513 L 114 513 L 125 600 L 405 600 L 342 87 L 524 87 L 513 0 L 51 0 Z M 337 -215 C 297 -215 265 -204 241 -183 C 217 -161 207 -132 212 -96 C 216 -64 231 -35 258 -10 C 284 14 313 33 344 45 L 366 23 C 343 9 327 -6 317 -23 C 307 -40 302 -55 301 -69 C 298 -87 302 -101 313 -111 C 323 -121 339 -126 360 -126 C 370 -126 384 -125 401 -123 C 417 -121 431 -118 443 -116 L 432 -205 C 418 -207 403 -210 385 -212 C 367 -214 351 -215 337 -215 Z" unicode="į" />
<glyph horiz-adv-x="662" d="M 50 0 L 61 87 L 245 87 L 322 713 L 138 713 L 148 800 L 612 800 L 602 713 L 419 713 L 342 87 L 525 87 L 514 0 L 50 0 Z M 391 911 C 367 911 348 915 334 923 C 320 931 315 945 318 967 L 319 974 C 321 996 330 1011 346 1019 C 362 1027 382 1032 406 1032 C 430 1032 448 1027 462 1019 C 476 1011 481 996 479 974 L 478 967 C 475 945 466 931 450 923 C 434 915 414 911 391 911 Z" unicode="İ" />
<glyph horiz-adv-x="662" d="M 51 0 L 62 87 L 245 87 L 297 513 L 114 513 L 125 600 L 405 600 L 342 87 L 524 87 L 513 0 L 51 0 Z" unicode="ı" />
<glyph horiz-adv-x="662" d="M 109 0 L 15 0 L 113 800 L 207 800 L 109 0 Z M 365 -10 C 309 -10 268 9 242 48 C 216 87 206 156 214 256 L 310 267 C 305 191 307 141 315 116 C 323 90 344 78 376 78 C 410 78 435 93 452 123 C 468 153 479 192 485 240 L 544 713 L 373 713 L 383 800 L 648 800 L 580 242 C 570 163 547 101 512 57 C 477 12 428 -10 365 -10 Z" unicode="Ĳ" />
<glyph horiz-adv-x="662" d="M 203 711 C 179 711 160 715 146 723 C 132 731 127 745 130 767 L 131 774 C 133 796 142 811 158 819 C 174 827 194 832 218 832 C 242 832 260 827 274 819 C 287 811 292 796 290 774 L 289 767 C 286 745 277 731 261 723 C 245 715 226 711 203 711 Z M 550 711 C 526 711 507 715 493 723 C 479 731 474 745 477 767 L 478 774 C 480 796 489 811 505 819 C 521 827 541 832 565 832 C 589 832 607 827 621 819 C 635 811 640 796 638 774 L 637 767 C 634 745 625 731 609 723 C 593 715 573 711 550 711 Z M 164 0 L 68 0 L 142 600 L 238 600 L 164 0 Z M 283 -208 C 262 -208 242 -206 222 -203 C 202 -199 181 -194 159 -186 L 189 -92 C 207 -100 225 -105 241 -109 C 257 -112 274 -114 291 -114 C 325 -114 353 -104 376 -86 C 399 -67 413 -36 419 7 L 481 513 L 362 513 L 373 600 L 588 600 L 513 -6 C 505 -74 479 -125 435 -158 C 391 -191 341 -208 283 -208 Z" unicode="ĳ" />
<glyph horiz-adv-x="662" d="M 263 -10 C 180 -10 121 11 87 53 C 52 95 38 163 45 255 L 144 266 C 139 190 145 140 163 115 C 181 89 218 77 274 77 C 324 77 364 91 393 120 C 421 148 439 192 447 252 L 504 713 L 319 713 L 329 800 L 611 800 L 544 253 C 533 167 504 102 456 57 C 408 12 344 -10 263 -10 Z M 312 908 L 280 968 L 461 1116 L 531 1116 L 678 968 L 632 908 L 485 1022 L 312 908 Z" unicode="Ĵ" />
<glyph horiz-adv-x="662" d="M 170 -208 C 146 -208 123 -206 101 -203 C 78 -200 54 -194 28 -186 L 58 -92 C 79 -100 99 -106 119 -109 C 139 -112 158 -114 178 -114 C 218 -114 251 -104 278 -86 C 304 -67 320 -36 326 7 L 388 513 L 132 513 L 143 600 L 496 600 L 421 -6 C 413 -74 385 -125 337 -158 C 289 -191 234 -208 170 -208 Z M 269 708 L 237 768 L 418 916 L 488 916 L 635 768 L 589 708 L 442 822 L 269 708 Z" unicode="ĵ" />
<glyph horiz-adv-x="662" d="M 194 382 L 147 0 L 50 0 L 148 800 L 245 800 L 205 469 L 236 469 L 554 800 L 665 800 L 307 432 L 564 0 L 450 0 L 228 382 L 194 382 Z M 121 -300 L 233 -100 L 376 -100 L 207 -300 L 121 -300 Z" unicode="Ķ" />
<glyph horiz-adv-x="662" d="M 225 274 L 191 0 L 94 0 L 192 800 L 289 800 L 235 356 L 281 356 L 486 600 L 602 600 L 352 321 L 525 0 L 415 0 L 271 274 L 225 274 Z M 115 -300 L 227 -100 L 370 -100 L 201 -300 L 115 -300 Z" unicode="ķ" />
<glyph horiz-adv-x="662" d="M 225 274 L 191 0 L 94 0 L 168 600 L 265 600 L 235 356 L 281 356 L 486 600 L 602 600 L 352 321 L 525 0 L 415 0 L 271 274 L 225 274 Z" unicode="ĸ" />
<glyph horiz-adv-x="662" d="M 96 0 L 194 800 L 291 800 L 204 87 L 525 87 L 514 0 L 96 0 Z M 235 900 L 384 1100 L 526 1100 L 321 900 L 235 900 Z" unicode="Ĺ" />
<glyph horiz-adv-x="662" d="M 52 0 L 63 87 L 246 87 L 323 713 L 140 713 L 150 800 L 430 800 L 343 87 L 525 87 L 514 0 L 52 0 Z M 275 900 L 424 1100 L 566 1100 L 361 900 L 275 900 Z" unicode="ĺ" />
<glyph horiz-adv-x="662" d="M 96 0 L 194 800 L 291 800 L 204 87 L 525 87 L 514 0 L 96 0 Z M 135 -300 L 247 -100 L 390 -100 L 221 -300 L 135 -300 Z" unicode="Ļ" />
<glyph horiz-adv-x="662" d="M 52 0 L 63 87 L 246 87 L 323 713 L 140 713 L 150 800 L 430 800 L 343 87 L 525 87 L 514 0 L 52 0 Z M 98 -300 L 210 -100 L 353 -100 L 184 -300 L 98 -300 Z" unicode="ļ" />
<glyph horiz-adv-x="662" d="M 96 0 L 194 800 L 291 800 L 204 87 L 525 87 L 514 0 L 96 0 Z M 399 505 L 508 800 L 648 800 L 468 505 L 399 505 Z" unicode="Ľ" />
<glyph horiz-adv-x="662" d="M 52 0 L 63 87 L 246 87 L 323 713 L 140 713 L 150 800 L 430 800 L 343 87 L 525 87 L 514 0 L 52 0 Z M 480 705 L 589 1000 L 729 1000 L 549 705 L 480 705 Z" unicode="ľ" />
<glyph horiz-adv-x="662" d="M 96 0 L 194 800 L 291 800 L 204 87 L 525 87 L 514 0 L 96 0 Z M 589 412 C 565 412 546 416 532 424 C 518 432 513 446 516 468 L 517 475 C 519 497 528 512 544 520 C 560 528 580 533 604 533 C 628 533 646 528 660 520 C 674 512 679 497 677 475 L 676 468 C 673 446 664 432 648 424 C 632 416 612 412 589 412 Z" unicode="Ŀ" />
<glyph horiz-adv-x="662" d="M 52 0 L 63 87 L 246 87 L 323 713 L 140 713 L 150 800 L 430 800 L 343 87 L 525 87 L 514 0 L 52 0 Z M 664 309 C 640 309 621 313 607 321 C 593 329 588 343 591 365 L 592 372 C 594 394 603 409 619 417 C 635 425 655 430 679 430 C 703 430 721 425 735 417 C 749 409 754 394 752 372 L 751 365 C 748 343 739 329 723 321 C 707 313 687 309 664 309 Z" unicode="ŀ" />
<glyph horiz-adv-x="662" d="M 96 0 L 140 362 L 47 332 L 56 409 L 150 439 L 194 800 L 291 800 L 251 471 L 488 548 L 479 471 L 241 394 L 204 87 L 525 87 L 514 0 L 96 0 Z" unicode="Ł" />
<glyph horiz-adv-x="662" d="M 52 0 L 63 87 L 246 87 L 278 353 L 134 312 L 144 389 L 288 430 L 323 713 L 140 713 L 150 800 L 430 800 L 388 459 L 527 499 L 518 421 L 379 381 L 343 87 L 525 87 L 514 0 L 52 0 Z" unicode="ł" />
<glyph horiz-adv-x="662" d="M 378 0 L 220 680 L 137 0 L 50 0 L 148 800 L 278 800 L 441 110 L 525 800 L 612 800 L 514 0 L 378 0 Z M 303 900 L 452 1100 L 594 1100 L 389 900 L 303 900 Z" unicode="Ń" />
<glyph horiz-adv-x="662" d="M 51 0 L 125 600 L 221 600 L 209 507 L 237 507 C 255 539 280 564 312 582 C 343 600 377 610 413 610 C 467 610 507 592 534 556 C 561 520 571 472 563 410 L 513 0 L 417 0 L 465 391 C 470 433 465 464 449 486 C 433 507 409 518 375 518 C 347 518 317 509 287 492 C 257 475 227 450 198 418 L 147 0 L 51 0 Z M 281 700 L 430 900 L 572 900 L 367 700 L 281 700 Z" unicode="ń" />
<glyph horiz-adv-x="662" d="M 103 -300 L 215 -100 L 358 -100 L 189 -300 L 103 -300 Z M 378 0 L 220 680 L 137 0 L 50 0 L 148 800 L 278 800 L 441 110 L 525 800 L 612 800 L 514 0 L 378 0 Z" unicode="Ņ" />
<glyph horiz-adv-x="662" d="M 120 -300 L 232 -100 L 375 -100 L 206 -300 L 120 -300 Z M 51 0 L 125 600 L 221 600 L 209 507 L 237 507 C 255 539 280 564 312 582 C 343 600 377 610 413 610 C 467 610 507 592 534 556 C 561 520 571 472 563 410 L 513 0 L 417 0 L 465 391 C 470 433 465 464 449 486 C 433 507 409 518 375 518 C 347 518 317 509 287 492 C 257 475 227 450 198 418 L 147 0 L 51 0 Z" unicode="ņ" />
<glyph horiz-adv-x="662" d="M 378 0 L 220 680 L 137 0 L 50 0 L 148 800 L 278 800 L 441 110 L 525 800 L 612 800 L 514 0 L 378 0 Z M 373 904 L 227 1052 L 273 1112 L 420 999 L 593 1112 L 625 1052 L 443 904 L 373 904 Z" unicode="Ň" />
<glyph horiz-adv-x="662" d="M 51 0 L 125 600 L 221 600 L 209 507 L 237 507 C 255 539 280 564 312 582 C 343 600 377 610 413 610 C 467 610 507 592 534 556 C 561 520 571 472 563 410 L 513 0 L 417 0 L 465 391 C 470 433 465 464 449 486 C 433 507 409 518 375 518 C 347 518 317 509 287 492 C 257 475 227 450 198 418 L 147 0 L 51 0 Z M 353 704 L 207 852 L 253 912 L 400 799 L 573 912 L 605 852 L 423 704 L 353 704 Z" unicode="ň" />
<glyph horiz-adv-x="662" d="M 51 0 L 125 600 L 221 600 L 209 507 L 237 507 C 255 539 280 564 312 582 C 343 600 377 610 413 610 C 467 610 507 592 534 556 C 561 520 571 472 563 410 L 513 0 L 417 0 L 465 391 C 470 433 465 464 449 486 C 433 507 409 518 375 518 C 347 518 317 509 287 492 C 257 475 227 450 198 418 L 147 0 L 51 0 Z M 33 700 L 182 900 L 324 900 L 119 700 L 33 700 Z" unicode="ŉ" />
<glyph horiz-adv-x="662" d="M 274 -208 C 252 -208 229 -204 207 -198 C 185 -192 161 -184 136 -175 L 165 -81 C 188 -91 209 -99 227 -105 C 245 -111 264 -114 282 -114 C 318 -114 348 -101 374 -76 C 399 -50 415 -9 423 49 L 489 585 C 494 631 488 665 471 686 C 453 707 429 718 399 718 C 365 718 335 707 309 687 C 283 666 253 638 221 602 L 147 0 L 50 0 L 148 800 L 245 800 L 232 691 L 259 691 C 278 727 304 756 337 778 C 370 799 405 810 443 810 C 495 810 534 791 560 755 C 586 719 596 669 589 607 L 518 36 C 508 -44 481 -105 436 -146 C 390 -187 336 -208 274 -208 Z" unicode="Ŋ" />
<glyph horiz-adv-x="662" d="M 300 -208 C 282 -208 263 -206 244 -202 C 225 -198 206 -192 186 -186 L 216 -92 C 232 -98 247 -104 263 -108 C 279 -112 294 -114 308 -114 C 336 -114 360 -105 380 -87 C 400 -69 412 -40 417 0 L 467 404 C 471 442 466 470 451 489 C 435 508 410 518 375 518 C 346 518 317 509 288 493 C 258 476 228 451 198 418 L 147 0 L 51 0 L 125 600 L 221 600 L 209 507 L 237 507 C 255 539 281 564 313 582 C 345 600 380 610 418 610 C 470 610 510 593 536 560 C 562 527 572 482 565 426 L 511 -13 C 503 -79 479 -128 439 -160 C 399 -192 353 -208 300 -208 Z" unicode="ŋ" />
<glyph horiz-adv-x="662" d="M 281 -10 C 199 -10 140 14 104 62 C 68 110 55 180 66 272 L 97 524 C 109 617 139 688 187 737 C 235 785 300 810 382 810 C 462 810 521 785 558 737 C 594 688 607 617 595 524 L 564 272 C 553 180 523 110 475 62 C 427 14 362 -10 281 -10 Z M 291 77 C 346 77 387 91 414 121 C 440 150 458 200 467 271 L 498 525 C 507 597 502 648 483 678 C 463 708 426 723 371 723 C 315 723 274 708 248 678 C 221 648 203 597 194 525 L 163 271 C 154 200 159 150 179 121 C 198 91 235 77 291 77 Z M 212 957 L 223 1043 L 593 1043 L 582 957 L 212 957 Z" unicode="Ō" />
<glyph horiz-adv-x="662" d="M 281 -10 C 207 -10 152 9 117 47 C 81 85 68 139 77 210 L 98 386 C 107 457 134 512 179 551 C 223 590 283 610 358 610 C 431 610 485 590 521 551 C 556 512 569 457 560 386 L 539 211 C 530 139 503 85 459 47 C 414 9 355 -10 281 -10 Z M 291 77 C 336 77 371 87 396 109 C 421 130 437 164 443 210 L 464 386 C 470 432 463 467 443 489 C 423 511 391 523 346 523 C 300 523 265 511 240 489 C 215 467 200 432 194 386 L 173 210 C 167 164 173 130 193 109 C 213 87 245 77 291 77 Z M 190 757 L 201 843 L 571 843 L 560 757 L 190 757 Z" unicode="ō" />
<glyph horiz-adv-x="662" d="M 281 -10 C 199 -10 140 14 104 62 C 68 110 55 180 66 272 L 97 524 C 109 617 139 688 187 737 C 235 785 300 810 382 810 C 462 810 521 785 558 737 C 594 688 607 617 595 524 L 564 272 C 553 180 523 110 475 62 C 427 14 362 -10 281 -10 Z M 291 77 C 346 77 387 91 414 121 C 440 150 458 200 467 271 L 498 525 C 507 597 502 648 483 678 C 463 708 426 723 371 723 C 315 723 274 708 248 678 C 221 648 203 597 194 525 L 163 271 C 154 200 159 150 179 121 C 198 91 235 77 291 77 Z M 389 893 C 326 893 277 909 241 942 C 205 974 191 1027 200 1101 L 295 1101 C 289 1053 295 1019 313 999 C 330 979 359 970 399 970 C 439 970 470 979 492 999 C 514 1019 528 1053 535 1101 L 630 1101 C 620 1027 593 974 549 942 C 505 909 451 893 389 893 Z" unicode="Ŏ" />
<glyph horiz-adv-x="662" d="M 281 -10 C 207 -10 152 9 117 47 C 81 85 68 139 77 210 L 98 386 C 107 457 134 512 179 551 C 223 590 283 610 358 610 C 431 610 485 590 521 551 C 556 512 569 457 560 386 L 539 211 C 530 139 503 85 459 47 C 414 9 355 -10 281 -10 Z M 291 77 C 336 77 371 87 396 109 C 421 130 437 164 443 210 L 464 386 C 470 432 463 467 443 489 C 423 511 391 523 346 523 C 300 523 265 511 240 489 C 215 467 200 432 194 386 L 173 210 C 167 164 173 130 193 109 C 213 87 245 77 291 77 Z M 368 693 C 305 693 256 709 220 742 C 184 774 170 827 179 901 L 274 901 C 268 853 274 819 292 799 C 309 779 338 770 378 770 C 418 770 449 779 471 799 C 493 819 507 853 514 901 L 609 901 C 599 827 572 774 528 742 C 484 709 430 693 368 693 Z" unicode="ŏ" />
<glyph horiz-adv-x="662" d="M 281 -10 C 199 -10 140 14 104 62 C 68 110 55 180 66 272 L 97 524 C 109 617 139 688 187 737 C 235 785 300 810 382 810 C 462 810 521 785 558 737 C 594 688 607 617 595 524 L 564 272 C 553 180 523 110 475 62 C 427 14 362 -10 281 -10 Z M 291 77 C 346 77 387 91 414 121 C 440 150 458 200 467 271 L 498 525 C 507 597 502 648 483 678 C 463 708 426 723 371 723 C 315 723 274 708 248 678 C 221 648 203 597 194 525 L 163 271 C 154 200 159 150 179 121 C 198 91 235 77 291 77 Z M 442 900 L 518 1100 L 649 1100 L 508 900 L 442 900 Z M 231 900 L 306 1100 L 438 1100 L 297 900 L 231 900 Z" unicode="Ő" />
<glyph horiz-adv-x="662" d="M 281 -10 C 207 -10 152 9 117 47 C 81 85 68 139 77 210 L 98 386 C 107 457 134 512 179 551 C 223 590 283 610 358 610 C 431 610 485 590 521 551 C 556 512 569 457 560 386 L 539 211 C 530 139 503 85 459 47 C 414 9 355 -10 281 -10 Z M 291 77 C 336 77 371 87 396 109 C 421 130 437 164 443 210 L 464 386 C 470 432 463 467 443 489 C 423 511 391 523 346 523 C 300 523 265 511 240 489 C 215 467 200 432 194 386 L 173 210 C 167 164 173 130 193 109 C 213 87 245 77 291 77 Z M 419 700 L 495 900 L 626 900 L 485 700 L 419 700 Z M 208 700 L 283 900 L 415 900 L 274 700 L 208 700 Z" unicode="ő" />
<glyph horiz-adv-x="662" d="M 209 0 C 134 0 79 25 43 75 C 7 125 -5 193 5 277 L 35 519 C 45 604 74 672 122 723 C 170 774 232 800 306 800 L 700 800 L 691 723 L 465 723 L 435 479 L 659 479 L 649 402 L 425 402 L 385 77 L 611 77 L 602 0 L 209 0 Z M 219 76 L 299 76 L 379 724 L 299 724 C 247 724 207 705 177 668 C 147 630 129 581 122 520 L 92 276 C 84 214 91 166 111 130 C 131 94 167 76 219 76 Z" unicode="Œ" />
<glyph horiz-adv-x="662" d="M 592 133 C 580 84 560 48 532 25 C 504 1 465 -10 415 -10 C 383 -10 356 -3 334 8 C 312 20 296 39 287 65 C 269 39 248 20 225 8 C 201 -3 176 -10 148 -10 C 100 -10 63 8 38 44 C 13 80 5 136 15 212 L 36 384 C 45 460 67 516 101 554 C 135 591 177 610 225 610 C 253 610 277 603 297 591 C 317 579 333 560 344 535 C 359 560 379 579 403 591 C 427 603 453 610 482 610 C 532 610 571 594 598 562 C 624 530 634 480 626 413 L 610 281 L 356 281 L 343 176 C 337 136 340 107 352 89 C 364 71 384 62 413 62 C 442 62 463 67 477 78 C 491 88 502 109 510 140 L 592 133 Z M 372 419 L 363 344 L 531 344 L 539 410 C 544 454 541 486 530 506 C 519 526 499 537 471 537 C 443 537 420 527 404 508 C 388 488 377 459 372 419 Z M 167 67 C 195 67 218 78 234 100 C 250 122 262 160 269 212 L 290 384 C 296 435 294 473 283 497 C 272 521 252 533 224 533 C 196 533 173 521 157 497 C 140 473 128 435 122 384 L 101 212 C 94 160 96 122 108 100 C 119 78 139 67 167 67 Z" unicode="œ" />
<glyph horiz-adv-x="662" d="M 196 396 L 374 396 C 422 396 457 406 481 427 C 504 447 519 481 525 528 L 532 590 C 538 634 531 665 513 684 C 494 703 461 713 413 713 L 235 713 L 196 396 Z M 147 0 L 50 0 L 148 800 L 426 800 C 502 800 557 782 591 747 C 625 712 637 660 629 590 L 622 528 C 614 464 593 414 559 379 C 525 343 478 322 418 315 L 566 0 L 456 0 L 310 312 L 185 312 L 147 0 Z M 350 900 L 499 1100 L 641 1100 L 436 900 L 350 900 Z" unicode="Ŕ" />
<glyph horiz-adv-x="662" d="M 95 0 L 169 600 L 266 600 L 254 504 L 281 504 C 298 540 321 567 350 584 C 378 601 411 610 449 610 C 491 610 523 595 547 566 C 571 537 579 496 573 443 L 562 351 L 470 351 L 477 408 C 481 446 477 473 465 491 C 452 509 430 518 398 518 C 369 518 342 510 316 495 C 290 479 266 456 244 425 L 192 0 L 95 0 Z M 298 700 L 447 900 L 589 900 L 384 700 L 298 700 Z" unicode="ŕ" />
<glyph horiz-adv-x="662" d="M 196 396 L 374 396 C 422 396 457 406 481 427 C 504 447 519 481 525 528 L 532 590 C 538 634 531 665 513 684 C 494 703 461 713 413 713 L 235 713 L 196 396 Z M 147 0 L 50 0 L 148 800 L 426 800 C 502 800 557 782 591 747 C 625 712 637 660 629 590 L 622 528 C 614 464 593 414 559 379 C 525 343 478 322 418 315 L 566 0 L 456 0 L 310 312 L 185 312 L 147 0 Z M 106 -300 L 218 -100 L 361 -100 L 192 -300 L 106 -300 Z" unicode="Ŗ" />
<glyph horiz-adv-x="662" d="M 95 0 L 169 600 L 266 600 L 254 504 L 281 504 C 298 540 321 567 350 584 C 378 601 411 610 449 610 C 491 610 523 595 547 566 C 571 537 579 496 573 443 L 562 351 L 470 351 L 477 408 C 481 446 477 473 465 491 C 452 509 430 518 398 518 C 369 518 342 510 316 495 C 290 479 266 456 244 425 L 192 0 L 95 0 Z M -11 -300 L 101 -100 L 244 -100 L 75 -300 L -11 -300 Z" unicode="ŗ" />
<glyph horiz-adv-x="662" d="M 196 396 L 374 396 C 422 396 457 406 481 427 C 504 447 519 481 525 528 L 532 590 C 538 634 531 665 513 684 C 494 703 461 713 413 713 L 235 713 L 196 396 Z M 147 0 L 50 0 L 148 800 L 426 800 C 502 800 557 782 591 747 C 625 712 637 660 629 590 L 622 528 C 614 464 593 414 559 379 C 525 343 478 322 418 315 L 566 0 L 456 0 L 310 312 L 185 312 L 147 0 Z M 360 904 L 214 1052 L 260 1112 L 407 999 L 580 1112 L 612 1052 L 430 904 L 360 904 Z" unicode="Ř" />
<glyph horiz-adv-x="662" d="M 95 0 L 169 600 L 266 600 L 254 504 L 281 504 C 298 540 321 567 350 584 C 378 601 411 610 449 610 C 491 610 523 595 547 566 C 571 537 579 496 573 443 L 562 351 L 470 351 L 477 408 C 481 446 477 473 465 491 C 452 509 430 518 398 518 C 369 518 342 510 316 495 C 290 479 266 456 244 425 L 192 0 L 95 0 Z M 370 704 L 224 852 L 270 912 L 417 799 L 590 912 L 622 852 L 440 704 L 370 704 Z" unicode="ř" />
<glyph horiz-adv-x="662" d="M 291 -7 C 237 -7 187 2 141 20 C 95 38 57 69 26 112 L 91 182 C 115 148 145 122 181 105 C 217 88 259 80 307 80 C 353 80 391 91 422 115 C 452 138 470 170 476 211 C 480 248 472 277 450 297 C 428 317 382 340 313 365 C 227 394 170 425 141 458 C 111 491 100 537 108 595 C 116 662 143 714 191 750 C 239 786 296 804 362 804 C 412 804 458 794 502 776 C 546 757 582 727 611 686 L 548 614 C 524 648 495 673 460 691 C 425 708 389 717 351 717 C 311 717 278 707 252 689 C 226 671 211 642 207 604 C 203 568 212 540 235 520 C 257 500 306 477 380 452 C 461 424 515 394 543 362 C 571 330 581 285 574 228 C 564 152 532 94 477 54 C 422 13 360 -7 291 -7 Z M 285 900 L 434 1100 L 576 1100 L 371 900 L 285 900 Z" unicode="Ś" />
<glyph horiz-adv-x="662" d="M 290 -10 C 242 -10 197 -3 155 11 C 112 25 75 46 43 75 L 94 152 C 120 128 152 110 188 97 C 224 83 261 77 300 77 C 334 77 366 82 394 94 C 422 105 439 127 443 160 C 446 190 437 211 415 223 C 393 235 352 247 292 257 C 222 268 172 287 141 313 C 110 339 98 379 105 432 C 112 490 138 534 183 564 C 227 594 279 610 337 610 C 380 610 421 602 460 587 C 499 571 534 550 564 524 L 514 447 C 488 469 460 487 428 501 C 396 515 363 523 327 523 C 295 523 267 516 243 504 C 219 491 206 469 202 439 C 198 410 207 389 228 377 C 249 364 290 353 352 343 C 422 331 472 312 503 284 C 533 256 546 217 540 168 C 532 108 504 63 456 34 C 407 4 352 -10 290 -10 Z M 261 700 L 410 900 L 552 900 L 347 700 L 261 700 Z" unicode="ś" />
<glyph horiz-adv-x="662" d="M 291 -7 C 237 -7 187 2 141 20 C 95 38 57 69 26 112 L 91 182 C 115 148 145 122 181 105 C 217 88 259 80 307 80 C 353 80 391 91 422 115 C 452 138 470 170 476 211 C 480 248 472 277 450 297 C 428 317 382 340 313 365 C 227 394 170 425 141 458 C 111 491 100 537 108 595 C 116 662 143 714 191 750 C 239 786 296 804 362 804 C 412 804 458 794 502 776 C 546 757 582 727 611 686 L 548 614 C 524 648 495 673 460 691 C 425 708 389 717 351 717 C 311 717 278 707 252 689 C 226 671 211 642 207 604 C 203 568 212 540 235 520 C 257 500 306 477 380 452 C 461 424 515 394 543 362 C 571 330 581 285 574 228 C 564 152 532 94 477 54 C 422 13 360 -7 291 -7 Z M 232 908 L 200 968 L 381 1116 L 451 1116 L 598 968 L 552 908 L 405 1022 L 232 908 Z" unicode="Ŝ" />
<glyph horiz-adv-x="662" d="M 290 -10 C 242 -10 197 -3 155 11 C 112 25 75 46 43 75 L 94 152 C 120 128 152 110 188 97 C 224 83 261 77 300 77 C 334 77 366 82 394 94 C 422 105 439 127 443 160 C 446 190 437 211 415 223 C 393 235 352 247 292 257 C 222 268 172 287 141 313 C 110 339 98 379 105 432 C 112 490 138 534 183 564 C 227 594 279 610 337 610 C 380 610 421 602 460 587 C 499 571 534 550 564 524 L 514 447 C 488 469 460 487 428 501 C 396 515 363 523 327 523 C 295 523 267 516 243 504 C 219 491 206 469 202 439 C 198 410 207 389 228 377 C 249 364 290 353 352 343 C 422 331 472 312 503 284 C 533 256 546 217 540 168 C 532 108 504 63 456 34 C 407 4 352 -10 290 -10 Z M 207 708 L 175 768 L 356 916 L 426 916 L 573 768 L 527 708 L 380 822 L 207 708 Z" unicode="ŝ" />
<glyph horiz-adv-x="662" d="M 291 -7 C 237 -7 187 2 141 20 C 95 38 57 69 26 112 L 91 182 C 115 148 145 122 181 105 C 217 88 259 80 307 80 C 353 80 391 91 422 115 C 452 138 470 170 476 211 C 480 248 472 277 450 297 C 428 317 382 340 313 365 C 227 394 170 425 141 458 C 111 491 100 537 108 595 C 116 662 143 714 191 750 C 239 786 296 804 362 804 C 412 804 458 794 502 776 C 546 757 582 727 611 686 L 548 614 C 524 648 495 673 460 691 C 425 708 389 717 351 717 C 311 717 278 707 252 689 C 226 671 211 642 207 604 C 203 568 212 540 235 520 C 257 500 306 477 380 452 C 461 424 515 394 543 362 C 571 330 581 285 574 228 C 564 152 532 94 477 54 C 422 13 360 -7 291 -7 Z M 255 0 L 279 42 C 309 36 334 22 355 2 C 376 -18 384 -49 380 -91 C 374 -133 356 -165 326 -185 C 295 -205 262 -215 228 -215 C 186 -215 153 -207 129 -191 C 105 -175 94 -149 96 -111 L 183 -101 C 181 -113 184 -122 192 -127 C 200 -132 213 -135 232 -135 C 250 -135 264 -130 274 -122 C 284 -114 291 -98 295 -76 C 297 -52 296 -35 290 -24 C 284 -13 272 -5 255 0 Z" unicode="Ş" />
<glyph horiz-adv-x="662" d="M 290 -10 C 242 -10 197 -3 155 11 C 112 25 75 46 43 75 L 94 152 C 120 128 152 110 188 97 C 224 83 261 77 300 77 C 334 77 366 82 394 94 C 422 105 439 127 443 160 C 446 190 437 211 415 223 C 393 235 352 247 292 257 C 222 268 172 287 141 313 C 110 339 98 379 105 432 C 112 490 138 534 183 564 C 227 594 279 610 337 610 C 380 610 421 602 460 587 C 499 571 534 550 564 524 L 514 447 C 488 469 460 487 428 501 C 396 515 363 523 327 523 C 295 523 267 516 243 504 C 219 491 206 469 202 439 C 198 410 207 389 228 377 C 249 364 290 353 352 343 C 422 331 472 312 503 284 C 533 256 546 217 540 168 C 532 108 504 63 456 34 C 407 4 352 -10 290 -10 Z M 252 0 L 276 42 C 306 36 331 22 352 2 C 373 -18 381 -49 377 -91 C 371 -133 353 -165 323 -185 C 292 -205 259 -215 225 -215 C 183 -215 150 -207 126 -191 C 102 -175 91 -149 93 -111 L 180 -101 C 178 -113 181 -122 189 -127 C 197 -132 210 -135 229 -135 C 247 -135 261 -130 271 -122 C 281 -114 288 -98 292 -76 C 294 -52 293 -35 287 -24 C 281 -13 269 -5 252 0 Z" unicode="ş" />
<glyph horiz-adv-x="662" d="M 291 -7 C 237 -7 187 2 141 20 C 95 38 57 69 26 112 L 91 182 C 115 148 145 122 181 105 C 217 88 259 80 307 80 C 353 80 391 91 422 115 C 452 138 470 170 476 211 C 480 248 472 277 450 297 C 428 317 382 340 313 365 C 227 394 170 425 141 458 C 111 491 100 537 108 595 C 116 662 143 714 191 750 C 239 786 296 804 362 804 C 412 804 458 794 502 776 C 546 757 582 727 611 686 L 548 614 C 524 648 495 673 460 691 C 425 708 389 717 351 717 C 311 717 278 707 252 689 C 226 671 211 642 207 604 C 203 568 212 540 235 520 C 257 500 306 477 380 452 C 461 424 515 394 543 362 C 571 330 581 285 574 228 C 564 152 532 94 477 54 C 422 13 360 -7 291 -7 Z M 357 904 L 211 1052 L 257 1112 L 404 999 L 577 1112 L 609 1052 L 427 904 L 357 904 Z" unicode="Š" />
<glyph horiz-adv-x="662" d="M 290 -10 C 242 -10 197 -3 155 11 C 112 25 75 46 43 75 L 94 152 C 120 128 152 110 188 97 C 224 83 261 77 300 77 C 334 77 366 82 394 94 C 422 105 439 127 443 160 C 446 190 437 211 415 223 C 393 235 352 247 292 257 C 222 268 172 287 141 313 C 110 339 98 379 105 432 C 112 490 138 534 183 564 C 227 594 279 610 337 610 C 380 610 421 602 460 587 C 499 571 534 550 564 524 L 514 447 C 488 469 460 487 428 501 C 396 515 363 523 327 523 C 295 523 267 516 243 504 C 219 491 206 469 202 439 C 198 410 207 389 228 377 C 249 364 290 353 352 343 C 422 331 472 312 503 284 C 533 256 546 217 540 168 C 532 108 504 63 456 34 C 407 4 352 -10 290 -10 Z M 332 704 L 186 852 L 232 912 L 379 799 L 552 912 L 584 852 L 402 704 L 332 704 Z" unicode="š" />
<glyph horiz-adv-x="662" d="M 234 0 L 322 713 L 95 713 L 105 800 L 655 800 L 645 713 L 419 713 L 331 0 L 234 0 Z M 242 0 L 266 42 C 296 36 321 22 342 2 C 363 -18 371 -49 367 -91 C 361 -133 343 -165 313 -185 C 282 -205 249 -215 215 -215 C 173 -215 140 -207 116 -191 C 92 -175 81 -149 83 -111 L 170 -101 C 168 -113 171 -122 179 -127 C 187 -132 200 -135 219 -135 C 237 -135 251 -130 261 -122 C 271 -114 278 -98 282 -76 C 284 -52 283 -35 277 -24 C 271 -13 259 -5 242 0 Z" unicode="Ţ" />
<glyph horiz-adv-x="662" d="M 377 -9 C 315 -9 268 7 238 41 C 207 74 196 123 204 187 L 244 513 L 90 513 L 101 600 L 255 600 L 279 800 L 376 800 L 352 600 L 588 600 L 577 513 L 341 513 L 302 197 C 297 159 302 130 318 111 C 333 92 358 83 392 83 C 414 83 436 84 457 88 C 477 91 497 96 517 103 L 525 14 C 504 7 481 1 457 -2 C 432 -6 405 -9 377 -9 Z M 313 0 L 337 42 C 367 36 392 22 413 2 C 434 -18 442 -49 438 -91 C 432 -133 414 -165 384 -185 C 353 -205 320 -215 286 -215 C 244 -215 211 -207 187 -191 C 163 -175 152 -149 154 -111 L 241 -101 C 239 -113 242 -122 250 -127 C 258 -132 271 -135 290 -135 C 308 -135 322 -130 332 -122 C 342 -114 349 -98 353 -76 C 355 -52 354 -35 348 -24 C 342 -13 330 -5 313 0 Z" unicode="ţ" />
<glyph horiz-adv-x="662" d="M 234 0 L 322 713 L 95 713 L 105 800 L 655 800 L 645 713 L 419 713 L 331 0 L 234 0 Z M 356 904 L 210 1052 L 256 1112 L 403 999 L 576 1112 L 608 1052 L 426 904 L 356 904 Z" unicode="Ť" />
<glyph horiz-adv-x="662" d="M 377 -9 C 315 -9 268 7 238 41 C 207 74 196 123 204 187 L 244 513 L 90 513 L 101 600 L 255 600 L 279 800 L 376 800 L 352 600 L 588 600 L 577 513 L 341 513 L 302 197 C 297 159 302 130 318 111 C 333 92 358 83 392 83 C 414 83 436 84 457 88 C 477 91 497 96 517 103 L 525 14 C 504 7 481 1 457 -2 C 432 -6 405 -9 377 -9 Z M 426 705 L 535 1000 L 675 1000 L 495 705 L 426 705 Z" unicode="ť" />
<glyph horiz-adv-x="662" d="M 234 0 L 272 311 L 90 311 L 101 399 L 283 399 L 322 713 L 95 713 L 105 800 L 655 800 L 645 713 L 419 713 L 380 399 L 561 399 L 550 311 L 369 311 L 331 0 L 234 0 Z" unicode="Ŧ" />
<glyph horiz-adv-x="662" d="M 377 -9 C 315 -9 268 7 238 41 C 207 74 196 123 204 187 L 216 282 L 95 282 L 105 370 L 226 370 L 244 513 L 90 513 L 101 600 L 255 600 L 279 800 L 376 800 L 352 600 L 588 600 L 577 513 L 341 513 L 323 370 L 530 370 L 520 282 L 313 282 L 302 197 C 297 159 302 130 318 111 C 333 92 358 83 392 83 C 414 83 436 84 457 88 C 477 91 497 96 517 103 L 525 14 C 504 7 481 1 457 -2 C 432 -6 405 -9 377 -9 Z" unicode="ŧ" />
<glyph horiz-adv-x="662" d="M 281 -10 C 203 -10 147 13 115 59 C 82 105 71 176 83 270 L 148 800 L 245 800 L 180 268 C 171 198 175 148 192 119 C 208 90 241 76 291 76 C 340 76 377 90 401 119 C 425 148 441 198 450 268 L 515 800 L 612 800 L 547 270 C 535 176 508 105 464 59 C 420 13 359 -10 281 -10 Z M 464 910 C 441 910 423 916 411 928 C 398 940 387 953 378 968 C 369 982 361 996 353 1008 C 345 1020 336 1026 325 1026 C 313 1026 302 1019 292 1005 C 282 991 276 967 273 931 L 271 920 L 197 920 L 199 935 C 205 985 220 1026 246 1059 C 271 1092 303 1109 343 1109 C 367 1109 386 1103 399 1091 C 412 1079 423 1065 432 1051 C 441 1036 449 1023 455 1011 C 461 999 470 993 481 993 C 493 993 503 999 513 1013 C 523 1027 530 1052 535 1088 L 536 1099 L 609 1099 L 608 1084 C 601 1033 585 991 560 959 C 535 926 503 910 464 910 Z" unicode="Ũ" />
<glyph horiz-adv-x="662" d="M 226 -10 C 172 -10 132 8 104 45 C 76 81 66 130 74 190 L 125 600 L 221 600 L 173 208 C 167 166 172 134 187 113 C 201 92 227 82 263 82 C 291 82 320 90 350 106 C 379 122 409 147 439 181 L 491 600 L 587 600 L 513 0 L 417 0 L 428 93 L 400 93 C 384 62 361 37 329 18 C 297 0 262 -10 226 -10 Z M 442 710 C 419 710 401 716 389 728 C 376 740 365 753 356 768 C 347 782 339 796 331 808 C 323 820 314 826 303 826 C 291 826 280 819 270 805 C 260 791 254 767 251 731 L 249 720 L 175 720 L 177 735 C 183 785 198 826 224 859 C 249 892 281 909 321 909 C 345 909 364 903 377 891 C 390 879 401 865 410 851 C 419 836 427 823 433 811 C 439 799 448 793 459 793 C 471 793 481 799 491 813 C 501 827 508 852 513 888 L 514 899 L 587 899 L 586 884 C 579 833 563 791 538 759 C 513 726 481 710 442 710 Z" unicode="ũ" />
<glyph horiz-adv-x="662" d="M 281 -10 C 203 -10 147 13 115 59 C 82 105 71 176 83 270 L 148 800 L 245 800 L 180 268 C 171 198 175 148 192 119 C 208 90 241 76 291 76 C 340 76 377 90 401 119 C 425 148 441 198 450 268 L 515 800 L 612 800 L 547 270 C 535 176 508 105 464 59 C 420 13 359 -10 281 -10 Z M 212 957 L 223 1043 L 593 1043 L 582 957 L 212 957 Z" unicode="Ū" />
<glyph horiz-adv-x="662" d="M 226 -10 C 172 -10 132 8 104 45 C 76 81 66 130 74 190 L 125 600 L 221 600 L 173 208 C 167 166 172 134 187 113 C 201 92 227 82 263 82 C 291 82 320 90 350 106 C 379 122 409 147 439 181 L 491 600 L 587 600 L 513 0 L 417 0 L 428 93 L 400 93 C 384 62 361 37 329 18 C 297 0 262 -10 226 -10 Z M 190 757 L 201 843 L 571 843 L 560 757 L 190 757 Z" unicode="ū" />
<glyph horiz-adv-x="662" d="M 281 -10 C 203 -10 147 13 115 59 C 82 105 71 176 83 270 L 148 800 L 245 800 L 180 268 C 171 198 175 148 192 119 C 208 90 241 76 291 76 C 340 76 377 90 401 119 C 425 148 441 198 450 268 L 515 800 L 612 800 L 547 270 C 535 176 508 105 464 59 C 420 13 359 -10 281 -10 Z M 389 893 C 326 893 277 909 241 942 C 205 974 191 1027 200 1101 L 295 1101 C 289 1053 295 1019 313 999 C 330 979 359 970 399 970 C 439 970 470 979 492 999 C 514 1019 528 1053 535 1101 L 630 1101 C 620 1027 593 974 549 942 C 505 909 451 893 389 893 Z" unicode="Ŭ" />
<glyph horiz-adv-x="662" d="M 226 -10 C 172 -10 132 8 104 45 C 76 81 66 130 74 190 L 125 600 L 221 600 L 173 208 C 167 166 172 134 187 113 C 201 92 227 82 263 82 C 291 82 320 90 350 106 C 379 122 409 147 439 181 L 491 600 L 587 600 L 513 0 L 417 0 L 428 93 L 400 93 C 384 62 361 37 329 18 C 297 0 262 -10 226 -10 Z M 368 693 C 305 693 256 709 220 742 C 184 774 170 827 179 901 L 274 901 C 268 853 274 819 292 799 C 309 779 338 770 378 770 C 418 770 449 779 471 799 C 493 819 507 853 514 901 L 609 901 C 599 827 572 774 528 742 C 484 709 430 693 368 693 Z" unicode="ŭ" />
<glyph horiz-adv-x="662" d="M 281 -10 C 203 -10 147 13 115 59 C 82 105 71 176 83 270 L 148 800 L 245 800 L 180 268 C 171 198 175 148 192 119 C 208 90 241 76 291 76 C 340 76 377 90 401 119 C 425 148 441 198 450 268 L 515 800 L 612 800 L 547 270 C 535 176 508 105 464 59 C 420 13 359 -10 281 -10 Z M 388 886 C 343 886 308 897 284 921 C 260 944 251 980 257 1030 L 261 1062 C 267 1112 285 1149 315 1173 C 345 1197 383 1209 428 1209 C 472 1209 507 1197 531 1173 C 555 1149 565 1112 559 1062 L 555 1030 C 549 980 530 944 500 921 C 470 897 432 886 388 886 Z M 397 955 C 421 955 441 960 455 972 C 469 984 477 1003 481 1030 L 485 1062 C 488 1088 484 1108 473 1121 C 461 1133 443 1140 419 1140 C 394 1140 375 1133 361 1121 C 347 1108 338 1088 335 1062 L 331 1030 C 327 1003 331 984 343 972 C 354 960 372 955 397 955 Z" unicode="Ů" />
<glyph horiz-adv-x="662" d="M 226 -10 C 172 -10 132 8 104 45 C 76 81 66 130 74 190 L 125 600 L 221 600 L 173 208 C 167 166 172 134 187 113 C 201 92 227 82 263 82 C 291 82 320 90 350 106 C 379 122 409 147 439 181 L 491 600 L 587 600 L 513 0 L 417 0 L 428 93 L 400 93 C 384 62 361 37 329 18 C 297 0 262 -10 226 -10 Z M 367 686 C 322 686 287 697 263 721 C 239 744 230 780 236 830 L 240 862 C 246 912 264 949 294 973 C 324 997 362 1009 407 1009 C 451 1009 486 997 510 973 C 534 949 544 912 538 862 L 534 830 C 528 780 509 744 479 721 C 449 697 411 686 367 686 Z M 376 755 C 400 755 420 760 434 772 C 448 784 456 803 460 830 L 464 862 C 467 888 463 908 452 921 C 440 933 422 940 398 940 C 373 940 354 933 340 921 C 326 908 317 888 314 862 L 310 830 C 306 803 310 784 322 772 C 333 760 351 755 376 755 Z" unicode="ů" />
<glyph horiz-adv-x="662" d="M 281 -10 C 203 -10 147 13 115 59 C 82 105 71 176 83 270 L 148 800 L 245 800 L 180 268 C 171 198 175 148 192 119 C 208 90 241 76 291 76 C 340 76 377 90 401 119 C 425 148 441 198 450 268 L 515 800 L 612 800 L 547 270 C 535 176 508 105 464 59 C 420 13 359 -10 281 -10 Z M 451 900 L 527 1100 L 658 1100 L 517 900 L 451 900 Z M 240 900 L 315 1100 L 447 1100 L 306 900 L 240 900 Z" unicode="Ű" />
<glyph horiz-adv-x="662" d="M 226 -10 C 172 -10 132 8 104 45 C 76 81 66 130 74 190 L 125 600 L 221 600 L 173 208 C 167 166 172 134 187 113 C 201 92 227 82 263 82 C 291 82 320 90 350 106 C 379 122 409 147 439 181 L 491 600 L 587 600 L 513 0 L 417 0 L 428 93 L 400 93 C 384 62 361 37 329 18 C 297 0 262 -10 226 -10 Z M 437 700 L 513 900 L 644 900 L 503 700 L 437 700 Z M 226 700 L 301 900 L 433 900 L 292 700 L 226 700 Z" unicode="ű" />
<glyph horiz-adv-x="662" d="M 317 -215 C 277 -215 245 -204 221 -183 C 197 -161 187 -132 192 -96 C 196 -64 211 -35 238 -10 C 264 14 293 33 324 45 L 346 23 C 323 9 307 -6 297 -23 C 287 -40 282 -55 281 -69 C 278 -87 282 -101 293 -111 C 303 -121 319 -126 340 -126 C 350 -126 364 -125 381 -123 C 397 -121 411 -118 423 -116 L 412 -205 C 398 -207 383 -210 365 -212 C 347 -214 331 -215 317 -215 Z M 281 -10 C 203 -10 147 13 115 59 C 82 105 71 176 83 270 L 148 800 L 245 800 L 180 268 C 171 198 175 148 192 119 C 208 90 241 76 291 76 C 340 76 377 90 401 119 C 425 148 441 198 450 268 L 515 800 L 612 800 L 547 270 C 535 176 508 105 464 59 C 420 13 359 -10 281 -10 Z" unicode="Ų" />
<glyph horiz-adv-x="662" d="M 469 -215 C 429 -215 397 -204 373 -183 C 349 -161 339 -132 344 -96 C 348 -64 363 -35 390 -10 C 416 14 445 33 476 45 L 498 23 C 475 9 459 -6 449 -23 C 439 -40 434 -55 433 -69 C 430 -87 434 -101 445 -111 C 455 -121 471 -126 492 -126 C 502 -126 516 -125 533 -123 C 549 -121 563 -118 575 -116 L 564 -205 C 550 -207 535 -210 517 -212 C 499 -214 483 -215 469 -215 Z M 226 -10 C 172 -10 132 8 104 45 C 76 81 66 130 74 190 L 125 600 L 221 600 L 173 208 C 167 166 172 134 187 113 C 201 92 227 82 263 82 C 291 82 320 90 350 106 C 379 122 409 147 439 181 L 491 600 L 587 600 L 513 0 L 417 0 L 428 93 L 400 93 C 384 62 361 37 329 18 C 297 0 262 -10 226 -10 Z" unicode="ų" />
<glyph horiz-adv-x="662" d="M 388 0 L 341 480 L 177 0 L 81 0 L 80 800 L 175 800 L 159 149 L 309 600 L 407 600 L 445 149 L 590 800 L 680 800 L 483 0 L 388 0 Z M 231 908 L 199 968 L 380 1116 L 450 1116 L 597 968 L 551 908 L 404 1022 L 231 908 Z" unicode="Ŵ" />
<glyph horiz-adv-x="662" d="M 362 0 L 330 392 L 205 0 L 98 0 L 69 600 L 161 600 L 164 77 L 288 501 L 396 501 L 423 93 L 551 600 L 643 600 L 466 0 L 362 0 Z M 210 708 L 178 768 L 359 916 L 429 916 L 576 768 L 530 708 L 383 822 L 210 708 Z" unicode="ŵ" />
<glyph horiz-adv-x="662" d="M 331 0 L 234 0 L 271 300 L 72 800 L 179 800 L 335 391 L 582 800 L 687 800 L 368 300 L 331 0 Z M 231 908 L 199 968 L 380 1116 L 450 1116 L 597 968 L 551 908 L 404 1022 L 231 908 Z" unicode="Ŷ" />
<glyph horiz-adv-x="662" d="M 98 -206 C 83 -206 68 -205 53 -203 C 37 -201 22 -198 6 -195 L 33 -108 C 49 -112 63 -115 77 -117 C 90 -119 103 -120 115 -120 C 145 -120 172 -111 195 -94 C 218 -77 238 -50 255 -12 L 259 -2 L 219 -2 L 100 600 L 205 600 L 294 81 L 510 600 L 611 600 L 337 -21 C 308 -87 273 -135 233 -163 C 193 -191 148 -206 98 -206 Z M 209 708 L 177 768 L 358 916 L 428 916 L 575 768 L 529 708 L 382 822 L 209 708 Z" unicode="ŷ" />
<glyph horiz-adv-x="662" d="M 331 0 L 234 0 L 271 300 L 72 800 L 179 800 L 335 391 L 582 800 L 687 800 L 368 300 L 331 0 Z M 285 911 C 266 911 251 915 241 923 C 231 931 227 945 230 967 L 231 974 C 233 996 241 1011 253 1019 C 265 1027 281 1032 300 1032 C 318 1032 333 1027 343 1019 C 353 1011 356 996 354 974 L 353 967 C 350 945 342 931 330 923 C 318 915 303 911 285 911 Z M 497 911 C 478 911 464 915 454 923 C 444 931 440 945 443 967 L 444 974 C 446 996 454 1011 466 1019 C 478 1027 493 1032 512 1032 C 530 1032 545 1027 555 1019 C 565 1011 569 996 567 974 L 566 967 C 563 945 555 931 543 923 C 530 915 515 911 497 911 Z" unicode="Ÿ" />
<glyph horiz-adv-x="662" d="M 531 0 L 33 0 L 44 87 L 506 713 L 121 713 L 131 800 L 629 800 L 619 713 L 157 87 L 542 87 L 531 0 Z M 312 900 L 461 1100 L 603 1100 L 398 900 L 312 900 Z" unicode="Ź" />
<glyph horiz-adv-x="662" d="M 496 0 L 68 0 L 79 87 L 445 513 L 131 513 L 142 600 L 570 600 L 559 513 L 196 87 L 507 87 L 496 0 Z M 265 700 L 414 900 L 556 900 L 351 700 L 265 700 Z" unicode="ź" />
<glyph horiz-adv-x="662" d="M 531 0 L 33 0 L 44 87 L 506 713 L 121 713 L 131 800 L 629 800 L 619 713 L 157 87 L 542 87 L 531 0 Z M 391 911 C 367 911 348 915 334 923 C 320 931 315 945 318 967 L 319 974 C 321 996 330 1011 346 1019 C 362 1027 382 1032 406 1032 C 430 1032 448 1027 462 1019 C 476 1011 481 996 479 974 L 478 967 C 475 945 466 931 450 923 C 434 915 414 911 391 911 Z" unicode="Ż" />
<glyph horiz-adv-x="662" d="M 496 0 L 68 0 L 79 87 L 445 513 L 131 513 L 142 600 L 570 600 L 559 513 L 196 87 L 507 87 L 496 0 Z M 372 711 C 348 711 329 715 315 723 C 301 731 296 745 299 767 L 300 774 C 302 796 311 811 327 819 C 343 827 363 832 387 832 C 411 832 429 827 443 819 C 457 811 462 796 460 774 L 459 767 C 456 745 447 731 431 723 C 415 715 395 711 372 711 Z" unicode="ż" />
<glyph horiz-adv-x="662" d="M 531 0 L 33 0 L 44 87 L 506 713 L 121 713 L 131 800 L 629 800 L 619 713 L 157 87 L 542 87 L 531 0 Z M 356 904 L 210 1052 L 256 1112 L 403 999 L 576 1112 L 608 1052 L 426 904 L 356 904 Z" unicode="Ž" />
<glyph horiz-adv-x="662" d="M 496 0 L 68 0 L 79 87 L 445 513 L 131 513 L 142 600 L 570 600 L 559 513 L 196 87 L 507 87 L 496 0 Z M 333 704 L 187 852 L 233 912 L 380 799 L 553 912 L 585 852 L 403 704 L 333 704 Z" unicode="ž" />
<glyph horiz-adv-x="662" d="M 209 -200 L 297 513 L 186 513 L 197 600 L 308 600 L 313 640 C 319 692 340 733 377 763 C 413 793 455 808 503 808 C 521 808 542 805 564 800 C 586 794 604 788 618 782 L 590 701 C 578 705 564 710 549 714 C 534 718 519 721 503 721 C 477 721 456 714 440 702 C 423 690 413 670 410 642 L 306 -200 L 209 -200 Z" unicode="ſ" />
<glyph horiz-adv-x="662" d="M 159 -6 C 149 -6 138 -5 126 -4 C 114 -3 102 -2 90 0 C 77 2 65 4 54 7 C 43 10 34 14 26 18 L 56 102 C 64 98 72 95 81 93 C 89 90 98 88 106 86 C 114 84 121 83 129 83 C 137 82 144 82 151 82 C 169 82 184 83 196 87 C 208 91 218 97 227 105 C 235 113 241 124 246 138 C 250 151 254 168 257 188 L 284 411 L 91 411 L 102 498 L 295 498 L 313 640 C 315 665 322 688 333 709 C 344 729 358 747 375 763 C 391 777 411 788 433 796 C 455 804 478 808 503 808 C 513 808 524 807 536 806 C 548 805 560 804 572 802 C 584 800 596 797 607 794 C 618 791 627 788 635 784 L 607 701 C 599 704 590 707 582 710 C 573 712 564 715 556 717 C 548 718 540 719 533 720 C 525 720 518 721 511 721 C 493 721 478 719 466 715 C 454 711 444 705 437 697 C 428 688 421 677 417 664 C 412 650 408 634 406 614 L 392 498 L 592 498 L 581 411 L 381 411 L 351 162 C 347 136 340 113 330 92 C 319 71 305 53 289 39 C 271 24 252 13 230 5 C 208 -2 184 -6 159 -6 Z" unicode="ƒ" />
<glyph horiz-adv-x="662" d="M 420 319 L 367 689 L 220 319 L 420 319 Z M 467 0 L 433 233 L 186 233 L 94 0 L -4 0 L 329 800 L 432 800 L 569 0 L 467 0 Z M 389 886 C 344 886 309 897 285 921 C 261 944 252 980 258 1030 L 262 1062 C 268 1112 286 1149 316 1173 C 346 1197 384 1209 429 1209 C 473 1209 508 1197 532 1173 C 556 1149 566 1112 560 1062 L 556 1030 C 550 980 531 944 501 921 C 471 897 433 886 389 886 Z M 398 955 C 422 955 442 960 456 972 C 470 984 478 1003 482 1030 L 486 1062 C 489 1088 485 1108 474 1121 C 462 1133 444 1140 420 1140 C 395 1140 376 1133 362 1121 C 348 1108 339 1088 336 1062 L 332 1030 C 328 1003 332 984 344 972 C 355 960 373 955 398 955 Z M 340 1200 L 489 1400 L 631 1400 L 426 1200 L 340 1200 Z" unicode="Ǻ" />
<glyph horiz-adv-x="662" d="M 225 74 C 257 74 287 80 315 93 C 343 105 368 127 390 157 L 402 256 L 245 256 C 216 256 192 249 174 236 C 155 222 144 199 140 167 C 136 137 140 114 153 98 C 166 82 190 74 225 74 Z M 201 -10 C 151 -10 111 4 80 32 C 48 60 36 103 44 161 C 50 213 71 254 107 284 C 143 314 184 330 231 330 L 412 330 L 423 420 C 426 450 419 475 402 494 C 385 512 357 522 319 522 C 279 522 248 515 227 501 C 206 487 187 459 171 415 L 90 439 C 107 495 136 538 176 567 C 216 595 267 610 329 610 C 390 610 439 595 476 566 C 513 537 528 493 521 433 L 487 155 C 483 121 489 99 506 90 C 522 80 549 79 587 86 L 576 -3 C 532 -9 496 -6 466 6 C 436 19 422 49 425 97 L 406 97 C 385 66 356 40 320 20 C 283 0 243 -10 201 -10 Z M 348 686 C 303 686 268 697 244 721 C 220 744 211 780 217 830 L 221 862 C 227 912 245 949 275 973 C 305 997 343 1009 388 1009 C 432 1009 467 997 491 973 C 515 949 525 912 519 862 L 515 830 C 509 780 490 744 460 721 C 430 697 392 686 348 686 Z M 357 755 C 381 755 401 760 415 772 C 429 784 437 803 441 830 L 445 862 C 448 888 444 908 433 921 C 421 933 403 940 379 940 C 354 940 335 933 321 921 C 307 908 298 888 295 862 L 291 830 C 287 803 291 784 303 772 C 314 760 332 755 357 755 Z M 298 1000 L 447 1200 L 589 1200 L 384 1000 L 298 1000 Z" unicode="ǻ" />
<glyph horiz-adv-x="662" d="M 322 723 L 162 309 L 328 309 L 379 723 L 322 723 Z M 319 233 L 133 233 L 43 0 L -38 0 L 280 800 L 691 800 L 682 723 L 465 723 L 433 468 L 641 468 L 632 392 L 424 392 L 385 77 L 602 77 L 593 0 L 290 0 L 319 233 Z M 403 900 L 552 1100 L 694 1100 L 489 900 L 403 900 Z" unicode="Ǽ" />
<glyph horiz-adv-x="662" d="M 595 144 C 581 91 560 52 532 27 C 504 2 465 -10 415 -10 C 381 -10 352 -2 329 12 C 306 26 291 49 283 80 L 268 80 C 250 53 230 31 208 15 C 185 -1 157 -10 123 -10 C 88 -10 58 4 34 32 C 9 60 0 103 8 161 C 14 213 33 255 66 285 C 98 315 134 330 174 330 L 285 330 L 295 418 C 299 452 296 480 284 501 C 272 522 253 533 225 533 C 200 533 182 527 170 515 C 158 503 144 476 129 436 L 56 460 C 71 509 93 546 122 572 C 150 597 190 610 240 610 C 266 610 288 604 308 593 C 327 582 342 565 352 543 C 368 565 387 582 409 593 C 431 604 456 610 483 610 C 533 610 572 593 599 561 C 625 528 634 477 626 409 L 611 281 L 356 281 L 343 181 C 337 139 341 108 353 90 C 365 71 385 62 414 62 C 442 62 463 68 477 80 C 491 92 502 116 512 151 L 595 144 Z M 372 415 L 363 344 L 533 344 L 541 406 C 546 452 543 485 532 506 C 520 526 500 537 472 537 C 444 537 422 527 405 507 C 388 487 377 457 372 415 Z M 261 139 L 277 266 L 192 266 C 167 266 146 258 128 244 C 110 230 99 204 95 167 C 90 134 92 109 101 91 C 109 73 126 64 152 64 C 172 64 191 70 209 84 C 226 98 243 116 261 139 Z M 311 700 L 460 900 L 602 900 L 397 700 L 311 700 Z" unicode="ǽ" />
<glyph horiz-adv-x="662" d="M 165 151 L 438 714 C 428 716 418 718 407 720 C 396 722 384 723 371 723 C 315 723 273 708 247 678 C 220 648 202 597 194 526 L 162 270 C 158 244 157 222 157 202 C 157 182 160 165 165 151 Z M 291 77 C 347 77 388 91 415 121 C 441 150 459 200 468 270 L 500 526 C 503 558 504 585 503 609 C 501 632 497 651 490 667 L 211 92 C 221 87 232 83 246 81 C 259 78 274 77 291 77 Z M 281 -10 C 261 -10 242 -8 225 -5 C 207 -2 192 2 178 8 L 125 -100 L 31 -100 L 108 57 C 88 80 74 110 68 146 C 61 182 60 223 66 271 L 97 525 C 108 617 138 687 187 736 C 235 785 300 810 382 810 C 398 810 414 809 429 807 C 443 805 457 802 470 798 L 521 900 L 615 900 L 542 755 C 566 731 582 699 591 661 C 600 622 601 577 595 525 L 564 271 C 553 180 523 110 475 62 C 426 14 361 -10 281 -10 Z M 320 900 L 469 1100 L 611 1100 L 406 900 L 320 900 Z" unicode="Ǿ" />
<glyph horiz-adv-x="662" d="M 172 210 C 169 191 169 175 171 161 C 173 147 176 134 182 124 L 406 514 C 398 516 388 518 378 520 C 368 521 357 522 346 522 C 299 522 263 511 239 489 C 214 467 199 433 193 386 L 172 210 Z M 292 78 C 338 78 374 88 398 109 C 422 130 438 164 444 210 L 465 386 C 467 404 468 421 466 435 C 464 449 460 462 455 473 L 232 86 C 240 83 249 81 259 80 C 269 78 280 78 292 78 Z M 281 -10 C 265 -10 249 -9 235 -7 C 220 -5 206 -2 192 2 L 133 -100 L 40 -100 L 123 40 C 103 58 89 81 81 110 C 73 138 71 172 76 210 L 97 386 C 106 461 134 517 182 554 C 230 591 288 610 358 610 C 374 610 390 609 404 607 C 418 605 432 602 445 598 L 505 700 L 598 700 L 515 559 C 533 540 547 516 556 488 C 564 459 566 425 561 386 L 540 210 C 530 135 502 80 455 44 C 408 8 350 -10 281 -10 Z M 265 700 L 414 900 L 556 900 L 351 700 L 265 700 Z" unicode="ǿ" />
<glyph horiz-adv-x="662" d="M 291 -7 C 237 -7 187 2 141 20 C 95 38 57 69 26 112 L 91 182 C 115 148 145 122 181 105 C 217 88 259 80 307 80 C 353 80 391 91 422 115 C 452 138 470 170 476 211 C 480 248 472 277 450 297 C 428 317 382 340 313 365 C 227 394 170 425 141 458 C 111 491 100 537 108 595 C 116 662 143 714 191 750 C 239 786 296 804 362 804 C 412 804 458 794 502 776 C 546 757 582 727 611 686 L 548 614 C 524 648 495 673 460 691 C 425 708 389 717 351 717 C 311 717 278 707 252 689 C 226 671 211 642 207 604 C 203 568 212 540 235 520 C 257 500 306 477 380 452 C 461 424 515 394 543 362 C 571 330 581 285 574 228 C 564 152 532 94 477 54 C 422 13 360 -7 291 -7 Z M 102 -300 L 214 -100 L 357 -100 L 188 -300 L 102 -300 Z" unicode="Ș" />
<glyph horiz-adv-x="662" d="M 290 -10 C 242 -10 197 -3 155 11 C 112 25 75 46 43 75 L 94 152 C 120 128 152 110 188 97 C 224 83 261 77 300 77 C 334 77 366 82 394 94 C 422 105 439 127 443 160 C 446 190 437 211 415 223 C 393 235 352 247 292 257 C 222 268 172 287 141 313 C 110 339 98 379 105 432 C 112 490 138 534 183 564 C 227 594 279 610 337 610 C 380 610 421 602 460 587 C 499 571 534 550 564 524 L 514 447 C 488 469 460 487 428 501 C 396 515 363 523 327 523 C 295 523 267 516 243 504 C 219 491 206 469 202 439 C 198 410 207 389 228 377 C 249 364 290 353 352 343 C 422 331 472 312 503 284 C 533 256 546 217 540 168 C 532 108 504 63 456 34 C 407 4 352 -10 290 -10 Z M 102 -300 L 214 -100 L 357 -100 L 188 -300 L 102 -300 Z" unicode="ș" />
<glyph horiz-adv-x="662" d="M 234 0 L 322 713 L 95 713 L 105 800 L 655 800 L 645 713 L 419 713 L 331 0 L 234 0 Z M 101 -300 L 213 -100 L 356 -100 L 187 -300 L 101 -300 Z" unicode="Ț" />
<glyph horiz-adv-x="662" d="M 377 -9 C 315 -9 268 7 238 41 C 207 74 196 123 204 187 L 244 513 L 90 513 L 101 600 L 255 600 L 279 800 L 376 800 L 352 600 L 588 600 L 577 513 L 341 513 L 302 197 C 297 159 302 130 318 111 C 333 92 358 83 392 83 C 414 83 436 84 457 88 C 477 91 497 96 517 103 L 525 14 C 504 7 481 1 457 -2 C 432 -6 405 -9 377 -9 Z M 122 -300 L 234 -100 L 377 -100 L 208 -300 L 122 -300 Z" unicode="ț" />
<glyph horiz-adv-x="662" d="M 170 -208 C 146 -208 123 -206 101 -203 C 78 -200 54 -194 28 -186 L 58 -92 C 79 -100 99 -106 119 -109 C 139 -112 158 -114 178 -114 C 218 -114 251 -104 278 -86 C 304 -67 320 -36 326 7 L 388 513 L 132 513 L 143 600 L 496 600 L 421 -6 C 413 -74 385 -125 337 -158 C 289 -191 234 -208 170 -208 Z" unicode="ȷ" />
<glyph horiz-adv-x="662" d="M 192 403 L 449 800 L 528 800 L 379 403 L 192 403 Z" unicode="ʻ" />
<glyph horiz-adv-x="662" d="M 209 708 L 177 768 L 358 916 L 428 916 L 575 768 L 529 708 L 382 822 L 209 708 Z" unicode="ˆ" />
<glyph horiz-adv-x="662" d="M 334 704 L 188 852 L 234 912 L 381 799 L 554 912 L 586 852 L 404 704 L 334 704 Z" unicode="ˇ" />
<glyph horiz-adv-x="662" d="M 190 757 L 201 843 L 571 843 L 560 757 L 190 757 Z" unicode="ˉ" />
<glyph horiz-adv-x="662" d="M 367 693 C 304 693 255 709 219 742 C 183 774 169 827 178 901 L 273 901 C 267 853 273 819 291 799 C 308 779 337 770 377 770 C 417 770 448 779 470 799 C 492 819 506 853 513 901 L 608 901 C 598 827 571 774 527 742 C 483 709 429 693 367 693 Z" unicode="˘" />
<glyph horiz-adv-x="662" d="M 369 711 C 345 711 326 715 312 723 C 298 731 293 745 296 767 L 297 774 C 299 796 308 811 324 819 C 340 827 360 832 384 832 C 408 832 426 827 440 819 C 454 811 459 796 457 774 L 456 767 C 453 745 444 731 428 723 C 412 715 392 711 369 711 Z" unicode="˙" />
<glyph horiz-adv-x="662" d="M 366 686 C 321 686 286 697 262 721 C 238 744 229 780 235 830 L 239 862 C 245 912 263 949 293 973 C 323 997 361 1009 406 1009 C 450 1009 485 997 509 973 C 533 949 543 912 537 862 L 533 830 C 527 780 508 744 478 721 C 448 697 410 686 366 686 Z M 375 755 C 399 755 419 760 433 772 C 447 784 455 803 459 830 L 463 862 C 466 888 462 908 451 921 C 439 933 421 940 397 940 C 372 940 353 933 339 921 C 325 908 316 888 313 862 L 309 830 C 305 803 309 784 321 772 C 332 760 350 755 375 755 Z" unicode="˚" />
<glyph horiz-adv-x="662" d="M 304 -215 C 264 -215 232 -204 208 -183 C 184 -161 174 -132 179 -96 C 183 -64 198 -35 225 -10 C 251 14 280 33 311 45 L 333 23 C 310 9 294 -6 284 -23 C 274 -40 269 -55 268 -69 C 265 -87 269 -101 280 -111 C 290 -121 306 -126 327 -126 C 337 -126 351 -125 368 -123 C 384 -121 398 -118 410 -116 L 399 -205 C 385 -207 370 -210 352 -212 C 334 -214 318 -215 304 -215 Z" unicode="˛" />
<glyph horiz-adv-x="662" d="M 442 710 C 419 710 401 716 389 728 C 376 740 365 753 356 768 C 347 782 339 796 331 808 C 323 820 314 826 303 826 C 291 826 280 819 270 805 C 260 791 254 767 251 731 L 249 720 L 175 720 L 177 735 C 183 785 198 826 224 859 C 249 892 281 909 321 909 C 345 909 364 903 377 891 C 390 879 401 865 410 851 C 419 836 427 823 433 811 C 439 799 448 793 459 793 C 471 793 481 799 491 813 C 501 827 508 852 513 888 L 514 899 L 587 899 L 586 884 C 579 833 563 791 538 759 C 513 726 481 710 442 710 Z" unicode="˜" />
<glyph horiz-adv-x="662" d="M 436 700 L 512 900 L 643 900 L 502 700 L 436 700 Z M 225 700 L 300 900 L 432 900 L 291 700 L 225 700 Z" unicode="˝" />
<glyph horiz-adv-x="0" d="M 37 700 L -119 900 L 24 900 L 122 700 L 37 700 Z" unicode="̀" />
<glyph horiz-adv-x="0" d="M -69 700 L 80 900 L 222 900 L 17 700 L -69 700 Z" unicode="́" />
<glyph horiz-adv-x="0" d="M -122 708 L -154 768 L 27 916 L 97 916 L 244 768 L 198 708 L 51 822 L -122 708 Z" unicode="̂" />
<glyph horiz-adv-x="0" d="M 111 710 C 88 710 70 716 58 728 C 45 740 34 753 25 768 C 16 782 8 796 0 808 C -7 820 -16 826 -28 826 C -40 826 -50 819 -60 805 C -70 791 -76 767 -80 731 L -82 720 L -156 720 L -154 735 C -148 785 -132 826 -107 859 C -81 892 -49 909 -10 909 C 14 909 33 903 46 891 C 59 879 70 865 79 851 C 88 836 96 823 102 811 C 108 799 117 793 128 793 C 140 793 150 799 160 813 C 170 827 177 852 182 888 L 183 899 L 256 899 L 255 884 C 248 833 232 791 207 759 C 182 726 150 710 111 710 Z" unicode="̃" />
<glyph horiz-adv-x="0" d="M -141 757 L -130 843 L 240 843 L 229 757 L -141 757 Z" unicode="̄" />
<glyph horiz-adv-x="0" d="M 36 693 C -26 693 -76 709 -112 742 C -148 774 -161 827 -153 901 L -58 901 C -63 853 -57 819 -40 799 C -22 779 6 770 46 770 C 86 770 117 779 139 799 C 161 819 175 853 182 901 L 277 901 C 267 827 240 774 196 742 C 152 709 98 693 36 693 Z" unicode="̆" />
<glyph horiz-adv-x="0" d="M 38 711 C 14 711 -4 715 -18 723 C -32 731 -37 745 -35 767 L -34 774 C -31 796 -22 811 -6 819 C 9 827 29 832 53 832 C 77 832 95 827 109 819 C 123 811 128 796 126 774 L 125 767 C 122 745 113 731 97 723 C 81 715 61 711 38 711 Z" unicode="̇" />
<glyph horiz-adv-x="0" d="M -68 711 C -86 711 -101 715 -111 723 C -121 731 -125 745 -123 767 L -122 774 C -119 796 -111 811 -99 819 C -87 827 -71 832 -53 832 C -34 832 -20 827 -10 819 C 0 811 3 796 1 774 L 0 767 C -2 745 -10 731 -22 723 C -34 715 -50 711 -68 711 Z M 144 711 C 125 711 111 715 101 723 C 91 731 87 745 90 767 L 91 774 C 93 796 101 811 113 819 C 125 827 140 832 159 832 C 177 832 192 827 202 819 C 212 811 216 796 214 774 L 213 767 C 210 745 202 731 190 723 C 177 715 162 711 144 711 Z" unicode="̈" />
<glyph horiz-adv-x="0" d="M 35 686 C -9 686 -44 697 -68 721 C -92 744 -102 780 -96 830 L -92 862 C -86 912 -67 949 -37 973 C -7 997 30 1009 75 1009 C 119 1009 154 997 178 973 C 202 949 212 912 206 862 L 202 830 C 196 780 177 744 147 721 C 117 697 79 686 35 686 Z M 44 755 C 68 755 88 760 102 772 C 116 784 124 803 128 830 L 132 862 C 135 888 131 908 120 921 C 108 933 90 940 66 940 C 41 940 22 933 8 921 C -6 908 -14 888 -18 862 L -22 830 C -25 803 -21 784 -10 772 C 1 760 19 755 44 755 Z" unicode="̊" />
<glyph horiz-adv-x="0" d="M 105 700 L 181 900 L 312 900 L 171 700 L 105 700 Z M -106 700 L -31 900 L 101 900 L -40 700 L -106 700 Z" unicode="̋" />
<glyph horiz-adv-x="0" d="M 3 704 L -143 852 L -97 912 L 50 799 L 223 912 L 255 852 L 73 704 L 3 704 Z" unicode="̌" />
<glyph horiz-adv-x="0" d="M -87 700 L 82 900 L 167 900 L 56 700 L -87 700 Z" unicode="̒" />
<glyph horiz-adv-x="0" d="M -211 -300 L -99 -100 L 44 -100 L -125 -300 L -211 -300 Z" unicode="̦" />
<glyph horiz-adv-x="0" d="M -77 0 L -53 42 C -23 36 2 22 23 2 C 44 -18 52 -49 48 -91 C 42 -133 24 -165 -6 -185 C -36 -205 -69 -215 -104 -215 C -145 -215 -178 -207 -202 -191 C -226 -175 -238 -149 -236 -111 L -149 -101 C -150 -113 -147 -122 -139 -127 C -131 -132 -118 -135 -100 -135 C -82 -135 -67 -130 -57 -122 C -47 -114 -40 -98 -37 -76 C -34 -52 -36 -35 -42 -24 C -48 -13 -59 -5 -77 0 Z" unicode="̧" />
<glyph horiz-adv-x="0" d="M -27 -215 C -66 -215 -98 -204 -122 -183 C -146 -161 -156 -132 -152 -96 C -148 -64 -132 -35 -106 -10 C -79 14 -50 33 -20 45 L 2 23 C -20 9 -36 -6 -46 -23 C -56 -40 -61 -55 -63 -69 C -65 -87 -61 -101 -51 -111 C -40 -121 -24 -126 -4 -126 C 6 -126 20 -125 37 -123 C 53 -121 67 -118 79 -116 L 68 -205 C 54 -207 39 -210 21 -212 C 3 -214 -12 -215 -27 -215 Z" unicode="̨" />
<glyph horiz-adv-x="662" d="M 299 700 L 392 900 L 526 900 L 375 700 L 299 700 Z" unicode="΄" />
<glyph horiz-adv-x="662" d="M 308 700 L 375 900 L 488 900 L 367 700 L 308 700 Z M 205 701 C 189 701 177 704 169 712 C 160 720 157 735 160 757 L 161 763 C 163 785 170 800 181 808 C 191 816 204 821 220 821 C 235 821 247 816 256 808 C 264 800 267 785 265 763 L 264 757 C 261 735 254 720 243 712 C 232 704 219 701 205 701 Z M 531 701 C 515 701 503 704 495 712 C 486 720 483 735 486 757 L 487 763 C 489 785 496 800 507 808 C 517 816 530 821 546 821 C 561 821 573 816 582 808 C 590 800 593 785 591 763 L 590 757 C 587 735 580 720 569 712 C 558 704 545 701 531 701 Z" unicode="΅" />
<glyph horiz-adv-x="662" d="M 420 319 L 367 689 L 220 319 L 420 319 Z M 467 0 L 433 233 L 186 233 L 94 0 L -4 0 L 329 800 L 432 800 L 569 0 L 467 0 Z M 68 700 L 161 900 L 295 900 L 144 700 L 68 700 Z" unicode="Ά" />
<glyph horiz-adv-x="662" d="M 324 292 C 292 292 268 299 250 314 C 232 329 226 353 230 385 L 233 410 C 237 442 249 466 271 482 C 292 497 318 505 350 505 C 381 505 405 497 422 482 C 439 466 446 442 442 410 L 439 385 C 435 353 422 329 401 314 C 380 299 354 292 324 292 Z" unicode="·" />
<glyph horiz-adv-x="662" d="M 50 0 L 148 800 L 629 800 L 619 713 L 235 713 L 206 479 L 544 479 L 533 392 L 195 392 L 158 87 L 542 87 L 531 0 L 50 0 Z M -60 700 L 33 900 L 167 900 L 16 700 L -60 700 Z" unicode="Έ" />
<glyph horiz-adv-x="662" d="M 50 0 L 148 800 L 245 800 L 206 478 L 476 478 L 515 800 L 612 800 L 514 0 L 417 0 L 465 391 L 195 391 L 147 0 L 50 0 Z M -70 700 L 23 900 L 157 900 L 6 700 L -70 700 Z" unicode="Ή" />
<glyph horiz-adv-x="662" d="M 50 0 L 61 87 L 245 87 L 322 713 L 138 713 L 148 800 L 612 800 L 602 713 L 419 713 L 342 87 L 525 87 L 514 0 L 50 0 Z M -70 700 L 23 900 L 157 900 L 6 700 L -70 700 Z" unicode="Ί" />
<glyph horiz-adv-x="662" d="M 285 -10 C 203 -10 144 14 108 62 C 72 110 59 180 70 272 L 101 524 C 113 617 143 688 191 737 C 239 785 304 810 386 810 C 466 810 525 785 562 737 C 598 688 611 617 599 524 L 568 272 C 557 180 527 110 479 62 C 431 14 366 -10 285 -10 Z M 295 77 C 350 77 391 91 418 121 C 444 150 462 200 471 271 L 502 525 C 511 597 506 648 487 678 C 467 708 430 723 375 723 C 319 723 278 708 252 678 C 225 648 207 597 198 525 L 167 271 C 158 200 163 150 183 121 C 202 91 239 77 295 77 Z M 10 700 L 103 900 L 237 900 L 86 700 L 10 700 Z" unicode="Ό" />
<glyph horiz-adv-x="662" d="M 331 0 L 234 0 L 271 300 L 72 800 L 179 800 L 335 391 L 582 800 L 687 800 L 368 300 L 331 0 Z M -96 700 L -3 900 L 131 900 L -20 700 L -96 700 Z" unicode="Ύ" />
<glyph horiz-adv-x="662" d="M 237 0 L 24 0 L 35 88 L 153 88 L 164 182 C 124 196 97 223 83 262 C 69 301 66 348 74 404 L 88 525 C 100 618 130 689 179 737 C 228 785 295 810 381 810 C 466 810 527 785 565 737 C 603 689 616 618 604 525 L 590 404 C 582 348 567 301 544 262 C 521 223 488 196 444 182 L 433 88 L 551 88 L 540 0 L 327 0 L 355 230 C 401 238 434 257 454 286 C 474 315 487 354 493 404 L 507 525 C 516 597 510 648 490 678 C 469 708 429 723 371 723 C 312 723 269 708 241 678 C 213 648 194 597 185 525 L 171 404 C 165 354 168 315 181 286 C 193 257 221 238 265 230 L 237 0 Z M -14 700 L 79 900 L 213 900 L 62 700 L -14 700 Z" unicode="Ώ" />
<glyph horiz-adv-x="662" d="M 414 -5 C 357 -5 315 12 287 46 C 259 80 248 127 256 187 L 296 513 L 97 513 L 108 600 L 404 600 L 353 184 C 348 150 352 125 365 108 C 377 91 399 83 430 83 C 443 83 459 84 477 88 C 495 91 511 96 524 102 L 532 18 C 516 10 498 5 478 1 C 457 -3 436 -5 414 -5 Z M 299 700 L 366 900 L 479 900 L 358 700 L 299 700 Z M 196 701 C 180 701 168 704 160 712 C 151 720 148 735 151 757 L 152 763 C 154 785 161 800 172 808 C 182 816 195 821 211 821 C 226 821 238 816 247 808 C 255 800 258 785 256 763 L 255 757 C 252 735 245 720 234 712 C 223 704 210 701 196 701 Z M 522 701 C 506 701 494 704 486 712 C 477 720 474 735 477 757 L 478 763 C 480 785 487 800 498 808 C 508 816 521 821 537 821 C 552 821 564 816 573 808 C 581 800 584 785 582 763 L 581 757 C 578 735 571 720 560 712 C 549 704 536 701 522 701 Z" unicode="ΐ" />
<glyph horiz-adv-x="662" d="M 420 319 L 367 689 L 220 319 L 420 319 Z M 467 0 L 433 233 L 186 233 L 94 0 L -4 0 L 329 800 L 432 800 L 569 0 L 467 0 Z" unicode="Α" />
<glyph horiz-adv-x="662" d="M 50 0 L 148 800 L 379 800 C 455 800 509 784 543 753 C 576 722 589 675 581 612 L 575 566 C 571 532 558 504 537 481 C 516 458 489 444 456 438 L 452 409 C 492 405 522 388 543 359 C 563 330 571 293 565 248 L 560 204 C 551 135 524 84 479 50 C 434 16 370 0 287 0 L 50 0 Z M 203 459 L 344 459 C 386 459 419 467 441 485 C 463 503 476 532 481 572 L 485 599 C 489 639 483 668 466 686 C 448 704 418 713 376 713 L 235 713 L 203 459 Z M 158 87 L 316 87 C 362 87 396 97 420 117 C 444 137 458 170 464 215 L 468 246 C 473 290 466 323 448 343 C 429 363 397 373 351 373 L 193 373 L 158 87 Z" unicode="Β" />
<glyph horiz-adv-x="662" d="M 53 0 L 151 800 L 630 800 L 620 713 L 238 713 L 150 0 L 53 0 Z" unicode="Γ" />
<glyph horiz-adv-x="662" d="M -3 0 L 8 87 L 324 800 L 429 800 L 578 87 L 567 0 L -3 0 Z M 481 87 L 367 698 L 101 87 L 481 87 Z" unicode="Δ" />
<glyph horiz-adv-x="662" d="M 50 0 L 148 800 L 629 800 L 619 713 L 235 713 L 206 479 L 544 479 L 533 392 L 195 392 L 158 87 L 542 87 L 531 0 L 50 0 Z" unicode="Ε" />
<glyph horiz-adv-x="662" d="M 531 0 L 33 0 L 44 87 L 506 713 L 121 713 L 131 800 L 629 800 L 619 713 L 157 87 L 542 87 L 531 0 Z" unicode="Ζ" />
<glyph horiz-adv-x="662" d="M 50 0 L 148 800 L 245 800 L 206 478 L 476 478 L 515 800 L 612 800 L 514 0 L 417 0 L 465 391 L 195 391 L 147 0 L 50 0 Z" unicode="Η" />
<glyph horiz-adv-x="662" d="M 281 -10 C 193 -10 129 14 89 62 C 49 110 34 179 46 271 L 77 525 C 89 618 120 689 172 737 C 224 785 294 810 382 810 C 469 810 533 785 573 737 C 613 689 628 618 616 525 L 585 271 C 573 179 542 110 490 62 C 438 14 369 -10 281 -10 Z M 291 77 C 354 77 401 91 431 121 C 461 150 480 200 489 270 L 521 526 C 529 597 522 648 500 678 C 477 708 434 723 371 723 C 307 723 261 708 231 678 C 201 648 181 597 173 526 L 141 270 C 132 200 139 150 162 121 C 184 91 227 77 291 77 Z M 238 361 L 249 449 L 428 449 L 417 361 L 238 361 Z" unicode="Θ" />
<glyph horiz-adv-x="662" d="M 50 0 L 61 87 L 245 87 L 322 713 L 138 713 L 148 800 L 612 800 L 602 713 L 419 713 L 342 87 L 525 87 L 514 0 L 50 0 Z" unicode="Ι" />
<glyph horiz-adv-x="662" d="M 194 382 L 147 0 L 50 0 L 148 800 L 245 800 L 205 469 L 236 469 L 554 800 L 665 800 L 307 432 L 564 0 L 450 0 L 228 382 L 194 382 Z" unicode="Κ" />
<glyph horiz-adv-x="662" d="M 467 0 L 367 689 L 94 0 L -4 0 L 329 800 L 432 800 L 569 0 L 467 0 Z" unicode="Λ" />
<glyph horiz-adv-x="662" d="M 261 197 L 186 646 L 109 0 L 22 0 L 120 800 L 246 800 L 324 316 L 519 800 L 640 800 L 542 0 L 455 0 L 536 646 L 351 197 L 261 197 Z" unicode="Μ" />
<glyph horiz-adv-x="662" d="M 378 0 L 220 680 L 137 0 L 50 0 L 148 800 L 278 800 L 441 110 L 525 800 L 612 800 L 514 0 L 378 0 Z" unicode="Ν" />
<glyph horiz-adv-x="662" d="M 121 713 L 131 800 L 629 800 L 619 713 L 121 713 Z M 104 392 L 115 479 L 567 479 L 556 392 L 104 392 Z M 33 0 L 44 87 L 542 87 L 531 0 L 33 0 Z" unicode="Ξ" />
<glyph horiz-adv-x="662" d="M 281 -10 C 199 -10 140 14 104 62 C 68 110 55 180 66 272 L 97 524 C 109 617 139 688 187 737 C 235 785 300 810 382 810 C 462 810 521 785 558 737 C 594 688 607 617 595 524 L 564 272 C 553 180 523 110 475 62 C 427 14 362 -10 281 -10 Z M 291 77 C 346 77 387 91 414 121 C 440 150 458 200 467 271 L 498 525 C 507 597 502 648 483 678 C 463 708 426 723 371 723 C 315 723 274 708 248 678 C 221 648 203 597 194 525 L 163 271 C 154 200 159 150 179 121 C 198 91 235 77 291 77 Z" unicode="Ο" />
<glyph horiz-adv-x="662" d="M 50 0 L 148 800 L 612 800 L 514 0 L 417 0 L 505 713 L 235 713 L 147 0 L 50 0 Z" unicode="Π" />
<glyph horiz-adv-x="662" d="M 50 0 L 148 800 L 408 800 C 486 800 541 782 575 748 C 608 713 620 660 612 589 L 601 494 C 591 422 566 368 524 334 C 482 299 422 282 344 282 L 182 282 L 147 0 L 50 0 Z M 192 367 L 352 367 C 400 367 436 376 460 396 C 483 415 498 448 504 494 L 515 586 C 520 632 513 664 495 684 C 477 703 443 713 395 713 L 235 713 L 192 367 Z" unicode="Ρ" />
<glyph horiz-adv-x="662" d="M 530 0 L 25 0 L 36 87 L 398 412 L 113 713 L 123 800 L 628 800 L 618 713 L 238 713 L 476 454 L 466 378 L 150 87 L 541 87 L 530 0 Z" unicode="Σ" />
<glyph horiz-adv-x="662" d="M 234 0 L 322 713 L 95 713 L 105 800 L 655 800 L 645 713 L 419 713 L 331 0 L 234 0 Z" unicode="Τ" />
<glyph horiz-adv-x="662" d="M 331 0 L 234 0 L 271 300 L 72 800 L 179 800 L 335 391 L 582 800 L 687 800 L 368 300 L 331 0 Z" unicode="Υ" />
<glyph horiz-adv-x="662" d="M 369 90 L 341 90 L 329 -10 L 234 -10 L 246 90 L 218 90 C 149 90 101 113 74 160 C 47 206 39 270 49 350 L 61 446 C 71 527 95 591 133 639 C 171 686 225 710 294 710 L 322 710 L 334 810 L 429 810 L 417 710 L 445 710 C 513 710 561 686 588 639 C 614 591 623 527 613 446 L 601 350 C 591 270 567 206 529 160 C 491 113 437 90 369 90 Z M 434 623 L 401 623 L 347 177 L 380 177 C 417 177 445 190 465 217 C 485 243 498 288 506 350 L 518 446 C 525 509 522 554 509 582 C 496 609 471 623 434 623 Z M 229 177 L 261 177 L 315 623 L 283 623 C 245 623 216 609 196 582 C 176 554 163 509 156 446 L 144 350 C 136 288 139 243 152 217 C 165 190 191 177 229 177 Z" unicode="Φ" />
<glyph horiz-adv-x="662" d="M 474 0 L 323 323 L 91 0 L -20 0 L 283 408 L 100 800 L 211 800 L 355 494 L 574 800 L 684 800 L 393 409 L 583 0 L 474 0 Z" unicode="Χ" />
<glyph horiz-adv-x="662" d="M 330 0 L 235 0 L 259 194 C 190 202 142 228 115 273 C 87 318 78 377 87 450 L 130 800 L 221 800 L 178 449 C 172 397 176 357 190 331 C 204 305 230 289 270 283 L 333 800 L 428 800 L 365 283 C 405 288 436 304 456 331 C 476 357 490 397 496 449 L 539 800 L 630 800 L 587 450 C 578 377 554 318 516 273 C 477 228 423 202 354 194 L 330 0 Z" unicode="Ψ" />
<glyph horiz-adv-x="662" d="M 237 0 L 24 0 L 35 88 L 153 88 L 164 182 C 124 196 97 223 83 262 C 69 301 66 348 74 404 L 88 525 C 100 618 130 689 179 737 C 228 785 295 810 381 810 C 466 810 527 785 565 737 C 603 689 616 618 604 525 L 590 404 C 582 348 567 301 544 262 C 521 223 488 196 444 182 L 433 88 L 551 88 L 540 0 L 327 0 L 355 230 C 401 238 434 257 454 286 C 474 315 487 354 493 404 L 507 525 C 516 597 510 648 490 678 C 469 708 429 723 371 723 C 312 723 269 708 241 678 C 213 648 194 597 185 525 L 171 404 C 165 354 168 315 181 286 C 193 257 221 238 265 230 L 237 0 Z" unicode="Ω" />
<glyph horiz-adv-x="662" d="M 50 0 L 61 87 L 245 87 L 322 713 L 138 713 L 148 800 L 612 800 L 602 713 L 419 713 L 342 87 L 525 87 L 514 0 L 50 0 Z M 285 911 C 266 911 251 915 241 923 C 231 931 227 945 230 967 L 231 974 C 233 996 241 1011 253 1019 C 265 1027 281 1032 300 1032 C 318 1032 333 1027 343 1019 C 353 1011 356 996 354 974 L 353 967 C 350 945 342 931 330 923 C 318 915 303 911 285 911 Z M 497 911 C 478 911 464 915 454 923 C 444 931 440 945 443 967 L 444 974 C 446 996 454 1011 466 1019 C 478 1027 493 1032 512 1032 C 530 1032 545 1027 555 1019 C 565 1011 569 996 567 974 L 566 967 C 563 945 555 931 543 923 C 530 915 515 911 497 911 Z" unicode="Ϊ" />
<glyph horiz-adv-x="662" d="M 331 0 L 234 0 L 271 300 L 72 800 L 179 800 L 335 391 L 582 800 L 687 800 L 368 300 L 331 0 Z M 285 911 C 266 911 251 915 241 923 C 231 931 227 945 230 967 L 231 974 C 233 996 241 1011 253 1019 C 265 1027 281 1032 300 1032 C 318 1032 333 1027 343 1019 C 353 1011 356 996 354 974 L 353 967 C 350 945 342 931 330 923 C 318 915 303 911 285 911 Z M 497 911 C 478 911 464 915 454 923 C 444 931 440 945 443 967 L 444 974 C 446 996 454 1011 466 1019 C 478 1027 493 1032 512 1032 C 530 1032 545 1027 555 1019 C 565 1011 569 996 567 974 L 566 967 C 563 945 555 931 543 923 C 530 915 515 911 497 911 Z" unicode="Ϋ" />
<glyph horiz-adv-x="662" d="M 247 82 C 275 82 303 90 329 107 C 355 123 382 149 410 183 L 439 417 C 419 451 398 476 376 493 C 354 509 329 518 301 518 C 268 518 242 506 224 483 C 205 459 193 425 188 379 L 168 222 C 162 175 166 140 179 117 C 192 93 215 82 247 82 Z M 422 102 L 395 102 C 374 66 348 38 316 19 C 284 0 248 -10 210 -10 C 158 -10 120 9 94 48 C 68 86 59 141 68 213 L 90 388 C 98 458 120 513 156 552 C 192 590 235 610 286 610 C 320 610 348 601 372 583 C 395 565 412 539 423 507 L 450 507 L 462 600 L 559 600 L 504 157 C 500 122 504 100 518 91 C 532 81 555 80 587 86 L 576 -3 C 524 -9 485 -5 459 11 C 432 27 420 57 422 102 Z M 346 700 L 439 900 L 573 900 L 422 700 L 346 700 Z" unicode="ά" />
<glyph horiz-adv-x="662" d="M 285 -10 C 199 -10 138 4 100 33 C 62 62 47 107 55 168 L 56 177 C 60 211 75 240 102 266 C 128 292 166 306 215 310 L 218 332 C 178 334 149 345 129 363 C 109 381 101 407 105 439 L 106 452 C 112 506 136 545 178 571 C 220 597 281 610 361 610 C 434 610 487 595 521 567 C 554 538 569 493 567 431 L 471 423 C 471 461 462 487 444 502 C 425 517 394 525 350 525 C 300 525 263 519 241 507 C 219 495 206 475 203 447 L 201 433 C 198 408 206 390 225 380 C 243 369 276 364 324 364 L 376 364 L 366 285 L 314 285 C 260 285 221 277 197 262 C 172 247 158 222 154 187 L 153 177 C 148 140 156 114 178 98 C 200 82 239 75 295 75 C 345 75 382 83 407 100 C 431 116 449 146 459 188 L 553 181 C 540 113 512 65 470 35 C 427 5 365 -10 285 -10 Z M 300 700 L 393 900 L 527 900 L 376 700 L 300 700 Z" unicode="έ" />
<glyph horiz-adv-x="662" d="M 392 -200 L 467 404 C 471 442 466 470 451 489 C 435 508 410 518 375 518 C 346 518 317 509 288 493 C 258 476 228 451 198 418 L 147 0 L 51 0 L 125 600 L 221 600 L 209 507 L 237 507 C 255 538 281 563 313 582 C 345 600 380 610 418 610 C 470 610 509 593 536 560 C 562 526 572 482 565 426 L 488 -200 L 392 -200 Z M 303 700 L 396 900 L 530 900 L 379 700 L 303 700 Z" unicode="ή" />
<glyph horiz-adv-x="662" d="M 414 -5 C 357 -5 315 12 287 46 C 259 80 248 127 256 187 L 296 513 L 97 513 L 108 600 L 404 600 L 353 184 C 348 150 352 125 365 108 C 377 91 399 83 430 83 C 443 83 459 84 477 88 C 495 91 511 96 524 102 L 532 18 C 516 10 498 5 478 1 C 457 -3 436 -5 414 -5 Z M 295 700 L 388 900 L 522 900 L 371 700 L 295 700 Z" unicode="ί" />
<glyph horiz-adv-x="662" d="M 281 -10 C 206 -10 151 8 116 46 C 81 84 68 138 77 209 L 125 600 L 221 600 L 173 208 C 167 161 173 127 192 107 C 210 87 243 77 291 77 C 338 77 374 87 398 107 C 422 127 437 161 443 208 L 491 600 L 587 600 L 539 209 C 530 138 503 84 459 46 C 415 8 355 -10 281 -10 Z M 308 700 L 375 900 L 488 900 L 367 700 L 308 700 Z M 205 701 C 189 701 177 704 169 712 C 160 720 157 735 160 757 L 161 763 C 163 785 170 800 181 808 C 191 816 204 821 220 821 C 235 821 247 816 256 808 C 264 800 267 785 265 763 L 264 757 C 261 735 254 720 243 712 C 232 704 219 701 205 701 Z M 531 701 C 515 701 503 704 495 712 C 486 720 483 735 486 757 L 487 763 C 489 785 496 800 507 808 C 517 816 530 821 546 821 C 561 821 573 816 582 808 C 590 800 593 785 591 763 L 590 757 C 587 735 580 720 569 712 C 558 704 545 701 531 701 Z" unicode="ΰ" />
<glyph horiz-adv-x="662" d="M 247 82 C 275 82 303 90 329 107 C 355 123 382 149 410 183 L 439 417 C 419 451 398 476 376 493 C 354 509 329 518 301 518 C 268 518 242 506 224 483 C 205 459 193 425 188 379 L 168 222 C 162 175 166 140 179 117 C 192 93 215 82 247 82 Z M 422 102 L 395 102 C 374 66 348 38 316 19 C 284 0 248 -10 210 -10 C 158 -10 120 9 94 48 C 68 86 59 141 68 213 L 90 388 C 98 458 120 513 156 552 C 192 590 235 610 286 610 C 320 610 348 601 372 583 C 395 565 412 539 423 507 L 450 507 L 462 600 L 559 600 L 504 157 C 500 122 504 100 518 91 C 532 81 555 80 587 86 L 576 -3 C 524 -9 485 -5 459 11 C 432 27 420 57 422 102 Z" unicode="α" />
<glyph horiz-adv-x="662" d="M 283 75 C 331 75 368 86 394 110 C 420 133 436 170 442 220 L 447 263 C 452 303 444 333 424 353 C 404 373 371 383 325 383 L 280 383 L 291 469 L 330 469 C 370 469 400 478 421 496 C 442 514 455 541 460 578 L 462 596 C 467 639 461 671 444 692 C 426 712 397 723 357 723 C 315 723 283 711 261 689 C 238 666 224 631 219 584 L 161 113 C 178 100 196 90 216 84 C 236 78 258 75 283 75 Z M 276 -10 C 252 -10 230 -7 208 -2 C 186 3 167 10 149 19 L 122 -200 L 26 -200 L 122 580 C 132 658 159 715 204 753 C 248 791 303 810 367 810 C 430 810 480 792 516 758 C 552 724 567 675 559 613 L 556 586 C 551 550 539 520 520 495 C 501 470 473 454 437 448 L 433 419 C 473 414 503 398 523 370 C 542 342 550 310 546 272 L 540 220 C 530 140 499 82 447 45 C 395 8 338 -10 276 -10 Z" unicode="β" />
<glyph horiz-adv-x="662" d="M 315 -200 L 199 -200 L 236 20 L 100 600 L 206 600 L 303 144 L 510 600 L 611 600 L 333 20 L 315 -200 Z" unicode="γ" />
<glyph horiz-adv-x="662" d="M 281 -10 C 211 -10 157 8 119 45 C 81 81 66 138 76 214 L 88 312 C 93 352 109 388 136 418 C 163 448 198 472 240 490 C 205 508 181 528 169 550 C 156 572 152 601 156 636 C 162 692 184 733 221 760 C 258 786 310 800 377 800 L 548 800 L 538 713 L 367 713 C 329 713 300 708 281 698 C 261 688 250 668 246 639 C 243 615 250 597 268 584 C 285 571 328 553 398 529 C 462 506 506 479 529 449 C 552 419 560 377 554 323 L 540 214 C 530 138 502 81 455 45 C 408 8 350 -10 281 -10 Z M 291 77 C 335 77 370 87 396 109 C 421 130 437 165 443 214 L 457 323 C 461 359 451 386 429 406 C 407 426 364 445 300 464 C 268 450 242 430 222 405 C 202 379 189 348 185 312 L 173 214 C 167 165 174 130 194 109 C 214 87 246 77 291 77 Z" unicode="δ" />
<glyph horiz-adv-x="662" d="M 285 -10 C 199 -10 138 4 100 33 C 62 62 47 107 55 168 L 56 177 C 60 211 75 240 102 266 C 128 292 166 306 215 310 L 218 332 C 178 334 149 345 129 363 C 109 381 101 407 105 439 L 106 452 C 112 506 136 545 178 571 C 220 597 281 610 361 610 C 434 610 487 595 521 567 C 554 538 569 493 567 431 L 471 423 C 471 461 462 487 444 502 C 425 517 394 525 350 525 C 300 525 263 519 241 507 C 219 495 206 475 203 447 L 201 433 C 198 408 206 390 225 380 C 243 369 276 364 324 364 L 376 364 L 366 285 L 314 285 C 260 285 221 277 197 262 C 172 247 158 222 154 187 L 153 177 C 148 140 156 114 178 98 C 200 82 239 75 295 75 C 345 75 382 83 407 100 C 431 116 449 146 459 188 L 553 181 C 540 113 512 65 470 35 C 427 5 365 -10 285 -10 Z" unicode="ε" />
<glyph horiz-adv-x="662" d="M 311 -200 L 208 -200 L 219 -112 L 335 -112 C 357 -112 376 -107 390 -99 C 404 -91 412 -73 416 -47 C 419 -20 415 -2 403 6 C 391 14 373 19 351 19 L 274 19 C 198 19 144 41 112 85 C 80 129 67 183 75 245 C 80 287 93 326 114 364 C 134 402 159 435 187 465 L 344 628 L 340 642 C 273 635 223 648 189 680 C 155 712 136 755 130 809 L 214 825 C 217 781 237 750 274 734 C 310 717 358 717 416 733 L 606 821 L 631 713 L 481 666 L 263 429 C 240 404 220 377 204 348 C 187 318 177 286 173 252 C 167 208 174 172 192 146 C 210 120 241 107 285 107 L 363 107 C 413 107 451 94 478 70 C 504 46 514 7 508 -47 C 502 -96 481 -134 445 -160 C 409 -186 365 -200 311 -200 Z" unicode="ζ" />
<glyph horiz-adv-x="662" d="M 392 -200 L 467 404 C 471 442 466 470 451 489 C 435 508 410 518 375 518 C 346 518 317 509 288 493 C 258 476 228 451 198 418 L 147 0 L 51 0 L 125 600 L 221 600 L 209 507 L 237 507 C 255 538 281 563 313 582 C 345 600 380 610 418 610 C 470 610 509 593 536 560 C 562 526 572 482 565 426 L 488 -200 L 392 -200 Z" unicode="η" />
<glyph horiz-adv-x="662" d="M 281 -10 C 210 -10 156 8 119 46 C 82 84 68 141 78 217 L 122 579 C 131 656 159 714 205 752 C 251 790 310 810 382 810 C 452 810 506 790 543 752 C 579 714 593 656 584 579 L 540 217 C 530 141 502 84 456 46 C 410 8 351 -10 281 -10 Z M 218 579 L 202 449 L 472 449 L 488 579 C 494 627 487 663 468 687 C 449 711 417 723 371 723 C 325 723 289 711 264 688 C 239 664 224 628 218 579 Z M 291 77 C 337 77 372 88 397 110 C 422 132 438 168 444 216 L 461 361 L 191 361 L 174 216 C 168 168 174 132 193 110 C 212 88 245 77 291 77 Z" unicode="θ" />
<glyph horiz-adv-x="662" d="M 414 -5 C 357 -5 315 12 287 46 C 259 80 248 127 256 187 L 296 513 L 97 513 L 108 600 L 404 600 L 353 184 C 348 150 352 125 365 108 C 377 91 399 83 430 83 C 443 83 459 84 477 88 C 495 91 511 96 524 102 L 532 18 C 516 10 498 5 478 1 C 457 -3 436 -5 414 -5 Z" unicode="ι" />
<glyph horiz-adv-x="662" d="M 225 274 L 191 0 L 94 0 L 168 600 L 265 600 L 235 356 L 281 356 L 486 600 L 602 600 L 352 321 L 525 0 L 415 0 L 271 274 L 225 274 Z" unicode="κ" />
<glyph horiz-adv-x="662" d="M 432 0 L 344 518 L 128 0 L 26 0 L 292 605 L 328 605 L 325 626 C 320 656 310 680 294 696 C 278 712 253 720 221 720 C 209 720 196 719 182 717 C 167 715 151 712 134 708 L 128 794 C 145 797 162 800 178 802 C 194 804 209 805 224 805 C 271 805 310 794 342 772 C 374 750 395 713 405 662 L 537 0 L 432 0 Z" unicode="λ" />
<glyph horiz-adv-x="662" d="M 150 20 L 132 -200 L 17 -200 L 53 20 L 125 600 L 222 600 L 172 194 C 166 154 173 125 191 108 C 209 90 233 82 263 82 C 289 82 313 88 335 102 C 357 115 378 134 399 158 L 454 600 L 551 600 L 496 157 C 492 121 496 99 510 90 C 523 80 546 79 578 86 L 567 -3 C 521 -10 487 -5 465 12 C 443 29 433 59 435 101 L 416 101 C 396 69 372 42 344 21 C 315 0 282 -10 244 -10 C 224 -10 207 -6 192 2 C 176 10 163 22 153 38 L 150 20 Z" unicode="μ" />
<glyph horiz-adv-x="662" d="M 332 0 L 231 0 L 100 600 L 201 600 L 303 73 C 356 160 400 249 436 339 C 472 429 498 516 516 600 L 611 600 C 585 487 548 380 498 280 C 448 179 392 86 332 0 Z" unicode="ν" />
<glyph horiz-adv-x="662" d="M 525 -47 C 519 -96 498 -134 463 -160 C 427 -186 382 -200 328 -200 L 227 -200 L 238 -112 L 352 -112 C 374 -112 393 -107 407 -99 C 421 -91 429 -73 433 -47 C 436 -20 432 -2 420 6 C 408 14 390 19 368 19 L 273 19 C 205 19 154 35 119 69 C 83 103 69 148 76 206 L 80 233 C 84 274 102 310 133 341 C 164 372 207 390 261 395 L 264 418 C 229 418 204 428 188 448 C 172 468 166 494 170 525 C 173 549 182 571 197 591 C 211 610 233 625 261 637 L 264 660 C 210 663 168 678 139 704 C 110 730 93 765 88 809 L 172 825 C 176 792 199 768 239 753 C 279 737 328 734 385 742 L 580 821 L 605 713 L 400 659 L 350 630 C 323 614 303 597 290 581 C 277 564 270 546 268 526 C 264 497 268 477 280 466 C 292 454 308 449 329 449 L 503 449 L 492 361 L 319 361 C 274 361 240 350 218 328 C 195 306 182 279 178 248 L 175 221 C 171 187 177 159 195 138 C 213 117 244 107 288 107 L 380 107 C 430 107 468 94 495 70 C 521 46 531 7 525 -47 Z" unicode="ξ" />
<glyph horiz-adv-x="662" d="M 281 -10 C 207 -10 152 9 117 47 C 81 85 68 139 77 210 L 98 386 C 107 457 134 512 179 551 C 223 590 283 610 358 610 C 431 610 485 590 521 551 C 556 512 569 457 560 386 L 539 211 C 530 139 503 85 459 47 C 414 9 355 -10 281 -10 Z M 291 77 C 336 77 371 87 396 109 C 421 130 437 164 443 210 L 464 386 C 470 432 463 467 443 489 C 423 511 391 523 346 523 C 300 523 265 511 240 489 C 215 467 200 432 194 386 L 173 210 C 167 164 173 130 193 109 C 213 87 245 77 291 77 Z" unicode="ο" />
<glyph horiz-adv-x="662" d="M 614 600 L 603 513 L 495 513 L 451 157 C 447 123 451 101 465 91 C 479 81 508 80 552 86 L 541 -3 C 469 -9 417 -3 387 16 C 357 35 344 69 350 117 L 399 513 L 245 513 L 182 0 L 86 0 L 149 513 L 59 513 L 70 600 L 614 600 Z" unicode="π" />
<glyph horiz-adv-x="662" d="M 319 82 C 355 82 383 93 404 116 C 425 139 438 174 444 221 L 464 386 C 470 432 463 466 443 489 C 423 511 390 523 346 523 C 301 523 266 511 241 489 C 215 466 200 432 194 386 L 169 183 C 189 149 212 123 237 107 C 261 90 289 82 319 82 Z M 26 -200 L 98 386 C 107 460 135 516 182 554 C 228 591 287 610 358 610 C 428 610 481 591 518 554 C 555 516 569 460 560 386 L 539 212 C 530 140 507 85 470 47 C 432 9 387 -10 333 -10 C 297 -10 266 -1 240 17 C 214 35 196 60 186 93 L 158 93 L 122 -200 L 26 -200 Z" unicode="ρ" />
<glyph horiz-adv-x="662" d="M 212 -200 L 223 -113 L 338 -113 C 360 -113 379 -108 393 -100 C 407 -91 415 -73 419 -47 C 422 -20 418 -2 406 6 C 394 14 376 19 354 19 L 276 19 C 197 19 143 38 113 77 C 83 116 72 173 82 249 L 98 384 C 107 457 132 513 174 552 C 216 590 278 610 360 610 C 432 610 484 592 514 557 C 544 522 557 468 553 395 L 463 389 C 466 437 459 472 441 492 C 423 512 392 523 348 523 C 300 523 263 512 239 491 C 215 470 200 437 195 391 L 176 238 C 170 192 177 158 195 137 C 213 116 244 106 290 106 L 368 106 C 418 106 456 93 482 69 C 508 45 517 6 511 -47 C 505 -97 484 -135 448 -161 C 412 -187 367 -200 313 -200 L 212 -200 Z" unicode="ς" />
<glyph horiz-adv-x="662" d="M 273 77 C 311 77 342 87 364 108 C 386 128 400 162 406 210 L 423 354 C 429 408 425 447 409 473 C 393 499 365 512 327 512 C 288 512 257 501 235 479 C 213 457 199 422 193 376 L 173 210 C 167 162 172 128 189 108 C 206 87 234 77 273 77 Z M 263 -10 C 199 -10 149 8 115 44 C 80 80 67 135 77 210 L 97 375 C 105 447 132 503 176 542 C 220 580 275 600 339 600 L 677 600 L 665 503 L 469 520 C 489 504 504 482 514 455 C 523 427 525 395 521 357 L 503 210 C 493 135 467 80 423 44 C 379 8 326 -10 263 -10 Z" unicode="σ" />
<glyph horiz-adv-x="662" d="M 441 -3 C 365 -9 313 -3 283 14 C 253 32 242 67 248 117 L 297 513 L 113 513 L 124 600 L 597 600 L 586 513 L 394 513 L 350 151 C 346 121 351 101 365 92 C 379 82 408 80 452 86 L 441 -3 Z" unicode="τ" />
<glyph horiz-adv-x="662" d="M 281 -10 C 206 -10 151 8 116 46 C 81 84 68 138 77 209 L 125 600 L 221 600 L 173 208 C 167 161 173 127 192 107 C 210 87 243 77 291 77 C 338 77 374 87 398 107 C 422 127 437 161 443 208 L 491 600 L 587 600 L 539 209 C 530 138 503 84 459 46 C 415 8 355 -10 281 -10 Z" unicode="υ" />
<glyph horiz-adv-x="662" d="M 301 -200 L 213 -200 L 237 -8 C 169 0 117 26 83 70 C 49 114 36 175 46 253 L 58 348 C 64 403 76 453 94 499 C 111 544 131 584 155 618 L 235 586 C 214 556 195 521 179 481 C 163 441 152 396 146 348 L 134 253 C 127 199 133 156 152 126 C 171 95 203 76 248 70 L 313 600 L 401 600 C 467 600 518 577 553 531 C 588 485 600 415 588 320 L 580 256 C 570 176 542 114 496 70 C 450 26 393 0 325 -8 L 301 -200 Z M 389 523 L 334 70 C 380 76 417 95 443 127 C 469 158 486 201 493 256 L 501 320 C 509 390 504 441 485 474 C 466 506 434 523 389 523 Z" unicode="φ" />
<glyph horiz-adv-x="662" d="M 384 -200 L 286 105 L 106 -200 L 12 -200 L 257 196 L 127 600 L 223 600 L 324 291 L 507 600 L 601 600 L 353 200 L 482 -200 L 384 -200 Z" unicode="χ" />
<glyph horiz-adv-x="662" d="M 301 -200 L 213 -200 L 237 -7 C 161 0 107 23 77 65 C 46 106 35 161 43 229 L 89 600 L 177 600 L 131 228 C 125 181 131 146 150 122 C 168 98 201 84 249 80 L 313 600 L 400 600 L 336 80 C 384 84 420 98 444 122 C 468 146 483 181 489 228 L 535 600 L 623 600 L 577 229 C 569 161 544 106 502 65 C 460 23 401 0 325 -7 L 301 -200 Z" unicode="ψ" />
</font>
</defs>
</svg>
