<?xml version="1.0" encoding="utf-8" ?><svg version="1.1" xmlns = 'http://www.w3.org/2000/svg'><defs><font id='web' horiz-adv-x="1000">
<font-face font-family="web" descent="-395" cap-height="1434" units-per-em="2048" bbox="-213,-432,2079,1872" x-height="1075" ascent="1487" />
<missing-glyph horiz-adv-x="418" d="" /><glyph horiz-adv-x="418" d="" unicode=" " />
<glyph horiz-adv-x="442" d="M 301 715 L 203 340 L 121 340 L 160 715 L 285 1434 L 426 1434 L 301 715 Z M 225 84 C 225 69 222 55 217 42 C 212 29 205 18 196 8 C 186 -1 175 -8 163 -14 C 150 -20 136 -23 121 -23 C 105 -23 91 -20 79 -14 C 66 -8 55 -1 46 8 C 36 18 29 29 24 42 C 18 55 16 69 16 84 C 16 98 18 112 24 126 C 29 139 36 151 46 161 C 55 171 66 178 79 184 C 91 190 105 193 121 193 C 136 193 150 190 163 184 C 175 178 186 171 196 161 C 205 151 212 139 217 126 C 222 112 225 98 225 84 Z" unicode="!" />
<glyph horiz-adv-x="674" d="M 700 1434 L 559 825 L 461 825 L 532 1434 L 700 1434 Z M 375 1434 L 233 825 L 135 825 L 207 1434 L 375 1434 Z" unicode="&#x22;" />
<glyph horiz-adv-x="1042" d="M 901 356 L 725 356 L 662 0 L 524 0 L 588 356 L 328 356 L 264 0 L 127 0 L 190 356 L 14 356 L 37 483 L 213 483 L 295 952 L 119 952 L 141 1079 L 317 1079 L 379 1434 L 516 1434 L 455 1079 L 715 1079 L 776 1434 L 913 1434 L 852 1079 L 1028 1079 L 1006 952 L 829 952 L 748 483 L 924 483 L 901 356 Z M 610 483 L 692 952 L 432 952 L 350 483 L 610 483 Z" unicode="#" />
<glyph horiz-adv-x="864" d="M 383 0 L 356 -156 L 219 -156 L 246 0 C 180 15 129 47 93 95 C 57 143 32 205 20 279 L 147 330 C 151 297 159 268 171 242 C 183 216 198 194 216 176 C 234 158 254 144 277 135 C 299 125 324 121 350 121 C 384 121 415 127 443 139 C 471 151 495 169 515 192 C 535 214 551 242 563 274 C 574 306 580 343 580 383 C 580 410 576 436 569 462 C 562 487 551 512 536 538 C 521 563 502 588 478 614 C 454 640 425 666 391 694 C 355 723 323 752 297 780 C 270 808 248 836 231 865 C 213 893 200 922 192 952 C 184 982 180 1013 180 1047 C 180 1095 187 1141 201 1185 C 215 1228 236 1267 262 1301 C 288 1335 321 1363 359 1387 C 397 1410 441 1426 489 1436 L 518 1595 L 655 1595 L 627 1436 C 689 1424 738 1399 774 1360 C 810 1321 837 1270 856 1206 L 721 1137 C 711 1165 701 1189 690 1211 C 678 1233 665 1251 650 1266 C 635 1281 618 1293 598 1301 C 578 1309 556 1313 530 1313 C 496 1313 467 1306 442 1292 C 417 1278 396 1261 379 1239 C 362 1217 349 1193 341 1166 C 332 1139 328 1113 328 1087 C 328 1063 330 1041 334 1021 C 338 1000 347 979 359 957 C 371 935 389 913 411 889 C 433 865 462 838 498 809 C 536 777 569 745 597 715 C 625 685 649 654 669 622 C 688 590 702 558 712 524 C 722 490 727 454 727 416 C 727 358 718 306 702 259 C 686 211 663 170 633 134 C 603 98 566 68 524 46 C 482 23 435 8 383 0 Z" unicode="$" />
<glyph horiz-adv-x="1550" d="M 330 563 C 261 563 208 591 171 647 C 133 703 115 785 115 893 C 115 977 122 1054 137 1123 C 152 1192 173 1251 201 1301 C 228 1350 261 1388 299 1415 C 337 1442 378 1456 424 1456 C 496 1456 550 1427 586 1370 C 622 1312 641 1230 641 1122 C 641 1038 633 961 617 893 C 601 824 580 765 552 716 C 524 667 492 629 454 603 C 416 576 374 563 330 563 Z M 1294 1434 L 387 0 L 256 0 L 1161 1434 L 1294 1434 Z M 1124 -23 C 1055 -23 1002 5 965 61 C 927 117 909 199 909 307 C 909 391 916 468 931 537 C 946 606 967 665 995 715 C 1022 764 1055 802 1093 829 C 1131 856 1173 870 1219 870 C 1291 870 1345 841 1381 784 C 1417 727 1436 645 1436 537 C 1436 453 1428 376 1412 307 C 1396 238 1375 179 1347 130 C 1319 81 1286 43 1248 17 C 1210 -9 1168 -23 1124 -23 Z M 514 1116 C 514 1263 478 1337 408 1337 C 384 1337 361 1326 341 1304 C 321 1282 303 1251 289 1212 C 274 1173 262 1127 254 1073 C 246 1019 242 961 242 899 C 242 754 276 682 346 682 C 370 682 393 693 413 715 C 433 737 451 768 466 807 C 481 846 493 892 501 945 C 509 997 514 1054 514 1116 Z M 1309 530 C 1309 603 1300 658 1282 696 C 1264 733 1238 752 1202 752 C 1178 752 1155 741 1135 719 C 1115 697 1097 666 1083 627 C 1068 587 1056 541 1048 487 C 1040 433 1036 375 1036 313 C 1036 168 1071 96 1141 96 C 1165 96 1188 107 1208 129 C 1228 151 1246 182 1261 221 C 1276 260 1288 306 1296 359 C 1304 412 1309 469 1309 530 Z" unicode="%" />
<glyph horiz-adv-x="946" d="M 676 285 L 774 0 L 621 0 L 571 137 C 554 115 536 95 516 76 C 496 57 473 40 449 25 C 425 10 398 -1 370 -10 C 341 -18 310 -23 276 -23 C 234 -23 197 -15 166 -1 C 134 13 108 33 87 59 C 65 85 49 115 39 150 C 28 185 23 223 23 264 C 23 357 48 449 100 541 C 151 632 230 716 336 793 C 330 807 325 822 321 838 C 316 850 311 864 307 879 C 302 893 298 907 295 920 C 283 958 274 993 268 1025 C 261 1057 258 1085 258 1110 C 258 1156 265 1200 280 1242 C 295 1284 317 1320 346 1352 C 374 1384 409 1409 450 1428 C 490 1446 536 1456 588 1456 C 624 1456 656 1450 684 1440 C 712 1429 737 1414 759 1396 C 780 1377 798 1355 814 1330 C 829 1304 842 1277 852 1249 L 729 1165 C 711 1219 691 1258 667 1284 C 643 1310 610 1323 569 1323 C 541 1323 516 1317 496 1307 C 476 1297 459 1283 446 1265 C 433 1247 423 1226 417 1202 C 411 1178 408 1154 408 1128 C 408 1103 410 1078 415 1054 C 419 1029 426 1003 436 977 L 621 440 C 645 488 668 537 689 587 C 710 636 729 683 745 729 L 864 692 C 839 631 811 566 781 496 C 751 426 716 355 676 285 Z M 524 274 L 383 676 C 347 647 315 616 288 582 C 261 548 238 513 220 477 C 201 441 187 406 178 371 C 168 336 164 303 164 272 C 164 246 167 223 174 203 C 180 182 189 164 201 150 C 212 135 226 124 242 116 C 258 108 275 104 295 104 C 317 104 338 108 358 117 C 378 125 398 137 417 152 C 436 167 454 185 472 206 C 490 226 507 249 524 274 Z" unicode="&#x26;" />
<glyph horiz-adv-x="348" d="M 375 1434 L 233 825 L 135 825 L 207 1434 L 375 1434 Z" unicode="'" />
<glyph horiz-adv-x="557" d="M 334 -174 L 254 -225 C 226 -181 202 -135 180 -89 C 158 -42 140 6 125 57 C 109 107 98 160 90 216 C 82 271 78 329 78 391 C 78 497 91 600 115 700 C 139 799 172 894 214 984 C 256 1074 306 1160 364 1240 C 421 1320 483 1394 551 1464 L 618 1405 C 556 1336 500 1261 451 1179 C 401 1097 359 1010 325 918 C 290 826 263 731 245 632 C 227 533 217 432 217 330 C 217 232 226 141 246 57 C 265 -27 294 -104 334 -174 Z" unicode="(" />
<glyph horiz-adv-x="557" d="M 195 1413 L 274 1464 C 328 1376 371 1282 403 1182 C 435 1082 451 970 451 848 C 451 741 439 638 415 539 C 391 440 357 345 315 255 C 272 165 222 79 164 -1 C 106 -81 44 -156 -23 -225 L -90 -166 C -27 -97 28 -22 78 60 C 127 142 169 228 204 320 C 238 412 265 507 283 606 C 301 705 311 806 311 909 C 311 1105 272 1273 195 1413 Z" unicode=")" />
<glyph horiz-adv-x="795" d="M 739 1018 L 674 909 L 465 1067 L 498 805 L 371 805 L 401 1067 L 193 907 L 125 1018 L 362 1118 L 127 1223 L 193 1331 L 401 1169 L 371 1432 L 498 1432 L 465 1171 L 672 1331 L 739 1223 L 502 1118 L 739 1018 Z" unicode="*" />
<glyph horiz-adv-x="854" d="M 782 643 L 489 643 L 489 322 L 365 322 L 365 643 L 72 643 L 72 766 L 365 766 L 365 1087 L 489 1087 L 489 766 L 782 766 L 782 643 Z" unicode="+" />
<glyph horiz-adv-x="375" d="M 211 180 L 35 -211 L -53 -211 L 41 180 L 211 180 Z" unicode="," />
<glyph horiz-adv-x="547" d="M 467 680 L 84 680 L 109 819 L 492 819 L 467 680 Z" unicode="-" />
<glyph horiz-adv-x="375" d="M 205 84 C 205 54 195 28 176 8 C 156 -12 131 -23 100 -23 C 70 -23 45 -12 25 8 C 5 28 -4 54 -4 84 C -4 98 -1 112 4 126 C 9 139 16 151 26 161 C 35 171 46 178 59 184 C 71 190 85 193 100 193 C 115 193 129 190 142 184 C 155 178 166 171 176 161 C 185 151 192 139 197 126 C 202 112 205 98 205 84 Z" unicode="." />
<glyph horiz-adv-x="621" d="M 766 1618 L -14 -184 L -145 -184 L 635 1618 L 766 1618 Z" unicode="/" />
<glyph horiz-adv-x="956" d="M 371 -23 C 171 -23 72 130 72 436 C 72 513 76 592 85 673 C 94 753 108 831 126 907 C 144 982 167 1053 195 1120 C 223 1186 256 1244 294 1294 C 332 1344 375 1383 424 1412 C 472 1441 526 1456 586 1456 C 684 1456 759 1419 809 1345 C 859 1271 885 1159 885 1008 C 885 924 880 841 871 758 C 862 675 848 595 830 519 C 812 443 789 372 761 306 C 733 240 700 182 662 134 C 624 85 580 47 532 19 C 484 -9 430 -23 371 -23 Z M 743 981 C 743 1097 728 1183 700 1239 C 672 1295 627 1323 567 1323 C 527 1323 490 1310 457 1284 C 424 1258 395 1222 369 1178 C 343 1134 320 1082 300 1024 C 280 966 264 904 251 839 C 238 774 228 708 222 640 C 216 572 213 508 213 446 C 213 331 227 246 257 192 C 287 138 331 111 391 111 C 431 111 467 123 500 148 C 533 173 563 207 589 251 C 615 294 637 344 657 402 C 676 459 692 520 705 584 C 717 648 727 715 733 783 C 739 851 743 917 743 981 Z" unicode="0" />
<glyph horiz-adv-x="510" d="M 227 0 L 88 0 L 297 1182 L 100 1182 L 117 1276 C 150 1278 180 1283 206 1289 C 232 1295 256 1304 276 1316 C 296 1328 314 1343 330 1362 C 345 1381 358 1405 369 1434 L 479 1434 L 227 0 Z" unicode="1" />
<glyph horiz-adv-x="825" d="M 635 0 L -37 0 C -19 100 3 188 31 262 C 59 336 93 402 131 460 C 169 518 213 570 263 618 C 312 666 366 714 426 762 C 477 803 519 841 553 876 C 586 911 612 944 632 976 C 651 1008 664 1039 672 1069 C 680 1099 684 1129 684 1161 C 684 1213 671 1253 647 1281 C 622 1309 584 1323 532 1323 C 480 1323 434 1306 394 1273 C 353 1240 317 1194 285 1135 L 172 1196 C 191 1230 213 1262 238 1294 C 262 1325 290 1353 322 1377 C 353 1401 388 1420 426 1434 C 464 1448 506 1456 553 1456 C 595 1456 634 1449 668 1437 C 702 1425 732 1407 756 1383 C 780 1359 798 1331 811 1297 C 824 1263 831 1224 831 1182 C 830 1127 823 1078 810 1034 C 797 990 777 948 751 908 C 724 868 690 828 649 788 C 607 748 558 705 502 659 C 442 609 391 563 350 519 C 308 475 274 431 247 389 C 219 347 197 305 181 263 C 164 221 151 179 141 135 L 659 135 L 635 0 Z" unicode="2" />
<glyph horiz-adv-x="795" d="M 264 -23 C 224 -23 187 -17 153 -5 C 118 7 87 24 59 48 C 31 71 8 99 -11 133 C -30 166 -44 204 -53 248 L 82 311 C 96 240 120 189 154 158 C 187 126 228 111 276 111 C 318 111 356 121 388 143 C 420 164 448 193 470 229 C 492 265 508 306 520 353 C 531 400 537 449 537 500 C 537 568 519 617 484 649 C 449 680 398 696 332 696 L 276 696 L 299 827 L 367 827 C 405 827 441 834 473 849 C 505 864 532 886 555 914 C 577 942 595 976 608 1016 C 620 1056 627 1101 627 1151 C 627 1203 615 1244 591 1276 C 567 1307 531 1323 481 1323 C 433 1323 391 1308 353 1278 C 315 1248 278 1203 244 1145 L 137 1206 C 157 1243 180 1277 204 1308 C 228 1338 255 1365 285 1387 C 314 1409 346 1426 381 1438 C 416 1450 454 1456 496 1456 C 538 1456 577 1449 611 1435 C 645 1421 675 1402 699 1378 C 723 1353 741 1324 754 1290 C 767 1256 774 1218 774 1178 C 774 1119 767 1067 755 1023 C 742 979 725 940 703 908 C 681 875 656 847 627 825 C 598 802 567 783 535 768 C 554 762 573 754 592 742 C 610 730 627 713 641 692 C 655 671 667 645 676 614 C 685 583 690 546 690 504 C 690 429 680 359 660 295 C 640 231 611 175 574 128 C 537 81 492 44 440 17 C 387 -9 328 -23 264 -23 Z" unicode="3" />
<glyph horiz-adv-x="903" d="M 799 377 L 666 377 L 600 0 L 469 0 L 535 377 L 6 377 L 27 485 L 723 1434 L 852 1434 L 688 500 L 821 500 L 799 377 Z M 688 1202 C 678 1188 666 1171 652 1152 C 638 1132 624 1112 608 1091 C 592 1069 577 1048 561 1026 C 545 1004 530 984 516 965 L 324 707 C 296 669 268 631 240 595 C 212 558 188 526 168 500 L 229 500 L 557 500 L 655 1040 C 657 1050 659 1063 662 1078 C 665 1092 668 1107 671 1123 C 674 1138 677 1153 680 1167 C 683 1181 686 1192 688 1202 Z" unicode="4" />
<glyph horiz-adv-x="860" d="M 305 -23 C 261 -23 223 -16 189 -3 C 155 10 125 28 100 51 C 75 73 54 99 38 129 C 21 159 8 190 0 223 L 129 293 C 135 268 143 245 153 223 C 163 201 176 181 191 165 C 206 148 224 135 245 125 C 266 115 291 111 319 111 C 366 111 408 124 445 150 C 481 176 512 211 537 255 C 562 298 581 347 594 403 C 607 458 614 515 614 573 C 614 603 610 632 604 659 C 598 685 588 708 575 728 C 561 747 544 762 524 774 C 504 785 479 791 451 791 C 427 791 404 788 384 782 C 363 776 344 768 326 758 C 308 748 290 735 274 721 C 258 706 241 690 225 672 L 106 707 L 268 1434 L 870 1434 L 846 1294 L 373 1294 L 264 840 C 295 868 328 889 362 903 C 396 917 437 924 483 924 C 527 924 567 916 602 902 C 637 888 667 867 691 841 C 715 815 734 783 747 745 C 759 707 766 664 766 616 C 766 528 755 446 734 369 C 713 291 683 224 644 166 C 604 108 556 62 499 28 C 441 -6 377 -23 305 -23 Z" unicode="5" />
<glyph horiz-adv-x="899" d="M 385 -23 C 340 -23 299 -14 261 4 C 223 22 190 48 162 83 C 134 118 112 162 96 214 C 80 266 72 325 72 393 C 72 489 81 579 100 664 C 118 748 144 827 177 900 C 210 972 249 1039 294 1099 C 338 1159 387 1212 439 1259 C 491 1306 545 1346 602 1379 C 659 1411 716 1437 774 1456 L 803 1337 C 734 1313 670 1281 611 1239 C 552 1197 499 1150 453 1096 C 406 1042 366 983 332 920 C 298 856 272 791 254 725 C 268 743 284 760 304 777 C 323 794 344 809 367 822 C 390 835 415 846 441 854 C 467 862 495 866 524 866 C 566 866 606 857 643 840 C 679 823 711 799 738 769 C 765 739 786 702 802 660 C 817 617 825 570 825 518 C 825 442 813 372 791 306 C 768 240 737 183 697 134 C 657 85 611 47 557 19 C 503 -9 446 -23 385 -23 Z M 678 489 C 678 525 674 559 666 589 C 658 619 647 645 631 666 C 615 687 595 703 571 715 C 547 727 519 733 487 733 C 442 733 402 722 368 701 C 334 679 305 651 282 616 C 258 581 241 541 229 495 C 217 449 211 402 211 354 C 211 317 215 284 224 254 C 232 224 245 198 261 177 C 277 156 297 140 320 128 C 343 116 369 111 399 111 C 440 111 478 121 512 141 C 546 161 576 189 600 224 C 624 258 643 298 657 344 C 671 390 678 438 678 489 Z" unicode="6" />
<glyph horiz-adv-x="834" d="M 860 1303 C 782 1213 714 1120 654 1025 C 594 929 542 829 496 723 C 450 617 410 505 376 386 C 342 266 312 138 287 0 L 143 0 C 168 132 198 257 232 376 C 266 495 307 608 353 716 C 399 824 451 926 510 1022 C 568 1118 635 1210 709 1298 L 170 1298 L 193 1434 L 883 1434 L 860 1303 Z" unicode="7" />
<glyph horiz-adv-x="918" d="M 367 -20 C 319 -20 275 -11 236 5 C 197 22 164 46 136 78 C 108 109 87 147 73 192 C 58 236 51 286 51 342 C 51 393 57 441 70 487 C 82 532 100 573 122 611 C 144 648 171 681 202 710 C 233 738 267 762 303 780 C 267 804 239 838 218 882 C 196 926 186 976 186 1034 C 186 1086 195 1137 214 1187 C 233 1237 260 1281 294 1321 C 328 1361 369 1393 417 1417 C 464 1441 516 1454 573 1454 C 621 1454 664 1445 702 1428 C 739 1410 770 1387 795 1358 C 820 1328 839 1294 852 1256 C 865 1218 872 1178 872 1137 C 872 1093 866 1053 855 1017 C 843 981 828 948 809 918 C 789 888 767 861 741 838 C 715 814 688 794 659 778 C 705 751 741 714 766 666 C 790 618 803 560 803 492 C 803 420 791 352 769 290 C 746 228 715 174 676 128 C 636 82 590 45 537 19 C 484 -6 427 -20 367 -20 Z M 731 1130 C 731 1155 727 1179 721 1202 C 714 1225 704 1245 690 1263 C 676 1281 659 1295 638 1305 C 617 1315 592 1321 563 1321 C 525 1321 492 1313 464 1297 C 435 1281 411 1259 391 1233 C 371 1207 356 1177 346 1144 C 336 1111 330 1078 330 1044 C 329 1016 332 990 339 966 C 346 942 356 921 370 903 C 384 885 401 870 422 860 C 442 849 466 844 494 844 C 528 844 559 851 588 867 C 616 883 641 904 663 931 C 684 957 701 988 713 1022 C 725 1056 731 1092 731 1130 Z M 657 477 C 657 509 653 540 645 569 C 637 597 626 622 611 643 C 595 664 576 681 553 693 C 529 705 502 711 471 711 C 429 711 391 700 357 680 C 323 660 293 633 269 600 C 245 567 226 529 213 487 C 199 444 193 400 193 356 C 193 320 197 288 205 258 C 213 228 225 203 241 181 C 257 159 277 143 301 131 C 325 119 353 113 385 113 C 426 113 463 123 497 144 C 531 164 559 192 583 226 C 607 260 625 298 638 342 C 650 386 657 431 657 477 Z" unicode="8" />
<glyph horiz-adv-x="899" d="M 539 1456 C 583 1456 625 1448 663 1433 C 701 1417 735 1394 763 1362 C 791 1330 814 1291 830 1244 C 846 1196 854 1141 854 1077 C 854 959 837 843 804 729 C 770 614 722 507 659 409 C 596 310 519 223 428 148 C 336 72 233 15 117 -23 L 92 96 C 158 118 220 148 278 186 C 336 223 390 267 438 318 C 486 368 529 425 565 488 C 601 551 631 620 653 694 C 617 652 579 620 541 599 C 502 577 457 567 406 567 C 361 567 320 575 283 592 C 245 608 213 632 187 662 C 160 692 139 729 124 773 C 109 816 102 864 102 918 C 102 995 113 1066 135 1132 C 157 1198 188 1255 227 1303 C 266 1351 312 1388 366 1415 C 419 1442 477 1456 539 1456 Z M 248 944 C 248 906 251 872 259 842 C 266 812 277 786 292 764 C 307 742 326 726 350 714 C 374 702 402 696 434 696 C 478 696 518 706 553 728 C 587 750 617 778 641 814 C 665 850 683 891 696 937 C 708 983 715 1030 715 1079 C 715 1115 710 1149 702 1179 C 693 1209 680 1235 664 1256 C 648 1277 628 1293 605 1305 C 581 1317 555 1323 526 1323 C 484 1323 446 1312 412 1292 C 378 1272 348 1244 324 1210 C 300 1175 281 1135 268 1089 C 254 1043 248 994 248 944 Z" unicode="9" />
<glyph horiz-adv-x="375" d="M 358 989 C 358 959 348 933 329 913 C 309 893 284 883 254 883 C 224 883 199 893 179 913 C 159 933 150 959 150 989 C 150 1003 152 1017 158 1031 C 163 1044 170 1056 180 1066 C 189 1076 200 1083 213 1089 C 225 1095 239 1098 254 1098 C 269 1098 283 1095 296 1089 C 308 1083 319 1076 329 1066 C 338 1056 345 1044 350 1031 C 355 1017 358 1003 358 989 Z M 205 84 C 205 54 195 28 176 8 C 156 -12 131 -23 100 -23 C 70 -23 45 -12 25 8 C 5 28 -4 54 -4 84 C -4 98 -1 112 4 126 C 9 139 16 151 26 161 C 35 171 46 178 59 184 C 71 190 85 193 100 193 C 115 193 129 190 142 184 C 155 178 166 171 176 161 C 185 151 192 139 197 126 C 202 112 205 98 205 84 Z" unicode=":" />
<glyph horiz-adv-x="375" d="M 358 989 C 358 959 348 933 329 913 C 309 893 284 883 254 883 C 224 883 199 893 179 913 C 159 933 150 959 150 989 C 150 1003 152 1017 158 1031 C 163 1044 170 1056 180 1066 C 189 1076 200 1083 213 1089 C 225 1095 239 1098 254 1098 C 269 1098 283 1095 296 1089 C 308 1083 319 1076 329 1066 C 338 1056 345 1044 350 1031 C 355 1017 358 1003 358 989 Z M 211 180 L 35 -211 L -53 -211 L 41 180 L 211 180 Z" unicode=";" />
<glyph horiz-adv-x="616" d="M 524 201 L 76 649 L 76 760 L 524 1208 L 524 1028 L 186 707 L 524 383 L 524 201 Z" unicode="&#x3C;" />
<glyph horiz-adv-x="899" d="M 780 829 L 119 829 L 119 961 L 780 961 L 780 829 Z M 780 449 L 119 449 L 119 580 L 780 580 L 780 449 Z" unicode="=" />
<glyph horiz-adv-x="616" d="M 541 649 L 92 201 L 92 381 L 432 702 L 92 1026 L 92 1208 L 541 760 L 541 649 Z" unicode="&#x3E;" />
<glyph horiz-adv-x="776" d="M 528 743 C 500 720 476 697 456 674 C 436 650 420 624 406 595 C 392 565 380 531 370 493 C 360 455 352 410 344 358 L 209 358 C 218 420 228 475 240 521 C 252 567 267 608 286 645 C 305 681 329 715 358 747 C 387 779 423 812 467 846 C 521 889 562 936 590 987 C 618 1038 633 1094 633 1155 C 633 1205 620 1245 596 1276 C 571 1307 533 1323 483 1323 C 433 1323 388 1307 349 1276 C 309 1245 271 1196 233 1128 L 121 1184 C 142 1224 166 1261 192 1295 C 218 1329 247 1357 279 1381 C 311 1405 346 1423 384 1436 C 422 1449 464 1456 510 1456 C 554 1456 593 1449 627 1437 C 661 1424 689 1406 713 1382 C 736 1358 754 1330 766 1296 C 778 1262 784 1225 784 1184 C 784 1142 777 1101 765 1061 C 753 1021 735 982 713 945 C 690 908 663 873 632 839 C 600 805 566 773 528 743 Z M 350 84 C 350 69 347 55 342 42 C 337 29 330 18 321 8 C 311 -1 300 -8 288 -14 C 275 -20 261 -23 246 -23 C 230 -23 216 -20 204 -14 C 191 -8 180 -1 171 8 C 161 18 154 29 149 42 C 143 55 141 69 141 84 C 141 98 143 112 149 126 C 154 139 161 151 171 161 C 180 171 191 178 204 184 C 216 190 230 193 246 193 C 261 193 275 190 288 184 C 300 178 311 171 321 161 C 330 151 337 139 342 126 C 347 112 350 98 350 84 Z" unicode="?" />
<glyph horiz-adv-x="1264" d="M 1174 737 C 1174 657 1168 589 1158 535 C 1147 481 1132 437 1112 404 C 1092 371 1068 348 1040 334 C 1012 320 980 313 946 313 C 906 313 874 321 848 338 C 822 355 802 378 788 406 C 761 376 732 353 702 336 C 672 319 636 311 594 311 C 528 311 476 333 438 379 C 400 425 381 493 381 584 C 381 628 386 667 398 701 C 409 734 425 762 446 784 C 466 806 491 822 520 833 C 549 844 581 850 616 850 C 648 850 674 846 694 839 C 714 832 733 823 750 813 L 750 940 C 750 979 740 1008 722 1027 C 704 1045 672 1055 627 1055 C 580 1055 531 1035 481 997 L 432 1071 C 463 1096 496 1116 530 1131 C 564 1145 601 1153 641 1153 C 673 1153 701 1149 727 1143 C 753 1136 774 1125 792 1109 C 809 1093 822 1071 832 1045 C 841 1018 846 985 846 946 L 846 537 C 846 497 854 465 870 441 C 886 417 913 406 950 406 C 970 406 987 411 1003 423 C 1019 434 1032 452 1042 478 C 1052 504 1060 538 1066 580 C 1072 622 1075 675 1075 737 C 1075 835 1064 922 1043 1000 C 1021 1078 991 1144 953 1198 C 914 1252 867 1293 813 1321 C 759 1349 699 1364 633 1364 C 563 1364 501 1349 446 1319 C 391 1289 344 1247 306 1191 C 268 1135 238 1068 218 988 C 198 908 188 819 188 719 C 188 619 198 529 218 449 C 238 369 268 300 307 244 C 345 188 392 145 448 115 C 504 85 567 70 637 70 C 675 70 710 75 744 86 C 778 96 810 111 840 131 L 879 51 C 839 26 799 7 760 -4 C 720 -16 678 -23 633 -23 C 551 -23 477 -5 411 29 C 344 63 287 113 240 177 C 192 241 156 319 130 411 C 104 502 92 604 92 717 C 92 829 104 931 130 1022 C 156 1113 192 1191 240 1255 C 287 1319 344 1369 411 1404 C 477 1438 551 1456 633 1456 C 715 1456 790 1437 857 1401 C 923 1365 980 1315 1027 1251 C 1074 1187 1110 1111 1136 1023 C 1161 935 1174 839 1174 737 Z M 750 481 L 750 719 C 733 730 714 739 692 747 C 670 754 644 758 612 758 C 570 758 538 742 517 711 C 495 679 485 638 485 586 C 485 529 494 485 514 453 C 533 421 564 406 608 406 C 636 406 662 412 687 426 C 712 440 733 458 750 481 Z" unicode="@" />
<glyph horiz-adv-x="946" d="M 772 0 L 627 0 L 608 373 L 233 373 L 82 0 L -59 0 L 532 1434 L 684 1434 L 772 0 Z M 602 506 L 584 864 C 582 898 581 933 580 969 C 578 1005 577 1041 576 1077 C 575 1113 574 1147 574 1180 C 574 1213 574 1243 575 1270 C 567 1244 558 1214 547 1181 C 535 1147 523 1112 510 1076 C 496 1040 483 1003 469 967 C 455 930 441 895 428 862 L 287 506 L 602 506 Z" unicode="A" />
<glyph horiz-adv-x="940" d="M 346 0 L 16 0 L 268 1434 L 584 1434 C 680 1434 753 1410 803 1362 C 852 1314 877 1245 877 1157 C 877 1105 870 1058 857 1016 C 844 974 827 936 805 903 C 783 870 758 842 730 819 C 702 796 672 778 641 764 C 663 755 684 743 704 729 C 724 715 741 697 756 675 C 770 653 782 628 790 598 C 798 568 803 534 803 494 C 803 416 791 346 768 285 C 745 223 713 172 673 130 C 632 88 584 55 528 33 C 472 11 411 0 346 0 Z M 731 1133 C 731 1187 717 1228 691 1257 C 664 1285 621 1300 563 1300 L 389 1300 L 305 827 L 473 827 C 516 827 554 835 586 853 C 618 870 645 893 667 921 C 688 949 704 982 715 1019 C 725 1055 731 1093 731 1133 Z M 655 483 C 655 552 636 604 600 640 C 564 676 512 694 446 694 L 283 694 L 182 133 L 371 133 C 415 133 454 141 489 158 C 524 174 554 198 579 229 C 603 259 622 296 635 339 C 648 382 655 430 655 483 Z" unicode="B" />
<glyph horiz-adv-x="887" d="M 786 281 C 766 234 743 192 717 154 C 691 116 663 84 632 58 C 600 32 566 12 529 -2 C 491 -16 450 -23 406 -23 C 351 -23 303 -11 263 10 C 223 32 189 65 162 107 C 135 149 115 202 102 264 C 88 326 82 397 82 477 C 82 613 94 740 119 859 C 144 977 179 1081 225 1170 C 270 1258 324 1328 387 1379 C 449 1430 518 1456 594 1456 C 638 1456 678 1449 712 1435 C 746 1421 776 1401 802 1375 C 827 1349 848 1317 865 1279 C 881 1241 895 1197 905 1149 L 768 1092 C 758 1170 738 1228 709 1266 C 679 1304 641 1323 594 1323 C 558 1323 524 1312 492 1291 C 460 1270 430 1240 403 1202 C 375 1164 350 1118 328 1065 C 306 1011 287 952 271 887 C 255 822 243 752 235 678 C 227 603 223 526 223 446 C 223 329 240 244 275 191 C 310 137 358 111 420 111 C 472 111 519 129 560 165 C 601 201 640 260 676 340 L 786 281 Z" unicode="C" />
<glyph horiz-adv-x="977" d="M 279 0 L 16 0 L 268 1434 L 518 1434 C 642 1434 738 1394 805 1314 C 871 1234 905 1114 905 956 C 905 817 890 689 861 572 C 832 455 791 354 737 270 C 683 185 617 119 540 71 C 462 23 375 0 279 0 Z M 760 948 C 760 1010 754 1063 742 1107 C 730 1151 712 1188 690 1217 C 668 1245 640 1266 608 1280 C 575 1293 538 1300 498 1300 L 389 1300 L 182 133 L 307 133 C 375 133 437 153 493 195 C 549 237 596 294 636 367 C 675 440 705 526 727 626 C 749 725 760 832 760 948 Z" unicode="D" />
<glyph horiz-adv-x="811" d="M 643 0 L 16 0 L 268 1434 L 870 1434 L 848 1300 L 389 1300 L 307 834 L 602 834 L 578 698 L 283 698 L 182 133 L 666 133 L 643 0 Z" unicode="E" />
<glyph horiz-adv-x="754" d="M 846 1300 L 389 1300 L 303 817 L 602 817 L 580 682 L 281 682 L 160 0 L 16 0 L 268 1434 L 868 1434 L 846 1300 Z" unicode="F" />
<glyph horiz-adv-x="973" d="M 840 494 C 826 418 808 348 784 286 C 760 223 731 169 695 125 C 659 80 616 45 568 21 C 519 -3 463 -16 401 -16 C 345 -16 296 -5 256 17 C 216 39 182 70 156 112 C 129 154 109 205 97 265 C 84 325 78 393 78 469 C 78 557 83 642 94 726 C 104 809 120 887 141 960 C 162 1033 188 1100 219 1161 C 250 1221 285 1273 325 1317 C 365 1361 409 1395 458 1419 C 506 1443 559 1456 616 1456 C 662 1456 703 1448 738 1432 C 772 1416 802 1393 827 1365 C 851 1337 871 1303 886 1265 C 900 1227 911 1185 918 1141 L 778 1085 C 766 1167 747 1228 719 1266 C 691 1304 653 1323 606 1323 C 568 1323 533 1312 499 1290 C 465 1268 434 1237 406 1198 C 377 1159 351 1113 328 1059 C 305 1005 285 947 269 884 C 253 820 240 753 232 682 C 223 610 219 538 219 465 C 219 343 236 254 271 198 C 305 142 354 115 418 115 C 494 115 554 145 599 206 C 644 267 677 359 698 483 L 717 592 L 526 592 L 547 725 L 879 725 L 840 494 Z" unicode="G" />
<glyph horiz-adv-x="1020" d="M 752 0 L 610 0 L 733 692 L 283 692 L 160 0 L 16 0 L 268 1434 L 412 1434 L 305 825 L 756 825 L 862 1434 L 1004 1434 L 752 0 Z" unicode="H" />
<glyph horiz-adv-x="449" d="M 170 0 L 27 0 L 279 1434 L 422 1434 L 170 0 Z" unicode="I" />
<glyph horiz-adv-x="823" d="M 629 416 C 616 343 599 279 578 225 C 557 170 530 125 498 90 C 462 52 423 24 379 5 C 335 -13 285 -23 231 -23 C 133 -23 61 7 15 67 C -30 127 -53 215 -51 332 L 92 367 C 86 196 137 111 246 111 C 309 111 360 135 398 184 C 436 232 465 311 485 420 L 664 1434 L 807 1434 L 629 416 Z" unicode="J" />
<glyph horiz-adv-x="883" d="M 748 0 L 602 0 L 440 764 L 252 528 L 160 0 L 16 0 L 268 1434 L 412 1434 L 330 961 C 327 945 324 927 320 906 C 316 884 311 863 307 841 C 303 819 299 797 295 777 C 291 757 289 741 287 729 C 299 747 314 767 331 791 C 348 815 366 839 385 865 C 403 890 422 915 441 941 C 459 967 477 990 494 1012 L 813 1434 L 967 1434 L 555 897 L 748 0 Z" unicode="K" />
<glyph horiz-adv-x="727" d="M 606 0 L 16 0 L 268 1434 L 412 1434 L 182 133 L 629 133 L 606 0 Z" unicode="L" />
<glyph horiz-adv-x="1188" d="M 920 0 L 786 0 L 938 858 C 940 876 945 899 951 928 C 957 957 964 987 971 1018 C 977 1048 984 1077 990 1105 C 996 1133 1002 1155 1006 1171 C 998 1149 988 1124 977 1096 C 965 1067 953 1037 940 1006 C 927 974 914 943 900 912 C 886 880 874 851 862 825 L 459 -41 L 362 825 C 358 852 355 882 353 914 C 351 946 349 977 347 1009 C 345 1041 344 1071 343 1101 C 342 1130 342 1156 342 1178 C 340 1162 338 1141 335 1113 C 331 1085 328 1056 324 1025 C 320 994 316 964 312 934 C 308 904 304 878 301 858 L 150 0 L 16 0 L 268 1434 L 426 1434 L 512 680 C 519 617 524 557 528 499 C 531 441 530 388 526 340 C 541 388 561 441 586 499 C 611 557 638 617 668 680 L 1016 1434 L 1171 1434 L 920 0 Z" unicode="M" />
<glyph horiz-adv-x="1020" d="M 752 0 L 631 0 L 436 786 C 428 816 421 848 413 884 C 405 920 397 955 389 991 C 381 1027 373 1061 366 1093 C 358 1125 352 1153 348 1176 C 346 1160 344 1139 340 1113 C 336 1086 332 1057 328 1027 C 324 997 319 967 315 937 C 310 907 306 881 303 860 L 152 0 L 16 0 L 268 1434 L 408 1434 L 602 684 C 610 652 618 618 626 584 C 634 549 641 515 648 482 C 655 448 661 416 667 385 C 673 353 678 325 682 299 C 682 313 684 334 688 360 C 691 386 695 414 699 444 C 703 474 708 503 713 533 C 717 563 721 588 725 610 L 868 1434 L 1004 1434 L 752 0 Z" unicode="N" />
<glyph horiz-adv-x="1012" d="M 399 -20 C 345 -20 298 -9 258 12 C 218 34 184 65 158 107 C 132 148 112 199 99 259 C 86 319 80 389 80 467 C 80 549 85 631 95 713 C 105 794 120 871 140 944 C 160 1017 184 1085 214 1147 C 244 1209 278 1263 318 1309 C 357 1354 401 1389 450 1415 C 498 1441 552 1454 610 1454 C 716 1454 796 1413 850 1331 C 904 1249 932 1128 932 969 C 932 890 927 811 917 732 C 907 652 893 576 873 503 C 853 429 829 361 800 297 C 770 233 736 178 697 131 C 657 84 613 47 563 20 C 513 -6 459 -20 399 -20 Z M 791 973 C 791 1034 786 1087 776 1131 C 766 1175 753 1211 736 1239 C 718 1267 697 1287 672 1301 C 647 1314 620 1321 590 1321 C 550 1321 513 1308 480 1283 C 446 1257 416 1223 389 1180 C 361 1136 337 1086 316 1028 C 295 970 278 910 264 846 C 250 782 239 716 232 648 C 224 580 221 515 221 453 C 221 391 225 338 234 295 C 242 251 255 216 272 189 C 288 162 309 143 333 131 C 357 119 384 113 414 113 C 452 113 488 124 522 148 C 556 172 587 204 615 246 C 643 287 668 335 690 391 C 712 447 730 506 745 570 C 760 634 771 700 779 769 C 787 837 791 905 791 973 Z" unicode="O" />
<glyph horiz-adv-x="915" d="M 438 618 L 268 618 L 160 0 L 16 0 L 268 1434 L 582 1434 C 632 1434 677 1427 717 1415 C 757 1402 792 1383 820 1357 C 848 1331 870 1299 886 1260 C 901 1220 909 1174 909 1120 C 909 1032 895 956 869 893 C 842 829 807 777 763 737 C 719 696 668 666 612 647 C 555 627 497 618 438 618 Z M 766 1102 C 766 1168 748 1217 713 1250 C 678 1283 629 1300 565 1300 L 389 1300 L 293 752 L 469 752 C 513 752 554 760 590 776 C 626 792 658 816 684 846 C 710 876 730 913 744 956 C 758 999 766 1048 766 1102 Z" unicode="P" />
<glyph horiz-adv-x="1012" d="M 705 141 L 780 14 L 668 -63 L 636 -9 C 628 4 620 16 613 28 C 606 39 602 45 602 45 C 542 1 475 -20 399 -20 C 287 -20 206 20 156 102 C 105 184 80 305 80 467 C 80 547 85 628 95 708 C 105 788 120 865 140 938 C 160 1011 184 1079 214 1142 C 243 1205 277 1260 316 1306 C 354 1352 398 1388 446 1414 C 494 1440 546 1454 604 1454 C 714 1454 796 1413 850 1331 C 904 1249 932 1128 932 969 C 932 891 927 813 918 735 C 908 657 894 581 875 509 C 856 437 832 369 804 306 C 776 243 743 188 705 141 Z M 537 156 L 459 289 L 569 367 L 631 264 C 656 306 679 354 699 409 C 719 463 735 522 749 584 C 763 646 773 710 780 776 C 787 842 791 907 791 973 C 791 1034 786 1087 777 1131 C 767 1175 754 1211 737 1239 C 719 1267 698 1287 673 1301 C 648 1314 620 1321 588 1321 C 548 1321 511 1308 478 1282 C 444 1256 414 1222 387 1179 C 359 1135 335 1085 315 1027 C 294 969 277 908 263 844 C 249 780 238 714 231 647 C 224 579 221 515 221 453 C 221 390 225 337 234 294 C 243 251 256 216 273 189 C 290 162 311 143 336 131 C 360 119 388 113 420 113 C 463 113 502 127 537 156 Z" unicode="Q" />
<glyph horiz-adv-x="952" d="M 731 0 L 588 0 L 487 651 C 482 650 470 650 450 650 C 430 650 408 650 384 650 C 360 650 337 650 316 650 C 294 650 280 651 274 651 L 160 0 L 16 0 L 268 1434 L 598 1434 C 646 1434 690 1427 729 1415 C 768 1402 801 1383 828 1357 C 855 1331 876 1298 891 1259 C 905 1220 913 1174 913 1122 C 913 1068 905 1019 891 973 C 876 927 856 885 830 848 C 804 810 774 778 739 751 C 704 723 667 702 627 686 L 731 0 Z M 768 1106 C 768 1170 752 1218 720 1251 C 688 1283 637 1300 569 1300 L 389 1300 L 297 778 L 483 778 C 527 778 566 786 602 804 C 637 821 667 844 691 874 C 715 904 734 938 748 978 C 761 1018 768 1060 768 1106 Z" unicode="R" />
<glyph horiz-adv-x="803" d="M 307 -23 C 263 -23 223 -15 186 -1 C 149 13 116 33 88 59 C 60 85 36 115 18 150 C 0 184 -13 222 -20 262 L 119 322 C 123 288 130 259 142 233 C 154 207 168 185 186 167 C 203 149 223 135 246 125 C 268 115 293 111 319 111 C 354 111 386 117 414 130 C 442 142 467 160 487 183 C 507 205 522 232 533 264 C 543 296 549 331 549 369 C 549 425 533 480 502 534 C 471 587 420 642 348 698 C 316 722 287 749 260 777 C 233 805 210 835 190 867 C 170 899 154 932 142 967 C 130 1002 125 1039 125 1077 C 125 1131 133 1181 151 1227 C 169 1273 193 1313 225 1347 C 257 1381 295 1407 339 1427 C 383 1446 431 1456 485 1456 C 527 1456 565 1450 599 1438 C 633 1426 662 1410 687 1389 C 712 1368 733 1343 751 1314 C 769 1284 783 1252 795 1217 L 664 1147 C 656 1173 646 1198 635 1220 C 623 1242 610 1260 595 1275 C 580 1290 563 1302 543 1310 C 523 1318 501 1323 475 1323 C 441 1323 410 1316 384 1302 C 358 1288 336 1270 319 1248 C 301 1226 288 1202 279 1175 C 270 1148 266 1122 266 1096 C 266 1071 269 1048 275 1026 C 281 1004 292 982 306 960 C 320 938 339 915 363 891 C 387 867 416 841 451 813 C 491 779 527 745 557 713 C 587 681 613 648 633 615 C 653 581 667 547 677 511 C 687 475 692 437 692 397 C 692 338 683 283 666 232 C 648 181 623 137 590 99 C 557 61 517 31 469 9 C 421 -12 367 -23 307 -23 Z" unicode="S" />
<glyph horiz-adv-x="770" d="M 834 1303 L 543 1303 L 313 0 L 172 0 L 401 1303 L 113 1303 L 135 1434 L 856 1434 L 834 1303 Z" unicode="T" />
<glyph horiz-adv-x="1030" d="M 838 430 C 810 278 760 165 686 90 C 612 14 517 -23 401 -23 C 351 -23 307 -15 267 -1 C 227 12 194 33 167 61 C 139 89 118 123 103 164 C 88 204 80 251 80 303 C 80 341 84 382 92 428 L 268 1434 L 412 1434 L 236 432 C 232 412 230 394 228 376 C 226 358 225 342 225 326 C 225 255 240 201 272 165 C 304 129 351 111 414 111 C 490 111 551 137 597 191 C 643 245 675 324 694 430 L 870 1434 L 1014 1434 L 838 430 Z" unicode="U" />
<glyph horiz-adv-x="956" d="M 1001 1434 L 414 0 L 274 0 L 190 1434 L 336 1434 L 373 561 C 376 494 378 428 378 363 C 378 297 378 238 377 184 C 394 238 415 297 439 363 C 463 429 488 495 514 561 L 858 1434 L 1001 1434 Z" unicode="V" />
<glyph horiz-adv-x="1278" d="M 1309 1434 L 836 0 L 702 0 L 698 707 C 698 737 698 772 699 812 C 699 852 700 893 701 935 C 702 977 704 1019 706 1060 C 708 1101 710 1138 713 1171 C 704 1138 693 1101 681 1060 C 668 1018 655 976 641 934 C 627 892 613 851 599 811 C 585 771 573 737 563 707 L 309 0 L 180 0 L 213 1434 L 352 1434 L 319 596 C 317 571 316 544 315 514 C 313 484 312 454 310 424 C 308 394 307 365 305 337 C 303 309 301 284 299 264 C 305 284 312 309 321 337 C 330 365 340 394 350 424 C 360 454 370 485 380 515 C 390 545 400 572 408 596 L 700 1434 L 821 1434 L 821 596 C 821 572 820 545 820 515 C 820 485 819 454 819 424 C 818 394 817 365 816 337 C 815 309 814 284 813 264 C 819 284 825 309 833 337 C 841 365 849 394 858 424 C 866 454 875 484 884 514 C 893 544 901 571 909 596 L 1171 1434 L 1309 1434 Z" unicode="W" />
<glyph horiz-adv-x="864" d="M 684 0 L 528 0 L 457 344 C 446 393 437 441 429 488 C 421 535 416 577 412 614 C 395 577 374 535 349 488 C 324 441 298 393 270 344 L 74 0 L -78 0 L 358 743 L 199 1434 L 354 1434 L 414 1147 C 424 1099 433 1051 441 1003 C 449 955 455 913 459 877 C 476 913 497 955 523 1003 C 549 1051 575 1099 602 1147 L 762 1434 L 911 1434 L 510 748 L 684 0 Z" unicode="X" />
<glyph horiz-adv-x="870" d="M 950 1434 L 469 600 L 362 0 L 221 0 L 326 598 L 135 1434 L 291 1434 L 365 1055 C 370 1026 375 997 381 967 C 387 937 392 907 398 879 C 403 851 408 824 412 798 C 416 772 419 749 422 729 C 432 749 443 773 457 799 C 470 825 484 852 499 881 C 514 909 530 938 546 968 C 562 998 578 1027 594 1055 L 801 1434 L 950 1434 Z" unicode="Y" />
<glyph horiz-adv-x="836" d="M 639 0 L -49 0 L -27 125 L 666 1214 C 677 1231 687 1247 697 1261 C 706 1275 715 1289 723 1303 L 662 1303 L 215 1303 L 238 1434 L 891 1434 L 870 1309 L 180 219 C 170 203 160 188 150 173 C 140 158 131 144 121 131 L 182 131 L 662 131 L 639 0 Z" unicode="Z" />
<glyph horiz-adv-x="586" d="M 348 -203 L 8 -203 L 295 1434 L 635 1434 L 614 1311 L 410 1311 L 164 -80 L 369 -80 L 348 -203 Z" unicode="[" />
<glyph horiz-adv-x="621" d="M 449 -184 L 317 -184 L 172 1618 L 303 1618 L 449 -184 Z" unicode="\" />
<glyph horiz-adv-x="586" d="M 246 -203 L -92 -203 L -72 -80 L 133 -80 L 379 1311 L 174 1311 L 195 1434 L 532 1434 L 246 -203 Z" unicode="]" />
<glyph horiz-adv-x="856" d="M 784 782 L 629 782 L 510 1255 L 223 782 L 72 782 L 485 1434 L 600 1434 L 784 782 Z" unicode="^" />
<glyph horiz-adv-x="698" d="M 571 -311 L -129 -311 L -106 -188 L 594 -188 L 571 -311 Z" unicode="_" />
<glyph horiz-adv-x="809" d="M 582 1219 L 492 1219 L 283 1546 L 463 1546 L 582 1219 Z" unicode="`" />
<glyph horiz-adv-x="850" d="M 602 0 L 463 0 L 479 90 C 449 59 415 32 378 10 C 341 -11 300 -23 254 -23 C 222 -23 190 -17 160 -7 C 130 3 103 20 79 43 C 55 65 37 94 23 130 C 9 165 2 207 2 256 C 2 328 13 391 35 444 C 57 497 87 541 123 576 C 159 610 201 636 247 653 C 293 669 339 678 387 678 C 403 678 419 676 436 674 C 453 672 470 668 487 664 C 503 660 519 655 534 649 C 548 643 561 637 573 631 L 600 782 C 604 806 606 828 606 848 C 606 930 560 971 469 971 C 429 971 391 963 354 948 C 316 933 276 911 233 883 L 188 989 C 238 1023 289 1049 341 1069 C 392 1088 446 1098 502 1098 C 540 1098 574 1094 605 1087 C 636 1079 662 1068 684 1052 C 706 1036 722 1015 734 989 C 746 963 752 931 752 893 C 752 878 751 863 750 847 C 748 831 746 814 743 797 L 602 0 Z M 500 211 L 553 512 C 529 526 503 538 473 546 C 443 554 411 559 375 559 C 338 559 305 551 276 536 C 247 520 222 499 202 473 C 182 446 166 415 155 380 C 144 344 139 306 139 266 C 139 209 152 167 178 140 C 204 113 239 100 281 100 C 317 100 353 109 389 127 C 425 145 462 173 500 211 Z" unicode="a" />
<glyph horiz-adv-x="909" d="M 362 -23 C 338 -23 317 -20 298 -15 C 278 -9 261 -2 246 7 C 230 17 216 28 204 41 C 191 53 180 67 170 82 L 156 0 L 16 0 L 264 1411 L 420 1493 L 330 983 C 362 1015 398 1042 437 1064 C 476 1086 521 1098 571 1098 C 649 1098 708 1068 747 1009 C 785 950 805 863 805 748 C 805 676 799 608 789 542 C 779 476 764 415 745 358 C 726 301 703 249 677 202 C 650 155 620 115 588 82 C 555 48 519 22 481 4 C 443 -13 403 -23 362 -23 Z M 664 743 C 664 820 652 877 629 915 C 605 952 570 971 522 971 C 482 971 445 961 410 941 C 375 921 341 896 307 864 L 195 215 C 213 181 236 154 266 134 C 296 114 333 104 377 104 C 405 104 432 112 458 130 C 484 147 507 171 529 201 C 550 231 569 266 586 307 C 602 348 616 392 628 440 C 640 487 649 536 655 588 C 661 640 664 691 664 743 Z" unicode="b" />
<glyph horiz-adv-x="768" d="M 651 168 C 629 138 606 111 583 88 C 560 64 536 44 511 28 C 486 11 460 -1 432 -10 C 404 -18 374 -23 342 -23 C 298 -23 259 -14 223 2 C 187 19 156 44 131 78 C 105 111 86 152 72 202 C 58 251 51 308 51 373 C 51 491 63 595 88 685 C 113 775 146 850 188 912 C 229 973 276 1019 329 1051 C 382 1082 437 1098 494 1098 C 528 1098 558 1093 586 1083 C 613 1073 637 1060 659 1044 C 681 1027 699 1007 715 984 C 731 961 744 937 756 911 L 639 827 C 629 848 619 867 609 885 C 599 903 587 918 575 930 C 562 942 547 952 531 959 C 515 965 496 969 475 969 C 439 969 404 955 370 928 C 336 901 307 863 281 813 C 255 763 234 702 218 631 C 202 560 195 481 195 393 C 195 349 198 309 204 274 C 210 238 220 208 234 183 C 248 158 265 139 286 126 C 306 112 331 106 360 106 C 400 106 436 118 468 142 C 500 166 532 200 565 246 L 651 168 Z" unicode="c" />
<glyph horiz-adv-x="909" d="M 647 0 L 508 0 L 524 92 C 507 76 490 61 473 47 C 455 33 437 21 418 11 C 399 0 379 -8 358 -14 C 336 -20 313 -23 289 -23 C 212 -23 153 6 111 64 C 69 122 49 207 49 319 C 49 435 60 540 82 636 C 104 732 135 814 175 882 C 215 950 261 1003 315 1041 C 369 1079 427 1098 489 1098 C 513 1098 534 1095 553 1090 C 572 1084 589 1077 605 1068 C 620 1058 634 1047 647 1034 C 659 1021 672 1007 684 993 L 756 1411 L 911 1493 L 647 0 Z M 545 211 L 659 860 C 638 893 613 920 585 940 C 556 960 520 971 477 971 C 447 971 420 962 395 945 C 369 928 346 904 325 874 C 303 844 284 808 268 768 C 251 727 237 683 225 636 C 213 588 205 539 199 487 C 193 435 190 384 190 332 C 190 253 202 195 227 159 C 251 122 288 104 336 104 C 375 104 411 113 444 132 C 477 151 511 177 545 211 Z" unicode="d" />
<glyph horiz-adv-x="834" d="M 762 709 C 762 687 761 664 759 640 C 757 616 755 593 753 572 C 750 551 747 533 745 518 C 743 502 741 493 741 489 L 201 489 C 197 443 195 402 195 365 C 195 279 209 215 239 171 C 269 127 311 106 365 106 C 407 106 446 115 481 135 C 516 154 554 185 594 227 L 664 137 C 638 109 613 86 589 66 C 564 46 539 29 513 16 C 487 3 461 -6 433 -13 C 405 -19 376 -23 344 -23 C 303 -23 265 -15 230 0 C 194 15 163 39 137 73 C 111 106 90 149 75 201 C 60 253 53 315 53 389 C 53 493 64 588 87 675 C 109 762 140 837 179 899 C 218 961 264 1010 316 1045 C 368 1080 425 1098 485 1098 C 539 1098 585 1086 621 1063 C 657 1040 685 1010 706 973 C 726 936 741 894 749 848 C 757 802 762 755 762 709 Z M 625 614 C 628 666 628 713 625 757 C 621 800 614 837 602 869 C 590 900 573 924 551 942 C 529 960 502 969 469 969 C 412 969 361 939 317 880 C 272 821 239 732 219 614 L 625 614 Z" unicode="e" />
<glyph horiz-adv-x="569" d="M 635 1337 C 621 1343 606 1348 590 1352 C 574 1356 556 1358 537 1358 C 509 1358 485 1350 465 1336 C 445 1321 431 1293 424 1251 L 393 1075 L 563 1075 L 541 956 L 373 956 L 205 0 L 66 0 L 233 956 L 115 956 L 137 1075 L 256 1075 L 285 1239 C 292 1283 304 1320 320 1352 C 336 1383 355 1409 378 1429 C 400 1449 426 1463 454 1473 C 482 1482 513 1487 545 1487 C 571 1487 594 1485 612 1481 C 630 1477 645 1473 659 1468 L 635 1337 Z" unicode="f" />
<glyph horiz-adv-x="907" d="M 301 -23 C 263 -23 228 -15 197 0 C 166 16 140 39 118 69 C 96 99 79 136 67 180 C 55 224 49 274 49 330 C 49 439 60 540 83 634 C 106 728 137 809 177 878 C 217 946 263 1000 317 1039 C 370 1078 427 1098 489 1098 C 513 1098 534 1095 553 1090 C 572 1084 589 1077 605 1068 C 620 1058 634 1047 647 1034 C 659 1021 672 1007 684 993 L 698 1075 L 838 1075 L 664 98 C 654 46 644 0 632 -40 C 620 -80 605 -116 588 -148 C 570 -180 549 -208 525 -233 C 500 -258 470 -281 436 -303 C 422 -311 405 -319 385 -329 C 364 -338 341 -347 315 -356 C 289 -364 262 -372 233 -379 C 204 -386 175 -391 145 -395 L 121 -285 C 175 -278 224 -268 269 -254 C 314 -240 353 -222 385 -201 C 422 -175 450 -143 470 -103 C 489 -63 504 -13 516 47 L 524 92 C 510 77 495 63 479 49 C 463 35 446 22 428 12 C 410 1 390 -7 369 -13 C 348 -19 325 -23 301 -23 Z M 545 211 L 659 860 C 638 893 613 920 585 940 C 556 960 520 971 477 971 C 447 971 420 962 395 945 C 369 928 346 904 325 874 C 303 844 284 808 268 768 C 251 727 237 683 225 636 C 213 588 205 539 199 487 C 193 435 190 384 190 332 C 190 259 202 203 227 163 C 251 123 288 104 336 104 C 375 104 411 113 444 132 C 477 151 511 177 545 211 Z" unicode="g" />
<glyph horiz-adv-x="907" d="M 659 0 L 518 0 L 645 721 C 648 739 650 756 652 772 C 654 787 655 802 655 817 C 653 871 641 910 618 934 C 594 958 559 971 512 971 C 492 971 473 967 454 960 C 435 953 417 944 400 933 C 382 921 366 908 350 893 C 334 877 319 862 305 846 L 156 0 L 16 0 L 264 1411 L 420 1493 L 330 985 C 344 999 359 1013 377 1027 C 395 1041 414 1053 434 1063 C 454 1073 475 1082 497 1088 C 519 1094 543 1098 567 1098 C 639 1098 696 1076 737 1034 C 778 992 799 928 799 844 C 799 827 798 810 796 792 C 794 774 791 756 788 737 L 659 0 Z" unicode="h" />
<glyph horiz-adv-x="434" d="M 418 1380 C 418 1366 415 1352 410 1340 C 405 1328 398 1317 390 1308 C 381 1298 371 1291 360 1286 C 348 1280 336 1278 324 1278 C 310 1278 296 1280 284 1286 C 272 1291 261 1298 252 1308 C 243 1317 236 1328 231 1340 C 225 1352 223 1366 223 1380 C 223 1394 225 1407 231 1419 C 236 1431 243 1442 252 1452 C 261 1462 272 1469 284 1475 C 296 1480 310 1483 324 1483 C 336 1483 348 1480 360 1475 C 371 1469 381 1462 390 1452 C 398 1442 405 1431 410 1419 C 415 1407 418 1394 418 1380 Z M 162 0 L 23 0 L 213 1075 L 352 1075 L 162 0 Z" unicode="i" />
<glyph horiz-adv-x="434" d="M 418 1380 C 418 1366 415 1352 410 1340 C 405 1328 398 1317 390 1308 C 381 1298 371 1291 360 1286 C 348 1280 336 1278 324 1278 C 310 1278 296 1280 284 1286 C 272 1291 261 1298 252 1308 C 243 1317 236 1328 231 1340 C 225 1352 223 1366 223 1380 C 223 1394 225 1407 231 1419 C 236 1431 243 1442 252 1452 C 261 1462 272 1469 284 1475 C 296 1480 310 1483 324 1483 C 336 1483 348 1480 360 1475 C 371 1469 381 1462 390 1452 C 398 1442 405 1431 410 1419 C 415 1407 418 1394 418 1380 Z M 166 20 C 154 -44 140 -98 124 -143 C 108 -188 86 -227 59 -259 C 32 -291 -1 -317 -41 -339 C -81 -360 -131 -379 -190 -395 L -213 -283 C -171 -269 -136 -255 -110 -241 C -83 -226 -61 -208 -44 -186 C -27 -164 -13 -138 -3 -106 C 6 -74 16 -33 25 16 L 213 1075 L 352 1075 L 166 20 Z" unicode="j" />
<glyph horiz-adv-x="791" d="M 653 0 L 504 0 L 383 551 L 215 342 L 156 0 L 16 0 L 264 1411 L 420 1493 L 270 645 C 266 628 263 609 259 588 C 255 566 252 549 250 535 C 255 544 261 554 269 566 C 277 577 285 588 293 600 C 301 612 309 623 317 634 C 325 644 332 654 338 662 L 655 1075 L 811 1075 L 496 684 L 653 0 Z" unicode="k" />
<glyph horiz-adv-x="434" d="M 162 0 L 23 0 L 270 1411 L 426 1493 L 162 0 Z" unicode="l" />
<glyph horiz-adv-x="1350" d="M 1102 0 L 961 0 L 1087 721 C 1094 759 1098 792 1098 819 C 1098 874 1088 913 1066 936 C 1044 959 1013 971 971 971 C 951 971 933 967 916 961 C 898 955 882 946 867 935 C 851 924 836 911 822 896 C 807 880 792 864 778 846 L 631 0 L 489 0 L 616 721 C 620 741 623 760 625 778 C 626 795 627 811 627 825 C 627 877 615 915 593 937 C 571 959 539 971 498 971 C 478 971 459 967 441 961 C 423 954 405 945 389 933 C 373 921 358 908 344 893 C 330 878 317 862 305 846 L 156 0 L 16 0 L 207 1075 L 346 1075 L 330 985 C 360 1018 393 1045 430 1066 C 466 1087 509 1098 557 1098 C 612 1098 656 1085 689 1059 C 721 1033 744 1000 758 961 C 776 979 794 996 813 1013 C 831 1029 851 1044 873 1057 C 895 1069 918 1079 944 1087 C 969 1094 997 1098 1028 1098 C 1098 1098 1151 1078 1188 1039 C 1224 1000 1243 940 1243 860 C 1243 822 1239 781 1231 737 L 1102 0 Z" unicode="m" />
<glyph horiz-adv-x="907" d="M 659 0 L 518 0 L 645 721 C 648 737 650 753 651 767 C 652 781 653 795 653 809 C 653 865 641 906 619 932 C 597 958 563 971 518 971 C 496 971 476 967 456 960 C 436 953 418 944 400 933 C 382 921 365 908 349 893 C 333 877 319 862 305 846 L 156 0 L 16 0 L 207 1075 L 346 1075 L 330 985 C 344 999 359 1013 377 1027 C 394 1041 413 1053 433 1063 C 453 1073 475 1082 499 1088 C 522 1094 547 1098 575 1098 C 608 1098 638 1092 666 1082 C 694 1071 717 1055 737 1034 C 757 1012 772 986 783 954 C 793 922 799 884 799 842 C 799 810 795 775 788 737 L 659 0 Z" unicode="n" />
<glyph horiz-adv-x="909" d="M 350 -23 C 304 -23 262 -14 226 3 C 189 21 158 46 132 80 C 106 113 87 154 73 203 C 59 251 53 307 53 369 C 53 483 64 586 88 676 C 111 766 143 843 184 906 C 224 968 272 1016 328 1049 C 383 1081 443 1098 508 1098 C 601 1098 673 1064 725 997 C 777 929 803 829 803 696 C 803 588 791 489 767 401 C 743 313 711 237 671 174 C 630 111 582 62 527 28 C 471 -5 412 -23 350 -23 Z M 662 682 C 662 782 647 854 617 900 C 587 946 543 969 485 969 C 441 969 402 953 367 923 C 331 893 301 851 275 798 C 249 744 230 681 216 609 C 202 537 195 459 195 375 C 195 284 210 216 241 172 C 271 128 315 106 371 106 C 412 106 450 120 486 149 C 522 178 553 218 579 269 C 605 320 625 381 640 451 C 654 521 662 598 662 682 Z" unicode="o" />
<glyph horiz-adv-x="909" d="M 362 -18 C 314 -18 276 -9 246 8 C 216 26 191 50 170 82 L 100 -313 L -53 -395 L 207 1075 L 346 1075 L 330 983 C 345 998 361 1013 379 1027 C 396 1041 415 1053 435 1063 C 455 1073 476 1082 498 1088 C 520 1094 543 1098 569 1098 C 647 1098 706 1068 745 1010 C 783 952 803 865 803 750 C 803 636 791 532 768 438 C 744 344 713 263 673 195 C 633 127 586 75 533 38 C 479 0 422 -18 362 -18 Z M 664 733 C 664 891 614 971 516 971 C 476 971 440 961 406 941 C 372 921 339 896 307 864 L 195 215 C 215 179 240 152 268 133 C 296 113 333 104 377 104 C 405 104 432 112 458 129 C 483 145 506 168 528 197 C 549 226 568 261 585 301 C 601 341 615 384 627 431 C 639 477 648 526 654 578 C 660 629 664 681 664 733 Z" unicode="p" />
<glyph horiz-adv-x="909" d="M 592 -313 L 438 -395 L 524 92 C 508 76 492 62 476 48 C 459 34 441 23 422 13 C 403 3 383 -5 361 -11 C 339 -17 315 -20 291 -20 C 212 -20 152 8 111 66 C 69 123 49 210 49 326 C 49 438 60 541 84 635 C 107 729 139 811 179 880 C 219 948 265 1002 319 1040 C 372 1078 429 1098 489 1098 C 513 1098 534 1095 553 1090 C 572 1084 589 1077 605 1068 C 620 1058 634 1047 647 1034 C 659 1021 672 1007 684 993 L 698 1075 L 838 1075 L 592 -313 Z M 545 211 L 659 860 C 638 893 613 920 585 940 C 556 960 520 971 477 971 C 447 971 420 962 395 945 C 369 928 346 905 325 875 C 303 845 284 810 268 770 C 251 729 237 685 225 638 C 213 590 205 541 199 489 C 193 437 190 384 190 332 C 190 254 203 197 229 160 C 255 122 292 104 340 104 C 378 104 414 113 446 133 C 478 153 511 179 545 211 Z" unicode="q" />
<glyph horiz-adv-x="618" d="M 684 1075 L 618 930 C 600 941 583 949 565 955 C 547 960 524 963 496 963 C 478 963 461 959 444 953 C 427 946 410 937 394 926 C 377 915 361 902 346 887 C 330 872 316 856 303 840 L 156 0 L 16 0 L 207 1075 L 346 1075 L 330 983 C 360 1022 397 1051 441 1070 C 484 1088 527 1098 569 1098 C 611 1098 650 1090 684 1075 Z" unicode="r" />
<glyph horiz-adv-x="729" d="M 272 -20 C 234 -20 200 -15 170 -6 C 139 3 111 15 87 31 C 63 47 41 65 23 86 C 5 107 -10 130 -23 154 L 90 244 C 111 198 139 164 173 140 C 207 116 245 104 285 104 C 342 104 386 119 416 149 C 446 179 461 223 461 279 C 461 297 458 315 452 332 C 446 349 437 366 424 384 C 411 402 394 420 373 440 C 351 460 325 482 295 506 C 264 530 236 553 212 576 C 187 598 166 621 149 645 C 132 669 119 694 110 720 C 100 746 96 775 96 807 C 96 849 103 888 118 924 C 132 960 153 990 180 1016 C 206 1042 238 1062 275 1076 C 312 1090 353 1098 399 1098 C 463 1098 519 1083 567 1055 C 615 1027 650 989 674 942 L 557 854 C 537 890 515 918 489 940 C 463 962 429 973 387 973 C 365 973 345 969 326 963 C 307 956 291 946 277 934 C 263 922 251 907 243 889 C 235 871 231 851 231 829 C 231 811 233 794 239 778 C 244 762 253 745 265 729 C 277 713 292 695 312 677 C 331 659 355 638 383 616 C 415 590 444 565 470 541 C 496 517 519 493 538 468 C 556 443 571 416 581 388 C 591 360 596 328 596 293 C 596 243 587 198 571 160 C 555 121 532 88 503 62 C 474 35 440 15 400 1 C 360 -13 318 -20 272 -20 Z" unicode="s" />
<glyph horiz-adv-x="606" d="M 440 137 L 406 8 C 380 -2 355 -9 332 -15 C 308 -20 281 -23 250 -23 C 125 -23 76 53 102 205 L 233 956 L 123 956 L 145 1075 L 256 1075 L 313 1411 L 467 1493 L 393 1075 L 600 1075 L 578 956 L 373 956 L 244 219 C 236 179 239 151 252 134 C 264 117 285 109 313 109 C 355 109 397 118 440 137 Z" unicode="t" />
<glyph horiz-adv-x="909" d="M 651 0 L 512 0 L 528 90 C 514 74 498 60 482 46 C 466 32 448 20 429 10 C 410 0 390 -8 368 -14 C 346 -20 321 -23 295 -23 C 218 -23 159 -2 118 39 C 77 80 57 142 57 225 C 57 242 57 260 59 279 C 60 297 63 317 68 338 L 199 1075 L 340 1075 L 213 354 C 209 334 207 316 205 299 C 203 282 203 266 203 252 C 203 200 214 163 237 139 C 259 115 294 104 342 104 C 363 104 383 107 403 114 C 422 121 440 130 458 142 C 476 153 492 166 508 182 C 524 197 539 213 553 229 L 702 1075 L 842 1075 L 651 0 Z" unicode="u" />
<glyph horiz-adv-x="842" d="M 842 1075 L 354 0 L 229 0 L 125 1075 L 270 1075 L 317 344 C 318 331 319 316 320 299 C 320 282 321 265 321 247 C 321 229 320 213 320 197 C 320 181 319 167 319 156 C 323 167 328 181 334 197 C 340 213 347 229 354 247 C 361 265 368 282 375 299 C 381 316 387 331 393 344 L 698 1075 L 842 1075 Z" unicode="v" />
<glyph horiz-adv-x="1182" d="M 1161 1075 L 760 0 L 639 0 L 621 653 C 619 692 619 733 619 775 C 619 817 619 857 621 897 C 610 857 597 817 582 775 C 567 733 552 692 537 653 L 287 0 L 168 0 L 147 1075 L 283 1075 L 274 471 C 273 451 272 428 272 404 C 271 380 270 355 269 331 C 268 306 267 282 266 259 C 264 236 263 216 262 199 C 268 216 274 236 282 259 C 290 282 298 306 307 331 C 315 355 324 380 333 404 C 342 428 350 449 358 469 L 596 1075 L 715 1075 L 735 469 C 735 449 736 427 736 403 C 736 379 737 354 737 330 C 737 306 738 282 738 259 C 738 236 737 216 737 199 C 741 216 747 236 754 259 C 761 281 768 305 776 330 C 784 354 792 379 800 403 C 808 427 815 450 823 471 L 1028 1075 L 1161 1075 Z" unicode="w" />
<glyph horiz-adv-x="768" d="M 592 0 L 438 0 L 367 317 C 364 327 361 340 358 354 C 355 368 352 382 349 396 C 346 410 343 424 341 436 C 339 448 337 459 336 467 C 333 459 328 450 322 438 C 316 426 309 413 301 399 C 293 385 284 370 276 356 C 268 342 260 329 254 317 L 70 0 L -76 0 L 285 567 L 139 1075 L 291 1075 L 348 819 C 350 807 353 795 356 781 C 359 767 362 753 365 739 C 367 725 370 711 372 699 C 374 687 375 677 377 670 C 380 677 385 687 392 699 C 398 711 405 724 413 738 C 421 752 429 766 437 780 C 445 794 453 807 461 819 L 610 1075 L 758 1075 L 430 569 L 592 0 Z" unicode="x" />
<glyph horiz-adv-x="852" d="M 872 1075 L 211 -379 L 72 -379 L 250 -12 L 147 1075 L 295 1075 L 338 375 C 338 363 339 346 341 325 C 342 304 343 283 344 261 C 345 239 346 218 347 198 C 348 178 348 162 348 152 C 352 162 357 177 365 197 C 373 217 381 238 390 260 C 398 282 406 303 414 324 C 422 345 428 362 434 375 L 725 1075 L 872 1075 Z" unicode="y" />
<glyph horiz-adv-x="743" d="M 555 0 L -47 0 L -29 106 L 571 954 L 160 954 L 182 1075 L 745 1075 L 725 969 L 125 121 L 575 121 L 555 0 Z" unicode="z" />
<glyph horiz-adv-x="633" d="M 424 -225 C 361 -222 309 -213 268 -197 C 227 -181 196 -157 174 -126 C 152 -94 140 -54 136 -6 C 132 41 137 100 150 168 L 186 375 C 192 409 194 437 194 460 C 193 482 189 500 182 513 C 174 526 164 535 150 541 C 136 546 120 549 100 549 L 59 549 L 82 676 L 123 676 C 143 676 160 678 176 683 C 192 688 205 697 217 710 C 229 723 239 741 248 763 C 256 785 264 814 270 848 L 307 1059 C 319 1126 335 1184 355 1232 C 375 1280 402 1320 435 1352 C 467 1383 507 1407 554 1423 C 600 1439 655 1448 719 1452 L 698 1337 C 656 1331 620 1323 592 1312 C 563 1301 539 1286 520 1266 C 500 1246 485 1221 473 1191 C 461 1161 452 1123 444 1079 L 410 879 C 402 838 394 803 385 774 C 376 745 365 720 353 699 C 340 678 325 661 308 647 C 290 633 270 622 246 612 C 266 602 283 590 295 576 C 307 562 316 545 322 524 C 327 503 329 478 328 449 C 326 419 322 384 315 344 L 281 147 C 273 102 269 64 270 34 C 271 4 278 -20 290 -40 C 302 -60 320 -75 345 -86 C 369 -96 402 -105 442 -111 L 424 -225 Z" unicode="{" />
<glyph horiz-adv-x="479" d="M 129 -379 L -6 -379 L 350 1638 L 485 1638 L 129 -379 Z" unicode="|" />
<glyph horiz-adv-x="633" d="M 520 551 L 477 551 C 457 551 440 548 425 543 C 409 537 396 528 385 515 C 373 502 363 485 355 463 C 347 441 340 413 334 379 L 295 168 C 282 100 265 41 245 -6 C 224 -54 198 -94 166 -126 C 134 -157 95 -181 49 -197 C 3 -213 -51 -222 -115 -225 L -96 -111 C -54 -105 -18 -96 10 -86 C 39 -75 63 -60 83 -40 C 103 -20 118 4 130 34 C 142 64 152 102 160 147 L 195 348 C 201 388 209 423 218 452 C 227 481 238 506 251 527 C 263 547 278 564 296 578 C 313 592 334 604 358 614 C 336 624 319 636 307 650 C 295 664 286 681 281 702 C 275 723 273 748 275 777 C 277 806 281 841 289 881 L 324 1079 C 331 1123 334 1161 333 1191 C 332 1221 325 1246 313 1266 C 300 1286 281 1301 257 1312 C 232 1323 200 1331 160 1337 L 180 1452 C 242 1448 294 1439 335 1423 C 375 1407 406 1383 428 1352 C 449 1320 461 1280 465 1232 C 469 1184 465 1126 453 1059 L 416 850 C 410 816 407 788 408 766 C 408 744 412 726 419 713 C 426 700 436 691 450 686 C 464 680 480 678 500 678 L 543 678 L 520 551 Z" unicode="}" />
<glyph horiz-adv-x="827" d="M 764 872 C 742 792 714 730 680 685 C 645 640 601 618 549 618 C 533 618 518 619 506 623 C 493 626 481 631 469 638 C 457 645 444 654 431 665 C 418 676 403 689 387 705 C 362 728 341 745 325 755 C 308 765 293 770 279 770 C 268 770 258 767 250 763 C 241 758 233 750 225 738 C 217 726 209 710 201 690 C 193 670 184 644 174 612 L 61 653 C 83 734 111 797 145 842 C 179 886 222 909 276 909 C 291 909 305 907 318 904 C 330 900 343 895 355 888 C 367 881 380 872 394 861 C 407 850 422 837 438 821 C 461 798 481 782 498 772 C 515 762 531 758 547 758 C 558 758 568 760 577 764 C 585 768 593 775 601 787 C 609 798 616 814 624 834 C 632 854 641 881 651 913 L 764 872 Z" unicode="~" />
<glyph horiz-adv-x="209" d="" unicode=" " />
<glyph horiz-adv-x="442" d="M 141 698 L 239 1073 L 321 1073 L 282 698 L 157 -20 L 16 -20 L 141 698 Z M 217 1329 C 217 1343 219 1357 224 1370 C 229 1383 236 1394 246 1404 C 255 1414 266 1421 279 1427 C 291 1433 305 1435 321 1435 C 336 1435 350 1433 363 1427 C 375 1421 386 1414 396 1404 C 405 1394 412 1383 418 1370 C 423 1357 426 1343 426 1329 C 426 1314 423 1300 418 1287 C 412 1273 405 1262 396 1252 C 386 1242 375 1234 363 1228 C 350 1222 336 1220 321 1220 C 305 1220 291 1222 279 1228 C 266 1234 255 1242 246 1252 C 236 1262 229 1273 224 1287 C 219 1300 217 1314 217 1329 Z" unicode="¡" />
<glyph horiz-adv-x="809" d="M 696 354 C 660 306 621 267 581 238 C 541 208 497 188 449 178 L 414 -23 L 272 -23 L 307 178 C 243 195 193 235 157 297 C 121 359 104 443 104 549 C 104 649 115 740 138 824 C 160 908 190 981 227 1044 C 264 1107 307 1159 355 1199 C 403 1239 452 1265 502 1278 L 537 1475 L 678 1475 L 643 1282 C 668 1276 690 1267 710 1255 C 730 1243 747 1230 762 1214 C 776 1198 789 1181 800 1163 C 810 1144 819 1124 827 1104 L 711 1020 C 701 1042 691 1061 681 1079 C 671 1096 661 1111 649 1123 C 637 1135 623 1145 607 1151 C 591 1157 573 1161 551 1161 C 515 1161 480 1145 444 1115 C 408 1084 375 1042 346 988 C 317 934 293 871 275 799 C 257 727 248 649 248 567 C 248 483 260 417 285 369 C 310 321 350 297 406 297 C 444 297 480 308 513 332 C 545 356 579 390 614 436 L 696 354 Z" unicode="¢" />
<glyph horiz-adv-x="913" d="M 725 0 L 23 0 L 45 131 C 74 168 101 204 126 240 C 150 275 172 311 192 348 C 212 385 229 424 244 466 C 258 508 270 554 279 604 L 129 604 L 152 735 L 283 735 C 281 757 279 779 275 801 C 271 822 266 844 260 868 C 254 893 249 918 246 943 C 243 967 242 994 242 1022 C 242 1086 251 1145 269 1199 C 287 1252 313 1298 347 1336 C 381 1374 421 1403 469 1424 C 517 1445 570 1456 629 1456 C 712 1456 778 1434 826 1391 C 874 1348 910 1282 934 1194 L 805 1128 C 787 1195 762 1244 730 1276 C 698 1307 656 1323 604 1323 C 564 1323 531 1315 503 1300 C 475 1284 453 1264 436 1239 C 418 1214 406 1186 398 1154 C 390 1122 387 1089 387 1055 C 387 1030 388 1005 391 979 C 393 953 397 928 403 905 C 408 880 412 853 416 825 C 420 796 422 766 424 735 L 649 735 L 627 604 L 414 604 C 403 547 390 497 376 453 C 361 409 344 370 326 334 C 308 298 288 264 267 232 C 245 200 223 167 199 133 L 748 133 L 725 0 Z" unicode="£" />
<glyph horiz-adv-x="1152" d="M 1056 392 L 940 284 L 740 500 C 692 468 636 452 572 452 C 510 452 456 468 408 500 L 208 284 L 92 392 L 300 608 C 281 634 268 660 262 686 C 255 711 252 742 252 780 C 252 812 255 842 262 870 C 268 898 281 925 300 952 L 92 1168 L 208 1276 L 408 1060 C 456 1092 510 1108 572 1108 C 636 1108 692 1092 740 1060 L 944 1276 L 1060 1156 L 852 952 C 870 925 883 898 890 872 C 896 845 900 814 900 780 C 900 716 882 658 848 608 L 1056 392 Z M 748 780 C 748 833 731 876 698 910 C 664 943 622 960 572 960 C 521 960 480 943 448 910 C 416 876 400 833 400 780 C 400 726 416 684 450 652 C 483 620 524 604 572 604 C 625 604 668 620 700 652 C 732 684 748 726 748 780 Z" unicode="¤" />
<glyph horiz-adv-x="901" d="M 940 1434 L 461 594 L 428 406 L 653 406 L 631 276 L 406 276 L 356 0 L 219 0 L 268 276 L 37 276 L 59 406 L 291 406 L 324 592 L 141 1434 L 295 1434 L 371 1055 C 382 996 392 938 401 882 C 409 826 416 777 420 735 C 430 755 441 778 453 804 C 465 830 479 856 493 884 C 507 912 522 940 538 969 C 553 998 568 1027 584 1055 L 791 1434 L 940 1434 Z" unicode="¥" />
<glyph horiz-adv-x="640" d="M 216 788 L 216 1636 L 424 1636 L 424 788 L 216 788 Z M 216 -412 L 216 440 L 424 440 L 424 -412 L 216 -412 Z" unicode="¦" />
<glyph horiz-adv-x="924" d="M 565 203 C 584 179 599 153 610 124 C 621 94 627 61 627 25 C 627 -29 618 -78 602 -122 C 585 -166 562 -204 532 -236 C 502 -268 467 -292 426 -310 C 384 -327 339 -336 291 -336 C 216 -336 154 -317 106 -279 C 57 -241 23 -183 4 -104 L 133 -39 C 144 -95 165 -137 195 -163 C 225 -189 263 -203 311 -203 C 335 -203 358 -198 379 -188 C 400 -178 418 -165 433 -147 C 448 -129 460 -108 468 -84 C 476 -59 481 -32 481 -2 C 481 18 478 37 472 54 C 466 70 457 86 444 101 C 431 115 414 129 393 142 C 372 155 347 168 317 182 C 226 222 159 268 115 320 C 71 372 49 434 49 508 C 49 554 56 598 70 638 C 84 678 104 714 128 748 C 152 781 181 812 214 840 C 246 868 281 894 317 918 C 292 942 273 972 261 1007 C 248 1041 242 1076 242 1112 C 242 1166 250 1214 267 1256 C 284 1298 308 1334 338 1364 C 368 1394 404 1416 446 1432 C 487 1448 532 1456 580 1456 C 654 1456 716 1437 768 1399 C 819 1361 856 1303 879 1225 L 754 1159 C 742 1190 729 1216 717 1237 C 704 1258 690 1275 675 1288 C 659 1300 642 1309 624 1315 C 605 1320 584 1323 561 1323 C 535 1323 512 1318 490 1308 C 468 1298 450 1285 434 1268 C 418 1251 406 1231 398 1207 C 389 1183 385 1158 385 1130 C 385 1106 388 1086 394 1069 C 400 1051 409 1035 423 1021 C 437 1006 454 992 476 979 C 498 965 525 952 557 938 C 601 917 640 895 674 873 C 707 851 735 826 757 800 C 779 774 795 745 806 714 C 817 682 823 648 823 610 C 823 562 816 518 803 479 C 789 439 771 403 748 371 C 725 338 698 308 667 281 C 635 253 601 227 565 203 Z M 678 584 C 678 628 664 667 638 702 C 612 736 566 769 502 799 C 482 808 464 817 448 825 C 432 833 416 842 401 850 C 336 808 285 762 249 710 C 213 658 195 599 195 535 C 195 488 208 447 236 413 C 263 379 309 348 375 322 C 393 314 411 306 428 298 C 445 290 462 281 479 272 C 541 311 590 357 625 409 C 660 461 678 519 678 584 Z" unicode="§" />
<glyph horiz-adv-x="809" d="M 797 1337 C 797 1323 794 1309 789 1297 C 783 1285 776 1274 766 1265 C 756 1255 745 1248 733 1243 C 721 1237 708 1235 694 1235 C 680 1235 668 1237 656 1243 C 644 1248 633 1255 624 1265 C 614 1274 607 1285 602 1297 C 596 1309 594 1323 594 1337 C 594 1350 596 1363 602 1375 C 607 1387 614 1398 624 1408 C 633 1418 644 1425 656 1431 C 668 1437 680 1440 694 1440 C 708 1440 721 1437 733 1431 C 745 1425 756 1418 766 1408 C 776 1398 783 1387 789 1375 C 794 1363 797 1350 797 1337 Z M 461 1337 C 461 1323 458 1309 453 1297 C 447 1285 440 1274 431 1265 C 421 1255 410 1248 398 1243 C 386 1237 373 1235 360 1235 C 346 1235 332 1237 320 1243 C 308 1248 297 1255 288 1265 C 278 1274 271 1285 266 1297 C 260 1309 258 1323 258 1337 C 258 1350 260 1363 266 1375 C 271 1387 278 1398 288 1408 C 297 1418 308 1425 320 1431 C 332 1437 346 1440 360 1440 C 373 1440 386 1437 398 1431 C 410 1425 421 1418 431 1408 C 440 1398 447 1387 453 1375 C 458 1363 461 1350 461 1337 Z" unicode="¨" />
<glyph horiz-adv-x="1264" d="M 1174 717 C 1174 607 1161 506 1135 415 C 1109 324 1073 246 1026 181 C 978 116 921 66 855 30 C 788 -5 713 -23 631 -23 C 549 -23 474 -5 408 30 C 342 66 285 116 238 181 C 191 246 155 324 130 415 C 104 506 92 607 92 717 C 92 827 104 927 130 1018 C 155 1108 191 1186 238 1251 C 285 1316 342 1366 408 1402 C 474 1438 549 1456 631 1456 C 713 1456 788 1438 855 1402 C 921 1366 978 1316 1026 1251 C 1073 1186 1109 1108 1135 1018 C 1161 927 1174 827 1174 717 Z M 1075 717 C 1075 813 1064 900 1044 980 C 1024 1059 995 1127 957 1184 C 919 1241 872 1285 817 1317 C 762 1348 700 1364 631 1364 C 561 1364 498 1348 444 1317 C 389 1285 343 1241 305 1184 C 267 1127 238 1059 218 980 C 198 900 188 813 188 717 C 188 621 198 533 218 454 C 238 374 267 306 305 249 C 343 192 389 148 444 117 C 498 85 561 70 631 70 C 700 70 762 85 817 117 C 872 148 919 192 957 249 C 995 306 1024 374 1044 454 C 1064 533 1075 621 1075 717 Z M 840 481 C 819 423 792 379 759 347 C 726 315 682 299 627 299 C 588 299 554 308 525 327 C 496 346 472 374 452 410 C 432 446 418 489 408 541 C 398 593 393 651 393 717 C 393 781 398 840 409 892 C 419 944 435 988 455 1024 C 475 1060 499 1088 529 1108 C 559 1127 593 1137 631 1137 C 683 1137 725 1121 757 1090 C 789 1059 815 1014 836 954 L 745 913 C 736 938 728 959 720 975 C 712 991 703 1003 694 1012 C 685 1021 675 1027 665 1031 C 654 1034 642 1036 629 1036 C 585 1036 552 1009 530 955 C 507 901 496 823 496 719 C 496 611 507 531 531 479 C 554 427 587 401 631 401 C 645 401 657 403 669 407 C 680 411 691 418 701 428 C 711 437 720 449 729 465 C 737 481 746 500 756 524 L 840 481 Z" unicode="©" />
<glyph horiz-adv-x="723" d="M 582 580 L 463 580 L 477 653 C 451 628 423 607 392 589 C 361 571 325 563 283 563 C 257 563 232 567 209 576 C 186 585 166 599 150 617 C 133 635 120 657 110 684 C 100 710 96 741 96 776 C 96 834 104 885 121 929 C 137 972 160 1008 188 1037 C 216 1066 248 1088 286 1102 C 324 1116 364 1124 406 1124 C 438 1124 466 1120 491 1113 C 515 1105 536 1096 553 1085 L 573 1202 C 574 1209 575 1218 576 1228 C 577 1238 578 1247 578 1255 C 578 1321 541 1354 469 1354 C 437 1354 406 1347 376 1335 C 346 1323 315 1305 281 1282 L 244 1372 C 284 1398 324 1419 366 1435 C 407 1450 450 1458 496 1458 C 527 1458 555 1455 580 1449 C 605 1443 626 1434 644 1421 C 662 1407 675 1390 685 1368 C 695 1346 700 1320 700 1288 C 700 1278 699 1267 698 1255 C 697 1243 696 1231 694 1219 L 582 580 Z M 494 754 L 537 987 C 527 993 517 998 507 1002 C 497 1006 487 1010 476 1014 C 464 1017 451 1019 437 1021 C 422 1023 405 1024 387 1024 C 357 1024 332 1018 310 1006 C 288 994 269 978 255 957 C 240 936 229 911 222 883 C 214 855 211 824 211 791 C 211 751 220 720 238 698 C 256 676 281 666 313 666 C 348 666 381 674 411 690 C 441 706 468 728 494 754 Z" unicode="ª" />
<glyph horiz-adv-x="930" d="M 760 0 L 610 0 L 377 537 L 801 1075 L 950 1075 L 528 539 L 760 0 Z M 414 0 L 264 0 L 31 537 L 455 1075 L 604 1075 L 182 539 L 414 0 Z" unicode="«" />
<glyph horiz-adv-x="1536" d="M 1116 352 L 1116 728 L 212 728 L 212 920 L 1296 920 L 1296 352 L 1116 352 Z" unicode="¬" />
<glyph horiz-adv-x="547" d="M 467 680 L 84 680 L 109 819 L 492 819 L 467 680 Z" unicode="­" />
<glyph horiz-adv-x="1264" d="M 1174 717 C 1174 607 1161 506 1135 415 C 1109 324 1073 246 1026 181 C 978 116 921 66 855 30 C 788 -5 713 -23 631 -23 C 549 -23 474 -5 408 30 C 342 66 285 116 238 181 C 191 246 155 324 130 415 C 104 506 92 607 92 717 C 92 827 104 927 130 1018 C 155 1108 191 1186 238 1251 C 285 1316 342 1366 408 1402 C 474 1438 549 1456 631 1456 C 713 1456 788 1438 855 1402 C 921 1366 978 1316 1026 1251 C 1073 1186 1109 1108 1135 1018 C 1161 927 1174 827 1174 717 Z M 1075 717 C 1075 813 1064 900 1044 980 C 1024 1059 995 1127 957 1184 C 919 1241 872 1285 817 1317 C 762 1348 700 1364 631 1364 C 561 1364 498 1348 444 1317 C 389 1285 343 1241 305 1184 C 267 1127 238 1059 218 980 C 198 900 188 813 188 717 C 188 621 198 533 218 454 C 238 374 267 306 305 249 C 343 192 389 148 444 117 C 498 85 561 70 631 70 C 700 70 762 85 817 117 C 872 148 919 192 957 249 C 995 306 1024 374 1044 454 C 1064 533 1075 621 1075 717 Z M 868 330 L 758 330 L 637 688 C 635 687 629 686 620 686 C 611 686 601 686 590 686 C 579 686 569 686 559 686 C 549 686 543 686 541 686 L 541 330 L 440 330 L 440 1137 L 645 1137 C 675 1137 704 1132 730 1124 C 756 1115 779 1102 799 1084 C 819 1066 834 1043 845 1016 C 856 988 862 956 862 918 C 862 865 850 821 828 787 C 806 752 776 727 739 711 L 868 330 Z M 762 915 C 762 959 751 992 731 1014 C 710 1036 680 1047 641 1047 L 541 1047 L 541 778 L 637 778 C 678 778 709 789 730 813 C 751 837 762 871 762 915 Z" unicode="®" />
<glyph horiz-adv-x="809" d="M 762 1266 L 258 1266 L 279 1386 L 782 1386 L 762 1266 Z" unicode="¯" />
<glyph horiz-adv-x="803" d="M 741 1143 C 741 1097 733 1055 718 1017 C 702 978 681 944 654 916 C 626 888 594 865 557 849 C 519 833 478 825 434 825 C 390 825 349 833 312 849 C 274 865 242 888 214 916 C 186 944 165 978 150 1017 C 134 1055 127 1097 127 1143 C 127 1186 134 1227 150 1265 C 165 1303 186 1336 214 1364 C 242 1392 274 1415 312 1431 C 349 1447 390 1456 434 1456 C 478 1456 519 1447 557 1431 C 594 1415 626 1392 654 1364 C 681 1336 702 1303 718 1265 C 733 1227 741 1186 741 1143 Z M 627 1143 C 627 1172 622 1199 613 1224 C 603 1249 590 1271 573 1289 C 556 1307 536 1322 512 1332 C 488 1342 462 1348 434 1348 C 405 1348 379 1342 355 1332 C 331 1322 311 1307 295 1289 C 278 1271 265 1249 256 1224 C 246 1199 242 1172 242 1143 C 242 1112 246 1084 256 1058 C 265 1032 278 1009 295 991 C 311 972 331 957 355 947 C 379 937 405 932 434 932 C 462 932 488 937 512 947 C 536 957 556 972 573 991 C 590 1009 603 1032 613 1058 C 622 1084 627 1112 627 1143 Z" unicode="°" />
<glyph horiz-adv-x="1536" d="M 672 352 L 672 764 L 200 764 L 200 936 L 672 936 L 672 1352 L 864 1352 L 864 936 L 1340 936 L 1340 764 L 864 764 L 864 352 L 672 352 Z M 204 24 L 204 216 L 1336 216 L 1336 24 L 204 24 Z" unicode="±" />
<glyph horiz-adv-x="896" d="M 56 628 L 56 768 L 400 1108 C 448 1153 485 1194 512 1230 C 538 1266 552 1306 552 1352 C 552 1386 536 1414 506 1436 C 475 1457 440 1468 400 1468 C 357 1468 316 1455 276 1430 C 236 1404 201 1377 172 1348 L 64 1456 C 104 1498 156 1536 220 1570 C 284 1603 353 1620 428 1620 C 521 1620 598 1593 658 1540 C 718 1486 748 1421 748 1344 C 748 1272 718 1202 658 1134 C 598 1066 542 1013 492 976 L 268 788 L 776 788 L 776 628 L 56 628 Z" unicode="²" />
<glyph horiz-adv-x="896" d="M 48 732 L 152 864 C 194 832 238 809 284 796 C 329 782 376 776 424 776 C 490 776 540 790 572 818 C 604 846 620 882 620 928 C 620 978 597 1016 552 1040 C 506 1064 450 1076 384 1076 L 312 1076 L 312 1204 L 372 1204 C 438 1204 491 1216 530 1242 C 568 1267 588 1298 588 1336 C 588 1378 570 1409 536 1428 C 501 1446 460 1456 412 1456 C 358 1456 312 1447 272 1430 C 232 1412 200 1397 176 1384 L 88 1516 C 146 1553 206 1580 268 1596 C 329 1612 389 1620 448 1620 C 546 1620 625 1598 684 1556 C 742 1513 772 1453 772 1376 C 772 1309 751 1258 710 1222 C 668 1186 614 1161 548 1148 C 625 1140 688 1117 738 1080 C 787 1042 812 984 812 904 C 812 810 774 738 700 688 C 625 637 536 612 432 612 C 344 612 268 623 206 646 C 143 668 90 697 48 732 Z" unicode="³" />
<glyph horiz-adv-x="809" d="M 883 1546 L 561 1219 L 457 1219 L 690 1546 L 883 1546 Z" unicode="´" />
<glyph horiz-adv-x="1408" d="M 252 -424 C 214 -424 186 -413 168 -392 C 149 -370 140 -333 140 -280 C 140 -226 141 -168 144 -106 C 146 -43 150 25 156 100 C 161 166 165 218 168 256 C 170 293 172 317 172 328 C 174 341 176 350 176 356 C 176 361 176 365 176 368 L 176 1176 L 368 1176 L 368 320 C 368 258 395 210 450 176 C 504 141 564 124 628 124 C 716 124 792 146 858 190 C 923 234 973 297 1008 380 L 1008 1176 L 1200 1176 L 1200 308 L 1220 0 L 1056 0 L 1020 176 C 974 104 913 50 836 14 C 758 -22 670 -40 572 -40 C 537 -40 494 -31 444 -14 C 393 3 353 28 324 60 C 324 1 333 -56 352 -112 C 370 -168 380 -218 380 -264 C 380 -370 337 -424 252 -424 Z" unicode="µ" />
<glyph horiz-adv-x="1139" d="M 793 -379 L 657 -379 L 954 1307 L 801 1307 L 504 -379 L 367 -379 L 541 602 L 457 602 C 406 602 360 609 318 625 C 276 641 240 664 210 694 C 180 724 156 761 140 805 C 123 849 115 899 115 956 C 115 1032 129 1099 158 1159 C 186 1218 224 1268 270 1309 C 316 1349 369 1380 427 1402 C 485 1423 543 1434 602 1434 L 1112 1434 L 793 -379 Z" unicode="¶" />
<glyph horiz-adv-x="375" d="M 293 752 C 293 722 283 696 264 676 C 244 655 219 645 188 645 C 173 645 159 647 147 653 C 134 659 123 666 114 676 C 104 685 97 696 92 709 C 86 722 84 736 84 752 C 84 766 86 780 92 793 C 97 806 104 818 114 828 C 123 838 134 845 147 851 C 159 857 173 860 188 860 C 203 860 217 857 230 851 C 243 845 254 838 264 828 C 273 818 280 806 285 793 C 290 780 293 766 293 752 Z" unicode="·" />
<glyph horiz-adv-x="809" d="M 502 -213 C 502 -243 495 -270 481 -293 C 467 -316 449 -335 427 -350 C 405 -365 380 -376 352 -384 C 324 -391 296 -395 268 -395 C 236 -395 203 -389 171 -378 C 139 -366 110 -350 86 -330 L 131 -270 C 152 -286 175 -299 199 -307 C 223 -315 246 -319 270 -319 C 307 -319 337 -310 359 -293 C 381 -276 393 -253 393 -223 C 393 -182 374 -162 336 -162 C 321 -162 308 -164 297 -168 C 286 -172 275 -180 264 -190 L 201 -162 L 285 0 L 365 0 L 309 -106 C 320 -98 332 -93 345 -89 C 357 -85 373 -84 393 -84 C 424 -84 450 -94 471 -116 C 491 -137 502 -169 502 -213 Z" unicode="¸" />
<glyph horiz-adv-x="768" d="M 324 628 L 324 1424 L 144 1384 L 144 1528 L 392 1636 L 508 1636 L 508 628 L 324 628 Z" unicode="¹" />
<glyph horiz-adv-x="770" d="M 371 561 C 335 561 304 567 276 581 C 248 594 224 613 205 637 C 186 661 172 689 162 723 C 152 757 147 794 147 836 C 147 920 155 1000 173 1076 C 191 1151 216 1217 249 1273 C 281 1329 321 1374 367 1407 C 413 1439 466 1456 524 1456 C 594 1456 649 1431 689 1382 C 728 1333 748 1264 748 1176 C 748 1083 738 999 718 923 C 698 847 671 783 637 729 C 603 675 563 634 517 605 C 471 575 423 561 371 561 Z M 618 1186 C 618 1207 615 1227 611 1245 C 606 1263 599 1279 589 1293 C 579 1307 567 1317 553 1325 C 539 1333 522 1337 504 1337 C 468 1337 435 1323 407 1296 C 379 1268 355 1232 336 1187 C 316 1141 301 1089 291 1030 C 281 970 276 908 276 844 C 276 793 285 753 304 723 C 322 693 351 678 391 678 C 423 678 452 690 480 715 C 507 740 531 775 552 820 C 572 865 588 919 600 981 C 612 1043 618 1112 618 1186 Z" unicode="º" />
<glyph horiz-adv-x="930" d="M 862 539 L 440 0 L 291 0 L 713 537 L 481 1075 L 631 1075 L 862 539 Z M 516 539 L 94 0 L -55 0 L 367 537 L 135 1075 L 285 1075 L 516 539 Z" unicode="»" />
<glyph horiz-adv-x="1920" d="M 368 0 L 1340 1524 L 1520 1524 L 548 0 L 368 0 Z M 292 628 L 292 1424 L 112 1384 L 112 1528 L 360 1636 L 476 1636 L 476 628 L 292 628 Z M 1540 0 L 1540 220 L 1060 220 L 1060 360 L 1512 980 L 1724 980 L 1724 376 L 1844 376 L 1844 220 L 1724 220 L 1724 0 L 1540 0 Z M 1260 368 L 1540 368 L 1540 768 L 1260 368 Z" unicode="¼" />
<glyph horiz-adv-x="1920" d="M 276 0 L 1248 1524 L 1428 1524 L 456 0 L 276 0 Z M 268 628 L 268 1424 L 88 1384 L 88 1528 L 336 1636 L 452 1636 L 452 628 L 268 628 Z M 1136 0 L 1136 140 L 1480 480 C 1528 525 1565 566 1592 602 C 1618 638 1632 678 1632 724 C 1632 758 1616 786 1586 808 C 1555 829 1520 840 1480 840 C 1437 840 1396 827 1356 802 C 1316 776 1281 749 1252 720 L 1144 828 C 1184 870 1236 908 1300 942 C 1364 975 1433 992 1508 992 C 1601 992 1678 965 1738 912 C 1798 858 1828 793 1828 716 C 1828 644 1798 574 1738 506 C 1678 438 1622 385 1572 348 L 1348 160 L 1856 160 L 1856 0 L 1136 0 Z" unicode="½" />
<glyph horiz-adv-x="1920" d="M 440 0 L 1412 1524 L 1592 1524 L 620 0 L 440 0 Z M 48 732 L 152 864 C 194 832 238 809 284 796 C 329 782 376 776 424 776 C 490 776 540 790 572 818 C 604 846 620 882 620 928 C 620 978 597 1016 552 1040 C 506 1064 450 1076 384 1076 L 312 1076 L 312 1204 L 372 1204 C 438 1204 491 1216 530 1242 C 568 1267 588 1298 588 1336 C 588 1378 570 1409 536 1428 C 501 1446 460 1456 412 1456 C 358 1456 312 1447 272 1430 C 232 1412 200 1397 176 1384 L 88 1516 C 146 1553 206 1580 268 1596 C 329 1612 389 1620 448 1620 C 546 1620 625 1598 684 1556 C 742 1513 772 1453 772 1376 C 772 1309 751 1258 710 1222 C 668 1186 614 1161 548 1148 C 625 1140 688 1117 738 1080 C 787 1042 812 984 812 904 C 812 810 774 738 700 688 C 625 637 536 612 432 612 C 344 612 268 623 206 646 C 143 668 90 697 48 732 Z M 1564 0 L 1564 220 L 1084 220 L 1084 360 L 1536 980 L 1748 980 L 1748 376 L 1868 376 L 1868 220 L 1748 220 L 1748 0 L 1564 0 Z M 1284 368 L 1564 368 L 1564 768 L 1284 368 Z" unicode="¾" />
<glyph horiz-adv-x="776" d="M 428 1331 C 428 1361 437 1386 457 1407 C 476 1427 501 1438 532 1438 C 546 1438 560 1435 573 1429 C 586 1423 597 1416 607 1407 C 616 1397 623 1386 629 1373 C 634 1359 637 1345 637 1331 C 637 1316 634 1302 629 1289 C 623 1276 616 1265 607 1255 C 597 1245 586 1237 573 1231 C 560 1225 546 1223 532 1223 C 516 1223 502 1225 490 1231 C 477 1237 466 1245 457 1255 C 447 1265 440 1276 435 1289 C 430 1302 428 1316 428 1331 Z M 250 690 C 278 712 301 735 321 759 C 341 782 358 808 372 838 C 386 867 397 901 407 939 C 417 977 426 1023 434 1075 L 569 1075 C 559 1011 549 957 537 911 C 525 865 510 824 491 788 C 472 752 448 718 419 686 C 390 654 354 622 311 588 C 257 544 215 497 187 446 C 159 395 145 339 145 279 C 145 228 157 187 182 157 C 207 126 245 111 295 111 C 345 111 389 126 429 157 C 468 187 507 237 545 305 L 657 250 C 635 208 612 171 586 138 C 560 104 531 76 499 52 C 467 28 432 9 394 -3 C 356 -16 314 -23 268 -23 C 224 -23 185 -16 151 -3 C 117 9 88 27 65 51 C 41 75 24 103 12 137 C 0 171 -6 208 -6 250 C -6 292 0 332 12 372 C 24 412 42 450 65 487 C 87 524 114 560 146 594 C 177 628 212 660 250 690 Z" unicode="¿" />
<glyph horiz-adv-x="946" d="M 772 0 L 627 0 L 608 373 L 233 373 L 82 0 L -59 0 L 532 1434 L 684 1434 L 772 0 Z M 602 506 L 584 864 C 582 898 581 933 580 969 C 578 1005 577 1041 576 1077 C 575 1113 574 1147 574 1180 C 574 1213 574 1243 575 1270 C 567 1244 558 1214 547 1181 C 535 1147 523 1112 510 1076 C 496 1040 483 1003 469 967 C 455 930 441 895 428 862 L 287 506 L 602 506 Z M 678 1526 L 588 1526 L 379 1853 L 559 1853 L 678 1526 Z" unicode="À" />
<glyph horiz-adv-x="946" d="M 772 0 L 627 0 L 608 373 L 233 373 L 82 0 L -59 0 L 532 1434 L 684 1434 L 772 0 Z M 602 506 L 584 864 C 582 898 581 933 580 969 C 578 1005 577 1041 576 1077 C 575 1113 574 1147 574 1180 C 574 1213 574 1243 575 1270 C 567 1244 558 1214 547 1181 C 535 1147 523 1112 510 1076 C 496 1040 483 1003 469 967 C 455 930 441 895 428 862 L 287 506 L 602 506 Z M 983 1853 L 661 1526 L 557 1526 L 790 1853 L 983 1853 Z" unicode="Á" />
<glyph horiz-adv-x="946" d="M 772 0 L 627 0 L 608 373 L 233 373 L 82 0 L -59 0 L 532 1434 L 684 1434 L 772 0 Z M 602 506 L 584 864 C 582 898 581 933 580 969 C 578 1005 577 1041 576 1077 C 575 1113 574 1147 574 1180 C 574 1213 574 1243 575 1270 C 567 1244 558 1214 547 1181 C 535 1147 523 1112 510 1076 C 496 1040 483 1003 469 967 C 455 930 441 895 428 862 L 287 506 L 602 506 Z M 876 1485 L 758 1485 L 643 1685 L 448 1485 L 328 1485 L 594 1812 L 727 1812 L 876 1485 Z" unicode="Â" />
<glyph horiz-adv-x="946" d="M 772 0 L 627 0 L 608 373 L 233 373 L 82 0 L -59 0 L 532 1434 L 684 1434 L 772 0 Z M 602 506 L 584 864 C 582 898 581 933 580 969 C 578 1005 577 1041 576 1077 C 575 1113 574 1147 574 1180 C 574 1213 574 1243 575 1270 C 567 1244 558 1214 547 1181 C 535 1147 523 1112 510 1076 C 496 1040 483 1003 469 967 C 455 930 441 895 428 862 L 287 506 L 602 506 Z M 945 1755 C 937 1714 927 1678 913 1648 C 899 1617 884 1591 866 1571 C 848 1551 828 1535 807 1525 C 786 1515 764 1510 742 1510 C 698 1510 658 1527 621 1563 C 603 1579 588 1593 577 1604 C 566 1614 557 1623 549 1629 C 541 1635 533 1639 527 1641 C 520 1643 512 1645 504 1645 C 496 1645 489 1643 481 1639 C 473 1635 466 1628 459 1619 C 451 1609 444 1597 437 1581 C 429 1565 422 1544 416 1520 L 310 1520 C 316 1561 327 1597 341 1628 C 355 1658 372 1684 391 1704 C 409 1724 430 1739 452 1749 C 474 1759 496 1764 519 1764 C 540 1764 561 1760 581 1753 C 601 1745 619 1732 637 1714 C 653 1697 667 1683 679 1672 C 690 1661 700 1652 708 1646 C 716 1640 724 1635 730 1633 C 736 1631 744 1630 752 1630 C 769 1630 785 1640 799 1660 C 813 1680 826 1711 838 1755 L 945 1755 Z" unicode="Ã" />
<glyph horiz-adv-x="946" d="M 772 0 L 627 0 L 608 373 L 233 373 L 82 0 L -59 0 L 532 1434 L 684 1434 L 772 0 Z M 602 506 L 584 864 C 582 898 581 933 580 969 C 578 1005 577 1041 576 1077 C 575 1113 574 1147 574 1180 C 574 1213 574 1243 575 1270 C 567 1244 558 1214 547 1181 C 535 1147 523 1112 510 1076 C 496 1040 483 1003 469 967 C 455 930 441 895 428 862 L 287 506 L 602 506 Z M 889 1626 C 889 1612 886 1598 881 1586 C 875 1574 868 1563 858 1554 C 848 1544 837 1537 825 1532 C 813 1526 800 1524 786 1524 C 772 1524 760 1526 748 1532 C 736 1537 725 1544 716 1554 C 706 1563 699 1574 694 1586 C 688 1598 686 1612 686 1626 C 686 1639 688 1652 694 1664 C 699 1676 706 1687 716 1697 C 725 1707 736 1714 748 1720 C 760 1726 772 1729 786 1729 C 800 1729 813 1726 825 1720 C 837 1714 848 1707 858 1697 C 868 1687 875 1676 881 1664 C 886 1652 889 1639 889 1626 Z M 553 1626 C 553 1612 550 1598 545 1586 C 539 1574 532 1563 523 1554 C 513 1544 502 1537 490 1532 C 478 1526 465 1524 452 1524 C 438 1524 424 1526 412 1532 C 400 1537 389 1544 380 1554 C 370 1563 363 1574 358 1586 C 352 1598 350 1612 350 1626 C 350 1639 352 1652 358 1664 C 363 1676 370 1687 380 1697 C 389 1707 400 1714 412 1720 C 424 1726 438 1729 452 1729 C 465 1729 478 1726 490 1720 C 502 1714 513 1707 523 1697 C 532 1687 539 1676 545 1664 C 550 1652 553 1639 553 1626 Z" unicode="Ä" />
<glyph horiz-adv-x="946" d="M 688 1362 L 772 0 L 627 0 L 608 373 L 233 373 L 82 0 L -59 0 L 508 1372 C 474 1390 448 1416 429 1449 C 410 1482 401 1519 401 1559 C 401 1587 406 1614 416 1640 C 426 1665 441 1687 460 1705 C 478 1723 500 1738 526 1749 C 552 1759 580 1765 610 1765 C 640 1765 669 1759 695 1749 C 721 1738 743 1723 762 1705 C 780 1687 795 1665 805 1640 C 815 1614 821 1587 821 1559 C 821 1513 808 1473 784 1438 C 760 1402 728 1377 688 1362 Z M 729 1559 C 729 1575 726 1591 720 1605 C 714 1619 706 1632 696 1643 C 686 1653 673 1662 659 1668 C 644 1674 628 1677 610 1677 C 574 1677 545 1665 525 1643 C 504 1621 494 1593 494 1559 C 494 1523 504 1493 525 1470 C 545 1447 574 1436 610 1436 C 646 1436 674 1447 696 1470 C 718 1493 729 1523 729 1559 Z M 602 506 L 584 864 C 582 898 581 933 580 969 C 578 1005 577 1041 576 1077 C 575 1113 574 1147 574 1180 C 574 1213 574 1243 575 1270 C 567 1244 558 1214 547 1181 C 535 1147 523 1112 510 1076 C 496 1040 483 1003 469 967 C 455 930 441 895 428 862 L 287 506 L 602 506 Z" unicode="Å" />
<glyph horiz-adv-x="1335" d="M 1167 0 L 547 0 L 612 373 L 256 373 L 35 0 L -115 0 L 760 1434 L 1395 1434 L 1372 1300 L 913 1300 L 831 834 L 1126 834 L 1102 698 L 807 698 L 707 133 L 1190 133 L 1167 0 Z M 768 1235 C 760 1220 750 1202 739 1180 C 727 1158 715 1136 702 1112 C 689 1088 676 1065 663 1041 C 650 1017 638 995 627 977 L 338 506 L 637 506 L 717 965 C 721 987 725 1010 730 1036 C 734 1062 739 1087 744 1112 C 748 1136 753 1159 757 1181 C 761 1203 764 1221 768 1235 Z" unicode="Æ" />
<glyph horiz-adv-x="887" d="M 365 -23 C 315 -19 273 -5 237 18 C 201 42 172 75 149 117 C 126 159 109 211 98 271 C 87 331 82 400 82 477 C 82 567 87 653 99 737 C 110 820 126 898 148 970 C 170 1042 196 1108 227 1168 C 257 1228 292 1279 331 1322 C 369 1364 412 1397 458 1421 C 504 1444 552 1456 604 1456 C 648 1456 687 1449 721 1435 C 754 1421 783 1401 807 1375 C 831 1349 850 1317 866 1279 C 882 1241 895 1197 905 1149 L 768 1092 C 758 1170 737 1228 706 1266 C 674 1304 634 1323 584 1323 C 551 1323 519 1313 489 1294 C 459 1274 430 1247 404 1211 C 377 1175 353 1132 331 1081 C 309 1030 291 973 276 909 C 260 845 248 776 240 702 C 231 627 227 548 227 465 C 227 347 244 258 278 199 C 312 140 359 111 420 111 C 472 111 519 129 560 165 C 601 201 640 260 676 340 L 786 281 C 766 239 745 200 722 166 C 699 131 674 101 646 76 C 618 50 588 29 555 13 C 521 -2 485 -13 446 -18 L 401 -106 C 412 -98 424 -93 437 -89 C 449 -85 465 -84 485 -84 C 516 -84 542 -94 563 -116 C 583 -137 594 -169 594 -213 C 594 -243 587 -270 573 -293 C 559 -316 541 -335 519 -350 C 497 -365 472 -376 444 -384 C 416 -391 388 -395 360 -395 C 328 -395 295 -389 263 -378 C 231 -366 202 -350 178 -330 L 223 -270 C 244 -286 267 -299 291 -307 C 315 -315 338 -319 362 -319 C 399 -319 429 -310 451 -293 C 473 -276 485 -253 485 -223 C 485 -182 466 -162 428 -162 C 413 -162 400 -164 389 -168 C 378 -172 367 -180 356 -190 L 293 -162 L 365 -23 Z" unicode="Ç" />
<glyph horiz-adv-x="811" d="M 643 0 L 16 0 L 268 1434 L 870 1434 L 848 1300 L 389 1300 L 307 834 L 602 834 L 578 698 L 283 698 L 182 133 L 666 133 L 643 0 Z M 693 1526 L 603 1526 L 394 1853 L 574 1853 L 693 1526 Z" unicode="È" />
<glyph horiz-adv-x="811" d="M 643 0 L 16 0 L 268 1434 L 870 1434 L 848 1300 L 389 1300 L 307 834 L 602 834 L 578 698 L 283 698 L 182 133 L 666 133 L 643 0 Z M 889 1853 L 567 1526 L 463 1526 L 696 1853 L 889 1853 Z" unicode="É" />
<glyph horiz-adv-x="811" d="M 643 0 L 16 0 L 268 1434 L 870 1434 L 848 1300 L 389 1300 L 307 834 L 602 834 L 578 698 L 283 698 L 182 133 L 666 133 L 643 0 Z M 841 1526 L 723 1526 L 608 1726 L 413 1526 L 293 1526 L 559 1853 L 692 1853 L 841 1526 Z" unicode="Ê" />
<glyph horiz-adv-x="811" d="M 643 0 L 16 0 L 268 1434 L 870 1434 L 848 1300 L 389 1300 L 307 834 L 602 834 L 578 698 L 283 698 L 182 133 L 666 133 L 643 0 Z M 854 1644 C 854 1630 851 1616 846 1604 C 840 1592 833 1581 823 1572 C 813 1562 802 1555 790 1550 C 778 1544 765 1542 751 1542 C 737 1542 725 1544 713 1550 C 701 1555 690 1562 681 1572 C 671 1581 664 1592 659 1604 C 653 1616 651 1630 651 1644 C 651 1657 653 1670 659 1682 C 664 1694 671 1705 681 1715 C 690 1725 701 1732 713 1738 C 725 1744 737 1747 751 1747 C 765 1747 778 1744 790 1738 C 802 1732 813 1725 823 1715 C 833 1705 840 1694 846 1682 C 851 1670 854 1657 854 1644 Z M 518 1644 C 518 1630 515 1616 510 1604 C 504 1592 497 1581 488 1572 C 478 1562 467 1555 455 1550 C 443 1544 430 1542 417 1542 C 403 1542 389 1544 377 1550 C 365 1555 354 1562 345 1572 C 335 1581 328 1592 323 1604 C 317 1616 315 1630 315 1644 C 315 1657 317 1670 323 1682 C 328 1694 335 1705 345 1715 C 354 1725 365 1732 377 1738 C 389 1744 403 1747 417 1747 C 430 1747 443 1744 455 1738 C 467 1732 478 1725 488 1715 C 497 1705 504 1694 510 1682 C 515 1670 518 1657 518 1644 Z" unicode="Ë" />
<glyph horiz-adv-x="449" d="M 170 0 L 27 0 L 279 1434 L 422 1434 L 170 0 Z M 427 1526 L 337 1526 L 128 1853 L 308 1853 L 427 1526 Z" unicode="Ì" />
<glyph horiz-adv-x="449" d="M 170 0 L 27 0 L 279 1434 L 422 1434 L 170 0 Z M 722 1853 L 400 1526 L 296 1526 L 529 1853 L 722 1853 Z" unicode="Í" />
<glyph horiz-adv-x="449" d="M 170 0 L 27 0 L 279 1434 L 422 1434 L 170 0 Z M 629 1518 L 511 1518 L 396 1718 L 201 1518 L 81 1518 L 347 1845 L 480 1845 L 629 1518 Z" unicode="Î" />
<glyph horiz-adv-x="449" d="M 170 0 L 27 0 L 279 1434 L 422 1434 L 170 0 Z M 642 1652 C 642 1638 639 1624 634 1612 C 628 1600 621 1589 611 1580 C 601 1570 590 1563 578 1558 C 566 1552 553 1550 539 1550 C 525 1550 513 1552 501 1558 C 489 1563 478 1570 469 1580 C 459 1589 452 1600 447 1612 C 441 1624 439 1638 439 1652 C 439 1665 441 1678 447 1690 C 452 1702 459 1713 469 1723 C 478 1733 489 1740 501 1746 C 513 1752 525 1755 539 1755 C 553 1755 566 1752 578 1746 C 590 1740 601 1733 611 1723 C 621 1713 628 1702 634 1690 C 639 1678 642 1665 642 1652 Z M 306 1652 C 306 1638 303 1624 298 1612 C 292 1600 285 1589 276 1580 C 266 1570 255 1563 243 1558 C 231 1552 218 1550 205 1550 C 191 1550 177 1552 165 1558 C 153 1563 142 1570 133 1580 C 123 1589 116 1600 111 1612 C 105 1624 103 1638 103 1652 C 103 1665 105 1678 111 1690 C 116 1702 123 1713 133 1723 C 142 1733 153 1740 165 1746 C 177 1752 191 1755 205 1755 C 218 1755 231 1752 243 1746 C 255 1740 266 1733 276 1723 C 285 1713 292 1702 298 1690 C 303 1678 306 1665 306 1652 Z" unicode="Ï" />
<glyph horiz-adv-x="977" d="M 137 684 L 41 684 L 63 815 L 160 815 L 268 1434 L 522 1434 C 646 1434 741 1394 807 1314 C 872 1234 905 1114 905 956 C 905 817 889 689 858 572 C 827 455 784 354 729 270 C 673 185 607 119 531 71 C 454 23 370 0 279 0 L 16 0 L 137 684 Z M 303 815 L 498 815 L 475 684 L 281 684 L 182 133 L 315 133 C 377 133 436 153 490 195 C 544 237 592 294 632 367 C 672 440 703 526 726 626 C 748 725 760 832 760 948 C 760 1008 753 1061 741 1105 C 729 1149 711 1185 688 1214 C 665 1243 637 1265 604 1279 C 571 1293 534 1300 494 1300 L 389 1300 L 303 815 Z" unicode="Ð" />
<glyph horiz-adv-x="1020" d="M 752 0 L 631 0 L 436 786 C 428 816 421 848 413 884 C 405 920 397 955 389 991 C 381 1027 373 1061 366 1093 C 358 1125 352 1153 348 1176 C 346 1160 344 1139 340 1113 C 336 1086 332 1057 328 1027 C 324 997 319 967 315 937 C 310 907 306 881 303 860 L 152 0 L 16 0 L 268 1434 L 408 1434 L 602 684 C 610 652 618 618 626 584 C 634 549 641 515 648 482 C 655 448 661 416 667 385 C 673 353 678 325 682 299 C 682 313 684 334 688 360 C 691 386 695 414 699 444 C 703 474 708 503 713 533 C 717 563 721 588 725 610 L 868 1434 L 1004 1434 L 752 0 Z M 986 1781 C 978 1740 968 1704 954 1674 C 940 1643 925 1617 907 1597 C 889 1577 869 1561 848 1551 C 827 1541 805 1536 783 1536 C 739 1536 699 1553 662 1589 C 644 1605 629 1619 618 1630 C 607 1640 598 1649 590 1655 C 582 1661 574 1665 568 1667 C 561 1669 553 1671 545 1671 C 537 1671 530 1669 522 1665 C 514 1661 507 1654 500 1645 C 492 1635 485 1623 478 1607 C 470 1591 463 1570 457 1546 L 351 1546 C 357 1587 368 1623 382 1654 C 396 1684 413 1710 432 1730 C 450 1750 471 1765 493 1775 C 515 1785 537 1790 560 1790 C 581 1790 602 1786 622 1779 C 642 1771 660 1758 678 1740 C 694 1723 708 1709 720 1698 C 731 1687 741 1678 749 1672 C 757 1666 765 1661 771 1659 C 777 1657 785 1656 793 1656 C 810 1656 826 1666 840 1686 C 854 1706 867 1737 879 1781 L 986 1781 Z" unicode="Ñ" />
<glyph horiz-adv-x="1012" d="M 399 -20 C 345 -20 298 -9 258 12 C 218 34 184 65 158 107 C 132 148 112 199 99 259 C 86 319 80 389 80 467 C 80 549 85 631 95 713 C 105 794 120 871 140 944 C 160 1017 184 1085 214 1147 C 244 1209 278 1263 318 1309 C 357 1354 401 1389 450 1415 C 498 1441 552 1454 610 1454 C 716 1454 796 1413 850 1331 C 904 1249 932 1128 932 969 C 932 890 927 811 917 732 C 907 652 893 576 873 503 C 853 429 829 361 800 297 C 770 233 736 178 697 131 C 657 84 613 47 563 20 C 513 -6 459 -20 399 -20 Z M 791 973 C 791 1034 786 1087 776 1131 C 766 1175 753 1211 736 1239 C 718 1267 697 1287 672 1301 C 647 1314 620 1321 590 1321 C 550 1321 513 1308 480 1283 C 446 1257 416 1223 389 1180 C 361 1136 337 1086 316 1028 C 295 970 278 910 264 846 C 250 782 239 716 232 648 C 224 580 221 515 221 453 C 221 391 225 338 234 295 C 242 251 255 216 272 189 C 288 162 309 143 333 131 C 357 119 384 113 414 113 C 452 113 488 124 522 148 C 556 172 587 204 615 246 C 643 287 668 335 690 391 C 712 447 730 506 745 570 C 760 634 771 700 779 769 C 787 837 791 905 791 973 Z M 684 1526 L 594 1526 L 385 1853 L 565 1853 L 684 1526 Z" unicode="Ò" />
<glyph horiz-adv-x="1012" d="M 399 -20 C 345 -20 298 -9 258 12 C 218 34 184 65 158 107 C 132 148 112 199 99 259 C 86 319 80 389 80 467 C 80 549 85 631 95 713 C 105 794 120 871 140 944 C 160 1017 184 1085 214 1147 C 244 1209 278 1263 318 1309 C 357 1354 401 1389 450 1415 C 498 1441 552 1454 610 1454 C 716 1454 796 1413 850 1331 C 904 1249 932 1128 932 969 C 932 890 927 811 917 732 C 907 652 893 576 873 503 C 853 429 829 361 800 297 C 770 233 736 178 697 131 C 657 84 613 47 563 20 C 513 -6 459 -20 399 -20 Z M 791 973 C 791 1034 786 1087 776 1131 C 766 1175 753 1211 736 1239 C 718 1267 697 1287 672 1301 C 647 1314 620 1321 590 1321 C 550 1321 513 1308 480 1283 C 446 1257 416 1223 389 1180 C 361 1136 337 1086 316 1028 C 295 970 278 910 264 846 C 250 782 239 716 232 648 C 224 580 221 515 221 453 C 221 391 225 338 234 295 C 242 251 255 216 272 189 C 288 162 309 143 333 131 C 357 119 384 113 414 113 C 452 113 488 124 522 148 C 556 172 587 204 615 246 C 643 287 668 335 690 391 C 712 447 730 506 745 570 C 760 634 771 700 779 769 C 787 837 791 905 791 973 Z M 985 1853 L 663 1526 L 559 1526 L 792 1853 L 985 1853 Z" unicode="Ó" />
<glyph horiz-adv-x="1012" d="M 399 -20 C 345 -20 298 -9 258 12 C 218 34 184 65 158 107 C 132 148 112 199 99 259 C 86 319 80 389 80 467 C 80 549 85 631 95 713 C 105 794 120 871 140 944 C 160 1017 184 1085 214 1147 C 244 1209 278 1263 318 1309 C 357 1354 401 1389 450 1415 C 498 1441 552 1454 610 1454 C 716 1454 796 1413 850 1331 C 904 1249 932 1128 932 969 C 932 890 927 811 917 732 C 907 652 893 576 873 503 C 853 429 829 361 800 297 C 770 233 736 178 697 131 C 657 84 613 47 563 20 C 513 -6 459 -20 399 -20 Z M 791 973 C 791 1034 786 1087 776 1131 C 766 1175 753 1211 736 1239 C 718 1267 697 1287 672 1301 C 647 1314 620 1321 590 1321 C 550 1321 513 1308 480 1283 C 446 1257 416 1223 389 1180 C 361 1136 337 1086 316 1028 C 295 970 278 910 264 846 C 250 782 239 716 232 648 C 224 580 221 515 221 453 C 221 391 225 338 234 295 C 242 251 255 216 272 189 C 288 162 309 143 333 131 C 357 119 384 113 414 113 C 452 113 488 124 522 148 C 556 172 587 204 615 246 C 643 287 668 335 690 391 C 712 447 730 506 745 570 C 760 634 771 700 779 769 C 787 837 791 905 791 973 Z M 884 1516 L 766 1516 L 651 1716 L 456 1516 L 336 1516 L 602 1843 L 735 1843 L 884 1516 Z" unicode="Ô" />
<glyph horiz-adv-x="1012" d="M 399 -20 C 345 -20 298 -9 258 12 C 218 34 184 65 158 107 C 132 148 112 199 99 259 C 86 319 80 389 80 467 C 80 549 85 631 95 713 C 105 794 120 871 140 944 C 160 1017 184 1085 214 1147 C 244 1209 278 1263 318 1309 C 357 1354 401 1389 450 1415 C 498 1441 552 1454 610 1454 C 716 1454 796 1413 850 1331 C 904 1249 932 1128 932 969 C 932 890 927 811 917 732 C 907 652 893 576 873 503 C 853 429 829 361 800 297 C 770 233 736 178 697 131 C 657 84 613 47 563 20 C 513 -6 459 -20 399 -20 Z M 791 973 C 791 1034 786 1087 776 1131 C 766 1175 753 1211 736 1239 C 718 1267 697 1287 672 1301 C 647 1314 620 1321 590 1321 C 550 1321 513 1308 480 1283 C 446 1257 416 1223 389 1180 C 361 1136 337 1086 316 1028 C 295 970 278 910 264 846 C 250 782 239 716 232 648 C 224 580 221 515 221 453 C 221 391 225 338 234 295 C 242 251 255 216 272 189 C 288 162 309 143 333 131 C 357 119 384 113 414 113 C 452 113 488 124 522 148 C 556 172 587 204 615 246 C 643 287 668 335 690 391 C 712 447 730 506 745 570 C 760 634 771 700 779 769 C 787 837 791 905 791 973 Z M 942 1767 C 934 1726 924 1690 910 1660 C 896 1629 881 1603 863 1583 C 845 1563 825 1547 804 1537 C 783 1527 761 1522 739 1522 C 695 1522 655 1539 618 1575 C 600 1591 585 1605 574 1616 C 563 1626 554 1635 546 1641 C 538 1647 530 1651 524 1653 C 517 1655 509 1657 501 1657 C 493 1657 486 1655 478 1651 C 470 1647 463 1640 456 1631 C 448 1621 441 1609 434 1593 C 426 1577 419 1556 413 1532 L 307 1532 C 313 1573 324 1609 338 1640 C 352 1670 369 1696 388 1716 C 406 1736 427 1751 449 1761 C 471 1771 493 1776 516 1776 C 537 1776 558 1772 578 1765 C 598 1757 616 1744 634 1726 C 650 1709 664 1695 676 1684 C 687 1673 697 1664 705 1658 C 713 1652 721 1647 727 1645 C 733 1643 741 1642 749 1642 C 766 1642 782 1652 796 1672 C 810 1692 823 1723 835 1767 L 942 1767 Z" unicode="Õ" />
<glyph horiz-adv-x="1012" d="M 399 -20 C 345 -20 298 -9 258 12 C 218 34 184 65 158 107 C 132 148 112 199 99 259 C 86 319 80 389 80 467 C 80 549 85 631 95 713 C 105 794 120 871 140 944 C 160 1017 184 1085 214 1147 C 244 1209 278 1263 318 1309 C 357 1354 401 1389 450 1415 C 498 1441 552 1454 610 1454 C 716 1454 796 1413 850 1331 C 904 1249 932 1128 932 969 C 932 890 927 811 917 732 C 907 652 893 576 873 503 C 853 429 829 361 800 297 C 770 233 736 178 697 131 C 657 84 613 47 563 20 C 513 -6 459 -20 399 -20 Z M 791 973 C 791 1034 786 1087 776 1131 C 766 1175 753 1211 736 1239 C 718 1267 697 1287 672 1301 C 647 1314 620 1321 590 1321 C 550 1321 513 1308 480 1283 C 446 1257 416 1223 389 1180 C 361 1136 337 1086 316 1028 C 295 970 278 910 264 846 C 250 782 239 716 232 648 C 224 580 221 515 221 453 C 221 391 225 338 234 295 C 242 251 255 216 272 189 C 288 162 309 143 333 131 C 357 119 384 113 414 113 C 452 113 488 124 522 148 C 556 172 587 204 615 246 C 643 287 668 335 690 391 C 712 447 730 506 745 570 C 760 634 771 700 779 769 C 787 837 791 905 791 973 Z M 899 1638 C 899 1624 896 1610 891 1598 C 885 1586 878 1575 868 1566 C 858 1556 847 1549 835 1544 C 823 1538 810 1536 796 1536 C 782 1536 770 1538 758 1544 C 746 1549 735 1556 726 1566 C 716 1575 709 1586 704 1598 C 698 1610 696 1624 696 1638 C 696 1651 698 1664 704 1676 C 709 1688 716 1699 726 1709 C 735 1719 746 1726 758 1732 C 770 1738 782 1741 796 1741 C 810 1741 823 1738 835 1732 C 847 1726 858 1719 868 1709 C 878 1699 885 1688 891 1676 C 896 1664 899 1651 899 1638 Z M 563 1638 C 563 1624 560 1610 555 1598 C 549 1586 542 1575 533 1566 C 523 1556 512 1549 500 1544 C 488 1538 475 1536 462 1536 C 448 1536 434 1538 422 1544 C 410 1549 399 1556 390 1566 C 380 1575 373 1586 368 1598 C 362 1610 360 1624 360 1638 C 360 1651 362 1664 368 1676 C 373 1688 380 1699 390 1709 C 399 1719 410 1726 422 1732 C 434 1738 448 1741 462 1741 C 475 1741 488 1738 500 1732 C 512 1726 523 1719 533 1709 C 542 1699 549 1688 555 1676 C 560 1664 563 1651 563 1638 Z" unicode="Ö" />
<glyph horiz-adv-x="1536" d="M 472 376 L 352 492 L 648 792 L 352 1088 L 480 1212 L 768 912 L 1068 1204 L 1184 1088 L 892 792 L 1184 492 L 1068 376 L 768 668 L 472 376 Z" unicode="×" />
<glyph horiz-adv-x="1012" d="M 143 137 C 103 219 84 331 84 473 C 84 551 88 629 97 708 C 106 786 120 862 139 935 C 157 1008 181 1076 209 1140 C 237 1203 270 1258 308 1305 C 346 1351 389 1388 437 1415 C 485 1442 539 1456 598 1456 C 674 1456 737 1435 786 1395 C 786 1395 790 1402 798 1417 C 806 1431 814 1447 824 1465 C 834 1485 846 1509 860 1536 L 983 1536 L 862 1303 C 884 1261 901 1213 912 1157 C 922 1101 928 1037 928 967 C 927 888 922 809 913 730 C 904 650 890 574 871 501 C 852 427 828 359 800 295 C 772 231 738 176 700 129 C 661 81 617 44 568 17 C 519 -9 465 -23 406 -23 C 329 -23 266 -2 217 39 C 217 39 215 37 213 33 C 211 29 208 23 205 17 C 201 11 197 3 193 -5 C 189 -13 184 -22 180 -31 C 168 -52 156 -76 143 -102 L 20 -102 L 143 137 Z M 236 315 L 717 1257 C 700 1280 680 1297 657 1307 C 633 1317 608 1323 580 1323 C 538 1323 501 1310 468 1285 C 434 1259 404 1225 378 1181 C 352 1137 329 1087 310 1029 C 290 971 274 909 262 845 C 249 780 240 714 234 646 C 228 578 225 512 225 449 C 225 423 226 399 228 377 C 230 355 232 334 236 315 Z M 772 1124 L 287 176 C 304 153 324 136 348 126 C 371 116 398 111 428 111 C 466 111 502 122 535 146 C 567 170 597 202 623 243 C 649 284 673 332 693 388 C 713 444 730 503 744 567 C 758 630 768 696 775 765 C 782 833 786 901 786 969 C 786 999 785 1027 783 1053 C 781 1079 777 1102 772 1124 Z" unicode="Ø" />
<glyph horiz-adv-x="1030" d="M 838 430 C 810 278 760 165 686 90 C 612 14 517 -23 401 -23 C 351 -23 307 -15 267 -1 C 227 12 194 33 167 61 C 139 89 118 123 103 164 C 88 204 80 251 80 303 C 80 341 84 382 92 428 L 268 1434 L 412 1434 L 236 432 C 232 412 230 394 228 376 C 226 358 225 342 225 326 C 225 255 240 201 272 165 C 304 129 351 111 414 111 C 490 111 551 137 597 191 C 643 245 675 324 694 430 L 870 1434 L 1014 1434 L 838 430 Z M 746 1495 L 656 1495 L 447 1822 L 627 1822 L 746 1495 Z" unicode="Ù" />
<glyph horiz-adv-x="1030" d="M 838 430 C 810 278 760 165 686 90 C 612 14 517 -23 401 -23 C 351 -23 307 -15 267 -1 C 227 12 194 33 167 61 C 139 89 118 123 103 164 C 88 204 80 251 80 303 C 80 341 84 382 92 428 L 268 1434 L 412 1434 L 236 432 C 232 412 230 394 228 376 C 226 358 225 342 225 326 C 225 255 240 201 272 165 C 304 129 351 111 414 111 C 490 111 551 137 597 191 C 643 245 675 324 694 430 L 870 1434 L 1014 1434 L 838 430 Z M 973 1822 L 651 1495 L 547 1495 L 780 1822 L 973 1822 Z" unicode="Ú" />
<glyph horiz-adv-x="1030" d="M 838 430 C 810 278 760 165 686 90 C 612 14 517 -23 401 -23 C 351 -23 307 -15 267 -1 C 227 12 194 33 167 61 C 139 89 118 123 103 164 C 88 204 80 251 80 303 C 80 341 84 382 92 428 L 268 1434 L 412 1434 L 236 432 C 232 412 230 394 228 376 C 226 358 225 342 225 326 C 225 255 240 201 272 165 C 304 129 351 111 414 111 C 490 111 551 137 597 191 C 643 245 675 324 694 430 L 870 1434 L 1014 1434 L 838 430 Z M 925 1526 L 807 1526 L 692 1726 L 497 1526 L 377 1526 L 643 1853 L 776 1853 L 925 1526 Z" unicode="Û" />
<glyph horiz-adv-x="1030" d="M 838 430 C 810 278 760 165 686 90 C 612 14 517 -23 401 -23 C 351 -23 307 -15 267 -1 C 227 12 194 33 167 61 C 139 89 118 123 103 164 C 88 204 80 251 80 303 C 80 341 84 382 92 428 L 268 1434 L 412 1434 L 236 432 C 232 412 230 394 228 376 C 226 358 225 342 225 326 C 225 255 240 201 272 165 C 304 129 351 111 414 111 C 490 111 551 137 597 191 C 643 245 675 324 694 430 L 870 1434 L 1014 1434 L 838 430 Z M 922 1644 C 922 1630 919 1616 914 1604 C 908 1592 901 1581 891 1572 C 881 1562 870 1555 858 1550 C 846 1544 833 1542 819 1542 C 805 1542 793 1544 781 1550 C 769 1555 758 1562 749 1572 C 739 1581 732 1592 727 1604 C 721 1616 719 1630 719 1644 C 719 1657 721 1670 727 1682 C 732 1694 739 1705 749 1715 C 758 1725 769 1732 781 1738 C 793 1744 805 1747 819 1747 C 833 1747 846 1744 858 1738 C 870 1732 881 1725 891 1715 C 901 1705 908 1694 914 1682 C 919 1670 922 1657 922 1644 Z M 586 1644 C 586 1630 583 1616 578 1604 C 572 1592 565 1581 556 1572 C 546 1562 535 1555 523 1550 C 511 1544 498 1542 485 1542 C 471 1542 457 1544 445 1550 C 433 1555 422 1562 413 1572 C 403 1581 396 1592 391 1604 C 385 1616 383 1630 383 1644 C 383 1657 385 1670 391 1682 C 396 1694 403 1705 413 1715 C 422 1725 433 1732 445 1738 C 457 1744 471 1747 485 1747 C 498 1747 511 1744 523 1738 C 535 1732 546 1725 556 1715 C 565 1705 572 1694 578 1682 C 583 1670 586 1657 586 1644 Z" unicode="Ü" />
<glyph horiz-adv-x="870" d="M 950 1434 L 469 600 L 362 0 L 221 0 L 326 598 L 135 1434 L 291 1434 L 365 1055 C 370 1026 375 997 381 967 C 387 937 392 907 398 879 C 403 851 408 824 412 798 C 416 772 419 749 422 729 C 432 749 443 773 457 799 C 470 825 484 852 499 881 C 514 909 530 938 546 968 C 562 998 578 1027 594 1055 L 801 1434 L 950 1434 Z M 891 1816 L 569 1489 L 465 1489 L 698 1816 L 891 1816 Z" unicode="Ý" />
<glyph horiz-adv-x="915" d="M 858 834 C 858 746 844 670 818 607 C 791 543 756 491 712 451 C 668 410 617 380 561 361 C 504 341 446 332 387 332 L 217 332 L 160 0 L 16 0 L 268 1434 L 412 1434 L 362 1147 L 551 1147 C 595 1147 636 1140 674 1128 C 711 1116 743 1097 771 1071 C 798 1045 819 1013 835 974 C 850 934 858 888 858 834 Z M 715 817 C 715 883 697 932 662 965 C 627 997 578 1014 514 1014 L 338 1014 L 242 465 L 418 465 C 462 465 503 473 539 490 C 575 506 607 530 633 560 C 659 590 679 627 693 671 C 707 714 715 763 715 817 Z" unicode="Þ" />
<glyph horiz-adv-x="913" d="M 303 0 L 279 0 L 301 127 L 332 127 C 386 127 432 137 472 157 C 512 177 545 205 572 242 C 598 279 618 324 631 376 C 644 428 651 487 651 551 C 651 586 646 616 636 641 C 626 666 612 687 594 703 C 576 719 554 730 529 738 C 503 746 476 750 446 750 L 412 750 L 434 879 L 469 879 C 501 879 530 885 558 899 C 585 912 608 932 628 959 C 647 986 662 1020 673 1060 C 684 1100 690 1146 690 1200 C 690 1250 678 1288 655 1316 C 632 1344 598 1358 553 1358 C 501 1358 457 1337 423 1296 C 389 1255 364 1192 350 1108 L 100 -313 L -51 -395 L 211 1096 C 233 1226 275 1323 335 1389 C 395 1454 473 1487 571 1487 C 613 1487 651 1480 683 1467 C 715 1454 741 1436 763 1412 C 785 1388 801 1359 812 1325 C 823 1291 829 1252 829 1210 C 829 1156 823 1107 812 1065 C 801 1023 786 986 767 954 C 748 922 726 896 702 875 C 677 853 651 837 625 825 C 648 818 670 808 691 795 C 711 781 729 764 744 742 C 759 720 771 694 780 664 C 788 633 793 597 793 557 C 793 463 780 381 756 311 C 731 241 697 183 653 137 C 609 91 558 56 498 34 C 438 11 373 0 303 0 Z" unicode="ß" />
<glyph horiz-adv-x="850" d="M 602 0 L 463 0 L 479 90 C 449 59 415 32 378 10 C 341 -11 300 -23 254 -23 C 222 -23 190 -17 160 -7 C 130 3 103 20 79 43 C 55 65 37 94 23 130 C 9 165 2 207 2 256 C 2 328 13 391 35 444 C 57 497 87 541 123 576 C 159 610 201 636 247 653 C 293 669 339 678 387 678 C 403 678 419 676 436 674 C 453 672 470 668 487 664 C 503 660 519 655 534 649 C 548 643 561 637 573 631 L 600 782 C 604 806 606 828 606 848 C 606 930 560 971 469 971 C 429 971 391 963 354 948 C 316 933 276 911 233 883 L 188 989 C 238 1023 289 1049 341 1069 C 392 1088 446 1098 502 1098 C 540 1098 574 1094 605 1087 C 636 1079 662 1068 684 1052 C 706 1036 722 1015 734 989 C 746 963 752 931 752 893 C 752 878 751 863 750 847 C 748 831 746 814 743 797 L 602 0 Z M 500 211 L 553 512 C 529 526 503 538 473 546 C 443 554 411 559 375 559 C 338 559 305 551 276 536 C 247 520 222 499 202 473 C 182 446 166 415 155 380 C 144 344 139 306 139 266 C 139 209 152 167 178 140 C 204 113 239 100 281 100 C 317 100 353 109 389 127 C 425 145 462 173 500 211 Z M 607 1219 L 517 1219 L 308 1546 L 488 1546 L 607 1219 Z" unicode="à" />
<glyph horiz-adv-x="850" d="M 602 0 L 463 0 L 479 90 C 449 59 415 32 378 10 C 341 -11 300 -23 254 -23 C 222 -23 190 -17 160 -7 C 130 3 103 20 79 43 C 55 65 37 94 23 130 C 9 165 2 207 2 256 C 2 328 13 391 35 444 C 57 497 87 541 123 576 C 159 610 201 636 247 653 C 293 669 339 678 387 678 C 403 678 419 676 436 674 C 453 672 470 668 487 664 C 503 660 519 655 534 649 C 548 643 561 637 573 631 L 600 782 C 604 806 606 828 606 848 C 606 930 560 971 469 971 C 429 971 391 963 354 948 C 316 933 276 911 233 883 L 188 989 C 238 1023 289 1049 341 1069 C 392 1088 446 1098 502 1098 C 540 1098 574 1094 605 1087 C 636 1079 662 1068 684 1052 C 706 1036 722 1015 734 989 C 746 963 752 931 752 893 C 752 878 751 863 750 847 C 748 831 746 814 743 797 L 602 0 Z M 500 211 L 553 512 C 529 526 503 538 473 546 C 443 554 411 559 375 559 C 338 559 305 551 276 536 C 247 520 222 499 202 473 C 182 446 166 415 155 380 C 144 344 139 306 139 266 C 139 209 152 167 178 140 C 204 113 239 100 281 100 C 317 100 353 109 389 127 C 425 145 462 173 500 211 Z M 887 1546 L 565 1219 L 461 1219 L 694 1546 L 887 1546 Z" unicode="á" />
<glyph horiz-adv-x="850" d="M 602 0 L 463 0 L 479 90 C 449 59 415 32 378 10 C 341 -11 300 -23 254 -23 C 222 -23 190 -17 160 -7 C 130 3 103 20 79 43 C 55 65 37 94 23 130 C 9 165 2 207 2 256 C 2 328 13 391 35 444 C 57 497 87 541 123 576 C 159 610 201 636 247 653 C 293 669 339 678 387 678 C 403 678 419 676 436 674 C 453 672 470 668 487 664 C 503 660 519 655 534 649 C 548 643 561 637 573 631 L 600 782 C 604 806 606 828 606 848 C 606 930 560 971 469 971 C 429 971 391 963 354 948 C 316 933 276 911 233 883 L 188 989 C 238 1023 289 1049 341 1069 C 392 1088 446 1098 502 1098 C 540 1098 574 1094 605 1087 C 636 1079 662 1068 684 1052 C 706 1036 722 1015 734 989 C 746 963 752 931 752 893 C 752 878 751 863 750 847 C 748 831 746 814 743 797 L 602 0 Z M 500 211 L 553 512 C 529 526 503 538 473 546 C 443 554 411 559 375 559 C 338 559 305 551 276 536 C 247 520 222 499 202 473 C 182 446 166 415 155 380 C 144 344 139 306 139 266 C 139 209 152 167 178 140 C 204 113 239 100 281 100 C 317 100 353 109 389 127 C 425 145 462 173 500 211 Z M 802 1210 L 684 1210 L 569 1410 L 374 1210 L 254 1210 L 520 1537 L 653 1537 L 802 1210 Z" unicode="â" />
<glyph horiz-adv-x="850" d="M 602 0 L 463 0 L 479 90 C 449 59 415 32 378 10 C 341 -11 300 -23 254 -23 C 222 -23 190 -17 160 -7 C 130 3 103 20 79 43 C 55 65 37 94 23 130 C 9 165 2 207 2 256 C 2 328 13 391 35 444 C 57 497 87 541 123 576 C 159 610 201 636 247 653 C 293 669 339 678 387 678 C 403 678 419 676 436 674 C 453 672 470 668 487 664 C 503 660 519 655 534 649 C 548 643 561 637 573 631 L 600 782 C 604 806 606 828 606 848 C 606 930 560 971 469 971 C 429 971 391 963 354 948 C 316 933 276 911 233 883 L 188 989 C 238 1023 289 1049 341 1069 C 392 1088 446 1098 502 1098 C 540 1098 574 1094 605 1087 C 636 1079 662 1068 684 1052 C 706 1036 722 1015 734 989 C 746 963 752 931 752 893 C 752 878 751 863 750 847 C 748 831 746 814 743 797 L 602 0 Z M 500 211 L 553 512 C 529 526 503 538 473 546 C 443 554 411 559 375 559 C 338 559 305 551 276 536 C 247 520 222 499 202 473 C 182 446 166 415 155 380 C 144 344 139 306 139 266 C 139 209 152 167 178 140 C 204 113 239 100 281 100 C 317 100 353 109 389 127 C 425 145 462 173 500 211 Z M 852 1466 C 844 1425 834 1389 820 1359 C 806 1328 791 1302 773 1282 C 755 1262 735 1246 714 1236 C 693 1226 671 1221 649 1221 C 605 1221 565 1238 528 1274 C 510 1290 495 1304 484 1315 C 473 1325 464 1334 456 1340 C 448 1346 440 1350 434 1352 C 427 1354 419 1356 411 1356 C 403 1356 396 1354 388 1350 C 380 1346 373 1339 366 1330 C 358 1320 351 1308 344 1292 C 336 1276 329 1255 323 1231 L 217 1231 C 223 1272 234 1308 248 1339 C 262 1369 279 1395 298 1415 C 316 1435 337 1450 359 1460 C 381 1470 403 1475 426 1475 C 447 1475 468 1471 488 1464 C 508 1456 526 1443 544 1425 C 560 1408 574 1394 586 1383 C 597 1372 607 1363 615 1357 C 623 1351 631 1346 637 1344 C 643 1342 651 1341 659 1341 C 676 1341 692 1351 706 1371 C 720 1391 733 1422 745 1466 L 852 1466 Z" unicode="ã" />
<glyph horiz-adv-x="850" d="M 602 0 L 463 0 L 479 90 C 449 59 415 32 378 10 C 341 -11 300 -23 254 -23 C 222 -23 190 -17 160 -7 C 130 3 103 20 79 43 C 55 65 37 94 23 130 C 9 165 2 207 2 256 C 2 328 13 391 35 444 C 57 497 87 541 123 576 C 159 610 201 636 247 653 C 293 669 339 678 387 678 C 403 678 419 676 436 674 C 453 672 470 668 487 664 C 503 660 519 655 534 649 C 548 643 561 637 573 631 L 600 782 C 604 806 606 828 606 848 C 606 930 560 971 469 971 C 429 971 391 963 354 948 C 316 933 276 911 233 883 L 188 989 C 238 1023 289 1049 341 1069 C 392 1088 446 1098 502 1098 C 540 1098 574 1094 605 1087 C 636 1079 662 1068 684 1052 C 706 1036 722 1015 734 989 C 746 963 752 931 752 893 C 752 878 751 863 750 847 C 748 831 746 814 743 797 L 602 0 Z M 500 211 L 553 512 C 529 526 503 538 473 546 C 443 554 411 559 375 559 C 338 559 305 551 276 536 C 247 520 222 499 202 473 C 182 446 166 415 155 380 C 144 344 139 306 139 266 C 139 209 152 167 178 140 C 204 113 239 100 281 100 C 317 100 353 109 389 127 C 425 145 462 173 500 211 Z M 813 1328 C 813 1314 810 1300 805 1288 C 799 1276 792 1265 782 1256 C 772 1246 761 1239 749 1234 C 737 1228 724 1226 710 1226 C 696 1226 684 1228 672 1234 C 660 1239 649 1246 640 1256 C 630 1265 623 1276 618 1288 C 612 1300 610 1314 610 1328 C 610 1341 612 1354 618 1366 C 623 1378 630 1389 640 1399 C 649 1409 660 1416 672 1422 C 684 1428 696 1431 710 1431 C 724 1431 737 1428 749 1422 C 761 1416 772 1409 782 1399 C 792 1389 799 1378 805 1366 C 810 1354 813 1341 813 1328 Z M 477 1328 C 477 1314 474 1300 469 1288 C 463 1276 456 1265 447 1256 C 437 1246 426 1239 414 1234 C 402 1228 389 1226 376 1226 C 362 1226 348 1228 336 1234 C 324 1239 313 1246 304 1256 C 294 1265 287 1276 282 1288 C 276 1300 274 1314 274 1328 C 274 1341 276 1354 282 1366 C 287 1378 294 1389 304 1399 C 313 1409 324 1416 336 1422 C 348 1428 362 1431 376 1431 C 389 1431 402 1428 414 1422 C 426 1416 437 1409 447 1399 C 456 1389 463 1378 469 1366 C 474 1354 477 1341 477 1328 Z" unicode="ä" />
<glyph horiz-adv-x="850" d="M 602 0 L 463 0 L 479 90 C 449 59 415 32 378 10 C 341 -11 300 -23 254 -23 C 222 -23 190 -17 160 -7 C 130 3 103 20 79 43 C 55 65 37 94 23 130 C 9 165 2 207 2 256 C 2 328 13 391 35 444 C 57 497 87 541 123 576 C 159 610 201 636 247 653 C 293 669 339 678 387 678 C 403 678 419 676 436 674 C 453 672 470 668 487 664 C 503 660 519 655 534 649 C 548 643 561 637 573 631 L 600 782 C 604 806 606 828 606 848 C 606 930 560 971 469 971 C 429 971 391 963 354 948 C 316 933 276 911 233 883 L 188 989 C 238 1023 289 1049 341 1069 C 392 1088 446 1098 502 1098 C 540 1098 574 1094 605 1087 C 636 1079 662 1068 684 1052 C 706 1036 722 1015 734 989 C 746 963 752 931 752 893 C 752 878 751 863 750 847 C 748 831 746 814 743 797 L 602 0 Z M 500 211 L 553 512 C 529 526 503 538 473 546 C 443 554 411 559 375 559 C 338 559 305 551 276 536 C 247 520 222 499 202 473 C 182 446 166 415 155 380 C 144 344 139 306 139 266 C 139 209 152 167 178 140 C 204 113 239 100 281 100 C 317 100 353 109 389 127 C 425 145 462 173 500 211 Z M 766 1433 C 766 1403 760 1376 750 1350 C 740 1324 725 1302 707 1283 C 688 1264 666 1249 640 1238 C 614 1227 585 1222 555 1222 C 525 1222 497 1227 471 1238 C 445 1249 423 1264 405 1283 C 386 1302 371 1324 361 1350 C 351 1376 346 1403 346 1433 C 346 1461 351 1488 361 1514 C 371 1539 386 1561 405 1580 C 423 1598 445 1613 471 1624 C 497 1634 525 1640 555 1640 C 585 1640 614 1634 640 1624 C 666 1613 688 1598 707 1580 C 725 1561 740 1539 750 1514 C 760 1488 766 1461 766 1433 Z M 673 1433 C 673 1467 662 1495 641 1517 C 619 1539 591 1551 555 1551 C 519 1551 490 1539 469 1517 C 448 1495 438 1467 438 1433 C 438 1397 448 1367 469 1344 C 490 1321 519 1310 555 1310 C 591 1310 619 1321 641 1344 C 662 1367 673 1397 673 1433 Z" unicode="å" />
<glyph horiz-adv-x="1313" d="M 682 496 C 664 369 671 272 701 206 C 731 139 779 106 846 106 C 887 106 925 115 960 135 C 995 154 1033 185 1073 227 L 1143 137 C 1117 109 1092 86 1068 66 C 1043 46 1018 29 992 16 C 966 3 940 -6 912 -13 C 884 -19 855 -23 823 -23 C 763 -23 714 -8 674 19 C 634 47 602 87 580 137 C 532 87 481 47 428 19 C 375 -8 320 -23 262 -23 C 224 -23 190 -15 158 -1 C 126 12 99 33 76 59 C 52 85 34 117 21 153 C 8 189 2 230 2 274 C 2 345 13 406 36 457 C 59 507 89 549 126 581 C 163 613 205 636 251 651 C 297 666 343 674 389 674 C 424 674 457 669 489 660 C 521 650 548 638 571 623 L 598 782 C 600 793 601 804 602 816 C 603 828 604 838 604 848 C 604 890 593 921 572 941 C 551 961 518 971 473 971 C 433 971 393 962 351 946 C 309 930 270 907 233 879 L 188 989 C 236 1021 286 1047 340 1067 C 393 1087 447 1098 502 1098 C 538 1098 569 1095 595 1089 C 621 1083 644 1075 662 1065 C 680 1055 694 1042 704 1026 C 714 1010 722 993 727 973 C 737 988 749 1003 765 1018 C 781 1033 799 1046 819 1058 C 839 1070 862 1079 887 1087 C 911 1094 937 1098 965 1098 C 1019 1098 1064 1086 1100 1063 C 1136 1040 1164 1010 1185 973 C 1205 936 1220 894 1228 848 C 1236 802 1241 755 1241 709 C 1241 687 1240 664 1238 641 C 1236 617 1234 595 1232 575 C 1230 555 1227 537 1225 523 C 1223 509 1221 500 1221 496 L 682 496 Z M 1104 614 C 1107 666 1107 713 1104 757 C 1100 800 1093 837 1081 869 C 1069 900 1052 924 1030 942 C 1008 960 981 969 948 969 C 892 969 841 939 796 880 C 751 821 718 732 698 614 L 1104 614 Z M 545 250 C 541 276 539 307 539 344 C 539 392 543 446 551 504 C 528 519 502 531 473 539 C 443 547 413 551 383 551 C 349 551 317 545 287 533 C 257 521 232 504 210 482 C 188 459 171 431 159 398 C 147 364 141 326 141 283 C 141 249 145 221 153 198 C 161 174 173 155 188 141 C 203 127 221 116 242 110 C 262 103 285 100 309 100 C 324 100 342 103 362 109 C 382 115 402 125 424 138 C 445 150 466 166 487 185 C 508 203 527 225 545 250 Z" unicode="æ" />
<glyph horiz-adv-x="768" d="M 285 -16 C 249 -9 217 3 188 23 C 159 43 134 69 114 102 C 94 134 78 173 67 219 C 56 264 51 315 51 373 C 51 491 63 595 88 685 C 113 775 146 850 188 912 C 229 973 276 1019 329 1051 C 382 1082 437 1098 494 1098 C 528 1098 558 1093 586 1083 C 613 1073 637 1060 659 1044 C 681 1027 699 1007 715 984 C 731 961 744 937 756 911 L 639 827 C 629 848 619 867 609 885 C 599 903 587 918 575 930 C 562 942 547 952 531 959 C 515 965 496 969 475 969 C 439 969 404 955 370 928 C 336 901 307 863 281 813 C 255 763 234 702 218 631 C 202 560 195 481 195 393 C 195 349 198 309 204 274 C 210 238 220 208 234 183 C 248 158 265 139 286 126 C 306 112 331 106 360 106 C 400 106 436 118 468 142 C 500 166 532 200 565 246 L 651 168 C 609 111 565 66 519 33 C 473 0 421 -18 362 -23 L 319 -106 C 330 -98 342 -93 355 -89 C 367 -85 383 -84 403 -84 C 434 -84 460 -94 481 -116 C 501 -137 512 -169 512 -213 C 512 -243 505 -270 491 -293 C 477 -316 459 -335 437 -350 C 415 -365 390 -376 362 -384 C 334 -391 307 -395 279 -395 C 247 -395 214 -389 182 -378 C 149 -366 120 -350 96 -330 L 141 -270 C 162 -286 185 -299 209 -307 C 233 -315 257 -319 281 -319 C 317 -319 347 -310 369 -293 C 391 -276 403 -253 403 -223 C 403 -182 384 -162 346 -162 C 331 -162 318 -164 307 -168 C 296 -172 285 -180 274 -190 L 211 -162 L 249 -90 C 258 -72 266 -55 274 -40 C 282 -24 285 -16 285 -16 Z" unicode="ç" />
<glyph horiz-adv-x="834" d="M 762 709 C 762 687 761 664 759 640 C 757 616 755 593 753 572 C 750 551 747 533 745 518 C 743 502 741 493 741 489 L 201 489 C 197 443 195 402 195 365 C 195 279 209 215 239 171 C 269 127 311 106 365 106 C 407 106 446 115 481 135 C 516 154 554 185 594 227 L 664 137 C 638 109 613 86 589 66 C 564 46 539 29 513 16 C 487 3 461 -6 433 -13 C 405 -19 376 -23 344 -23 C 303 -23 265 -15 230 0 C 194 15 163 39 137 73 C 111 106 90 149 75 201 C 60 253 53 315 53 389 C 53 493 64 588 87 675 C 109 762 140 837 179 899 C 218 961 264 1010 316 1045 C 368 1080 425 1098 485 1098 C 539 1098 585 1086 621 1063 C 657 1040 685 1010 706 973 C 726 936 741 894 749 848 C 757 802 762 755 762 709 Z M 625 614 C 628 666 628 713 625 757 C 621 800 614 837 602 869 C 590 900 573 924 551 942 C 529 960 502 969 469 969 C 412 969 361 939 317 880 C 272 821 239 732 219 614 L 625 614 Z M 575 1219 L 485 1219 L 276 1546 L 456 1546 L 575 1219 Z" unicode="è" />
<glyph horiz-adv-x="834" d="M 762 709 C 762 687 761 664 759 640 C 757 616 755 593 753 572 C 750 551 747 533 745 518 C 743 502 741 493 741 489 L 201 489 C 197 443 195 402 195 365 C 195 279 209 215 239 171 C 269 127 311 106 365 106 C 407 106 446 115 481 135 C 516 154 554 185 594 227 L 664 137 C 638 109 613 86 589 66 C 564 46 539 29 513 16 C 487 3 461 -6 433 -13 C 405 -19 376 -23 344 -23 C 303 -23 265 -15 230 0 C 194 15 163 39 137 73 C 111 106 90 149 75 201 C 60 253 53 315 53 389 C 53 493 64 588 87 675 C 109 762 140 837 179 899 C 218 961 264 1010 316 1045 C 368 1080 425 1098 485 1098 C 539 1098 585 1086 621 1063 C 657 1040 685 1010 706 973 C 726 936 741 894 749 848 C 757 802 762 755 762 709 Z M 625 614 C 628 666 628 713 625 757 C 621 800 614 837 602 869 C 590 900 573 924 551 942 C 529 960 502 969 469 969 C 412 969 361 939 317 880 C 272 821 239 732 219 614 L 625 614 Z M 827 1546 L 505 1219 L 401 1219 L 634 1546 L 827 1546 Z" unicode="é" />
<glyph horiz-adv-x="834" d="M 762 709 C 762 687 761 664 759 640 C 757 616 755 593 753 572 C 750 551 747 533 745 518 C 743 502 741 493 741 489 L 201 489 C 197 443 195 402 195 365 C 195 279 209 215 239 171 C 269 127 311 106 365 106 C 407 106 446 115 481 135 C 516 154 554 185 594 227 L 664 137 C 638 109 613 86 589 66 C 564 46 539 29 513 16 C 487 3 461 -6 433 -13 C 405 -19 376 -23 344 -23 C 303 -23 265 -15 230 0 C 194 15 163 39 137 73 C 111 106 90 149 75 201 C 60 253 53 315 53 389 C 53 493 64 588 87 675 C 109 762 140 837 179 899 C 218 961 264 1010 316 1045 C 368 1080 425 1098 485 1098 C 539 1098 585 1086 621 1063 C 657 1040 685 1010 706 973 C 726 936 741 894 749 848 C 757 802 762 755 762 709 Z M 625 614 C 628 666 628 713 625 757 C 621 800 614 837 602 869 C 590 900 573 924 551 942 C 529 960 502 969 469 969 C 412 969 361 939 317 880 C 272 821 239 732 219 614 L 625 614 Z M 769 1200 L 651 1200 L 536 1400 L 341 1200 L 221 1200 L 487 1527 L 620 1527 L 769 1200 Z" unicode="ê" />
<glyph horiz-adv-x="834" d="M 762 709 C 762 687 761 664 759 640 C 757 616 755 593 753 572 C 750 551 747 533 745 518 C 743 502 741 493 741 489 L 201 489 C 197 443 195 402 195 365 C 195 279 209 215 239 171 C 269 127 311 106 365 106 C 407 106 446 115 481 135 C 516 154 554 185 594 227 L 664 137 C 638 109 613 86 589 66 C 564 46 539 29 513 16 C 487 3 461 -6 433 -13 C 405 -19 376 -23 344 -23 C 303 -23 265 -15 230 0 C 194 15 163 39 137 73 C 111 106 90 149 75 201 C 60 253 53 315 53 389 C 53 493 64 588 87 675 C 109 762 140 837 179 899 C 218 961 264 1010 316 1045 C 368 1080 425 1098 485 1098 C 539 1098 585 1086 621 1063 C 657 1040 685 1010 706 973 C 726 936 741 894 749 848 C 757 802 762 755 762 709 Z M 625 614 C 628 666 628 713 625 757 C 621 800 614 837 602 869 C 590 900 573 924 551 942 C 529 960 502 969 469 969 C 412 969 361 939 317 880 C 272 821 239 732 219 614 L 625 614 Z M 790 1328 C 790 1314 787 1300 782 1288 C 776 1276 769 1265 759 1256 C 749 1246 738 1239 726 1234 C 714 1228 701 1226 687 1226 C 673 1226 661 1228 649 1234 C 637 1239 626 1246 617 1256 C 607 1265 600 1276 595 1288 C 589 1300 587 1314 587 1328 C 587 1341 589 1354 595 1366 C 600 1378 607 1389 617 1399 C 626 1409 637 1416 649 1422 C 661 1428 673 1431 687 1431 C 701 1431 714 1428 726 1422 C 738 1416 749 1409 759 1399 C 769 1389 776 1378 782 1366 C 787 1354 790 1341 790 1328 Z M 454 1328 C 454 1314 451 1300 446 1288 C 440 1276 433 1265 424 1256 C 414 1246 403 1239 391 1234 C 379 1228 366 1226 353 1226 C 339 1226 325 1228 313 1234 C 301 1239 290 1246 281 1256 C 271 1265 264 1276 259 1288 C 253 1300 251 1314 251 1328 C 251 1341 253 1354 259 1366 C 264 1378 271 1389 281 1399 C 290 1409 301 1416 313 1422 C 325 1428 339 1431 353 1431 C 366 1431 379 1428 391 1422 C 403 1416 414 1409 424 1399 C 433 1389 440 1378 446 1366 C 451 1354 454 1341 454 1328 Z" unicode="ë" />
<glyph horiz-adv-x="434" d="M 162 0 L 23 0 L 213 1075 L 352 1075 L 162 0 Z M 364 1219 L 274 1219 L 65 1546 L 245 1546 L 364 1219 Z" unicode="ì" />
<glyph horiz-adv-x="434" d="M 162 0 L 23 0 L 213 1075 L 352 1075 L 162 0 Z M 663 1546 L 341 1219 L 237 1219 L 470 1546 L 663 1546 Z" unicode="í" />
<glyph horiz-adv-x="434" d="M 162 0 L 23 0 L 213 1075 L 352 1075 L 162 0 Z M 560 1189 L 442 1189 L 327 1389 L 132 1189 L 12 1189 L 278 1516 L 411 1516 L 560 1189 Z" unicode="î" />
<glyph horiz-adv-x="434" d="M 162 0 L 23 0 L 213 1075 L 352 1075 L 162 0 Z M 573 1318 C 573 1304 570 1290 565 1278 C 559 1266 552 1255 542 1246 C 532 1236 521 1229 509 1224 C 497 1218 484 1216 470 1216 C 456 1216 444 1218 432 1224 C 420 1229 409 1236 400 1246 C 390 1255 383 1266 378 1278 C 372 1290 370 1304 370 1318 C 370 1331 372 1344 378 1356 C 383 1368 390 1379 400 1389 C 409 1399 420 1406 432 1412 C 444 1418 456 1421 470 1421 C 484 1421 497 1418 509 1412 C 521 1406 532 1399 542 1389 C 552 1379 559 1368 565 1356 C 570 1344 573 1331 573 1318 Z M 237 1318 C 237 1304 234 1290 229 1278 C 223 1266 216 1255 207 1246 C 197 1236 186 1229 174 1224 C 162 1218 149 1216 136 1216 C 122 1216 108 1218 96 1224 C 84 1229 73 1236 64 1246 C 54 1255 47 1266 42 1278 C 36 1290 34 1304 34 1318 C 34 1331 36 1344 42 1356 C 47 1368 54 1379 64 1389 C 73 1399 84 1406 96 1412 C 108 1418 122 1421 136 1421 C 149 1421 162 1418 174 1412 C 186 1406 197 1399 207 1389 C 216 1379 223 1368 229 1356 C 234 1344 237 1331 237 1318 Z" unicode="ï" />
<glyph horiz-adv-x="920" d="M 336 -23 C 292 -23 252 -14 216 1 C 180 17 150 41 125 72 C 100 102 81 140 67 184 C 53 228 47 278 47 334 C 47 396 52 456 64 513 C 76 570 92 623 112 671 C 132 719 157 763 185 803 C 213 842 243 875 276 903 C 309 930 344 951 381 966 C 418 981 456 989 494 989 C 527 989 556 985 581 978 C 606 970 628 960 647 946 C 666 932 682 916 695 896 C 708 876 719 854 729 829 C 729 906 720 976 704 1038 C 688 1100 661 1154 625 1198 L 502 1085 L 424 1165 L 541 1274 C 520 1286 498 1296 475 1305 C 451 1314 426 1321 399 1327 L 422 1456 C 506 1444 579 1415 643 1370 L 735 1456 L 813 1376 L 723 1290 C 761 1242 790 1183 811 1114 C 831 1045 842 964 842 870 C 842 730 828 604 802 494 C 776 384 740 290 694 214 C 648 137 595 78 534 38 C 472 -2 406 -23 336 -23 Z M 666 618 C 666 698 650 759 619 799 C 587 839 543 860 485 860 C 442 860 402 846 366 818 C 330 790 298 753 272 706 C 246 658 225 603 210 541 C 195 478 188 412 188 342 C 188 264 203 206 234 166 C 264 126 306 106 360 106 C 400 106 439 118 476 143 C 513 168 546 203 574 249 C 602 294 624 348 641 411 C 657 473 666 542 666 618 Z" unicode="ð" />
<glyph horiz-adv-x="907" d="M 659 0 L 518 0 L 645 721 C 648 737 650 753 651 767 C 652 781 653 795 653 809 C 653 865 641 906 619 932 C 597 958 563 971 518 971 C 496 971 476 967 456 960 C 436 953 418 944 400 933 C 382 921 365 908 349 893 C 333 877 319 862 305 846 L 156 0 L 16 0 L 207 1075 L 346 1075 L 330 985 C 344 999 359 1013 377 1027 C 394 1041 413 1053 433 1063 C 453 1073 475 1082 499 1088 C 522 1094 547 1098 575 1098 C 608 1098 638 1092 666 1082 C 694 1071 717 1055 737 1034 C 757 1012 772 986 783 954 C 793 922 799 884 799 842 C 799 810 795 775 788 737 L 659 0 Z M 873 1466 C 865 1425 855 1389 841 1359 C 827 1328 812 1302 794 1282 C 776 1262 756 1246 735 1236 C 714 1226 692 1221 670 1221 C 626 1221 586 1238 549 1274 C 531 1290 516 1304 505 1315 C 494 1325 485 1334 477 1340 C 469 1346 461 1350 455 1352 C 448 1354 440 1356 432 1356 C 424 1356 417 1354 409 1350 C 401 1346 394 1339 387 1330 C 379 1320 372 1308 365 1292 C 357 1276 350 1255 344 1231 L 238 1231 C 244 1272 255 1308 269 1339 C 283 1369 300 1395 319 1415 C 337 1435 358 1450 380 1460 C 402 1470 424 1475 447 1475 C 468 1475 489 1471 509 1464 C 529 1456 547 1443 565 1425 C 581 1408 595 1394 607 1383 C 618 1372 628 1363 636 1357 C 644 1351 652 1346 658 1344 C 664 1342 672 1341 680 1341 C 697 1341 713 1351 727 1371 C 741 1391 754 1422 766 1466 L 873 1466 Z" unicode="ñ" />
<glyph horiz-adv-x="909" d="M 350 -23 C 304 -23 262 -14 226 3 C 189 21 158 46 132 80 C 106 113 87 154 73 203 C 59 251 53 307 53 369 C 53 483 64 586 88 676 C 111 766 143 843 184 906 C 224 968 272 1016 328 1049 C 383 1081 443 1098 508 1098 C 601 1098 673 1064 725 997 C 777 929 803 829 803 696 C 803 588 791 489 767 401 C 743 313 711 237 671 174 C 630 111 582 62 527 28 C 471 -5 412 -23 350 -23 Z M 662 682 C 662 782 647 854 617 900 C 587 946 543 969 485 969 C 441 969 402 953 367 923 C 331 893 301 851 275 798 C 249 744 230 681 216 609 C 202 537 195 459 195 375 C 195 284 210 216 241 172 C 271 128 315 106 371 106 C 412 106 450 120 486 149 C 522 178 553 218 579 269 C 605 320 625 381 640 451 C 654 521 662 598 662 682 Z M 602 1219 L 512 1219 L 303 1546 L 483 1546 L 602 1219 Z" unicode="ò" />
<glyph horiz-adv-x="909" d="M 350 -23 C 304 -23 262 -14 226 3 C 189 21 158 46 132 80 C 106 113 87 154 73 203 C 59 251 53 307 53 369 C 53 483 64 586 88 676 C 111 766 143 843 184 906 C 224 968 272 1016 328 1049 C 383 1081 443 1098 508 1098 C 601 1098 673 1064 725 997 C 777 929 803 829 803 696 C 803 588 791 489 767 401 C 743 313 711 237 671 174 C 630 111 582 62 527 28 C 471 -5 412 -23 350 -23 Z M 662 682 C 662 782 647 854 617 900 C 587 946 543 969 485 969 C 441 969 402 953 367 923 C 331 893 301 851 275 798 C 249 744 230 681 216 609 C 202 537 195 459 195 375 C 195 284 210 216 241 172 C 271 128 315 106 371 106 C 412 106 450 120 486 149 C 522 178 553 218 579 269 C 605 320 625 381 640 451 C 654 521 662 598 662 682 Z M 853 1548 L 531 1221 L 427 1221 L 660 1548 L 853 1548 Z" unicode="ó" />
<glyph horiz-adv-x="909" d="M 350 -23 C 304 -23 262 -14 226 3 C 189 21 158 46 132 80 C 106 113 87 154 73 203 C 59 251 53 307 53 369 C 53 483 64 586 88 676 C 111 766 143 843 184 906 C 224 968 272 1016 328 1049 C 383 1081 443 1098 508 1098 C 601 1098 673 1064 725 997 C 777 929 803 829 803 696 C 803 588 791 489 767 401 C 743 313 711 237 671 174 C 630 111 582 62 527 28 C 471 -5 412 -23 350 -23 Z M 662 682 C 662 782 647 854 617 900 C 587 946 543 969 485 969 C 441 969 402 953 367 923 C 331 893 301 851 275 798 C 249 744 230 681 216 609 C 202 537 195 459 195 375 C 195 284 210 216 241 172 C 271 128 315 106 371 106 C 412 106 450 120 486 149 C 522 178 553 218 579 269 C 605 320 625 381 640 451 C 654 521 662 598 662 682 Z M 786 1200 L 668 1200 L 553 1400 L 358 1200 L 238 1200 L 504 1527 L 637 1527 L 786 1200 Z" unicode="ô" />
<glyph horiz-adv-x="909" d="M 350 -23 C 304 -23 262 -14 226 3 C 189 21 158 46 132 80 C 106 113 87 154 73 203 C 59 251 53 307 53 369 C 53 483 64 586 88 676 C 111 766 143 843 184 906 C 224 968 272 1016 328 1049 C 383 1081 443 1098 508 1098 C 601 1098 673 1064 725 997 C 777 929 803 829 803 696 C 803 588 791 489 767 401 C 743 313 711 237 671 174 C 630 111 582 62 527 28 C 471 -5 412 -23 350 -23 Z M 662 682 C 662 782 647 854 617 900 C 587 946 543 969 485 969 C 441 969 402 953 367 923 C 331 893 301 851 275 798 C 249 744 230 681 216 609 C 202 537 195 459 195 375 C 195 284 210 216 241 172 C 271 128 315 106 371 106 C 412 106 450 120 486 149 C 522 178 553 218 579 269 C 605 320 625 381 640 451 C 654 521 662 598 662 682 Z M 852 1466 C 844 1425 834 1389 820 1359 C 806 1328 791 1302 773 1282 C 755 1262 735 1246 714 1236 C 693 1226 671 1221 649 1221 C 605 1221 565 1238 528 1274 C 510 1290 495 1304 484 1315 C 473 1325 464 1334 456 1340 C 448 1346 440 1350 434 1352 C 427 1354 419 1356 411 1356 C 403 1356 396 1354 388 1350 C 380 1346 373 1339 366 1330 C 358 1320 351 1308 344 1292 C 336 1276 329 1255 323 1231 L 217 1231 C 223 1272 234 1308 248 1339 C 262 1369 279 1395 298 1415 C 316 1435 337 1450 359 1460 C 381 1470 403 1475 426 1475 C 447 1475 468 1471 488 1464 C 508 1456 526 1443 544 1425 C 560 1408 574 1394 586 1383 C 597 1372 607 1363 615 1357 C 623 1351 631 1346 637 1344 C 643 1342 651 1341 659 1341 C 676 1341 692 1351 706 1371 C 720 1391 733 1422 745 1466 L 852 1466 Z" unicode="õ" />
<glyph horiz-adv-x="909" d="M 350 -23 C 304 -23 262 -14 226 3 C 189 21 158 46 132 80 C 106 113 87 154 73 203 C 59 251 53 307 53 369 C 53 483 64 586 88 676 C 111 766 143 843 184 906 C 224 968 272 1016 328 1049 C 383 1081 443 1098 508 1098 C 601 1098 673 1064 725 997 C 777 929 803 829 803 696 C 803 588 791 489 767 401 C 743 313 711 237 671 174 C 630 111 582 62 527 28 C 471 -5 412 -23 350 -23 Z M 662 682 C 662 782 647 854 617 900 C 587 946 543 969 485 969 C 441 969 402 953 367 923 C 331 893 301 851 275 798 C 249 744 230 681 216 609 C 202 537 195 459 195 375 C 195 284 210 216 241 172 C 271 128 315 106 371 106 C 412 106 450 120 486 149 C 522 178 553 218 579 269 C 605 320 625 381 640 451 C 654 521 662 598 662 682 Z M 796 1318 C 796 1304 793 1290 788 1278 C 782 1266 775 1255 765 1246 C 755 1236 744 1229 732 1224 C 720 1218 707 1216 693 1216 C 679 1216 667 1218 655 1224 C 643 1229 632 1236 623 1246 C 613 1255 606 1266 601 1278 C 595 1290 593 1304 593 1318 C 593 1331 595 1344 601 1356 C 606 1368 613 1379 623 1389 C 632 1399 643 1406 655 1412 C 667 1418 679 1421 693 1421 C 707 1421 720 1418 732 1412 C 744 1406 755 1399 765 1389 C 775 1379 782 1368 788 1356 C 793 1344 796 1331 796 1318 Z M 460 1318 C 460 1304 457 1290 452 1278 C 446 1266 439 1255 430 1246 C 420 1236 409 1229 397 1224 C 385 1218 372 1216 359 1216 C 345 1216 331 1218 319 1224 C 307 1229 296 1236 287 1246 C 277 1255 270 1266 265 1278 C 259 1290 257 1304 257 1318 C 257 1331 259 1344 265 1356 C 270 1368 277 1379 287 1389 C 296 1399 307 1406 319 1412 C 331 1418 345 1421 359 1421 C 372 1421 385 1418 397 1412 C 409 1406 420 1399 430 1389 C 439 1379 446 1368 452 1356 C 457 1344 460 1331 460 1318 Z" unicode="ö" />
<glyph horiz-adv-x="1536" d="M 208 684 L 208 896 L 1328 896 L 1328 684 L 208 684 Z M 768 228 C 725 228 688 244 656 276 C 624 308 608 345 608 388 C 608 430 622 468 650 500 C 678 532 717 548 768 548 C 816 548 854 532 884 500 C 913 468 928 430 928 388 C 928 345 912 308 880 276 C 848 244 810 228 768 228 Z M 768 1028 C 725 1028 688 1044 656 1076 C 624 1108 608 1145 608 1188 C 608 1230 622 1268 650 1300 C 678 1332 717 1348 768 1348 C 816 1348 854 1332 884 1300 C 913 1268 928 1230 928 1188 C 928 1145 912 1108 880 1076 C 848 1044 810 1028 768 1028 Z" unicode="÷" />
<glyph horiz-adv-x="909" d="M 123 90 C 100 123 83 163 71 209 C 59 255 53 308 53 369 C 53 482 64 584 87 674 C 110 764 142 841 183 904 C 223 966 271 1014 327 1048 C 382 1081 442 1098 508 1098 C 562 1098 611 1085 653 1061 L 719 1178 L 842 1178 L 735 983 C 756 949 773 908 785 860 C 797 812 803 758 803 696 C 803 588 791 489 767 401 C 743 313 711 237 671 174 C 630 111 582 62 527 28 C 471 -5 412 -23 350 -23 C 296 -23 247 -10 203 14 L 139 -102 L 16 -102 L 123 90 Z M 209 248 L 586 936 C 558 958 525 969 485 969 C 442 969 403 954 368 924 C 332 894 302 853 276 801 C 250 748 230 685 216 613 C 202 540 195 461 195 375 C 195 350 196 327 198 306 C 200 284 203 265 209 248 Z M 647 823 L 272 139 C 298 117 331 106 371 106 C 412 106 450 120 486 149 C 522 178 553 218 579 269 C 605 320 625 381 640 451 C 654 521 662 598 662 682 C 662 736 657 783 647 823 Z" unicode="ø" />
<glyph horiz-adv-x="909" d="M 651 0 L 512 0 L 528 90 C 514 74 498 60 482 46 C 466 32 448 20 429 10 C 410 0 390 -8 368 -14 C 346 -20 321 -23 295 -23 C 218 -23 159 -2 118 39 C 77 80 57 142 57 225 C 57 242 57 260 59 279 C 60 297 63 317 68 338 L 199 1075 L 340 1075 L 213 354 C 209 334 207 316 205 299 C 203 282 203 266 203 252 C 203 200 214 163 237 139 C 259 115 294 104 342 104 C 363 104 383 107 403 114 C 422 121 440 130 458 142 C 476 153 492 166 508 182 C 524 197 539 213 553 229 L 702 1075 L 842 1075 L 651 0 Z M 625 1219 L 535 1219 L 326 1546 L 506 1546 L 625 1219 Z" unicode="ù" />
<glyph horiz-adv-x="909" d="M 651 0 L 512 0 L 528 90 C 514 74 498 60 482 46 C 466 32 448 20 429 10 C 410 0 390 -8 368 -14 C 346 -20 321 -23 295 -23 C 218 -23 159 -2 118 39 C 77 80 57 142 57 225 C 57 242 57 260 59 279 C 60 297 63 317 68 338 L 199 1075 L 340 1075 L 213 354 C 209 334 207 316 205 299 C 203 282 203 266 203 252 C 203 200 214 163 237 139 C 259 115 294 104 342 104 C 363 104 383 107 403 114 C 422 121 440 130 458 142 C 476 153 492 166 508 182 C 524 197 539 213 553 229 L 702 1075 L 842 1075 L 651 0 Z M 872 1546 L 550 1219 L 446 1219 L 679 1546 L 872 1546 Z" unicode="ú" />
<glyph horiz-adv-x="909" d="M 651 0 L 512 0 L 528 90 C 514 74 498 60 482 46 C 466 32 448 20 429 10 C 410 0 390 -8 368 -14 C 346 -20 321 -23 295 -23 C 218 -23 159 -2 118 39 C 77 80 57 142 57 225 C 57 242 57 260 59 279 C 60 297 63 317 68 338 L 199 1075 L 340 1075 L 213 354 C 209 334 207 316 205 299 C 203 282 203 266 203 252 C 203 200 214 163 237 139 C 259 115 294 104 342 104 C 363 104 383 107 403 114 C 422 121 440 130 458 142 C 476 153 492 166 508 182 C 524 197 539 213 553 229 L 702 1075 L 842 1075 L 651 0 Z M 813 1219 L 695 1219 L 580 1419 L 385 1219 L 265 1219 L 531 1546 L 664 1546 L 813 1219 Z" unicode="û" />
<glyph horiz-adv-x="909" d="M 651 0 L 512 0 L 528 90 C 514 74 498 60 482 46 C 466 32 448 20 429 10 C 410 0 390 -8 368 -14 C 346 -20 321 -23 295 -23 C 218 -23 159 -2 118 39 C 77 80 57 142 57 225 C 57 242 57 260 59 279 C 60 297 63 317 68 338 L 199 1075 L 340 1075 L 213 354 C 209 334 207 316 205 299 C 203 282 203 266 203 252 C 203 200 214 163 237 139 C 259 115 294 104 342 104 C 363 104 383 107 403 114 C 422 121 440 130 458 142 C 476 153 492 166 508 182 C 524 197 539 213 553 229 L 702 1075 L 842 1075 L 651 0 Z M 807 1337 C 807 1323 804 1309 799 1297 C 793 1285 786 1274 776 1265 C 766 1255 755 1248 743 1243 C 731 1237 718 1235 704 1235 C 690 1235 678 1237 666 1243 C 654 1248 643 1255 634 1265 C 624 1274 617 1285 612 1297 C 606 1309 604 1323 604 1337 C 604 1350 606 1363 612 1375 C 617 1387 624 1398 634 1408 C 643 1418 654 1425 666 1431 C 678 1437 690 1440 704 1440 C 718 1440 731 1437 743 1431 C 755 1425 766 1418 776 1408 C 786 1398 793 1387 799 1375 C 804 1363 807 1350 807 1337 Z M 471 1337 C 471 1323 468 1309 463 1297 C 457 1285 450 1274 441 1265 C 431 1255 420 1248 408 1243 C 396 1237 383 1235 370 1235 C 356 1235 342 1237 330 1243 C 318 1248 307 1255 298 1265 C 288 1274 281 1285 276 1297 C 270 1309 268 1323 268 1337 C 268 1350 270 1363 276 1375 C 281 1387 288 1398 298 1408 C 307 1418 318 1425 330 1431 C 342 1437 356 1440 370 1440 C 383 1440 396 1437 408 1431 C 420 1425 431 1418 441 1408 C 450 1398 457 1387 463 1375 C 468 1363 471 1350 471 1337 Z" unicode="ü" />
<glyph horiz-adv-x="852" d="M 872 1075 L 211 -379 L 72 -379 L 250 -12 L 147 1075 L 295 1075 L 338 375 C 338 363 339 346 341 325 C 342 304 343 283 344 261 C 345 239 346 218 347 198 C 348 178 348 162 348 152 C 352 162 357 177 365 197 C 373 217 381 238 390 260 C 398 282 406 303 414 324 C 422 345 428 362 434 375 L 725 1075 L 872 1075 Z M 895 1527 L 573 1200 L 469 1200 L 702 1527 L 895 1527 Z" unicode="ý" />
<glyph horiz-adv-x="909" d="M 362 -23 C 338 -23 317 -20 298 -15 C 279 -10 262 -3 247 6 C 231 15 217 26 205 39 C 192 52 180 66 170 82 L 100 -313 L -53 -395 L 264 1411 L 420 1493 L 330 983 C 345 998 361 1013 379 1027 C 396 1041 415 1053 435 1063 C 455 1073 476 1082 498 1088 C 520 1094 543 1098 569 1098 C 647 1098 706 1068 745 1010 C 783 952 803 865 803 750 C 803 636 791 531 768 437 C 744 342 713 261 673 193 C 633 125 586 72 533 34 C 479 -4 422 -23 362 -23 Z M 664 733 C 664 891 614 971 516 971 C 476 971 440 961 406 941 C 372 921 339 896 307 864 L 195 215 C 215 179 240 152 268 133 C 296 113 333 104 377 104 C 405 104 432 112 458 129 C 483 145 506 168 528 197 C 549 226 568 261 585 301 C 601 341 615 384 627 431 C 639 477 648 526 654 578 C 660 629 664 681 664 733 Z" unicode="þ" />
<glyph horiz-adv-x="852" d="M 872 1075 L 211 -379 L 72 -379 L 250 -12 L 147 1075 L 295 1075 L 338 375 C 338 363 339 346 341 325 C 342 304 343 283 344 261 C 345 239 346 218 347 198 C 348 178 348 162 348 152 C 352 162 357 177 365 197 C 373 217 381 238 390 260 C 398 282 406 303 414 324 C 422 345 428 362 434 375 L 725 1075 L 872 1075 Z M 805 1318 C 805 1304 802 1290 797 1278 C 791 1266 784 1255 774 1246 C 764 1236 753 1229 741 1224 C 729 1218 716 1216 702 1216 C 688 1216 676 1218 664 1224 C 652 1229 641 1236 632 1246 C 622 1255 615 1266 610 1278 C 604 1290 602 1304 602 1318 C 602 1331 604 1344 610 1356 C 615 1368 622 1379 632 1389 C 641 1399 652 1406 664 1412 C 676 1418 688 1421 702 1421 C 716 1421 729 1418 741 1412 C 753 1406 764 1399 774 1389 C 784 1379 791 1368 797 1356 C 802 1344 805 1331 805 1318 Z M 469 1318 C 469 1304 466 1290 461 1278 C 455 1266 448 1255 439 1246 C 429 1236 418 1229 406 1224 C 394 1218 381 1216 368 1216 C 354 1216 340 1218 328 1224 C 316 1229 305 1236 296 1246 C 286 1255 279 1266 274 1278 C 268 1290 266 1304 266 1318 C 266 1331 268 1344 274 1356 C 279 1368 286 1379 296 1389 C 305 1399 316 1406 328 1412 C 340 1418 354 1421 368 1421 C 381 1421 394 1418 406 1412 C 418 1406 429 1399 439 1389 C 448 1379 455 1368 461 1356 C 466 1344 469 1331 469 1318 Z" unicode="ÿ" />
<glyph horiz-adv-x="434" d="M 162 0 L 23 0 L 213 1075 L 352 1075 L 162 0 Z" unicode="ı" />
<glyph horiz-adv-x="727" d="M 147 754 L 268 1434 L 412 1434 L 303 819 L 543 965 L 516 811 L 276 664 L 182 133 L 629 133 L 606 0 L 16 0 L 121 598 L 14 532 L 41 688 L 147 754 Z" unicode="Ł" />
<glyph horiz-adv-x="434" d="M 162 784 L 270 1411 L 426 1493 L 311 844 C 311 844 316 848 328 855 C 340 862 353 870 367 880 C 383 890 402 901 424 915 L 395 752 L 283 680 L 162 0 L 23 0 L 133 621 L 20 551 L 49 715 L 162 784 Z" unicode="ł" />
<glyph horiz-adv-x="1427" d="M 872 1251 L 905 1434 L 1487 1434 L 1464 1300 L 1006 1300 L 924 834 L 1219 834 L 1194 698 L 899 698 L 799 133 L 1282 133 L 1260 0 L 653 0 L 684 156 C 670 132 654 109 636 88 C 618 66 598 47 576 31 C 553 14 527 1 499 -8 C 471 -18 440 -23 406 -23 C 350 -23 302 -12 262 9 C 221 31 187 63 161 105 C 135 147 115 198 103 260 C 90 322 84 393 84 473 C 84 551 88 629 97 708 C 106 786 120 862 139 935 C 157 1008 181 1076 209 1140 C 237 1203 270 1258 308 1305 C 346 1351 389 1388 437 1415 C 485 1442 539 1456 598 1456 C 634 1456 668 1450 698 1439 C 728 1427 755 1412 778 1393 C 801 1374 820 1352 836 1328 C 852 1303 864 1277 872 1251 Z M 786 969 C 786 1091 767 1181 730 1238 C 693 1294 643 1323 580 1323 C 539 1323 502 1310 469 1285 C 435 1259 405 1225 379 1181 C 353 1137 330 1087 311 1029 C 291 971 275 909 263 845 C 250 780 240 714 234 646 C 228 578 225 512 225 449 C 225 387 229 334 238 291 C 247 248 260 213 277 187 C 294 160 315 141 339 129 C 363 117 391 111 422 111 C 460 111 495 122 528 146 C 560 170 590 202 617 243 C 644 284 668 332 689 388 C 710 444 728 503 742 567 C 756 630 767 696 775 765 C 782 833 786 901 786 969 Z" unicode="Œ" />
<glyph horiz-adv-x="1419" d="M 1346 709 C 1346 687 1345 664 1343 640 C 1341 616 1339 593 1337 572 C 1334 551 1331 533 1329 518 C 1327 502 1325 493 1325 489 L 784 489 C 780 443 778 402 778 365 C 778 279 793 215 823 171 C 853 127 894 106 948 106 C 990 106 1029 115 1065 135 C 1100 154 1138 185 1178 227 L 1247 137 C 1197 83 1146 42 1095 16 C 1044 -9 987 -23 924 -23 C 894 -23 865 -17 837 -5 C 809 7 783 22 761 42 C 738 61 718 83 702 107 C 686 131 674 155 668 180 C 650 151 631 124 610 100 C 589 75 566 53 540 35 C 514 17 485 2 453 -7 C 421 -17 387 -23 350 -23 C 258 -23 185 10 132 76 C 79 142 53 239 53 369 C 53 481 64 582 88 672 C 111 762 143 838 184 901 C 224 964 272 1013 328 1047 C 383 1081 443 1098 508 1098 C 570 1098 624 1081 670 1047 C 716 1013 749 967 770 909 C 808 967 852 1013 904 1047 C 955 1081 1010 1098 1069 1098 C 1123 1098 1168 1086 1204 1063 C 1240 1040 1268 1010 1289 973 C 1310 936 1325 894 1333 848 C 1341 802 1346 755 1346 709 Z M 1208 614 C 1212 666 1212 713 1209 757 C 1205 800 1198 837 1186 869 C 1174 900 1157 924 1135 942 C 1113 960 1086 969 1053 969 C 996 969 945 939 901 880 C 856 821 823 732 803 614 L 1208 614 Z M 662 682 C 662 782 646 855 616 901 C 586 946 542 969 485 969 C 441 969 402 953 367 923 C 331 893 301 851 275 798 C 249 744 230 681 216 609 C 202 537 195 459 195 375 C 195 284 210 216 241 172 C 271 128 315 106 371 106 C 411 106 448 120 484 149 C 519 178 550 218 576 269 C 602 320 623 381 639 451 C 654 521 662 598 662 682 Z" unicode="œ" />
<glyph horiz-adv-x="803" d="M 307 -23 C 263 -23 223 -15 186 -1 C 149 13 116 33 88 59 C 60 85 36 115 18 150 C 0 184 -13 222 -20 262 L 119 322 C 123 288 130 259 142 233 C 154 207 168 185 186 167 C 203 149 223 135 246 125 C 268 115 293 111 319 111 C 354 111 386 117 414 130 C 442 142 467 160 487 183 C 507 205 522 232 533 264 C 543 296 549 331 549 369 C 549 425 533 480 502 534 C 471 587 420 642 348 698 C 316 722 287 749 260 777 C 233 805 210 835 190 867 C 170 899 154 932 142 967 C 130 1002 125 1039 125 1077 C 125 1131 133 1181 151 1227 C 169 1273 193 1313 225 1347 C 257 1381 295 1407 339 1427 C 383 1446 431 1456 485 1456 C 527 1456 565 1450 599 1438 C 633 1426 662 1410 687 1389 C 712 1368 733 1343 751 1314 C 769 1284 783 1252 795 1217 L 664 1147 C 656 1173 646 1198 635 1220 C 623 1242 610 1260 595 1275 C 580 1290 563 1302 543 1310 C 523 1318 501 1323 475 1323 C 441 1323 410 1316 384 1302 C 358 1288 336 1270 319 1248 C 301 1226 288 1202 279 1175 C 270 1148 266 1122 266 1096 C 266 1071 269 1048 275 1026 C 281 1004 292 982 306 960 C 320 938 339 915 363 891 C 387 867 416 841 451 813 C 491 779 527 745 557 713 C 587 681 613 648 633 615 C 653 581 667 547 677 511 C 687 475 692 437 692 397 C 692 338 683 283 666 232 C 648 181 623 137 590 99 C 557 61 517 31 469 9 C 421 -12 367 -23 307 -23 Z M 826 1872 L 562 1545 L 429 1545 L 277 1872 L 398 1872 L 517 1667 L 711 1872 L 826 1872 Z" unicode="Š" />
<glyph horiz-adv-x="729" d="M 272 -20 C 234 -20 200 -15 170 -6 C 139 3 111 15 87 31 C 63 47 41 65 23 86 C 5 107 -10 130 -23 154 L 90 244 C 111 198 139 164 173 140 C 207 116 245 104 285 104 C 342 104 386 119 416 149 C 446 179 461 223 461 279 C 461 297 458 315 452 332 C 446 349 437 366 424 384 C 411 402 394 420 373 440 C 351 460 325 482 295 506 C 264 530 236 553 212 576 C 187 598 166 621 149 645 C 132 669 119 694 110 720 C 100 746 96 775 96 807 C 96 849 103 888 118 924 C 132 960 153 990 180 1016 C 206 1042 238 1062 275 1076 C 312 1090 353 1098 399 1098 C 463 1098 519 1083 567 1055 C 615 1027 650 989 674 942 L 557 854 C 537 890 515 918 489 940 C 463 962 429 973 387 973 C 365 973 345 969 326 963 C 307 956 291 946 277 934 C 263 922 251 907 243 889 C 235 871 231 851 231 829 C 231 811 233 794 239 778 C 244 762 253 745 265 729 C 277 713 292 695 312 677 C 331 659 355 638 383 616 C 415 590 444 565 470 541 C 496 517 519 493 538 468 C 556 443 571 416 581 388 C 591 360 596 328 596 293 C 596 243 587 198 571 160 C 555 121 532 88 503 62 C 474 35 440 15 400 1 C 360 -13 318 -20 272 -20 Z M 749 1546 L 485 1219 L 352 1219 L 200 1546 L 321 1546 L 440 1341 L 634 1546 L 749 1546 Z" unicode="š" />
<glyph horiz-adv-x="870" d="M 950 1434 L 469 600 L 362 0 L 221 0 L 326 598 L 135 1434 L 291 1434 L 365 1055 C 370 1026 375 997 381 967 C 387 937 392 907 398 879 C 403 851 408 824 412 798 C 416 772 419 749 422 729 C 432 749 443 773 457 799 C 470 825 484 852 499 881 C 514 909 530 938 546 968 C 562 998 578 1027 594 1055 L 801 1434 L 950 1434 Z M 830 1632 C 830 1618 827 1604 822 1592 C 816 1580 809 1569 799 1560 C 789 1550 778 1543 766 1538 C 754 1532 741 1530 727 1530 C 713 1530 701 1532 689 1538 C 677 1543 666 1550 657 1560 C 647 1569 640 1580 635 1592 C 629 1604 627 1618 627 1632 C 627 1645 629 1658 635 1670 C 640 1682 647 1693 657 1703 C 666 1713 677 1720 689 1726 C 701 1732 713 1735 727 1735 C 741 1735 754 1732 766 1726 C 778 1720 789 1713 799 1703 C 809 1693 816 1682 822 1670 C 827 1658 830 1645 830 1632 Z M 494 1632 C 494 1618 491 1604 486 1592 C 480 1580 473 1569 464 1560 C 454 1550 443 1543 431 1538 C 419 1532 406 1530 393 1530 C 379 1530 365 1532 353 1538 C 341 1543 330 1550 321 1560 C 311 1569 304 1580 299 1592 C 293 1604 291 1618 291 1632 C 291 1645 293 1658 299 1670 C 304 1682 311 1693 321 1703 C 330 1713 341 1720 353 1726 C 365 1732 379 1735 393 1735 C 406 1735 419 1732 431 1726 C 443 1720 454 1713 464 1703 C 473 1693 480 1682 486 1670 C 491 1658 494 1645 494 1632 Z" unicode="Ÿ" />
<glyph horiz-adv-x="836" d="M 639 0 L -49 0 L -27 125 L 666 1214 C 677 1231 687 1247 697 1261 C 706 1275 715 1289 723 1303 L 662 1303 L 215 1303 L 238 1434 L 891 1434 L 870 1309 L 180 219 C 170 203 160 188 150 173 C 140 158 131 144 121 131 L 182 131 L 662 131 L 639 0 Z M 907 1853 L 643 1526 L 510 1526 L 358 1853 L 479 1853 L 598 1648 L 792 1853 L 907 1853 Z" unicode="Ž" />
<glyph horiz-adv-x="743" d="M 555 0 L -47 0 L -29 106 L 571 954 L 160 954 L 182 1075 L 745 1075 L 725 969 L 125 121 L 575 121 L 555 0 Z M 810 1546 L 546 1219 L 413 1219 L 261 1546 L 382 1546 L 501 1341 L 695 1546 L 810 1546 Z" unicode="ž" />
<glyph horiz-adv-x="623" d="M 676 1313 C 662 1318 645 1322 624 1326 C 603 1329 583 1331 565 1331 C 533 1331 506 1322 486 1306 C 465 1289 451 1261 444 1221 L 420 1075 L 598 1075 L 575 954 L 397 954 L 174 -315 L 25 -393 L 262 954 L 152 954 L 174 1075 L 285 1075 L 309 1214 C 323 1298 354 1359 401 1398 C 447 1436 504 1456 571 1456 C 597 1456 621 1454 643 1452 C 665 1449 684 1445 698 1440 L 676 1313 Z" unicode="ƒ" />
<glyph horiz-adv-x="809" d="M 786 1219 L 668 1219 L 553 1419 L 358 1219 L 238 1219 L 504 1546 L 637 1546 L 786 1219 Z" unicode="ˆ" />
<glyph horiz-adv-x="809" d="M 848 1546 L 584 1219 L 451 1219 L 299 1546 L 420 1546 L 539 1341 L 733 1546 L 848 1546 Z" unicode="ˇ" />
<glyph horiz-adv-x="809" d="M 854 1516 C 833 1422 795 1349 739 1297 C 683 1245 611 1219 524 1219 C 483 1219 447 1225 415 1239 C 383 1252 357 1271 337 1297 C 317 1323 302 1354 294 1391 C 286 1427 285 1469 291 1516 L 403 1516 C 389 1387 435 1323 541 1323 C 589 1323 630 1338 666 1369 C 701 1399 727 1448 743 1516 L 854 1516 Z" unicode="˘" />
<glyph horiz-adv-x="809" d="M 647 1339 C 647 1325 644 1311 639 1299 C 633 1286 626 1275 617 1265 C 607 1255 596 1248 584 1243 C 572 1237 559 1235 545 1235 C 530 1235 516 1237 504 1243 C 491 1248 480 1255 470 1265 C 460 1275 453 1286 448 1299 C 442 1311 440 1325 440 1339 C 440 1353 442 1366 448 1379 C 453 1391 460 1402 470 1412 C 480 1422 491 1429 504 1435 C 516 1441 530 1444 545 1444 C 559 1444 572 1441 584 1435 C 596 1429 607 1422 617 1412 C 626 1402 633 1391 639 1379 C 644 1366 647 1353 647 1339 Z" unicode="˙" />
<glyph horiz-adv-x="809" d="M 750 1438 C 750 1408 744 1381 734 1355 C 724 1329 709 1307 691 1288 C 672 1269 650 1254 624 1243 C 598 1232 569 1227 539 1227 C 509 1227 481 1232 455 1243 C 429 1254 407 1269 389 1288 C 370 1307 355 1329 345 1355 C 335 1381 330 1408 330 1438 C 330 1466 335 1493 345 1519 C 355 1544 370 1566 389 1585 C 407 1603 429 1618 455 1629 C 481 1639 509 1645 539 1645 C 569 1645 598 1639 624 1629 C 650 1618 672 1603 691 1585 C 709 1566 724 1544 734 1519 C 744 1493 750 1466 750 1438 Z M 657 1438 C 657 1472 646 1500 625 1522 C 603 1544 575 1556 539 1556 C 503 1556 474 1544 453 1522 C 432 1500 422 1472 422 1438 C 422 1402 432 1372 453 1349 C 474 1326 503 1315 539 1315 C 575 1315 603 1326 625 1349 C 646 1372 657 1402 657 1438 Z" unicode="˚" />
<glyph horiz-adv-x="809" d="M 485 -315 C 415 -368 346 -395 279 -395 C 233 -395 196 -383 169 -359 C 142 -335 129 -304 129 -264 C 129 -239 133 -215 143 -192 C 153 -168 166 -146 183 -124 C 200 -102 220 -80 243 -60 C 265 -39 289 -19 315 0 L 399 0 C 351 -43 314 -82 289 -117 C 264 -152 252 -188 252 -225 C 252 -248 258 -267 272 -281 C 285 -295 302 -303 324 -303 C 347 -303 369 -299 391 -292 C 413 -284 436 -273 461 -258 L 485 -315 Z" unicode="˛" />
<glyph horiz-adv-x="809" d="M 836 1466 C 828 1425 818 1389 804 1359 C 790 1328 775 1302 757 1282 C 739 1262 719 1246 698 1236 C 677 1226 655 1221 633 1221 C 589 1221 549 1238 512 1274 C 494 1290 479 1304 468 1315 C 457 1325 448 1334 440 1340 C 432 1346 424 1350 418 1352 C 411 1354 403 1356 395 1356 C 387 1356 380 1354 372 1350 C 364 1346 357 1339 350 1330 C 342 1320 335 1308 328 1292 C 320 1276 313 1255 307 1231 L 201 1231 C 207 1272 218 1308 232 1339 C 246 1369 263 1395 282 1415 C 300 1435 321 1450 343 1460 C 365 1470 387 1475 410 1475 C 431 1475 452 1471 472 1464 C 492 1456 510 1443 528 1425 C 544 1408 558 1394 570 1383 C 581 1372 591 1363 599 1357 C 607 1351 615 1346 621 1344 C 627 1342 635 1341 643 1341 C 660 1341 676 1351 690 1371 C 704 1391 717 1422 729 1466 L 836 1466 Z" unicode="˜" />
<glyph horiz-adv-x="809" d="M 1016 1546 L 705 1219 L 608 1219 L 836 1546 L 1016 1546 Z M 727 1546 L 416 1219 L 317 1219 L 545 1546 L 727 1546 Z" unicode="˝" />
<glyph horiz-adv-x="809" d="M 762 1266 L 258 1266 L 279 1386 L 782 1386 L 762 1266 Z" unicode="̄" />
<glyph horiz-adv-x="1536" d="M 76 0 L 652 1536 L 884 1536 L 1456 0 L 76 0 Z M 352 148 L 1164 148 L 752 1256 L 352 148 Z" unicode="Δ" />
<glyph horiz-adv-x="1664" d="M 832 1376 C 706 1376 599 1328 510 1234 C 420 1139 376 1006 376 836 C 376 673 405 538 464 432 C 522 325 609 241 724 180 L 724 0 L 88 0 L 88 196 L 536 196 C 456 225 378 295 304 406 C 229 516 192 664 192 848 C 192 1024 247 1184 358 1330 C 468 1475 626 1548 832 1548 C 1037 1548 1195 1478 1306 1338 C 1416 1198 1472 1034 1472 848 C 1472 664 1434 516 1360 406 C 1285 295 1208 225 1128 196 L 1576 196 L 1576 0 L 940 0 L 940 180 C 1054 241 1141 325 1200 432 C 1258 538 1288 673 1288 836 C 1288 974 1246 1099 1162 1210 C 1078 1320 968 1376 832 1376 Z" unicode="Ω" />
<glyph horiz-adv-x="1408" d="M 252 -424 C 214 -424 186 -413 168 -392 C 149 -370 140 -333 140 -280 C 140 -226 141 -168 144 -106 C 146 -43 150 25 156 100 C 161 166 165 218 168 256 C 170 293 172 317 172 328 C 174 341 176 350 176 356 C 176 361 176 365 176 368 L 176 1176 L 368 1176 L 368 320 C 368 258 395 210 450 176 C 504 141 564 124 628 124 C 716 124 792 146 858 190 C 923 234 973 297 1008 380 L 1008 1176 L 1200 1176 L 1200 308 L 1220 0 L 1056 0 L 1020 176 C 974 104 913 50 836 14 C 758 -22 670 -40 572 -40 C 537 -40 494 -31 444 -14 C 393 3 353 28 324 60 C 324 1 333 -56 352 -112 C 370 -168 380 -218 380 -264 C 380 -370 337 -424 252 -424 Z" unicode="μ" />
<glyph horiz-adv-x="1408" d="M 296 0 L 296 1028 L 12 1028 L 12 1176 L 1316 1176 L 1316 1028 L 996 1028 L 996 344 C 996 266 1011 213 1042 184 C 1072 154 1109 140 1152 140 C 1184 140 1210 140 1232 142 C 1253 143 1274 148 1296 156 L 1296 28 C 1264 12 1234 0 1206 -6 C 1178 -12 1138 -16 1088 -16 C 1002 -16 935 10 886 64 C 836 117 812 208 812 336 L 812 1028 L 484 1028 L 484 0 L 296 0 Z" unicode="π" />
<glyph horiz-adv-x="688" d="M 610 682 L 86 682 L 109 815 L 633 815 L 610 682 Z" unicode="–" />
<glyph horiz-adv-x="911" d="M 836 682 L 86 682 L 109 815 L 858 815 L 836 682 Z" unicode="—" />
<glyph horiz-adv-x="399" d="M 416 1434 L 326 1049 L 156 1049 L 330 1434 L 416 1434 Z" unicode="‘" />
<glyph horiz-adv-x="399" d="M 414 1434 L 240 1049 L 154 1049 L 244 1434 L 414 1434 Z" unicode="’" />
<glyph horiz-adv-x="399" d="M 211 180 L 37 -203 L -51 -203 L 41 180 L 211 180 Z" unicode="‚" />
<glyph horiz-adv-x="692" d="M 709 1434 L 618 1049 L 449 1049 L 623 1434 L 709 1434 Z M 416 1434 L 326 1049 L 156 1049 L 330 1434 L 416 1434 Z" unicode="“" />
<glyph horiz-adv-x="692" d="M 727 1434 L 553 1049 L 467 1049 L 559 1434 L 727 1434 Z M 414 1434 L 240 1049 L 154 1049 L 244 1434 L 414 1434 Z" unicode="”" />
<glyph horiz-adv-x="733" d="M 545 180 L 371 -203 L 283 -203 L 375 180 L 545 180 Z M 211 180 L 37 -203 L -51 -203 L 41 180 L 211 180 Z" unicode="„" />
<glyph horiz-adv-x="881" d="M 793 823 L 494 823 L 311 -205 L 184 -205 L 367 823 L 68 823 L 88 944 L 387 944 L 473 1434 L 600 1434 L 514 944 L 813 944 L 793 823 Z" unicode="†" />
<glyph horiz-adv-x="881" d="M 698 285 L 399 285 L 311 -205 L 184 -205 L 272 285 L -27 285 L -6 406 L 293 406 L 367 823 L 68 823 L 88 944 L 387 944 L 473 1434 L 600 1434 L 514 944 L 813 944 L 793 823 L 494 823 L 420 406 L 719 406 L 698 285 Z" unicode="‡" />
<glyph horiz-adv-x="664" d="M 510 750 C 510 725 505 702 496 680 C 486 658 474 639 458 623 C 442 607 423 594 401 585 C 379 575 356 571 332 571 C 307 571 284 575 262 585 C 240 594 222 607 206 623 C 190 639 177 658 168 680 C 158 702 154 725 154 750 C 154 774 158 798 168 820 C 177 842 190 861 206 878 C 222 894 240 907 262 917 C 284 927 307 932 332 932 C 356 932 379 927 401 917 C 423 907 442 894 458 878 C 474 861 486 842 496 820 C 505 798 510 774 510 750 Z" unicode="•" />
<glyph horiz-adv-x="1124" d="M 954 84 C 954 69 951 55 946 42 C 941 29 934 18 925 8 C 915 -1 904 -8 892 -14 C 879 -20 865 -23 850 -23 C 835 -23 821 -20 809 -14 C 796 -8 785 -1 775 8 C 765 18 758 29 753 42 C 747 55 745 69 745 84 C 745 98 747 112 753 126 C 758 139 765 151 775 161 C 785 171 796 178 809 184 C 821 190 835 193 850 193 C 865 193 879 190 892 184 C 904 178 915 171 925 161 C 934 151 941 139 946 126 C 951 112 954 98 954 84 Z M 580 84 C 580 54 570 28 551 8 C 531 -12 506 -23 475 -23 C 445 -23 420 -12 400 8 C 380 28 371 54 371 84 C 371 98 373 112 379 126 C 384 139 391 151 401 161 C 410 171 421 178 434 184 C 446 190 460 193 475 193 C 490 193 504 190 517 184 C 530 178 541 171 551 161 C 560 151 567 139 572 126 C 577 112 580 98 580 84 Z M 205 84 C 205 54 195 28 176 8 C 156 -12 131 -23 100 -23 C 70 -23 45 -12 25 8 C 5 28 -4 54 -4 84 C -4 98 -1 112 4 126 C 9 139 16 151 26 161 C 35 171 46 178 59 184 C 71 190 85 193 100 193 C 115 193 129 190 142 184 C 155 178 166 171 176 161 C 185 151 192 139 197 126 C 202 112 205 98 205 84 Z" unicode="…" />
<glyph horiz-adv-x="2195" d="M 330 563 C 261 563 208 591 171 647 C 133 703 115 785 115 893 C 115 977 122 1054 137 1123 C 152 1192 173 1251 201 1301 C 228 1350 261 1388 299 1415 C 337 1442 378 1456 424 1456 C 496 1456 550 1427 586 1370 C 622 1312 641 1230 641 1122 C 641 1038 633 961 617 893 C 601 824 580 765 552 716 C 524 667 492 629 454 603 C 416 576 374 563 330 563 Z M 1294 1434 L 387 0 L 256 0 L 1161 1434 L 1294 1434 Z M 1767 -23 C 1698 -23 1645 5 1608 61 C 1570 117 1552 199 1552 307 C 1552 391 1559 468 1574 537 C 1589 606 1610 665 1638 715 C 1665 764 1698 802 1736 829 C 1774 856 1816 870 1862 870 C 1934 870 1988 841 2024 784 C 2060 727 2079 645 2079 537 C 2079 453 2071 376 2055 307 C 2039 238 2018 179 1990 130 C 1962 81 1929 43 1891 17 C 1853 -9 1811 -23 1767 -23 Z M 1124 -23 C 1055 -23 1002 5 965 61 C 927 117 909 199 909 307 C 909 391 916 468 931 537 C 946 606 967 665 995 715 C 1022 764 1055 802 1093 829 C 1131 856 1173 870 1219 870 C 1291 870 1345 841 1381 784 C 1417 727 1436 645 1436 537 C 1436 453 1428 376 1412 307 C 1396 238 1375 179 1347 130 C 1319 81 1286 43 1248 17 C 1210 -9 1168 -23 1124 -23 Z M 514 1116 C 514 1263 478 1337 408 1337 C 384 1337 361 1326 341 1304 C 321 1282 303 1251 289 1212 C 274 1173 262 1127 254 1073 C 246 1019 242 961 242 899 C 242 754 276 682 346 682 C 370 682 393 693 413 715 C 433 737 451 768 466 807 C 481 846 493 892 501 945 C 509 997 514 1054 514 1116 Z M 1952 530 C 1952 603 1943 658 1925 696 C 1907 733 1881 752 1845 752 C 1821 752 1798 741 1778 719 C 1758 697 1740 666 1726 627 C 1711 587 1699 541 1691 487 C 1683 433 1679 375 1679 313 C 1679 168 1714 96 1784 96 C 1808 96 1831 107 1851 129 C 1871 151 1889 182 1904 221 C 1919 260 1931 306 1939 359 C 1947 412 1952 469 1952 530 Z M 1309 530 C 1309 603 1300 658 1282 696 C 1264 733 1238 752 1202 752 C 1178 752 1155 741 1135 719 C 1115 697 1097 666 1083 627 C 1068 587 1056 541 1048 487 C 1040 433 1036 375 1036 313 C 1036 168 1071 96 1141 96 C 1165 96 1188 107 1208 129 C 1228 151 1246 182 1261 221 C 1276 260 1288 306 1296 359 C 1304 412 1309 469 1309 530 Z" unicode="‰" />
<glyph horiz-adv-x="586" d="M 414 0 L 264 0 L 31 537 L 455 1075 L 604 1075 L 182 539 L 414 0 Z" unicode="‹" />
<glyph horiz-adv-x="586" d="M 516 539 L 94 0 L -55 0 L 367 537 L 135 1075 L 285 1075 L 516 539 Z" unicode="›" />
<glyph horiz-adv-x="784" d="M 995 1434 L -63 0 L -211 0 L 848 1434 L 995 1434 Z" unicode="⁄" />
<glyph horiz-adv-x="897" d="M 262 516 C 252 378 262 276 294 210 C 325 144 372 111 436 111 C 487 111 533 129 575 165 C 617 201 658 258 698 336 L 801 281 C 777 235 752 193 726 156 C 700 118 671 86 640 60 C 608 34 574 13 538 -1 C 501 -15 460 -23 416 -23 C 318 -23 244 14 195 89 C 145 164 121 274 121 420 C 121 514 127 606 139 694 C 151 782 169 864 192 941 C 214 1018 242 1088 274 1151 C 306 1214 342 1268 382 1314 C 422 1359 465 1394 512 1419 C 558 1443 607 1456 659 1456 C 701 1456 739 1449 772 1435 C 804 1421 832 1401 856 1375 C 880 1349 899 1317 915 1279 C 930 1241 942 1197 950 1149 L 817 1092 C 809 1134 799 1170 789 1200 C 778 1230 765 1254 751 1272 C 737 1290 720 1303 702 1311 C 683 1319 661 1323 637 1323 C 575 1323 519 1291 469 1227 C 419 1163 375 1066 338 936 L 733 936 L 711 813 L 307 813 C 299 785 293 756 288 726 C 282 696 278 667 276 639 L 680 639 L 657 516 L 262 516 Z" unicode="€" />
<glyph horiz-adv-x="1264" d="M 1174 717 C 1174 607 1161 506 1135 415 C 1109 324 1073 246 1026 181 C 978 116 921 66 855 30 C 788 -5 713 -23 631 -23 C 549 -23 474 -5 408 30 C 342 66 285 116 238 181 C 191 246 155 324 130 415 C 104 506 92 607 92 717 C 92 827 104 927 130 1018 C 155 1108 191 1186 238 1251 C 285 1316 342 1366 408 1402 C 474 1438 549 1456 631 1456 C 713 1456 788 1438 855 1402 C 921 1366 978 1316 1026 1251 C 1073 1186 1109 1108 1135 1018 C 1161 927 1174 827 1174 717 Z M 1075 717 C 1075 813 1064 900 1044 980 C 1024 1059 995 1127 957 1184 C 919 1241 872 1285 817 1317 C 762 1348 700 1364 631 1364 C 561 1364 498 1348 444 1317 C 389 1285 343 1241 305 1184 C 267 1127 238 1059 218 980 C 198 900 188 813 188 717 C 188 621 198 533 218 454 C 238 374 267 306 305 249 C 343 192 389 148 444 117 C 498 85 561 70 631 70 C 700 70 762 85 817 117 C 872 148 919 192 957 249 C 995 306 1024 374 1044 454 C 1064 533 1075 621 1075 717 Z M 874 887 C 874 846 868 811 856 781 C 844 751 827 727 807 707 C 787 687 763 673 735 663 C 707 653 678 649 647 649 L 559 649 L 559 309 L 461 309 L 461 1118 L 655 1118 C 686 1118 715 1113 742 1104 C 768 1095 791 1081 811 1062 C 831 1043 846 1019 857 990 C 868 961 874 927 874 887 Z M 776 889 C 776 938 765 973 743 994 C 721 1015 690 1026 651 1026 L 559 1026 L 559 743 L 647 743 C 689 743 721 754 743 777 C 765 799 776 837 776 889 Z" unicode="℗" />
<glyph horiz-adv-x="1145" d="M 545 1352 L 381 1352 L 254 623 L 164 623 L 291 1352 L 129 1352 L 143 1434 L 559 1434 L 545 1352 Z M 1020 623 L 936 623 L 1020 1100 C 1020 1104 1021 1111 1023 1120 C 1025 1129 1027 1139 1029 1149 C 1031 1159 1032 1168 1034 1177 C 1035 1185 1036 1192 1038 1198 C 1032 1184 1024 1166 1014 1144 C 1004 1121 993 1099 983 1079 L 756 602 L 696 1079 C 694 1098 691 1117 689 1137 C 687 1156 685 1173 684 1188 C 683 1184 682 1178 681 1170 C 680 1162 679 1153 678 1145 C 676 1136 675 1127 673 1119 C 671 1111 670 1104 670 1100 L 586 623 L 502 623 L 643 1434 L 739 1434 L 793 1010 C 796 982 798 953 799 923 C 800 893 801 869 803 850 C 811 870 820 893 831 919 C 842 944 854 971 866 999 L 1065 1434 L 1161 1434 L 1020 623 Z" unicode="™" />
<glyph horiz-adv-x="1664" d="M 832 1376 C 706 1376 599 1328 510 1234 C 420 1139 376 1006 376 836 C 376 673 405 538 464 432 C 522 325 609 241 724 180 L 724 0 L 88 0 L 88 196 L 536 196 C 456 225 378 295 304 406 C 229 516 192 664 192 848 C 192 1024 247 1184 358 1330 C 468 1475 626 1548 832 1548 C 1037 1548 1195 1478 1306 1338 C 1416 1198 1472 1034 1472 848 C 1472 664 1434 516 1360 406 C 1285 295 1208 225 1128 196 L 1576 196 L 1576 0 L 940 0 L 940 180 C 1054 241 1141 325 1200 432 C 1258 538 1288 673 1288 836 C 1288 974 1246 1099 1162 1210 C 1078 1320 968 1376 832 1376 Z" unicode="Ω" />
<glyph horiz-adv-x="1280" d="M 476 -32 C 342 -32 239 5 166 80 C 92 154 56 248 56 360 C 56 506 108 636 214 750 C 319 863 449 920 604 920 C 668 920 734 908 802 886 C 870 863 924 840 964 816 C 972 872 976 928 976 984 C 976 1109 953 1207 908 1278 C 862 1348 800 1384 720 1384 C 634 1384 567 1374 518 1356 C 468 1337 418 1312 368 1280 L 324 1444 C 374 1473 430 1498 492 1518 C 553 1538 629 1548 720 1548 C 877 1548 992 1496 1064 1394 C 1136 1291 1172 1149 1172 968 C 1172 690 1104 454 968 260 C 832 65 668 -32 476 -32 Z M 488 128 C 602 128 698 174 774 268 C 850 361 906 500 944 684 C 922 705 882 726 824 748 C 765 769 706 780 648 780 C 520 780 424 738 360 654 C 296 570 264 476 264 372 C 264 300 282 241 318 196 C 354 150 410 128 488 128 Z" unicode="∂" />
<glyph horiz-adv-x="1536" d="M 76 0 L 652 1536 L 884 1536 L 1456 0 L 76 0 Z M 352 148 L 1164 148 L 752 1256 L 352 148 Z" unicode="∆" />
<glyph horiz-adv-x="1536" d="M 332 0 L 332 1348 L 80 1348 L 80 1524 L 1456 1524 L 1456 1348 L 1212 1348 L 1212 0 L 1004 0 L 1004 1356 L 540 1356 L 540 0 L 332 0 Z" unicode="∏" />
<glyph horiz-adv-x="1152" d="M 1084 1524 L 1084 1344 L 332 1344 L 796 784 L 304 188 L 1080 188 L 1080 0 L 40 0 L 40 172 L 560 788 L 68 1380 L 68 1524 L 1084 1524 Z" unicode="∑" />
<glyph horiz-adv-x="1536" d="M 200 692 L 200 888 L 1336 888 L 1336 692 L 200 692 Z" unicode="−" />
<glyph horiz-adv-x="784" d="M 995 1434 L -63 0 L -211 0 L 848 1434 L 995 1434 Z" unicode="∕" />
<glyph horiz-adv-x="375" d="M 293 752 C 293 722 283 696 264 676 C 244 655 219 645 188 645 C 173 645 159 647 147 653 C 134 659 123 666 114 676 C 104 685 97 696 92 709 C 86 722 84 736 84 752 C 84 766 86 780 92 793 C 97 806 104 818 114 828 C 123 838 134 845 147 851 C 159 857 173 860 188 860 C 203 860 217 857 230 851 C 243 845 254 838 264 828 C 273 818 280 806 285 793 C 290 780 293 766 293 752 Z" unicode="∙" />
<glyph horiz-adv-x="895" d="M 999 1434 L 350 0 L 217 0 L 74 696 L 225 696 L 262 467 C 264 447 268 423 272 395 C 276 367 281 339 285 310 C 289 280 293 252 297 224 C 301 196 303 172 305 152 C 312 172 321 197 333 226 C 345 255 357 285 370 315 C 383 345 396 375 409 403 C 421 431 432 456 442 477 L 860 1434 L 999 1434 Z" unicode="√" />
<glyph horiz-adv-x="1536" d="M 468 1216 C 566 1216 646 1188 706 1134 C 766 1079 813 981 848 840 C 853 720 877 642 920 608 C 962 573 1013 556 1072 556 C 1128 556 1176 579 1218 626 C 1259 672 1280 736 1280 816 C 1280 882 1264 940 1234 988 C 1203 1036 1152 1060 1080 1060 C 1008 1060 954 1029 920 968 C 885 906 857 834 836 752 C 809 648 760 562 688 496 C 616 429 533 396 440 396 C 336 396 252 433 190 508 C 127 582 96 682 96 808 C 96 925 133 1022 208 1100 C 282 1177 369 1216 468 1216 Z M 1072 396 C 973 396 896 424 840 482 C 784 539 741 633 712 764 C 685 870 652 944 614 986 C 575 1027 528 1048 472 1048 C 408 1048 356 1026 316 982 C 276 938 256 874 256 792 C 256 709 271 648 302 610 C 332 571 381 552 448 552 C 509 552 562 576 608 624 C 653 672 689 752 716 864 C 748 984 796 1072 860 1130 C 924 1187 1004 1216 1100 1216 C 1198 1216 1280 1181 1346 1112 C 1411 1042 1444 945 1444 820 C 1444 700 1409 599 1340 518 C 1270 436 1181 396 1072 396 Z" unicode="∞" />
<glyph horiz-adv-x="1152" d="M -8 -392 L 56 -260 C 72 -265 88 -270 104 -274 C 120 -278 140 -280 164 -280 C 196 -280 222 -268 242 -246 C 262 -223 277 -178 288 -112 L 516 1224 C 534 1330 574 1410 636 1464 C 697 1517 778 1544 880 1544 C 941 1544 995 1536 1042 1522 C 1088 1507 1125 1492 1152 1476 L 1088 1304 C 1058 1322 1025 1340 988 1356 C 950 1372 910 1380 868 1380 C 806 1380 760 1360 730 1322 C 699 1283 680 1238 672 1188 L 448 -224 C 434 -296 402 -348 350 -382 C 298 -415 240 -432 176 -432 C 136 -432 99 -428 66 -420 C 32 -412 8 -402 -8 -392 Z" unicode="∫" />
<glyph horiz-adv-x="1536" d="M 236 400 C 230 429 228 456 228 480 C 228 546 248 604 288 652 C 328 700 390 724 476 724 C 542 724 600 714 650 696 C 699 677 745 659 788 642 C 830 624 872 610 912 598 C 952 586 988 580 1020 580 C 1070 580 1106 590 1128 610 C 1149 630 1160 654 1160 684 C 1160 694 1158 705 1156 716 L 1300 716 C 1305 686 1308 660 1308 636 C 1308 569 1288 512 1248 464 C 1208 416 1145 392 1060 392 C 993 392 935 400 886 418 C 836 435 790 452 748 470 C 705 487 664 501 624 512 C 584 522 548 528 516 528 C 465 528 429 518 408 500 C 386 481 376 458 376 432 C 376 421 377 410 380 400 L 236 400 Z M 236 860 C 230 889 228 916 228 940 C 228 1006 248 1064 288 1112 C 328 1160 390 1184 476 1184 C 542 1184 600 1174 650 1156 C 699 1137 745 1119 788 1102 C 830 1084 872 1070 912 1058 C 952 1046 988 1040 1020 1040 C 1070 1040 1106 1050 1128 1070 C 1149 1090 1160 1114 1160 1144 C 1160 1154 1158 1165 1156 1176 L 1300 1176 C 1305 1146 1308 1120 1308 1096 C 1308 1029 1288 972 1248 924 C 1208 876 1145 852 1060 852 C 993 852 935 860 886 878 C 836 895 790 912 748 930 C 705 947 664 961 624 972 C 584 982 548 988 516 988 C 465 988 429 978 408 960 C 386 941 376 918 376 892 C 376 881 377 870 380 860 L 236 860 Z" unicode="≈" />
<glyph horiz-adv-x="1536" d="M 212 404 L 212 604 L 1328 604 L 1328 404 L 212 404 Z M 212 976 L 212 1176 L 1328 1176 L 1328 976 L 212 976 Z M 548 188 L 372 188 L 996 1356 L 1168 1356 L 548 188 Z" unicode="≠" />
<glyph horiz-adv-x="1536" d="M 1348 236 L 208 708 L 208 872 L 1348 1344 L 1348 1128 L 448 792 L 1348 452 L 1348 236 Z M 212 24 L 212 216 L 1348 216 L 1348 24 L 212 24 Z" unicode="≤" />
<glyph horiz-adv-x="1536" d="M 212 236 L 212 452 L 1112 792 L 212 1128 L 212 1344 L 1352 872 L 1352 708 L 212 236 Z M 212 24 L 212 216 L 1348 216 L 1348 24 L 212 24 Z" unicode="≥" />
<glyph horiz-adv-x="1152" d="M 472 -48 L 68 756 L 472 1560 L 656 1560 L 1084 756 L 656 -48 L 472 -48 Z M 556 152 L 876 768 L 572 1356 L 252 740 L 556 152 Z" unicode="◊" />
<glyph horiz-adv-x="1188" d="M 1161 707 L 862 489 C 856 483 850 481 846 483 C 844 484 842 486 842 490 C 841 494 842 498 844 502 L 897 645 L 657 645 L 657 231 L 801 287 C 809 291 815 289 817 283 C 818 279 818 277 817 275 C 816 273 815 271 813 268 L 596 -31 L 379 268 C 375 271 373 273 372 275 C 371 277 371 279 373 283 C 375 290 381 291 391 287 L 535 231 L 535 645 L 291 645 L 344 502 C 346 498 346 494 346 490 C 345 486 344 484 342 483 C 338 481 336 481 334 482 C 332 483 330 485 326 489 L 29 707 L 326 924 C 330 927 332 929 334 930 C 336 931 338 931 342 930 C 344 928 345 926 346 923 C 346 919 346 915 344 911 L 291 768 L 535 768 L 535 1202 L 391 1147 C 381 1142 375 1143 373 1151 C 371 1154 371 1156 372 1158 C 373 1159 375 1161 379 1165 L 596 1464 L 813 1165 C 815 1161 816 1159 817 1158 C 818 1156 818 1154 817 1151 C 815 1144 809 1143 801 1147 L 657 1202 L 657 768 L 897 768 L 844 911 C 842 915 841 919 842 923 C 842 926 844 928 846 930 C 850 931 856 929 862 924 L 1161 707 Z" unicode="" />
<glyph horiz-adv-x="975" d="M 958 1380 C 958 1366 955 1352 950 1340 C 945 1328 938 1317 930 1308 C 921 1298 911 1291 900 1286 C 888 1280 876 1278 864 1278 C 850 1278 837 1280 825 1286 C 813 1291 802 1298 793 1308 C 784 1317 777 1328 772 1340 C 766 1352 764 1366 764 1380 C 764 1394 766 1407 772 1419 C 777 1431 784 1442 793 1452 C 802 1462 813 1469 825 1475 C 837 1480 850 1483 864 1483 C 876 1483 888 1480 900 1475 C 911 1469 921 1462 930 1452 C 938 1442 945 1431 950 1419 C 955 1407 958 1394 958 1380 Z M 635 1337 C 621 1343 606 1348 590 1352 C 574 1356 556 1358 537 1358 C 509 1358 485 1350 465 1336 C 445 1321 431 1293 424 1251 L 393 1075 L 563 1075 L 541 956 L 373 956 L 205 0 L 66 0 L 233 956 L 115 956 L 137 1075 L 256 1075 L 285 1239 C 292 1283 304 1320 320 1352 C 336 1383 355 1409 378 1429 C 400 1449 426 1463 454 1473 C 482 1482 513 1487 545 1487 C 571 1487 593 1485 610 1482 C 627 1479 643 1475 659 1470 L 635 1337 Z M 702 0 L 563 0 L 754 1075 L 893 1075 L 702 0 Z" unicode="ﬁ" />
<glyph horiz-adv-x="987" d="M 702 0 L 563 0 L 811 1411 L 967 1493 L 702 0 Z M 635 1337 C 621 1343 606 1348 590 1352 C 574 1356 556 1358 537 1358 C 509 1358 485 1350 465 1336 C 445 1321 431 1293 424 1251 L 393 1075 L 563 1075 L 541 956 L 373 956 L 205 0 L 66 0 L 233 956 L 115 956 L 137 1075 L 256 1075 L 285 1239 C 292 1283 304 1320 320 1352 C 336 1383 355 1409 378 1429 C 400 1449 426 1463 454 1473 C 482 1482 513 1487 545 1487 C 571 1487 593 1485 610 1482 C 627 1479 643 1475 659 1470 L 635 1337 Z" unicode="ﬂ" />
</font>
</defs>
</svg>
