<?xml version="1.0" encoding="utf-8" ?><svg version="1.1" xmlns = 'http://www.w3.org/2000/svg'><defs><font id='web' horiz-adv-x="1000">
<font-face font-family="web" descent="-476" cap-height="1399" units-per-em="2048" bbox="-485,-492,2376,1909" x-height="952" ascent="1572" />
<missing-glyph horiz-adv-x="1024" d="M 906 16 L 906 1032 L 118 1032 L 118 16 L 906 16 Z M 102 1048 L 922 1048 L 922 0 L 102 0 L 102 1048 Z" /><glyph horiz-adv-x="455" d="" unicode=" " />
<glyph horiz-adv-x="643" d="M 313 442 L 299 444 C 326 612 349 787 369 969 C 389 1151 405 1264 418 1307 C 426 1341 442 1370 466 1394 C 489 1418 519 1430 555 1430 C 589 1430 614 1419 630 1399 C 646 1378 653 1351 651 1319 C 647 1275 609 1169 538 1001 C 466 833 391 646 313 442 Z M 225 -18 C 191 -18 161 -6 137 17 C 112 41 100 70 100 104 C 100 138 112 168 137 192 C 161 216 191 229 225 229 C 259 229 289 216 313 192 C 337 168 350 138 350 104 C 350 70 337 41 313 17 C 289 -6 259 -18 225 -18 Z" unicode="!" />
<glyph horiz-adv-x="788" d="M 270 958 C 274 1048 275 1130 272 1206 C 268 1282 267 1335 268 1366 C 270 1414 281 1449 303 1473 C 325 1497 352 1509 385 1509 C 421 1509 447 1498 462 1477 C 476 1456 483 1429 481 1395 C 479 1365 457 1314 417 1242 C 377 1170 331 1075 279 958 L 270 958 Z M 672 958 C 676 1048 676 1130 672 1206 C 668 1282 668 1335 670 1366 C 672 1414 683 1449 704 1473 C 724 1497 751 1509 784 1509 C 820 1509 846 1498 861 1477 C 876 1456 883 1429 881 1395 C 880 1365 859 1314 819 1242 C 778 1170 732 1075 680 958 L 672 958 Z" unicode="&#x22;" />
<glyph horiz-adv-x="1018" d="M 178 -14 L 270 334 L 25 276 L 66 432 L 311 487 L 381 748 L 135 690 L 176 844 L 422 901 L 526 1284 L 555 1284 L 455 911 L 713 971 L 797 1284 L 827 1284 L 745 981 L 993 1038 L 952 885 L 705 827 L 635 567 L 883 625 L 842 473 L 596 416 L 481 -14 L 453 -14 L 561 403 L 303 344 L 207 -14 L 178 -14 Z M 342 498 L 600 559 L 672 817 L 414 756 L 342 498 Z" unicode="#" />
<glyph horiz-adv-x="1092" d="M 244 -291 L 319 10 C 269 19 227 33 193 51 C 158 69 130 90 108 113 C 86 135 70 159 60 184 C 50 209 45 234 45 258 C 45 280 48 303 56 325 C 64 347 74 368 88 386 C 101 404 117 418 136 429 C 155 440 176 446 199 446 C 225 446 246 438 262 424 C 277 409 285 389 285 365 C 285 343 280 325 272 312 C 264 298 253 287 241 277 C 229 267 216 257 202 248 C 188 238 176 227 166 213 C 164 208 163 203 163 199 C 162 195 162 190 162 186 C 162 170 164 154 169 138 C 174 122 183 108 196 94 C 208 80 225 67 246 56 C 266 44 292 35 324 29 C 328 47 334 70 341 97 C 351 141 368 209 392 301 C 438 483 461 573 461 573 C 426 582 393 594 363 609 C 332 623 305 641 283 663 C 260 685 242 710 229 740 C 215 770 209 804 209 844 C 209 894 218 942 237 988 C 256 1034 284 1076 321 1113 C 357 1150 402 1181 455 1206 C 507 1231 567 1247 635 1255 L 686 1460 L 709 1460 L 655 1257 C 664 1258 674 1259 684 1259 C 694 1259 705 1259 717 1259 C 737 1259 758 1258 779 1256 C 799 1254 819 1252 838 1249 L 891 1460 L 913 1460 L 858 1245 C 900 1236 936 1224 966 1208 C 996 1192 1021 1175 1040 1155 C 1059 1135 1073 1115 1082 1094 C 1091 1072 1096 1052 1096 1032 C 1096 1011 1092 990 1086 970 C 1079 949 1070 930 1058 914 C 1046 898 1033 885 1017 875 C 1001 865 985 860 967 860 C 942 860 921 866 905 879 C 889 891 881 909 881 932 C 881 976 895 1007 925 1025 C 955 1043 978 1067 995 1098 C 994 1104 992 1113 988 1125 C 984 1137 976 1149 966 1162 C 955 1175 941 1187 923 1199 C 905 1211 882 1220 854 1227 L 723 709 C 812 687 880 654 927 610 C 973 565 997 508 997 438 C 997 378 986 323 965 273 C 944 223 914 179 875 141 C 836 103 789 71 733 47 C 677 23 614 7 545 0 L 473 -291 L 451 -291 L 522 -4 C 490 -4 458 -3 426 -1 C 394 1 365 3 340 6 L 264 -291 L 244 -291 Z M 508 758 C 508 758 528 838 568 996 C 608 1154 629 1233 629 1233 C 588 1226 551 1213 519 1195 C 487 1177 459 1155 437 1129 C 414 1103 397 1075 385 1045 C 373 1015 367 984 367 954 C 367 926 370 901 376 881 C 382 860 390 842 402 826 C 414 810 428 797 446 786 C 464 775 484 766 508 758 Z M 344 25 C 362 21 382 19 403 17 C 423 15 444 15 464 15 C 487 15 508 16 528 18 L 655 532 C 627 539 597 545 567 550 C 536 555 507 561 481 567 L 344 25 Z M 702 713 L 834 1231 C 815 1234 795 1236 775 1238 C 755 1239 735 1240 715 1240 C 692 1240 671 1239 651 1237 L 528 752 C 556 743 586 736 616 731 C 646 725 675 719 702 713 Z M 549 23 C 597 29 640 43 677 64 C 713 84 744 109 769 138 C 793 167 812 199 825 233 C 837 267 844 300 844 333 C 844 359 841 383 835 403 C 829 423 819 441 805 457 C 791 472 774 485 753 497 C 731 508 706 518 676 526 L 549 23 Z" unicode="$" />
<glyph horiz-adv-x="1675" d="M 416 602 C 339 602 275 625 225 672 C 175 718 150 780 150 858 C 150 964 192 1059 274 1143 C 356 1226 450 1268 555 1268 C 633 1268 701 1244 757 1198 C 813 1151 840 1088 840 1008 C 839 890 792 793 700 717 C 607 640 512 602 416 602 Z M 418 623 C 493 623 556 672 608 772 C 659 872 684 972 684 1073 C 684 1121 673 1162 653 1198 C 632 1233 601 1251 559 1251 C 477 1251 415 1197 371 1090 C 327 983 305 888 305 805 C 304 760 311 718 325 680 C 339 642 370 623 418 623 Z M 1149 -27 C 1073 -27 1010 -3 960 42 C 910 88 885 151 885 229 C 885 335 927 430 1009 514 C 1091 597 1184 639 1288 639 C 1367 639 1435 615 1491 568 C 1547 521 1575 458 1575 379 C 1574 261 1527 164 1435 88 C 1342 11 1247 -27 1149 -27 Z M 1151 -8 C 1227 -8 1291 42 1343 142 C 1394 242 1419 342 1419 442 C 1419 490 1408 531 1387 567 C 1365 603 1334 621 1294 621 C 1211 621 1148 567 1104 461 C 1060 354 1038 259 1038 176 C 1038 131 1045 89 1060 50 C 1074 11 1105 -8 1151 -8 Z M 197 -199 L 172 -178 L 1497 1407 L 1524 1386 L 197 -199 Z" unicode="%" />
<glyph horiz-adv-x="1696" d="M 766 -35 C 592 -35 445 8 326 94 C 207 180 148 288 150 420 C 150 496 171 557 211 605 C 251 653 307 695 379 731 C 337 759 302 796 275 841 C 247 886 234 935 236 987 C 236 1062 266 1128 326 1186 C 386 1243 468 1272 571 1272 C 662 1272 733 1246 784 1194 C 834 1142 869 1081 889 1010 L 881 1006 C 852 1060 815 1099 770 1123 C 724 1147 671 1159 610 1159 C 527 1159 462 1135 414 1089 C 366 1042 342 981 342 907 C 341 877 345 847 355 817 C 364 786 378 760 397 739 C 423 750 453 761 488 773 C 523 785 562 791 604 791 C 642 791 672 783 694 768 C 716 752 727 732 727 707 C 727 686 719 668 703 653 C 687 638 666 631 639 631 C 585 631 538 639 498 657 C 458 674 425 694 397 717 C 369 703 343 683 318 655 C 293 627 279 589 276 541 C 268 427 320 327 432 243 C 544 159 707 117 920 117 C 1106 117 1253 166 1361 265 C 1468 363 1522 478 1522 608 C 1522 707 1494 785 1440 843 C 1386 901 1313 930 1223 930 C 1152 930 1094 909 1048 869 C 1002 829 979 779 979 719 C 979 661 996 615 1031 583 C 1065 551 1109 535 1163 535 C 1185 535 1204 537 1220 542 C 1236 547 1248 555 1257 565 C 1226 574 1198 588 1173 607 C 1147 625 1135 651 1135 684 C 1135 714 1143 738 1161 754 C 1179 770 1201 778 1229 778 C 1262 778 1290 769 1314 751 C 1338 733 1350 704 1350 664 C 1350 624 1335 589 1306 558 C 1276 527 1234 512 1180 512 C 1113 512 1053 534 1001 580 C 948 626 922 686 922 760 C 922 854 955 923 1021 968 C 1087 1013 1170 1036 1270 1036 C 1296 1036 1333 1034 1381 1031 C 1429 1027 1464 1026 1487 1026 C 1544 1026 1590 1041 1626 1073 C 1662 1105 1680 1145 1681 1194 C 1681 1249 1665 1292 1633 1322 C 1601 1352 1566 1368 1526 1368 C 1498 1368 1478 1361 1466 1347 C 1454 1333 1448 1321 1448 1313 C 1461 1304 1478 1294 1499 1284 C 1519 1273 1530 1253 1530 1225 C 1530 1194 1521 1172 1504 1160 C 1486 1147 1466 1141 1444 1141 C 1416 1141 1391 1149 1367 1166 C 1343 1183 1332 1212 1333 1253 C 1333 1285 1348 1316 1379 1344 C 1410 1372 1455 1386 1513 1386 C 1575 1386 1623 1367 1659 1329 C 1694 1291 1712 1241 1712 1178 C 1712 1091 1684 1024 1628 977 C 1572 929 1486 908 1370 913 C 1426 889 1472 849 1509 795 C 1546 740 1565 669 1565 582 C 1565 412 1496 266 1359 146 C 1222 25 1024 -35 766 -35 Z" unicode="&#x26;" />
<glyph horiz-adv-x="389" d="M 270 958 C 274 1048 275 1130 272 1206 C 268 1282 267 1335 268 1366 C 270 1414 281 1449 303 1473 C 325 1497 352 1509 385 1509 C 421 1509 447 1498 462 1477 C 476 1456 483 1429 481 1395 C 479 1365 458 1314 419 1242 C 380 1170 335 1075 283 958 L 270 958 Z" unicode="'" />
<glyph horiz-adv-x="705" d="M 420 -301 C 303 -205 213 -100 151 13 C 89 127 62 264 72 424 C 80 638 146 832 268 1005 C 390 1178 573 1343 819 1499 L 840 1479 C 619 1334 452 1172 338 994 C 224 815 164 630 156 440 C 146 287 167 152 219 34 C 271 -84 346 -189 446 -283 L 420 -301 Z" unicode="(" />
<glyph horiz-adv-x="705" d="M -100 -295 L -121 -274 C 99 -130 266 31 380 210 C 494 388 555 573 563 764 C 572 916 551 1052 499 1170 C 447 1288 372 1393 272 1487 L 299 1505 C 416 1409 506 1304 568 1190 C 630 1076 656 939 647 780 C 639 565 573 371 451 198 C 329 25 145 -139 -100 -295 Z" unicode=")" />
<glyph horiz-adv-x="758" d="M 453 825 C 439 828 429 834 423 843 C 417 852 415 862 415 873 C 415 881 418 894 425 911 C 432 927 444 951 462 983 C 475 1006 487 1029 498 1051 C 508 1073 518 1094 526 1116 C 500 1108 475 1097 449 1085 C 423 1073 399 1061 377 1049 C 354 1037 334 1026 316 1018 C 298 1010 285 1006 277 1006 C 265 1006 255 1010 246 1019 C 236 1027 232 1039 232 1055 C 232 1073 239 1086 255 1094 C 270 1101 291 1106 317 1108 C 343 1110 374 1112 410 1113 C 446 1113 484 1117 524 1124 C 496 1145 469 1164 442 1182 C 414 1200 390 1216 368 1231 C 346 1246 328 1260 314 1273 C 300 1286 294 1299 294 1312 C 294 1324 299 1335 309 1345 C 319 1355 331 1360 345 1360 C 358 1360 371 1352 384 1337 C 397 1321 411 1302 425 1280 C 439 1257 455 1232 472 1206 C 489 1180 508 1155 530 1133 C 534 1171 537 1208 537 1244 C 537 1279 539 1310 541 1337 C 543 1364 547 1386 555 1402 C 562 1418 575 1427 594 1427 C 604 1427 613 1425 620 1422 C 627 1418 633 1414 637 1409 C 641 1404 643 1399 645 1393 C 647 1387 648 1382 648 1378 C 648 1368 644 1355 637 1339 C 630 1323 618 1298 601 1266 C 587 1241 576 1217 566 1195 C 556 1173 547 1151 539 1130 C 564 1140 589 1151 615 1164 C 640 1177 664 1190 686 1202 C 708 1214 727 1224 745 1232 C 762 1240 775 1244 785 1244 C 795 1244 804 1239 813 1231 C 822 1223 827 1210 827 1193 C 827 1175 819 1163 804 1157 C 789 1150 769 1145 743 1142 C 717 1139 686 1137 652 1135 C 617 1133 580 1128 541 1120 C 566 1100 592 1081 618 1065 C 644 1048 667 1032 689 1018 C 710 1004 727 990 741 977 C 755 964 762 952 762 940 C 762 935 760 930 758 924 C 756 918 752 913 748 908 C 744 903 739 899 733 896 C 727 892 720 891 712 891 C 700 891 688 897 678 909 C 668 921 656 937 644 958 C 631 978 616 1002 599 1029 C 582 1056 561 1084 535 1114 C 528 1074 524 1036 524 1001 C 524 965 523 934 521 908 C 519 882 515 861 508 846 C 500 830 487 823 467 823 C 463 823 458 823 453 825 Z" unicode="*" />
<glyph horiz-adv-x="1145" d="M 547 39 L 547 496 L 88 496 L 88 567 L 547 567 L 547 1026 L 618 1026 L 618 567 L 1075 567 L 1075 496 L 618 496 L 618 39 L 547 39 Z" unicode="+" />
<glyph horiz-adv-x="449" d="M -4 -307 L -8 -295 C 48 -265 100 -222 148 -166 C 196 -110 224 -53 233 4 L 184 4 C 134 4 99 14 80 34 C 61 54 53 81 55 113 C 55 145 68 175 92 201 C 116 227 148 240 186 240 C 233 240 268 224 290 194 C 312 164 322 124 319 76 C 315 -11 279 -88 211 -155 C 143 -222 71 -273 -4 -307 Z" unicode="," />
<glyph horiz-adv-x="764" d="M 72 451 L 113 592 L 739 592 L 698 451 L 72 451 Z" unicode="-" />
<glyph horiz-adv-x="449" d="M 188 -18 C 152 -18 122 -5 96 19 C 70 44 57 75 57 111 C 57 146 70 177 96 203 C 122 229 152 242 188 242 C 224 242 255 229 281 203 C 306 177 319 146 319 111 C 319 75 306 44 281 19 C 255 -5 224 -18 188 -18 Z" unicode="." />
<glyph horiz-adv-x="825" d="M -158 -434 L -201 -410 L 963 1540 L 1006 1516 L -158 -434 Z" unicode="/" />
<glyph horiz-adv-x="1243" d="M 530 -29 C 390 -29 282 15 205 105 C 128 194 90 306 90 440 C 90 657 161 850 303 1018 C 445 1186 604 1270 780 1270 C 905 1270 1006 1230 1082 1150 C 1158 1070 1197 953 1198 801 C 1200 584 1133 391 999 223 C 865 55 708 -29 530 -29 Z M 514 -12 C 637 -12 747 81 843 268 C 939 454 992 672 1001 922 C 1001 1007 985 1083 954 1150 C 922 1217 868 1251 791 1251 C 661 1251 544 1150 442 950 C 340 749 289 539 289 319 C 289 226 306 148 342 84 C 377 20 434 -12 514 -12 Z" unicode="0" />
<glyph horiz-adv-x="848" d="M -4 0 L 0 10 C 18 10 44 12 78 15 C 112 17 137 21 154 27 C 174 33 193 44 209 62 C 225 80 237 100 244 123 L 518 1112 C 508 1110 497 1108 485 1107 C 473 1106 461 1106 451 1106 C 418 1106 383 1113 347 1129 C 310 1145 273 1175 236 1219 L 242 1225 C 268 1210 299 1198 335 1190 C 371 1182 409 1178 449 1178 C 517 1178 578 1188 634 1208 C 690 1228 734 1248 766 1268 L 782 1268 C 759 1224 738 1175 720 1121 C 702 1067 686 1015 674 967 L 442 133 C 434 105 433 84 440 69 C 446 54 458 43 475 35 C 488 27 511 21 544 17 C 576 13 602 10 621 10 L 616 0 L -4 0 Z" unicode="1" />
<glyph horiz-adv-x="1141" d="M -4 0 L 10 53 C 139 138 246 214 331 282 C 415 349 500 419 586 492 C 694 583 772 674 822 766 C 872 857 897 947 897 1036 C 897 1099 881 1151 851 1191 C 821 1231 774 1251 711 1251 C 611 1251 520 1204 440 1112 C 359 1020 319 935 319 858 C 319 813 329 777 350 750 C 370 722 403 709 449 709 C 487 709 521 719 552 739 C 583 759 613 782 643 809 L 651 801 C 601 745 552 703 504 676 C 456 648 405 635 350 635 C 293 635 247 652 213 686 C 178 720 161 763 162 815 C 162 925 224 1028 349 1125 C 473 1221 605 1270 745 1270 C 856 1270 942 1246 1003 1198 C 1063 1150 1094 1081 1094 993 C 1094 839 1023 702 883 584 C 742 465 551 350 311 240 L 211 168 L 733 168 C 797 168 846 186 880 223 C 914 259 956 313 1006 383 L 1018 377 L 819 0 L -4 0 Z" unicode="2" />
<glyph horiz-adv-x="1120" d="M 369 -53 C 258 -53 165 -29 90 16 C 15 62 -20 127 -18 211 C -16 261 2 306 38 347 C 74 387 117 408 168 408 C 200 408 225 399 241 383 C 257 366 266 346 266 324 C 266 274 243 239 196 219 C 149 199 125 172 125 137 C 124 86 142 44 180 12 C 217 -20 268 -37 334 -37 C 447 -37 552 15 649 119 C 746 223 798 339 805 465 C 807 517 798 561 777 595 C 755 629 720 647 670 647 C 632 647 592 634 552 609 C 512 584 472 558 434 530 L 418 563 C 585 648 711 725 796 793 C 880 861 925 944 930 1042 C 932 1105 919 1156 889 1194 C 859 1232 810 1251 743 1251 C 673 1251 601 1220 527 1160 C 453 1100 414 1031 412 954 C 410 916 420 887 442 868 C 464 849 489 840 516 840 C 543 840 570 845 598 856 C 626 866 651 881 674 901 L 684 891 C 643 853 601 821 557 797 C 513 772 466 760 414 760 C 370 760 332 773 300 800 C 268 827 254 866 256 918 C 258 1004 315 1085 427 1159 C 539 1233 662 1270 797 1270 C 907 1270 988 1245 1041 1196 C 1094 1147 1120 1087 1118 1016 C 1117 937 1078 867 1002 807 C 926 746 820 707 684 690 L 639 664 C 645 664 659 665 683 665 C 706 665 721 666 727 666 C 805 666 871 647 923 610 C 975 573 1001 512 1001 428 C 1000 286 937 171 812 81 C 686 -8 539 -53 369 -53 Z" unicode="3" />
<glyph horiz-adv-x="1079" d="M 416 -362 L 547 10 C 500 18 448 36 391 64 C 334 92 263 106 178 106 C 168 106 158 105 148 104 C 138 103 127 102 117 102 C 93 81 67 59 37 35 C 7 11 -20 0 -45 0 C -65 0 -83 4 -98 13 C -113 21 -121 35 -121 55 C -121 73 -111 87 -92 97 C -72 106 -49 112 -23 115 C -1 117 20 119 44 120 C 67 120 90 121 113 121 C 208 206 297 354 379 565 C 461 776 540 1011 616 1270 L 836 1270 C 760 1037 663 813 544 599 C 424 385 287 225 133 119 C 160 123 189 126 220 130 C 250 133 280 135 309 135 C 367 135 416 130 458 122 C 500 114 540 107 578 102 L 756 604 L 936 604 L 750 90 C 810 92 861 106 903 132 C 945 157 983 189 1016 229 L 1026 221 C 989 169 948 120 904 75 C 860 30 797 4 717 -2 L 590 -362 L 416 -362 Z" unicode="4" />
<glyph horiz-adv-x="1049" d="M 342 -29 C 239 -29 156 -5 92 41 C 28 88 -2 145 0 211 C 2 259 19 296 52 320 C 84 344 115 356 145 356 C 177 356 201 347 217 330 C 233 312 240 291 240 266 C 238 232 226 207 204 191 C 182 175 168 154 162 127 C 157 86 170 52 202 26 C 234 0 278 -14 336 -14 C 454 -14 549 36 622 138 C 694 240 733 355 737 485 C 741 568 723 632 684 676 C 645 720 589 743 516 743 C 463 743 408 728 350 698 C 292 668 247 625 215 569 L 195 578 L 500 1264 L 510 1264 C 522 1246 558 1229 618 1211 C 677 1193 747 1184 827 1184 C 893 1184 953 1192 1006 1209 C 1058 1226 1106 1251 1149 1284 L 1157 1276 C 1081 1173 995 1104 899 1069 C 803 1033 702 1016 598 1016 C 570 1016 536 1017 494 1021 C 452 1025 428 1028 422 1030 L 258 674 C 300 704 348 728 402 745 C 456 761 510 770 565 770 C 680 770 772 741 842 683 C 911 625 944 544 942 438 C 938 307 879 196 767 106 C 655 16 513 -29 342 -29 Z" unicode="5" />
<glyph horiz-adv-x="1130" d="M 467 -29 C 346 -29 251 10 183 90 C 114 170 83 286 90 438 C 101 690 198 919 381 1125 C 563 1331 758 1434 965 1434 C 1060 1434 1124 1412 1157 1370 C 1190 1328 1206 1285 1204 1243 C 1202 1205 1191 1174 1172 1150 C 1152 1126 1126 1114 1092 1114 C 1054 1114 1027 1128 1013 1157 C 999 1185 992 1222 993 1266 C 992 1306 986 1340 975 1367 C 964 1393 935 1407 887 1407 C 793 1407 691 1332 581 1184 C 471 1036 383 861 317 659 L 324 655 C 374 715 430 766 491 808 C 551 850 623 872 707 872 C 810 872 889 838 943 771 C 997 704 1022 616 1018 508 C 1012 372 958 248 856 137 C 753 26 623 -29 467 -29 Z M 453 -12 C 553 -12 639 47 710 167 C 780 286 817 410 821 539 C 823 619 807 685 772 737 C 737 789 685 815 616 815 C 527 815 445 768 369 674 C 293 580 254 461 252 317 C 248 218 263 138 299 78 C 334 18 385 -12 453 -12 Z" unicode="6" />
<glyph horiz-adv-x="1004" d="M 272 -244 C 239 -244 213 -234 195 -215 C 177 -195 169 -169 172 -135 C 174 -83 207 -4 270 100 C 332 205 420 331 532 477 C 606 571 684 664 765 756 C 846 848 932 946 1024 1051 L 479 1051 C 403 1051 338 1026 286 978 C 233 929 181 863 129 780 L 117 784 L 391 1333 L 401 1333 L 391 1219 L 1194 1219 L 1190 1202 C 1124 1132 1062 1063 1005 994 C 948 925 894 855 842 784 C 728 628 638 482 570 348 C 502 213 447 74 406 -70 C 389 -124 372 -167 355 -198 C 338 -228 310 -244 272 -244 Z" unicode="7" />
<glyph horiz-adv-x="1104" d="M 463 -33 C 339 -33 241 -5 168 50 C 94 106 59 179 61 270 C 61 353 99 428 173 495 C 247 561 329 607 420 633 C 366 663 322 700 289 744 C 255 788 240 841 242 903 C 244 1003 290 1092 382 1169 C 474 1245 586 1284 719 1284 C 823 1284 907 1259 972 1209 C 1036 1159 1069 1093 1069 1012 C 1069 932 1039 864 979 807 C 919 750 849 709 770 684 C 830 658 881 622 924 576 C 966 529 987 469 985 397 C 982 264 926 159 818 82 C 710 5 591 -33 463 -33 Z M 477 -14 C 569 -14 647 17 713 80 C 779 143 813 213 815 291 C 817 345 808 391 789 430 C 769 469 717 508 633 547 C 607 557 577 569 542 582 C 507 595 472 608 438 621 C 360 589 299 539 253 471 C 207 403 184 331 182 254 C 181 188 204 126 252 70 C 300 14 375 -14 477 -14 Z M 748 694 C 818 717 872 763 911 831 C 950 899 969 964 967 1024 C 965 1087 941 1143 895 1192 C 849 1241 787 1266 707 1266 C 613 1266 540 1235 489 1175 C 438 1114 412 1054 410 995 C 408 947 415 907 432 875 C 449 843 487 812 547 780 C 572 767 603 753 639 738 C 675 723 711 708 748 694 Z" unicode="8" />
<glyph horiz-adv-x="1130" d="M 203 -211 C 107 -211 39 -189 1 -146 C -36 -103 -55 -60 -53 -18 C -51 18 -40 48 -21 73 C -1 98 25 111 59 111 C 97 111 123 96 137 68 C 151 39 158 3 158 -41 C 157 -85 163 -121 176 -147 C 188 -173 217 -186 262 -186 C 378 -186 488 -112 593 33 C 698 179 788 364 862 586 L 858 590 C 811 528 756 475 692 433 C 628 390 554 369 471 369 C 367 369 288 402 234 468 C 180 534 155 623 160 733 C 164 858 215 979 314 1095 C 413 1211 545 1270 709 1270 C 827 1270 922 1229 993 1149 C 1064 1069 1095 953 1087 803 C 1071 534 974 298 794 94 C 614 -109 417 -211 203 -211 Z M 561 422 C 649 422 732 469 808 564 C 884 658 923 778 926 922 C 930 1021 914 1100 879 1160 C 843 1219 792 1249 725 1249 C 612 1249 523 1186 459 1060 C 395 934 360 814 356 702 C 353 622 369 555 404 502 C 439 448 491 422 561 422 Z" unicode="9" />
<glyph horiz-adv-x="573" d="M 217 -18 C 181 -18 150 -5 124 19 C 98 43 86 74 86 111 C 86 146 98 177 124 203 C 150 229 181 242 217 242 C 253 242 285 229 311 203 C 337 177 350 146 350 111 C 350 74 337 43 311 19 C 285 -5 253 -18 217 -18 Z M 387 678 C 352 678 322 690 296 715 C 270 739 258 770 258 807 C 258 843 270 873 296 898 C 322 923 352 936 387 936 C 423 936 454 923 480 898 C 505 873 518 843 518 807 C 518 770 505 739 480 715 C 454 690 423 678 387 678 Z" unicode=":" />
<glyph horiz-adv-x="573" d="M 33 -307 L 27 -295 C 83 -265 136 -222 184 -166 C 232 -110 260 -53 268 4 L 221 4 C 170 4 135 14 117 34 C 98 54 89 81 90 113 C 90 145 103 175 128 201 C 152 227 184 240 223 240 C 269 240 303 224 326 194 C 348 164 358 124 354 76 C 350 -11 314 -88 246 -155 C 178 -222 107 -273 33 -307 Z M 389 678 C 353 678 322 690 296 715 C 270 739 258 770 258 807 C 258 843 270 873 296 898 C 322 923 353 936 389 936 C 425 936 456 923 482 898 C 507 873 520 843 520 807 C 520 770 507 739 482 715 C 456 690 425 678 389 678 Z" unicode=";" />
<glyph horiz-adv-x="1145" d="M 1036 70 L 131 506 L 131 559 L 1036 995 L 1036 922 L 223 532 L 1036 143 L 1036 70 Z" unicode="&#x3C;" />
<glyph horiz-adv-x="1145" d="M 152 322 L 152 391 L 1057 391 L 1057 322 L 152 322 Z M 152 674 L 152 743 L 1057 743 L 1057 674 L 152 674 Z" unicode="=" />
<glyph horiz-adv-x="1145" d="M 152 70 L 152 143 L 965 532 L 152 922 L 152 995 L 1057 559 L 1057 506 L 152 70 Z" unicode="&#x3E;" />
<glyph horiz-adv-x="885" d="M 426 338 C 372 338 328 354 294 388 C 259 421 242 469 242 532 C 242 609 268 674 321 727 C 374 780 449 829 545 874 C 642 920 709 965 745 1009 C 781 1053 799 1108 799 1176 C 798 1234 779 1285 741 1331 C 703 1376 644 1399 565 1399 C 493 1399 434 1378 387 1337 C 340 1296 317 1248 317 1192 C 317 1143 332 1103 364 1071 C 396 1039 434 1024 479 1024 C 488 1024 497 1024 507 1026 C 516 1027 524 1029 530 1032 L 530 1040 C 511 1039 491 1045 471 1058 C 450 1071 440 1090 440 1116 C 440 1141 448 1162 465 1180 C 481 1197 503 1206 530 1206 C 560 1206 585 1198 604 1183 C 623 1167 633 1144 633 1114 C 633 1081 619 1054 591 1032 C 563 1010 527 999 483 999 C 433 999 389 1016 353 1052 C 317 1088 299 1134 299 1190 C 299 1256 326 1312 382 1360 C 438 1408 510 1432 600 1432 C 714 1432 801 1399 860 1335 C 918 1271 948 1199 948 1120 C 948 1038 923 971 875 917 C 826 863 756 816 666 776 C 570 734 490 689 426 643 C 362 597 330 541 330 475 C 330 439 341 412 365 394 C 388 376 415 367 446 367 C 484 367 516 383 544 415 C 572 447 590 487 598 535 L 608 530 C 598 471 577 424 545 390 C 513 355 474 338 426 338 Z M 303 -20 C 268 -20 238 -8 214 15 C 190 39 178 68 178 102 C 178 138 190 167 214 191 C 238 215 268 227 303 227 C 337 227 367 215 391 191 C 415 167 428 138 428 102 C 428 68 415 39 391 15 C 367 -8 337 -20 303 -20 Z" unicode="?" />
<glyph horiz-adv-x="2013" d="M 1004 -440 C 768 -440 565 -366 396 -220 C 227 -73 143 122 143 367 C 143 627 239 855 431 1050 C 623 1245 857 1343 1133 1343 C 1340 1343 1503 1279 1622 1153 C 1740 1027 1800 870 1800 684 C 1800 516 1749 372 1648 250 C 1546 128 1432 68 1305 68 C 1253 68 1208 83 1170 113 C 1132 143 1114 188 1114 248 L 1108 250 C 1081 204 1046 162 1002 126 C 958 90 913 72 866 72 C 808 72 758 95 716 141 C 673 187 652 255 653 344 C 653 454 698 570 788 691 C 878 811 984 872 1106 872 C 1142 872 1176 860 1206 837 C 1236 814 1254 781 1260 739 L 1266 739 L 1313 860 L 1438 860 L 1247 315 C 1241 299 1235 279 1231 257 C 1227 234 1225 215 1225 201 C 1225 168 1232 140 1246 118 C 1260 95 1284 84 1319 84 C 1429 84 1531 142 1626 259 C 1721 376 1769 522 1769 696 C 1769 868 1710 1012 1594 1128 C 1478 1244 1324 1303 1133 1303 C 922 1303 734 1216 570 1044 C 406 872 324 649 324 377 C 324 139 391 -47 525 -182 C 659 -317 824 -385 1020 -385 C 1224 -385 1404 -331 1559 -223 C 1713 -115 1826 40 1896 244 L 1909 238 C 1845 20 1727 -146 1556 -264 C 1385 -381 1201 -440 1004 -440 Z M 887 111 C 941 111 986 130 1023 169 C 1059 207 1093 254 1124 309 L 1253 698 C 1245 756 1227 795 1199 816 C 1171 837 1138 848 1100 848 C 1020 848 948 783 882 655 C 816 526 784 404 784 289 C 784 223 793 177 811 151 C 829 124 855 111 887 111 Z" unicode="@" />
<glyph horiz-adv-x="1313" d="M -242 0 L -240 10 C -224 10 -203 14 -177 21 C -151 28 -126 37 -104 47 C -74 62 -44 86 -13 120 C 18 153 47 187 74 223 C 196 379 346 574 524 810 C 702 1045 858 1249 991 1421 L 1034 1421 C 1036 1396 1042 1179 1051 771 C 1059 362 1064 153 1065 145 C 1065 117 1068 95 1072 77 C 1076 59 1089 45 1110 35 C 1124 26 1143 20 1165 16 C 1187 12 1207 10 1227 10 L 1225 0 L 627 0 L 631 10 C 662 12 695 15 731 20 C 766 25 792 33 809 43 C 831 51 847 65 855 84 C 863 103 866 122 866 141 L 860 561 L 367 561 C 325 507 281 447 235 383 C 189 319 156 273 137 246 C 119 219 103 193 87 167 C 71 141 63 119 63 102 C 63 70 90 48 145 34 C 199 20 242 12 274 10 L 272 0 L -242 0 Z M 383 586 L 860 586 L 858 1198 C 858 1198 800 1123 685 974 C 570 825 469 696 383 586 Z" unicode="A" />
<glyph horiz-adv-x="1305" d="M -82 0 L -78 10 C -58 10 -32 12 2 16 C 36 20 60 24 76 29 C 102 37 122 51 135 69 C 148 87 158 107 164 129 L 477 1255 C 481 1276 483 1296 482 1314 C 480 1332 468 1346 444 1358 C 430 1364 407 1370 375 1377 C 343 1383 318 1387 301 1389 L 305 1399 L 922 1399 C 1042 1399 1137 1375 1206 1329 C 1274 1283 1307 1216 1303 1128 C 1298 1024 1254 941 1172 879 C 1090 817 980 775 842 754 L 840 743 C 960 735 1053 705 1117 653 C 1181 601 1211 529 1206 438 C 1201 304 1137 198 1014 119 C 891 39 732 0 537 0 L -82 0 Z M 543 16 C 664 16 767 55 851 135 C 935 215 981 315 989 436 C 995 531 971 604 918 655 C 864 705 789 731 692 731 C 675 731 648 730 612 729 C 576 728 549 727 532 727 L 369 133 C 362 92 374 62 405 44 C 435 25 481 16 543 16 Z M 539 748 L 643 748 C 787 748 896 783 968 853 C 1040 923 1079 1009 1083 1110 C 1086 1187 1069 1252 1033 1304 C 996 1356 941 1382 868 1382 C 847 1382 822 1381 792 1380 C 762 1379 735 1378 713 1378 L 539 748 Z" unicode="B" />
<glyph horiz-adv-x="1290" d="M 614 -31 C 464 -31 339 17 239 113 C 139 209 90 340 90 506 C 90 766 174 985 344 1162 C 514 1338 706 1427 922 1427 C 1006 1427 1078 1412 1137 1383 C 1196 1353 1238 1329 1262 1311 L 1362 1419 L 1374 1419 L 1272 909 L 1257 909 C 1249 1041 1217 1157 1162 1257 C 1107 1357 1016 1407 889 1407 C 735 1407 600 1315 484 1131 C 368 947 311 743 311 518 C 311 382 342 265 406 168 C 470 71 567 23 698 23 C 796 23 886 55 970 119 C 1053 183 1126 266 1190 367 L 1206 356 C 1137 239 1055 145 960 75 C 865 4 750 -31 614 -31 Z" unicode="C" />
<glyph horiz-adv-x="1513" d="M -82 0 L -78 10 C -58 10 -32 12 2 16 C 36 20 60 24 76 29 C 102 37 122 50 135 66 C 147 82 157 103 164 129 L 477 1255 C 481 1276 483 1296 482 1314 C 480 1332 468 1346 444 1358 C 430 1364 407 1370 375 1377 C 343 1383 318 1387 301 1389 L 305 1399 L 926 1399 C 1092 1399 1227 1353 1331 1263 C 1435 1173 1487 1039 1487 862 C 1487 594 1391 384 1200 230 C 1009 76 786 0 530 0 L -82 0 Z M 541 16 C 738 16 907 96 1049 256 C 1190 416 1263 616 1268 854 C 1271 1029 1238 1161 1168 1249 C 1098 1337 995 1382 858 1382 C 855 1382 835 1381 799 1380 C 762 1379 734 1378 715 1378 L 377 170 C 361 114 366 75 391 51 C 415 27 465 16 541 16 Z" unicode="D" />
<glyph horiz-adv-x="1298" d="M -96 0 L -92 10 C -74 10 -46 12 -6 16 C 34 20 62 26 80 33 C 105 41 124 54 137 72 C 150 89 160 109 166 133 L 477 1253 C 481 1274 483 1294 482 1313 C 480 1331 468 1346 444 1358 C 428 1364 403 1370 370 1377 C 336 1383 310 1387 291 1389 L 295 1399 L 1360 1399 L 1268 1069 L 1255 1069 C 1251 1135 1237 1200 1215 1266 C 1192 1331 1158 1367 1112 1374 C 1090 1376 1064 1378 1033 1380 C 1002 1381 970 1382 938 1382 L 717 1382 L 537 741 L 713 741 C 767 741 810 748 840 763 C 870 777 893 791 909 805 C 929 821 950 847 972 882 C 994 917 1014 958 1034 1006 L 1049 1006 L 889 432 L 877 432 C 881 460 883 499 884 548 C 885 597 879 634 866 659 C 858 673 843 688 823 702 C 803 716 765 723 709 723 L 530 723 L 385 197 C 378 174 373 154 370 137 C 367 120 366 105 367 92 C 369 60 384 40 414 30 C 444 20 491 16 555 16 C 621 16 689 18 760 22 C 831 26 882 39 913 63 C 960 101 1012 158 1070 235 C 1128 311 1167 366 1188 399 L 1200 399 L 1065 0 L -96 0 Z" unicode="E" />
<glyph horiz-adv-x="1239" d="M -96 0 L -92 10 C -74 10 -46 12 -6 16 C 34 20 62 26 80 33 C 105 41 124 54 137 72 C 150 89 160 109 166 133 L 477 1253 C 481 1274 483 1294 482 1313 C 480 1331 468 1346 444 1358 C 428 1364 403 1370 370 1377 C 336 1383 310 1387 291 1389 L 295 1399 L 1413 1399 L 1321 1059 L 1309 1059 C 1307 1122 1294 1189 1271 1259 C 1248 1329 1210 1367 1157 1374 C 1133 1376 1108 1378 1080 1380 C 1052 1381 1021 1382 989 1382 L 717 1382 L 537 735 L 748 735 C 800 735 842 742 874 758 C 906 774 931 788 948 801 C 968 815 990 843 1014 885 C 1037 926 1056 965 1071 1001 L 1085 1001 L 922 422 L 909 422 C 913 451 915 492 915 546 C 914 599 910 634 903 651 C 897 665 880 680 853 695 C 826 709 788 717 739 717 L 532 717 L 371 143 C 363 122 361 102 364 84 C 367 65 380 51 403 41 C 418 35 443 28 477 21 C 511 14 537 10 557 10 L 555 0 L -96 0 Z" unicode="F" />
<glyph horiz-adv-x="1446" d="M 1100 -39 L 1044 96 C 972 60 902 30 836 6 C 770 -18 696 -31 616 -31 C 462 -31 336 16 238 111 C 139 205 90 341 90 518 C 90 760 174 972 342 1154 C 510 1336 716 1427 958 1427 C 1038 1427 1107 1415 1163 1393 C 1219 1370 1270 1338 1317 1298 L 1419 1419 L 1432 1419 L 1317 922 L 1305 922 C 1295 1071 1262 1190 1205 1278 C 1147 1366 1058 1411 938 1411 C 782 1411 638 1320 506 1138 C 374 956 309 743 309 498 C 309 340 337 216 395 126 C 453 35 538 -10 651 -10 C 750 -10 827 18 882 75 C 936 131 977 202 1004 287 C 1004 287 1011 315 1026 371 C 1041 427 1049 457 1049 459 C 1055 484 1056 507 1052 529 C 1048 551 1035 567 1012 578 C 990 586 959 593 918 599 C 877 604 847 607 829 608 L 831 618 L 1477 618 L 1475 608 C 1455 605 1432 602 1406 598 C 1379 594 1355 588 1335 582 C 1306 570 1285 555 1273 537 C 1260 518 1251 497 1245 475 L 1110 -35 L 1100 -39 Z" unicode="G" />
<glyph horiz-adv-x="1659" d="M -82 0 L -78 10 C -58 10 -32 12 2 16 C 36 20 60 24 76 29 C 102 37 122 51 135 69 C 148 87 158 107 164 129 L 477 1255 C 481 1276 483 1296 482 1314 C 480 1332 468 1346 444 1358 C 430 1364 407 1370 376 1377 C 344 1383 320 1387 303 1389 L 305 1399 L 930 1399 L 928 1389 C 908 1387 882 1384 850 1380 C 817 1375 791 1370 772 1366 C 745 1358 725 1344 711 1325 C 697 1305 688 1285 682 1264 L 541 752 L 1219 752 L 1360 1255 C 1364 1275 1366 1295 1365 1313 C 1364 1331 1351 1346 1327 1358 C 1311 1364 1289 1371 1260 1377 C 1230 1383 1206 1387 1188 1389 L 1190 1399 L 1812 1399 L 1810 1389 C 1791 1387 1765 1384 1732 1380 C 1699 1375 1673 1370 1655 1366 C 1627 1358 1606 1344 1594 1326 C 1582 1307 1573 1286 1567 1264 L 1249 137 C 1244 114 1243 95 1245 79 C 1247 63 1260 49 1284 37 C 1295 32 1316 26 1348 20 C 1380 14 1406 10 1427 10 L 1423 0 L 801 0 L 803 10 C 821 10 848 12 883 16 C 917 20 942 24 956 29 C 984 37 1004 50 1016 68 C 1028 86 1038 106 1044 129 L 1214 729 L 535 729 L 367 135 C 361 113 360 94 363 77 C 366 60 379 47 403 37 C 413 33 434 27 466 21 C 498 14 524 10 545 10 L 541 0 L -82 0 Z" unicode="H" />
<glyph horiz-adv-x="788" d="M -68 0 L -66 10 C -46 10 -19 12 15 16 C 49 20 74 24 90 29 C 115 37 134 51 147 69 C 160 87 170 107 176 129 L 492 1255 C 496 1276 497 1296 495 1314 C 493 1332 480 1346 457 1358 C 442 1364 419 1370 389 1377 C 358 1383 334 1387 317 1389 L 319 1399 L 948 1399 L 946 1389 C 926 1387 900 1384 866 1380 C 832 1375 805 1370 786 1366 C 759 1358 739 1344 726 1325 C 712 1305 702 1285 696 1264 L 381 135 C 375 112 373 92 377 76 C 381 60 394 47 418 37 C 428 33 449 27 481 21 C 513 14 540 10 561 10 L 559 0 L -68 0 Z" unicode="I" />
<glyph horiz-adv-x="1184" d="M 156 -354 C 74 -354 15 -334 -23 -295 C -61 -256 -80 -214 -80 -170 C -80 -151 -70 -128 -50 -100 C -30 -72 -1 -59 35 -59 C 69 -59 97 -67 120 -84 C 142 -100 154 -127 154 -164 C 154 -182 147 -201 135 -220 C 122 -238 106 -259 88 -283 C 88 -299 98 -312 119 -321 C 139 -329 153 -334 160 -334 C 236 -334 303 -303 362 -241 C 420 -179 474 -61 522 111 C 546 199 572 304 599 425 C 625 545 645 633 657 688 L 387 688 L 393 715 L 664 721 C 689 798 726 863 774 917 C 822 970 880 1039 948 1124 C 920 1117 881 1108 829 1098 C 777 1088 741 1083 721 1083 C 685 1083 649 1092 615 1111 C 581 1130 543 1159 503 1199 C 466 1235 430 1264 396 1286 C 362 1308 327 1319 293 1319 C 251 1319 219 1310 195 1292 C 171 1274 160 1255 160 1235 C 160 1229 162 1216 166 1197 C 170 1178 176 1164 182 1155 C 224 1155 257 1146 280 1128 C 303 1109 315 1084 315 1053 C 315 1030 305 1009 287 991 C 269 972 246 963 219 963 C 178 963 149 979 132 1013 C 114 1047 106 1086 106 1130 C 106 1152 109 1174 116 1198 C 123 1221 133 1244 146 1267 C 173 1313 211 1353 260 1387 C 309 1421 362 1438 418 1438 C 460 1438 499 1429 537 1413 C 574 1396 616 1359 664 1301 C 712 1242 753 1203 787 1184 C 821 1164 861 1152 907 1147 L 963 1147 C 1005 1215 1042 1268 1074 1308 C 1106 1348 1135 1368 1163 1368 C 1187 1368 1206 1362 1219 1351 C 1232 1339 1239 1324 1239 1305 C 1239 1254 1217 1216 1173 1191 C 1129 1166 1066 1147 985 1133 C 952 1054 927 983 911 920 C 895 857 881 794 870 731 L 1135 737 L 1122 694 L 864 696 C 849 636 830 556 806 457 C 782 358 754 253 721 143 C 669 -31 588 -157 479 -236 C 369 -314 262 -354 156 -354 Z" unicode="J" />
<glyph horiz-adv-x="1479" d="M -82 0 L -78 10 C -58 10 -32 12 2 16 C 36 20 60 24 76 29 C 102 37 122 51 135 69 C 148 87 158 107 164 129 L 477 1255 C 481 1276 483 1296 482 1314 C 480 1332 468 1346 444 1358 C 430 1364 401 1370 359 1377 C 317 1383 287 1387 270 1389 L 272 1399 L 930 1399 L 928 1389 C 908 1387 882 1384 850 1380 C 817 1375 791 1370 772 1366 C 745 1358 725 1344 711 1325 C 697 1305 688 1285 682 1264 L 530 717 L 565 717 C 726 825 882 940 1032 1063 C 1182 1186 1263 1271 1276 1317 C 1284 1345 1263 1364 1214 1373 C 1165 1382 1127 1387 1100 1389 L 1102 1399 L 1634 1399 L 1632 1389 C 1599 1387 1556 1381 1502 1370 C 1448 1358 1391 1328 1331 1280 C 1222 1190 1120 1107 1026 1031 C 932 954 831 879 725 805 C 784 723 853 617 931 486 C 1009 355 1069 253 1110 180 C 1126 153 1146 127 1168 103 C 1190 78 1218 57 1251 41 C 1268 32 1288 25 1311 20 C 1334 15 1354 12 1372 10 L 1370 0 L 692 0 L 696 10 C 763 16 815 24 851 34 C 887 44 906 63 907 92 C 909 124 873 207 800 341 C 726 475 651 594 575 698 L 526 698 L 367 135 C 361 113 360 94 364 77 C 367 60 380 47 403 37 C 413 33 434 27 466 21 C 498 14 524 10 545 10 L 541 0 L -82 0 Z" unicode="K" />
<glyph horiz-adv-x="1272" d="M -96 0 L -92 10 C -74 10 -46 12 -6 16 C 34 20 62 26 80 33 C 105 41 124 54 137 72 C 150 89 160 109 166 133 L 477 1253 C 481 1274 483 1294 482 1313 C 480 1331 468 1346 444 1358 C 428 1364 403 1370 370 1377 C 336 1383 310 1387 291 1389 L 295 1399 L 934 1399 L 932 1389 C 912 1387 886 1384 852 1380 C 818 1375 791 1370 772 1366 C 745 1358 725 1344 711 1325 C 697 1305 688 1285 682 1264 L 387 201 C 381 178 376 158 372 140 C 368 122 367 107 367 94 C 367 62 383 41 413 31 C 443 21 495 16 571 16 C 629 16 691 18 759 22 C 826 26 871 37 895 55 C 931 85 982 139 1047 217 C 1112 295 1160 358 1190 406 L 1202 406 L 1063 0 L -96 0 Z" unicode="L" />
<glyph horiz-adv-x="1896" d="M -123 0 L -121 10 C -98 10 -64 16 -18 26 C 27 36 60 48 82 61 C 109 78 134 111 158 161 C 181 211 204 276 227 358 L 449 1163 C 459 1205 463 1239 459 1266 C 455 1292 445 1314 430 1331 C 410 1350 384 1364 351 1373 C 318 1382 288 1387 262 1389 L 266 1399 L 664 1399 L 899 270 L 1518 1223 C 1543 1263 1564 1300 1580 1333 C 1596 1365 1606 1387 1610 1399 L 2046 1399 L 2044 1389 C 2024 1387 1997 1384 1963 1380 C 1928 1375 1901 1370 1882 1366 C 1855 1358 1835 1345 1822 1327 C 1808 1309 1798 1288 1792 1264 L 1497 137 C 1490 115 1489 96 1494 79 C 1499 61 1512 47 1534 37 C 1544 31 1567 25 1603 19 C 1638 13 1665 10 1683 10 L 1681 0 L 1055 0 L 1057 10 C 1074 10 1100 12 1134 16 C 1168 19 1192 24 1206 31 C 1232 39 1253 53 1267 71 C 1281 89 1291 109 1296 131 L 1599 1305 L 764 23 L 737 23 C 735 63 728 109 717 162 C 706 214 696 263 688 307 L 500 1264 L 258 367 C 245 324 233 270 223 205 C 213 139 220 94 246 70 C 263 53 299 39 353 28 C 407 16 443 10 463 10 L 461 0 L -123 0 Z" unicode="M" />
<glyph horiz-adv-x="1511" d="M 1057 -12 L 487 1223 L 256 350 C 244 310 234 260 224 200 C 214 140 222 96 248 70 C 263 53 295 39 343 28 C 391 16 424 10 442 10 L 438 0 L -123 0 L -119 10 C -95 10 -61 16 -15 26 C 30 36 62 48 82 61 C 109 78 134 109 158 155 C 181 200 203 262 225 342 L 440 1135 C 448 1165 452 1198 452 1233 C 451 1267 439 1297 416 1323 C 397 1342 371 1357 337 1368 C 303 1379 261 1386 213 1389 L 217 1399 L 621 1399 L 1141 266 L 1350 1055 C 1360 1092 1370 1142 1381 1204 C 1391 1266 1382 1308 1354 1331 C 1337 1345 1307 1358 1264 1370 C 1220 1381 1187 1387 1165 1389 L 1167 1399 L 1724 1399 L 1722 1389 C 1704 1387 1671 1382 1625 1374 C 1578 1365 1543 1354 1520 1341 C 1487 1322 1460 1288 1438 1238 C 1416 1188 1396 1131 1378 1065 L 1087 -12 L 1057 -12 Z" unicode="N" />
<glyph horiz-adv-x="1473" d="M 616 -33 C 550 -33 486 -20 424 6 C 361 32 306 69 258 117 C 209 165 170 223 140 293 C 110 362 96 441 96 530 C 96 658 121 779 171 891 C 221 1003 286 1100 367 1182 C 442 1258 527 1318 623 1363 C 719 1407 816 1430 915 1430 C 977 1430 1037 1419 1096 1398 C 1155 1376 1208 1346 1255 1307 C 1311 1259 1356 1199 1390 1127 C 1424 1054 1442 971 1442 879 C 1442 763 1421 651 1379 541 C 1337 431 1280 334 1208 250 C 1134 165 1047 97 946 45 C 844 -7 734 -33 616 -33 Z M 631 -14 C 730 -14 818 19 894 85 C 970 151 1033 234 1083 334 C 1131 429 1167 533 1192 646 C 1216 758 1229 865 1229 965 C 1229 1079 1205 1181 1159 1273 C 1113 1365 1030 1411 911 1411 C 824 1411 747 1386 679 1337 C 611 1288 552 1225 504 1149 C 440 1048 391 932 359 801 C 326 670 309 548 309 436 C 309 317 333 212 381 122 C 429 31 512 -14 631 -14 Z" unicode="O" />
<glyph horiz-adv-x="1245" d="M -82 0 L -78 10 C -58 10 -32 12 2 16 C 36 20 60 24 76 29 C 102 37 122 51 135 69 C 148 87 158 107 164 129 L 477 1255 C 481 1275 482 1295 481 1314 C 480 1332 468 1347 444 1358 C 422 1366 398 1372 370 1378 C 342 1384 320 1387 303 1389 L 305 1399 L 897 1399 C 1037 1399 1140 1370 1206 1312 C 1272 1254 1303 1179 1300 1087 C 1295 947 1230 839 1106 764 C 982 688 824 651 633 651 L 512 651 L 369 135 C 362 114 361 95 365 79 C 369 62 382 49 403 39 C 415 33 439 26 474 20 C 508 14 535 10 555 10 L 553 0 L -82 0 Z M 518 670 L 627 670 C 767 670 876 705 954 776 C 1032 846 1074 942 1079 1063 C 1083 1153 1064 1229 1024 1289 C 984 1349 917 1380 823 1380 L 715 1380 L 518 670 Z" unicode="P" />
<glyph horiz-adv-x="1364" d="M 1282 -489 C 1181 -489 1090 -467 1009 -425 C 927 -383 852 -326 783 -256 C 724 -196 673 -135 629 -75 C 585 -15 550 23 526 39 C 478 19 428 3 376 -10 C 324 -24 270 -31 215 -31 C 153 -31 96 -20 44 1 C -7 22 -33 55 -33 100 C -33 134 -8 164 41 192 C 91 219 147 233 209 233 C 276 233 343 223 411 204 C 479 185 546 155 614 113 C 747 171 866 286 972 456 C 1077 626 1130 813 1130 1018 C 1130 1126 1102 1218 1047 1295 C 991 1372 913 1411 813 1411 C 667 1411 544 1341 442 1201 C 340 1061 289 914 289 760 C 289 692 305 627 337 565 C 369 503 422 473 496 473 C 578 473 648 502 707 561 C 765 619 795 703 795 813 C 795 881 783 937 760 982 C 736 1027 706 1050 668 1051 C 682 1030 691 1007 696 982 C 701 957 703 938 702 926 C 700 899 691 877 675 860 C 659 842 638 834 610 834 C 574 834 549 844 536 864 C 522 884 516 909 516 938 C 516 968 531 998 563 1026 C 594 1054 639 1069 698 1069 C 755 1069 800 1044 834 996 C 868 948 885 892 885 829 C 885 725 842 636 756 561 C 670 486 580 449 487 449 C 386 449 305 484 243 555 C 181 626 150 719 150 834 C 150 990 218 1128 354 1249 C 490 1369 641 1430 809 1430 C 976 1430 1106 1384 1199 1293 C 1292 1202 1339 1087 1339 948 C 1339 752 1273 581 1141 436 C 1009 290 843 176 641 94 C 703 60 767 13 831 -47 C 895 -108 955 -165 1009 -218 C 1067 -274 1127 -323 1191 -363 C 1254 -403 1318 -424 1384 -424 C 1394 -424 1412 -423 1437 -421 C 1462 -419 1481 -418 1495 -416 L 1495 -391 C 1466 -382 1446 -368 1434 -350 C 1422 -331 1417 -308 1417 -281 C 1417 -250 1430 -223 1456 -200 C 1482 -177 1510 -166 1540 -166 C 1570 -166 1593 -175 1609 -194 C 1624 -213 1632 -238 1632 -270 C 1632 -316 1597 -364 1528 -414 C 1459 -464 1377 -489 1282 -489 Z M 240 -10 C 282 -10 331 -2 387 13 C 443 29 485 44 514 59 C 480 99 439 135 392 168 C 345 200 291 217 229 217 C 188 217 152 201 122 169 C 91 137 74 115 70 102 C 88 58 113 28 146 13 C 178 -2 210 -10 240 -10 Z" unicode="Q" />
<glyph horiz-adv-x="1464" d="M 1094 -23 C 1019 -23 965 -3 933 34 C 901 72 887 133 891 217 C 891 265 892 304 892 333 C 892 361 893 392 893 424 C 893 538 875 614 840 651 C 804 688 730 707 618 707 L 528 707 L 367 137 C 361 115 360 96 364 79 C 367 62 380 49 403 39 C 414 33 437 26 473 20 C 508 14 535 10 555 10 L 553 0 L -82 0 L -78 10 C -58 10 -32 12 2 16 C 36 20 60 24 76 29 C 102 37 122 51 135 69 C 148 87 158 107 164 129 L 477 1255 C 481 1276 483 1296 482 1314 C 480 1332 468 1346 444 1358 C 430 1364 407 1370 376 1377 C 344 1383 320 1387 303 1389 L 305 1399 L 905 1399 C 1047 1399 1154 1374 1226 1324 C 1298 1274 1333 1204 1331 1116 C 1328 1014 1287 929 1208 862 C 1128 795 1006 748 840 721 L 840 713 C 932 700 999 671 1040 626 C 1081 581 1102 518 1102 438 C 1102 384 1101 340 1101 306 C 1100 272 1100 236 1100 199 C 1099 147 1106 109 1120 87 C 1134 64 1155 53 1184 53 C 1224 53 1262 77 1297 127 C 1332 177 1360 241 1382 319 L 1399 317 C 1370 214 1333 132 1288 70 C 1243 8 1178 -23 1094 -23 Z M 530 725 L 659 725 C 784 725 889 754 974 814 C 1059 873 1104 965 1108 1090 C 1112 1181 1093 1252 1051 1303 C 1009 1354 945 1380 858 1380 L 715 1380 L 530 725 Z" unicode="R" />
<glyph horiz-adv-x="1102" d="M 451 -27 C 368 -27 290 -14 218 11 C 146 36 95 60 66 84 L -35 -20 L -49 -20 L 59 467 L 72 467 C 91 331 133 218 199 128 C 265 38 358 -6 479 -6 C 596 -6 685 28 746 97 C 807 165 838 237 838 313 C 838 380 822 434 791 474 C 760 514 681 568 553 637 C 432 701 348 763 302 821 C 255 879 235 947 242 1024 C 251 1134 300 1228 390 1308 C 479 1387 593 1427 733 1427 C 798 1427 862 1415 926 1393 C 990 1370 1035 1346 1063 1321 L 1155 1419 L 1171 1419 L 1061 950 L 1049 950 C 1033 1086 1000 1197 949 1281 C 898 1365 819 1407 713 1407 C 630 1407 557 1379 494 1325 C 430 1270 399 1201 399 1118 C 399 1040 419 981 460 940 C 501 899 564 857 649 813 C 791 738 886 675 933 625 C 980 575 1004 505 1004 416 C 1004 295 951 191 847 104 C 742 16 610 -27 451 -27 Z" unicode="S" />
<glyph horiz-adv-x="1284" d="M 154 0 L 156 10 C 176 10 208 13 250 18 C 292 23 321 28 336 33 C 361 41 380 54 394 72 C 408 90 418 110 424 133 L 770 1382 L 678 1382 C 655 1382 626 1381 591 1380 C 556 1378 527 1376 504 1374 C 458 1368 398 1320 324 1232 C 250 1144 201 1078 176 1034 L 162 1034 L 266 1399 L 1487 1399 L 1384 1034 L 1370 1034 C 1368 1103 1356 1175 1334 1251 C 1312 1327 1279 1368 1235 1374 C 1212 1376 1185 1378 1154 1380 C 1122 1381 1093 1382 1067 1382 L 973 1382 L 631 143 C 624 121 623 101 627 83 C 631 65 644 51 666 41 C 676 36 704 30 749 22 C 794 14 826 10 846 10 L 844 0 L 154 0 Z" unicode="T" />
<glyph horiz-adv-x="1608" d="M 672 -33 C 519 -33 405 -3 330 56 C 254 115 217 197 217 301 C 217 327 219 356 223 386 C 227 416 234 448 244 481 L 459 1255 C 463 1276 464 1296 462 1314 C 460 1332 447 1346 424 1358 C 409 1364 386 1370 356 1377 C 325 1383 301 1387 285 1389 L 287 1399 L 913 1399 L 911 1389 C 891 1387 865 1384 832 1380 C 799 1375 773 1370 754 1366 C 727 1358 707 1344 693 1325 C 679 1305 670 1285 664 1264 L 457 518 C 445 477 436 437 430 398 C 423 359 420 324 420 293 C 420 220 448 159 505 111 C 562 63 642 39 745 39 C 870 39 976 76 1064 150 C 1151 224 1215 334 1255 481 L 1413 1040 C 1424 1078 1436 1131 1448 1197 C 1460 1263 1451 1307 1423 1331 C 1407 1345 1377 1358 1333 1370 C 1289 1381 1256 1387 1235 1389 L 1237 1399 L 1792 1399 L 1790 1389 C 1771 1387 1738 1382 1692 1374 C 1645 1365 1610 1354 1587 1341 C 1554 1322 1526 1285 1504 1231 C 1481 1177 1460 1117 1442 1051 L 1276 471 C 1230 307 1159 182 1065 96 C 970 10 839 -33 672 -33 Z" unicode="U" />
<glyph horiz-adv-x="1315" d="M 371 -20 C 368 11 361 225 349 622 C 337 1019 330 1228 328 1249 C 327 1279 324 1304 320 1323 C 316 1341 303 1355 283 1364 C 267 1370 249 1376 228 1380 C 206 1384 185 1387 164 1389 L 166 1399 L 764 1399 L 762 1389 C 721 1385 685 1381 653 1376 C 621 1370 598 1364 584 1358 C 561 1347 545 1333 537 1315 C 528 1297 524 1280 524 1262 C 526 1241 531 1068 540 744 C 549 420 555 247 557 227 C 783 516 949 732 1053 875 C 1157 1018 1221 1107 1245 1141 C 1264 1169 1283 1197 1302 1224 C 1320 1251 1330 1275 1331 1296 C 1333 1326 1307 1349 1254 1363 C 1200 1377 1156 1386 1120 1389 L 1122 1399 L 1632 1399 L 1630 1389 C 1614 1387 1594 1383 1569 1377 C 1543 1370 1520 1362 1499 1352 C 1467 1337 1438 1316 1412 1288 C 1386 1260 1353 1222 1315 1174 C 1195 1024 1047 832 871 598 C 695 363 540 157 406 -20 L 371 -20 Z" unicode="V" />
<glyph horiz-adv-x="1972" d="M 371 -16 C 370 7 363 222 349 628 C 335 1034 328 1242 328 1251 C 327 1277 325 1300 321 1318 C 317 1336 306 1351 287 1362 C 271 1370 252 1377 230 1381 C 208 1385 187 1387 168 1389 L 170 1399 L 750 1399 L 745 1389 C 712 1387 681 1384 651 1378 C 621 1372 598 1364 584 1356 C 562 1346 547 1332 537 1314 C 527 1296 523 1278 524 1260 C 524 1255 529 1091 540 768 C 550 444 556 272 557 252 L 1118 1098 C 1118 1117 1117 1141 1116 1170 C 1115 1198 1114 1224 1112 1247 C 1111 1272 1108 1295 1103 1316 C 1097 1337 1085 1352 1067 1362 C 1051 1370 1033 1377 1011 1381 C 989 1385 969 1387 950 1389 L 952 1399 L 1538 1399 L 1536 1389 C 1503 1386 1470 1382 1438 1377 C 1405 1371 1381 1364 1366 1356 C 1344 1346 1329 1332 1321 1314 C 1312 1296 1308 1278 1309 1260 C 1309 1255 1314 1091 1324 767 C 1334 443 1341 270 1343 250 L 1880 1065 C 1912 1117 1937 1160 1955 1196 C 1972 1232 1981 1263 1982 1290 C 1984 1322 1962 1345 1916 1361 C 1870 1376 1820 1385 1767 1389 L 1772 1399 L 2281 1399 L 2277 1389 C 2257 1387 2236 1383 2212 1377 C 2188 1370 2164 1362 2142 1352 C 2111 1336 2083 1311 2057 1277 C 2031 1242 2006 1207 1982 1171 L 1196 -16 L 1155 -16 C 1154 2 1148 182 1136 524 C 1124 866 1118 1044 1118 1057 L 408 -16 L 371 -16 Z" unicode="W" />
<glyph horiz-adv-x="1473" d="M -152 0 L -147 10 C -125 12 -105 15 -85 20 C -65 24 -44 31 -23 39 C 21 55 60 77 96 104 C 132 131 163 156 190 180 C 234 220 303 286 398 380 C 493 474 592 571 694 672 C 667 738 633 823 592 927 C 550 1031 511 1129 473 1219 C 457 1255 442 1284 428 1306 C 413 1328 390 1347 360 1362 C 345 1368 324 1374 298 1379 C 272 1384 248 1387 227 1389 L 229 1399 L 942 1399 L 938 1389 C 874 1385 813 1378 755 1366 C 697 1354 668 1330 668 1294 C 667 1279 670 1257 678 1227 C 686 1197 697 1160 713 1118 C 725 1082 744 1034 768 973 C 792 911 817 850 844 788 C 876 820 927 872 996 943 C 1065 1014 1128 1081 1184 1143 C 1220 1183 1250 1219 1276 1250 C 1301 1281 1314 1303 1315 1317 C 1315 1340 1295 1357 1257 1368 C 1219 1378 1168 1385 1104 1389 L 1106 1399 L 1649 1399 L 1647 1389 C 1626 1387 1605 1384 1583 1380 C 1561 1376 1539 1370 1518 1362 C 1474 1344 1435 1322 1401 1296 C 1367 1270 1335 1244 1305 1219 C 1237 1157 1156 1077 1061 979 C 966 880 896 808 852 764 C 879 694 915 604 960 494 C 1004 384 1047 279 1087 180 C 1098 154 1110 132 1122 112 C 1134 92 1148 75 1163 63 C 1183 41 1205 28 1228 22 C 1251 16 1284 12 1327 10 L 1323 0 L 612 0 L 616 10 C 697 14 763 23 814 37 C 864 50 890 74 891 109 C 891 119 888 138 882 165 C 875 191 864 225 850 266 C 834 312 814 369 789 436 C 763 502 735 573 705 649 C 624 569 552 498 489 434 C 425 370 372 316 330 272 C 285 224 250 184 224 152 C 198 120 184 99 184 88 C 183 60 202 41 241 31 C 280 21 331 14 395 10 L 391 0 L -152 0 Z" unicode="X" />
<glyph horiz-adv-x="1286" d="M 229 0 L 233 10 C 250 10 275 13 307 17 C 339 21 363 25 379 31 C 405 39 425 54 438 74 C 450 94 459 113 463 131 L 594 666 C 604 710 610 759 612 813 C 613 867 614 910 614 944 C 614 1032 596 1115 562 1193 C 527 1270 461 1309 365 1309 C 317 1309 271 1292 226 1259 C 181 1225 146 1173 121 1102 L 106 1108 C 142 1212 189 1291 249 1344 C 309 1396 380 1423 463 1423 C 567 1423 646 1384 700 1308 C 754 1231 784 1138 791 1028 C 793 992 792 948 789 898 C 786 848 782 802 776 762 L 795 762 C 821 831 848 893 876 948 C 904 1002 933 1053 963 1100 C 1028 1202 1096 1282 1167 1339 C 1237 1396 1304 1425 1368 1425 C 1416 1425 1451 1411 1473 1384 C 1494 1357 1505 1331 1505 1307 C 1505 1264 1494 1231 1472 1207 C 1450 1183 1422 1171 1386 1171 C 1346 1171 1319 1185 1304 1214 C 1289 1242 1282 1264 1282 1280 C 1282 1297 1284 1313 1289 1328 C 1294 1343 1301 1356 1311 1366 L 1303 1376 C 1261 1366 1212 1338 1157 1292 C 1102 1246 1043 1173 979 1073 C 950 1029 919 973 886 905 C 852 837 825 763 805 684 L 668 139 C 662 117 662 98 667 80 C 672 62 686 49 709 39 C 719 34 744 28 785 21 C 825 13 855 10 874 10 L 870 0 L 229 0 Z" unicode="Y" />
<glyph horiz-adv-x="1221" d="M -137 0 L -133 16 L 1145 1380 L 768 1380 C 729 1380 694 1379 663 1377 C 631 1375 605 1372 584 1368 C 530 1357 467 1310 395 1228 C 322 1146 265 1075 225 1016 L 213 1016 L 352 1399 L 1391 1399 L 1386 1384 L 104 18 L 508 18 C 578 18 643 21 704 29 C 765 37 810 51 838 72 C 890 114 946 171 1006 245 C 1066 319 1112 380 1145 428 L 1157 428 L 1004 0 L -137 0 Z" unicode="Z" />
<glyph horiz-adv-x="1139" d="M 735 -408 L 727 -399 C 742 -386 757 -370 771 -350 C 785 -330 793 -308 793 -285 C 793 -267 782 -251 761 -236 C 740 -220 695 -213 625 -213 C 525 -213 428 -221 333 -239 C 238 -256 122 -279 -16 -309 L -68 -326 L 416 1489 L 459 1473 C 581 1443 685 1419 771 1402 C 857 1384 949 1376 1049 1376 C 1093 1376 1142 1381 1196 1392 C 1249 1403 1276 1439 1276 1501 C 1276 1515 1274 1527 1272 1536 C 1269 1545 1266 1554 1262 1563 L 1270 1567 C 1276 1560 1281 1549 1287 1533 C 1293 1517 1296 1499 1296 1481 C 1296 1399 1263 1336 1199 1290 C 1134 1244 1057 1221 969 1221 C 860 1221 771 1244 703 1291 C 634 1337 553 1390 461 1450 L -4 -287 C 120 -227 229 -174 323 -126 C 417 -78 518 -55 627 -55 C 700 -55 754 -68 789 -96 C 823 -123 841 -161 842 -209 C 842 -249 832 -286 812 -320 C 792 -354 767 -384 735 -408 Z" unicode="[" />
<glyph horiz-adv-x="825" d="M 467 -426 L 348 1524 L 397 1528 L 516 -422 L 467 -426 Z" unicode="\" />
<glyph horiz-adv-x="1028" d="M -119 -408 C -125 -401 -130 -389 -136 -373 C -142 -357 -145 -340 -145 -322 C -145 -240 -112 -176 -48 -130 C 16 -84 93 -61 182 -61 C 290 -61 378 -84 447 -131 C 516 -177 597 -231 690 -291 L 1155 1448 C 1030 1388 921 1334 827 1286 C 733 1238 632 1214 524 1214 C 450 1214 395 1228 361 1256 C 327 1284 309 1321 309 1368 C 309 1408 318 1445 337 1480 C 356 1515 382 1544 414 1567 L 424 1561 C 408 1547 393 1530 379 1510 C 365 1489 358 1467 358 1444 C 358 1427 368 1411 388 1395 C 408 1379 454 1372 524 1372 C 624 1372 721 1380 817 1398 C 912 1415 1029 1438 1167 1468 L 1219 1485 L 735 -330 L 692 -313 C 569 -283 465 -260 379 -242 C 293 -224 201 -215 102 -215 C 57 -215 8 -220 -46 -232 C -100 -244 -127 -280 -127 -342 C -127 -356 -125 -368 -122 -377 C -118 -386 -115 -395 -111 -403 L -119 -408 Z" unicode="]" />
<glyph horiz-adv-x="797" d="M 508 1124 L 147 864 L 137 872 C 208 964 262 1035 300 1085 C 338 1135 377 1185 418 1233 C 428 1247 442 1257 459 1263 C 475 1269 497 1272 524 1272 C 549 1272 569 1268 585 1262 C 600 1256 612 1245 621 1231 L 801 870 L 786 864 L 508 1124 Z" unicode="^" />
<glyph horiz-adv-x="1223" d="M -217 -295 L -217 -223 L 1032 -223 L 1032 -295 L -217 -295 Z" unicode="_" />
<glyph horiz-adv-x="1024" d="M 842 1083 C 790 1129 740 1173 691 1217 C 641 1261 604 1293 580 1315 C 556 1332 538 1350 527 1368 C 515 1386 510 1406 510 1427 C 510 1448 517 1466 532 1482 C 547 1497 566 1505 590 1505 C 615 1505 636 1496 652 1479 C 668 1461 684 1437 698 1407 C 714 1372 737 1324 767 1264 C 797 1204 824 1146 850 1090 L 842 1083 Z" unicode="`" />
<glyph horiz-adv-x="1120" d="M 317 -27 C 247 -27 185 -4 129 42 C 73 88 45 171 45 293 C 45 441 100 588 210 734 C 320 879 452 952 606 952 C 668 952 716 934 750 900 C 784 866 804 831 811 795 L 815 795 L 866 940 L 1040 940 L 807 264 C 792 224 781 190 775 162 C 768 134 764 110 764 92 C 763 63 768 42 780 29 C 791 16 805 10 823 10 C 870 10 916 35 962 85 C 1008 135 1047 204 1081 291 L 1098 287 C 1061 195 1019 120 971 62 C 923 4 861 -25 784 -25 C 731 -25 689 -7 657 29 C 625 65 618 123 637 205 L 631 207 C 595 139 550 83 497 39 C 443 -4 383 -27 317 -27 Z M 362 27 C 415 23 463 40 507 76 C 551 112 590 163 625 227 L 801 760 C 793 808 774 846 742 875 C 710 903 667 918 614 918 C 515 918 427 839 349 683 C 271 527 233 375 233 227 C 233 157 244 106 268 75 C 291 43 322 27 362 27 Z" unicode="a" />
<glyph horiz-adv-x="1034" d="M 422 -27 C 317 -27 235 1 177 59 C 119 117 90 182 90 254 C 90 283 92 311 98 338 C 103 364 110 390 119 416 L 395 1276 C 406 1309 414 1337 419 1359 C 423 1381 426 1399 426 1413 C 426 1435 418 1451 402 1461 C 386 1470 366 1476 344 1479 C 318 1481 296 1483 277 1484 C 257 1485 235 1486 211 1487 L 211 1499 L 655 1520 L 399 741 L 403 739 C 439 793 483 842 535 886 C 587 930 644 952 707 952 C 792 952 861 925 913 872 C 965 818 991 737 991 629 C 991 475 937 327 829 185 C 721 43 586 -27 422 -27 Z M 422 -10 C 522 -10 611 71 688 234 C 764 396 803 552 803 702 C 803 768 790 817 764 848 C 738 879 705 895 666 895 C 608 895 554 872 504 827 C 453 781 412 732 381 678 L 233 213 C 233 143 250 88 285 49 C 320 9 366 -10 422 -10 Z" unicode="b" />
<glyph horiz-adv-x="825" d="M 354 -29 C 262 -29 187 -1 129 54 C 71 110 43 193 43 303 C 43 449 99 593 213 737 C 326 880 456 952 602 952 C 667 952 720 933 762 897 C 804 861 825 814 825 756 C 825 716 815 686 795 666 C 775 646 751 637 725 637 C 697 637 673 645 652 661 C 631 677 621 700 621 729 C 621 753 631 777 652 799 C 673 821 701 837 735 848 C 732 870 718 891 694 910 C 669 928 640 938 606 938 C 516 938 433 860 355 704 C 277 548 238 393 238 238 C 238 166 252 112 282 74 C 311 36 351 18 401 18 C 475 18 544 45 606 101 C 668 157 720 223 762 301 L 776 295 C 710 174 641 90 567 42 C 493 -5 422 -29 354 -29 Z" unicode="c" />
<glyph horiz-adv-x="1137" d="M 317 -27 C 237 -27 171 -1 121 49 C 70 99 45 181 45 293 C 45 443 99 590 207 735 C 315 879 448 952 606 952 C 668 952 715 934 748 899 C 780 864 802 824 813 780 L 817 780 L 967 1276 C 977 1308 984 1336 989 1359 C 994 1381 997 1399 997 1413 C 997 1435 989 1451 973 1461 C 957 1470 937 1476 913 1479 C 887 1481 862 1483 837 1484 C 811 1485 786 1486 762 1487 L 762 1499 L 1223 1520 L 827 264 C 815 224 805 190 798 163 C 791 135 788 112 788 94 C 788 64 793 44 805 32 C 816 20 831 14 850 14 C 896 14 941 38 983 87 C 1025 136 1064 204 1098 291 L 1114 287 C 1077 195 1037 120 994 62 C 950 4 890 -25 813 -25 C 751 -25 707 -4 680 37 C 652 78 647 139 664 221 L 657 223 C 614 153 563 93 503 45 C 443 -2 381 -27 317 -27 Z M 362 29 C 417 29 470 49 522 91 C 573 133 617 186 653 250 L 805 750 C 796 798 775 837 743 868 C 710 899 667 915 614 915 C 512 915 423 835 347 677 C 271 519 233 369 233 227 C 233 157 244 106 268 75 C 291 44 322 29 362 29 Z" unicode="d" />
<glyph horiz-adv-x="823" d="M 354 -29 C 266 -29 192 -1 132 52 C 72 106 43 191 43 307 C 43 445 100 587 214 733 C 328 879 465 952 625 952 C 677 952 724 939 764 914 C 804 889 825 853 825 807 C 825 700 768 616 656 556 C 544 495 412 459 262 449 C 254 416 247 380 243 341 C 238 301 236 265 236 233 C 236 169 249 118 277 81 C 305 43 344 25 395 25 C 470 25 539 53 602 109 C 665 165 718 231 760 309 L 774 301 C 710 181 643 96 571 46 C 499 -3 427 -29 354 -29 Z M 264 461 C 412 482 517 528 580 600 C 642 672 674 739 674 803 C 674 841 666 873 652 898 C 638 923 615 936 584 936 C 522 936 460 886 399 787 C 337 688 292 579 264 461 Z" unicode="e" />
<glyph horiz-adv-x="637" d="M -252 -483 C -322 -483 -371 -466 -401 -433 C -431 -399 -446 -364 -446 -326 C -446 -301 -436 -277 -418 -254 C -400 -230 -374 -219 -342 -219 C -318 -219 -294 -226 -270 -241 C -245 -256 -233 -281 -233 -315 C -233 -338 -241 -359 -257 -379 C -273 -399 -286 -416 -297 -432 C -296 -443 -290 -452 -280 -459 C -269 -465 -260 -469 -254 -469 C -178 -469 -117 -435 -71 -367 C -25 -299 22 -185 72 -25 C 122 139 168 305 210 474 C 252 642 287 780 315 887 L 109 887 L 117 915 L 324 915 L 346 993 C 366 1067 393 1137 427 1203 C 461 1268 503 1326 553 1376 C 597 1420 648 1456 705 1482 C 761 1508 825 1522 895 1522 C 965 1522 1017 1505 1051 1471 C 1085 1437 1102 1400 1102 1362 C 1102 1333 1092 1307 1073 1285 C 1054 1262 1029 1251 997 1251 C 973 1251 949 1258 923 1272 C 897 1286 885 1309 885 1341 C 885 1365 892 1389 907 1411 C 922 1433 931 1454 934 1473 C 933 1483 926 1490 914 1496 C 901 1502 889 1505 879 1505 C 809 1505 746 1468 689 1395 C 631 1322 581 1209 539 1055 L 500 915 L 750 915 L 739 887 L 494 887 C 461 761 424 619 382 461 C 340 303 302 168 268 57 C 242 -24 210 -101 172 -173 C 133 -245 87 -307 33 -358 C -7 -396 -52 -427 -102 -449 C -151 -471 -201 -483 -252 -483 Z" unicode="f" />
<glyph horiz-adv-x="973" d="M 281 -479 C 158 -479 64 -458 -1 -417 C -67 -376 -100 -322 -100 -256 C -100 -188 -67 -130 -2 -82 C 62 -34 152 -4 266 10 L 266 18 C 206 28 158 45 121 69 C 84 93 66 127 66 172 C 66 220 87 260 130 293 C 172 325 225 351 289 369 L 289 375 C 237 395 195 425 165 465 C 134 504 119 547 119 594 C 119 693 158 777 237 847 C 316 917 413 952 528 952 C 588 952 636 943 673 925 C 709 907 737 891 756 879 C 784 897 816 917 852 939 C 888 961 922 971 956 971 C 982 971 1005 961 1024 941 C 1043 921 1053 898 1053 872 C 1053 843 1043 819 1025 801 C 1007 783 985 774 961 774 C 931 774 909 786 896 812 C 883 838 875 871 872 911 C 851 911 831 906 811 896 C 791 886 774 876 760 866 L 760 856 C 774 837 786 813 798 784 C 809 754 815 726 815 698 C 815 593 777 509 703 446 C 628 383 540 352 438 352 L 287 352 C 259 345 235 332 216 313 C 196 293 186 272 186 250 C 185 215 202 190 236 176 C 270 161 337 150 436 143 C 466 141 504 137 549 133 C 593 129 626 125 647 123 C 715 111 766 87 801 50 C 835 12 852 -40 852 -109 C 850 -200 799 -284 700 -362 C 600 -440 461 -479 281 -479 Z M 332 -463 C 454 -463 547 -431 609 -368 C 671 -305 702 -234 702 -154 C 702 -129 695 -105 682 -81 C 669 -57 648 -43 618 -37 C 564 -25 503 -17 436 -11 C 369 -5 314 -2 270 0 C 215 -14 167 -43 125 -86 C 83 -128 63 -182 63 -248 C 63 -304 84 -353 126 -397 C 168 -441 236 -463 332 -463 Z M 434 365 C 494 365 544 408 585 494 C 626 580 647 667 647 756 C 647 808 636 852 616 886 C 595 920 562 938 516 938 C 453 938 400 896 356 812 C 312 728 291 649 291 573 C 291 505 303 453 328 418 C 352 382 388 365 434 365 Z" unicode="g" />
<glyph horiz-adv-x="1112" d="M 788 -23 C 737 -23 692 -11 652 13 C 612 37 592 79 592 141 C 592 165 596 191 604 217 C 612 243 622 273 635 307 L 760 635 C 772 671 783 704 793 734 C 802 764 807 788 807 807 C 807 845 795 869 771 880 C 747 891 722 897 698 897 C 628 897 567 869 514 813 C 461 757 419 700 389 643 L 188 0 L 8 0 L 412 1276 C 422 1309 430 1337 434 1359 C 438 1381 440 1399 440 1413 C 440 1435 432 1451 417 1461 C 401 1470 382 1476 360 1479 C 333 1481 310 1483 292 1484 C 273 1485 251 1486 227 1487 L 227 1499 L 672 1520 L 408 719 L 414 717 C 456 780 505 835 561 882 C 617 928 677 952 741 952 C 814 952 870 930 909 886 C 947 842 967 791 967 733 C 967 714 963 689 955 659 C 947 629 938 599 928 571 L 813 270 C 797 229 785 192 776 158 C 766 124 762 98 762 82 C 762 56 769 39 784 31 C 798 22 815 18 834 18 C 880 18 924 41 965 89 C 1005 137 1043 204 1077 291 L 1094 287 C 1057 195 1016 121 971 63 C 926 5 865 -23 788 -23 Z" unicode="h" />
<glyph horiz-adv-x="668" d="M 324 -23 C 274 -23 230 -11 192 12 C 154 36 135 79 135 141 C 135 165 138 190 146 216 C 153 241 163 271 176 307 L 315 664 C 331 708 343 744 351 773 C 358 802 362 826 362 846 C 362 869 357 886 347 896 C 337 906 322 911 303 911 C 256 911 212 887 171 839 C 130 791 93 723 59 637 L 45 641 C 81 731 122 806 166 864 C 210 922 270 952 346 952 C 394 952 436 937 471 907 C 506 877 524 832 524 772 C 524 749 517 717 505 677 C 492 637 479 601 467 571 L 350 270 C 330 221 317 182 310 152 C 302 122 299 98 299 80 C 299 58 305 43 318 33 C 331 23 347 18 367 18 C 413 18 457 41 499 89 C 541 137 578 204 612 291 L 627 287 C 592 195 552 121 506 63 C 460 5 400 -23 324 -23 Z M 539 1188 C 504 1188 478 1199 460 1222 C 442 1245 434 1272 434 1303 C 434 1342 446 1376 472 1405 C 497 1433 532 1448 578 1448 C 605 1448 627 1436 644 1412 C 661 1388 670 1361 670 1333 C 670 1294 658 1260 636 1231 C 613 1202 581 1188 539 1188 Z" unicode="i" />
<glyph horiz-adv-x="586" d="M -188 -483 C -245 -483 -289 -467 -321 -437 C -353 -406 -369 -372 -369 -334 C -369 -305 -360 -280 -342 -258 C -324 -236 -300 -225 -268 -225 C -238 -225 -214 -233 -195 -251 C -175 -269 -166 -291 -166 -319 C -166 -343 -172 -363 -185 -381 C -198 -398 -211 -414 -223 -430 C -222 -441 -217 -450 -208 -457 C -198 -463 -189 -467 -180 -467 C -108 -467 -50 -432 -4 -363 C 42 -294 89 -181 137 -25 C 183 127 220 256 248 362 C 276 468 307 588 342 721 C 348 745 352 767 354 787 C 356 807 358 824 358 840 C 358 862 353 880 345 892 C 336 904 322 911 303 911 C 257 911 213 887 172 839 C 130 791 93 723 59 637 L 45 641 C 81 731 121 806 166 864 C 210 922 270 952 346 952 C 396 952 437 937 471 909 C 505 880 522 836 522 776 C 522 767 519 747 514 715 C 508 683 502 654 496 629 C 469 526 444 431 420 344 C 396 257 368 157 334 45 C 314 -16 292 -70 268 -118 C 243 -166 214 -211 182 -254 C 132 -323 75 -378 12 -420 C -51 -462 -118 -483 -188 -483 Z M 522 1188 C 488 1188 462 1199 444 1222 C 426 1245 418 1272 418 1303 C 418 1342 430 1376 455 1405 C 480 1433 515 1448 559 1448 C 587 1448 610 1436 627 1412 C 644 1388 653 1361 653 1333 C 653 1294 641 1260 619 1231 C 596 1202 564 1188 522 1188 Z" unicode="j" />
<glyph horiz-adv-x="1055" d="M 723 -23 C 661 -23 615 -10 583 14 C 551 38 535 81 535 141 C 535 185 542 235 557 289 C 572 343 580 385 580 416 C 580 458 569 489 547 511 C 525 532 490 543 440 543 C 430 543 416 542 400 541 C 383 540 369 539 358 539 L 184 0 L 6 0 L 410 1276 C 420 1310 428 1338 432 1360 C 436 1382 438 1399 438 1413 C 438 1435 430 1451 415 1461 C 399 1470 380 1476 358 1479 C 331 1481 308 1483 290 1484 C 271 1485 249 1486 225 1487 L 225 1499 L 670 1520 L 360 557 C 373 556 390 555 410 555 C 430 555 448 555 465 555 C 509 555 548 567 580 592 C 612 617 648 670 689 751 C 732 837 771 892 807 916 C 843 940 884 952 930 952 C 986 952 1026 939 1052 914 C 1077 889 1090 857 1090 819 C 1090 785 1079 755 1058 727 C 1036 699 1008 686 973 686 C 948 686 927 693 909 707 C 891 721 883 738 883 758 C 883 782 887 801 896 814 C 905 827 915 838 927 846 C 938 854 949 861 960 868 C 970 874 977 884 979 897 C 974 910 966 920 956 927 C 946 934 931 938 913 938 C 885 938 861 924 841 898 C 821 872 795 827 763 764 C 739 718 709 674 673 632 C 636 590 586 563 524 549 C 593 537 646 518 684 491 C 722 464 741 420 741 358 C 741 305 734 257 720 214 C 706 170 700 132 700 98 C 700 69 706 48 718 35 C 730 22 746 16 768 16 C 816 16 862 41 904 91 C 946 141 984 208 1016 291 L 1032 287 C 995 195 953 121 907 63 C 861 5 799 -23 723 -23 Z" unicode="k" />
<glyph horiz-adv-x="586" d="M 254 -23 C 202 -23 158 -11 123 11 C 87 34 70 77 70 139 C 70 163 73 190 81 218 C 89 246 97 276 106 307 L 412 1276 C 422 1310 430 1338 435 1360 C 439 1382 442 1399 442 1413 C 442 1435 434 1451 418 1461 C 402 1470 382 1476 360 1479 C 334 1481 312 1483 293 1484 C 273 1485 251 1486 227 1487 L 227 1499 L 672 1520 L 270 258 C 256 214 245 178 238 151 C 230 124 227 99 227 76 C 227 54 233 38 245 28 C 257 17 274 12 295 12 C 343 12 387 36 429 86 C 470 136 508 204 543 291 L 559 287 C 521 193 479 118 435 62 C 391 5 330 -23 254 -23 Z" unicode="l" />
<glyph horiz-adv-x="1755" d="M 1427 -23 C 1375 -23 1329 -11 1291 13 C 1252 37 1233 79 1233 141 C 1233 165 1236 191 1244 217 C 1252 243 1262 273 1276 307 L 1397 629 C 1409 664 1421 697 1431 729 C 1441 760 1446 786 1446 807 C 1446 845 1434 869 1410 880 C 1386 891 1361 897 1337 897 C 1279 897 1226 875 1179 833 C 1131 791 1091 743 1059 690 L 834 0 L 649 0 L 870 664 C 877 682 885 705 893 734 C 901 763 905 787 905 807 C 905 843 893 867 870 879 C 846 891 822 897 797 897 C 728 897 668 870 616 816 C 564 762 524 708 496 653 L 276 0 L 92 0 L 315 655 C 331 703 344 743 352 777 C 360 810 365 836 365 856 C 365 877 359 892 348 900 C 337 908 323 913 307 913 C 259 913 214 888 174 840 C 134 791 97 723 63 637 L 47 641 C 85 731 126 806 170 864 C 214 922 274 952 348 952 C 400 952 443 932 477 893 C 511 853 519 792 502 709 L 506 707 C 546 774 596 832 656 880 C 716 928 776 952 838 952 C 910 952 965 930 1003 888 C 1041 846 1054 787 1044 711 L 1051 709 C 1087 773 1135 829 1196 878 C 1256 927 1318 952 1380 952 C 1450 952 1506 931 1546 890 C 1586 848 1606 796 1606 733 C 1606 714 1602 689 1594 658 C 1586 626 1577 597 1567 571 L 1452 270 C 1436 229 1424 192 1414 158 C 1404 124 1399 98 1399 82 C 1399 56 1406 39 1422 31 C 1437 22 1454 18 1473 18 C 1519 18 1562 41 1603 89 C 1644 137 1682 204 1716 291 L 1733 287 C 1696 195 1655 121 1610 63 C 1564 5 1503 -23 1427 -23 Z" unicode="m" />
<glyph horiz-adv-x="1217" d="M 893 -23 C 842 -23 796 -11 756 13 C 716 37 696 79 696 141 C 696 165 700 191 708 217 C 716 243 727 273 739 307 L 864 635 C 877 671 888 704 897 734 C 906 764 911 788 911 807 C 911 845 899 869 875 880 C 851 891 827 897 803 897 C 735 897 676 870 625 818 C 573 765 532 710 502 653 L 287 0 L 98 0 L 319 655 C 335 703 348 743 356 777 C 364 810 369 836 369 856 C 369 877 363 892 352 900 C 341 908 328 913 313 913 C 265 913 220 888 180 840 C 140 791 103 723 70 637 L 53 641 C 89 731 130 806 174 864 C 218 922 278 952 354 952 C 406 952 449 932 484 893 C 518 853 526 792 508 709 L 512 707 C 554 778 606 837 666 883 C 726 929 786 952 846 952 C 919 952 975 930 1013 886 C 1051 842 1071 793 1071 739 C 1071 716 1067 689 1059 658 C 1051 626 1042 597 1032 571 L 918 270 C 902 229 890 192 880 158 C 870 124 866 98 866 82 C 866 56 873 39 888 31 C 902 22 919 18 938 18 C 984 18 1028 41 1069 89 C 1109 137 1147 204 1182 291 L 1198 287 C 1161 195 1120 121 1076 63 C 1031 5 970 -23 893 -23 Z" unicode="n" />
<glyph horiz-adv-x="983" d="M 367 -29 C 286 -29 213 1 148 62 C 83 123 51 215 51 338 C 51 476 107 613 220 749 C 332 884 463 952 612 952 C 701 952 777 920 840 857 C 902 793 934 702 934 584 C 934 445 878 308 766 173 C 654 38 521 -29 367 -29 Z M 383 -12 C 481 -12 567 63 639 215 C 711 366 748 519 748 674 C 748 768 734 836 706 876 C 678 916 644 936 604 936 C 507 936 421 860 347 710 C 273 560 236 408 236 254 C 236 158 250 90 279 49 C 307 8 342 -12 383 -12 Z" unicode="o" />
<glyph horiz-adv-x="1145" d="M -195 -479 L -193 -469 C -145 -467 -112 -462 -94 -456 C -75 -449 -59 -438 -47 -424 C -27 -402 -12 -374 0 -340 C 12 -306 22 -276 31 -252 L 317 655 C 331 701 343 740 351 774 C 359 808 363 835 362 856 C 361 874 356 888 347 898 C 338 908 325 913 309 913 C 260 913 215 888 175 840 C 134 791 97 723 63 637 L 47 641 C 83 731 124 806 170 864 C 215 922 274 952 348 952 C 409 952 452 930 478 887 C 504 844 508 782 492 702 L 498 700 C 540 768 590 827 647 877 C 704 927 765 952 831 952 C 913 952 979 925 1028 873 C 1077 820 1102 739 1102 629 C 1102 472 1047 323 938 183 C 829 43 697 -27 543 -27 C 481 -27 434 -7 401 30 C 367 68 346 107 338 145 L 334 145 L 211 -256 C 202 -287 195 -314 190 -338 C 184 -362 182 -380 182 -393 C 182 -415 190 -431 206 -441 C 222 -450 242 -456 266 -459 C 291 -461 311 -463 327 -464 C 342 -465 362 -466 387 -467 L 385 -479 L -195 -479 Z M 537 8 C 634 8 721 85 799 241 C 876 396 915 551 915 707 C 915 775 903 823 881 853 C 859 882 829 897 791 897 C 733 897 679 874 629 829 C 578 784 536 733 502 676 L 346 174 C 355 129 376 90 408 57 C 440 24 483 8 537 8 Z" unicode="p" />
<glyph horiz-adv-x="1053" d="M 246 -479 L 250 -469 C 296 -467 332 -462 360 -456 C 387 -449 407 -438 420 -424 C 439 -402 455 -375 467 -342 C 479 -308 489 -278 498 -252 C 498 -252 516 -195 553 -81 C 589 33 617 122 637 188 L 633 190 C 594 129 548 78 494 36 C 440 -6 382 -27 319 -27 C 233 -27 166 -1 118 50 C 69 102 45 183 45 295 C 45 443 99 590 208 735 C 316 879 450 952 608 952 C 665 952 713 933 753 897 C 793 860 816 821 823 780 L 829 780 L 946 940 L 1053 940 L 674 -256 C 663 -288 655 -316 651 -339 C 647 -362 645 -380 645 -393 C 645 -415 653 -431 669 -441 C 685 -450 705 -456 729 -459 C 754 -461 772 -463 784 -464 C 795 -465 813 -466 838 -467 L 836 -479 L 246 -479 Z M 362 29 C 417 29 469 49 519 90 C 568 130 611 184 647 250 L 815 750 C 807 796 784 835 748 867 C 712 899 667 915 614 915 C 512 915 423 835 347 675 C 271 515 233 366 233 227 C 233 157 244 106 268 75 C 291 44 322 29 362 29 Z" unicode="q" />
<glyph horiz-adv-x="858" d="M 106 0 L 315 655 C 328 699 338 737 346 769 C 354 801 358 827 358 848 C 358 870 353 887 344 897 C 334 907 321 913 305 913 C 260 913 217 887 175 836 C 133 785 95 718 63 635 L 47 641 C 85 731 126 806 170 864 C 214 922 274 952 348 952 C 403 952 447 931 479 889 C 511 847 519 785 502 702 L 506 700 C 528 745 564 798 612 860 C 660 921 712 952 768 952 C 806 952 836 940 860 917 C 883 893 895 865 895 831 C 895 800 885 770 867 742 C 849 714 822 700 786 700 C 752 700 726 709 710 728 C 693 746 686 768 688 793 C 690 817 699 836 715 849 C 731 862 741 873 743 883 C 743 889 742 895 740 899 C 737 903 733 905 727 905 C 692 905 651 875 605 816 C 558 756 521 699 494 643 L 291 0 L 106 0 Z" unicode="r" />
<glyph horiz-adv-x="784" d="M 317 -29 C 219 -29 143 -6 89 38 C 35 82 8 137 8 203 C 8 241 20 273 44 301 C 68 328 98 342 133 342 C 165 342 190 333 206 315 C 222 297 231 276 231 252 C 231 227 223 206 208 188 C 193 170 170 162 139 162 C 120 162 105 161 95 161 C 85 160 80 153 80 139 C 80 104 101 70 145 37 C 189 4 244 -12 311 -12 C 373 -12 425 5 467 41 C 509 77 530 122 530 176 C 530 211 520 244 501 276 C 482 307 431 352 348 412 C 284 456 240 498 214 536 C 188 574 176 618 176 670 C 176 744 206 809 268 866 C 330 923 408 952 504 952 C 585 952 646 931 688 890 C 729 848 750 800 750 745 C 750 707 740 677 721 653 C 701 629 675 618 643 618 C 620 618 599 624 581 638 C 562 652 553 673 553 702 C 553 722 558 739 569 753 C 580 766 593 777 607 786 C 621 795 635 802 649 808 C 663 814 670 819 672 825 C 666 857 649 883 621 904 C 592 925 554 936 506 936 C 458 936 415 919 377 887 C 338 854 319 808 319 748 C 319 703 335 664 369 630 C 403 596 442 562 487 528 C 565 469 615 421 637 384 C 659 346 670 306 670 264 C 670 188 639 120 577 60 C 515 0 428 -29 317 -29 Z" unicode="s" />
<glyph horiz-adv-x="657" d="M 276 -23 C 224 -23 179 -11 141 12 C 103 36 84 79 84 141 C 84 163 86 185 92 207 C 97 228 101 244 104 256 C 116 302 150 412 204 588 C 258 764 288 863 295 887 L 98 887 L 109 915 L 305 915 L 395 1233 L 573 1233 L 479 915 L 729 915 L 721 887 L 471 887 C 443 793 407 672 363 523 C 318 373 291 281 283 246 C 273 214 265 183 257 153 C 249 123 246 101 246 88 C 246 59 252 39 265 28 C 278 17 294 12 313 12 C 360 12 407 37 453 88 C 499 138 539 207 573 295 L 590 291 C 551 195 508 119 460 62 C 412 5 350 -23 276 -23 Z" unicode="t" />
<glyph horiz-adv-x="1204" d="M 377 -27 C 309 -27 254 -5 212 37 C 170 79 150 135 150 203 C 150 217 153 238 161 267 C 168 296 178 325 190 354 L 305 655 C 322 699 334 737 342 768 C 350 798 354 822 354 840 C 354 863 348 881 338 893 C 328 905 314 911 297 911 C 251 911 208 887 168 839 C 128 791 91 723 57 637 L 41 641 C 77 731 116 805 160 862 C 203 919 263 948 340 948 C 392 948 436 935 470 909 C 504 883 522 841 522 784 C 522 759 518 734 511 709 C 503 684 493 654 481 618 L 352 291 C 339 255 329 223 322 197 C 314 170 311 145 311 123 C 311 95 319 72 336 53 C 353 34 381 25 420 25 C 481 25 536 46 585 90 C 634 133 676 184 711 242 L 928 924 L 1114 924 L 897 270 C 887 240 878 209 870 175 C 862 141 858 113 858 92 C 858 71 864 54 876 40 C 888 26 902 20 920 20 C 964 20 1008 43 1050 91 C 1092 139 1129 206 1163 293 L 1180 287 C 1142 195 1100 121 1055 63 C 1010 5 951 -23 877 -23 C 821 -23 777 -4 744 32 C 710 68 699 125 711 203 L 707 205 C 666 134 615 78 555 36 C 494 -6 435 -27 377 -27 Z" unicode="u" />
<glyph horiz-adv-x="1028" d="M 442 -29 C 368 -29 303 -6 245 40 C 187 86 158 154 158 246 C 158 346 193 445 263 541 C 333 637 435 739 569 846 L 563 854 C 497 812 440 782 393 766 C 346 749 304 741 266 741 C 236 741 209 744 184 750 C 159 756 140 764 127 772 L 57 580 L 43 584 L 168 948 L 176 948 C 194 911 224 884 266 867 C 307 850 346 842 383 842 C 435 842 484 849 532 865 C 579 881 626 909 672 950 L 682 940 C 612 874 539 776 461 648 C 383 519 344 391 344 264 C 344 181 363 123 402 89 C 440 55 487 39 543 39 C 599 39 653 55 705 89 C 757 123 801 171 838 233 C 865 278 887 330 903 388 C 919 446 928 509 928 578 C 928 612 920 639 906 660 C 891 680 875 699 858 717 C 841 733 826 751 813 771 C 799 791 793 816 793 848 C 793 875 803 898 824 917 C 845 936 871 946 903 946 C 934 946 957 932 973 905 C 989 878 997 836 997 778 C 997 568 947 381 848 217 C 749 53 614 -29 442 -29 Z" unicode="v" />
<glyph horiz-adv-x="1436" d="M 874 -29 C 818 -29 771 -16 734 9 C 696 35 668 69 649 111 C 612 72 572 39 530 13 C 488 -13 443 -27 395 -27 C 329 -27 272 -2 224 45 C 176 93 152 162 152 252 C 152 352 190 452 266 551 C 342 650 438 748 553 844 L 547 854 C 487 813 435 785 389 769 C 343 753 302 745 264 745 C 234 745 207 748 182 755 C 156 762 137 769 125 776 L 57 588 L 43 592 L 164 948 L 172 948 C 190 911 223 884 269 867 C 315 850 352 842 381 842 C 429 842 475 849 519 865 C 563 881 609 909 655 950 L 664 942 C 591 868 518 762 446 626 C 374 489 338 357 338 231 C 338 163 351 113 379 82 C 407 50 436 35 467 35 C 495 35 524 42 553 58 C 582 73 611 96 641 127 C 628 155 619 186 613 220 C 607 253 604 285 604 317 C 604 433 648 568 736 721 C 824 873 903 950 975 950 C 995 950 1011 938 1021 916 C 1031 893 1036 861 1036 819 C 1036 747 1010 655 960 543 C 910 430 849 324 778 225 C 798 157 827 109 865 82 C 903 54 937 41 967 41 C 1023 41 1078 60 1130 100 C 1182 140 1226 192 1262 256 C 1287 302 1306 348 1318 394 C 1330 439 1337 497 1337 569 C 1337 607 1329 638 1315 660 C 1300 682 1284 701 1266 718 C 1248 735 1231 753 1215 773 C 1199 792 1192 818 1192 852 C 1192 876 1201 899 1220 919 C 1238 939 1263 950 1294 950 C 1331 950 1358 935 1376 907 C 1394 878 1403 834 1403 774 C 1403 556 1353 367 1254 209 C 1154 50 1028 -29 874 -29 Z M 772 246 C 830 329 881 421 926 521 C 970 621 993 704 993 768 C 993 798 987 820 977 834 C 966 847 952 854 936 854 C 915 854 895 847 877 833 C 858 819 844 804 834 788 C 810 754 791 701 778 631 C 764 560 758 479 758 389 C 758 365 758 341 760 316 C 762 290 766 267 772 246 Z" unicode="w" />
<glyph horiz-adv-x="1071" d="M 133 -25 C 73 -25 30 -11 3 16 C -23 44 -37 77 -37 115 C -37 178 -14 236 29 288 C 73 340 112 380 145 408 L 154 397 C 133 351 117 303 106 253 C 95 203 90 155 90 111 C 90 70 96 41 109 25 C 122 8 138 0 158 0 C 204 0 253 30 303 91 C 353 151 409 282 469 483 C 489 552 505 610 517 657 C 529 704 535 749 535 791 C 535 837 526 869 510 889 C 493 908 470 918 440 918 C 388 918 337 892 288 841 C 238 789 197 720 164 633 L 147 639 C 183 728 227 802 278 862 C 329 922 393 952 471 952 C 543 952 596 931 632 889 C 667 847 685 784 686 700 L 694 700 C 722 769 759 828 807 878 C 855 927 907 952 963 952 C 1009 952 1046 939 1074 915 C 1102 891 1116 853 1116 801 C 1116 748 1097 698 1061 652 C 1025 606 991 571 961 547 L 952 555 C 968 583 983 626 997 682 C 1011 738 1018 788 1018 834 C 1018 860 1012 883 1002 903 C 992 922 974 932 950 932 C 898 932 846 897 796 828 C 745 759 693 629 639 438 C 623 381 611 330 603 286 C 595 242 592 204 592 174 C 592 114 603 73 625 51 C 647 29 676 18 711 18 C 761 18 809 40 855 86 C 901 131 942 201 979 297 L 995 291 C 959 199 917 123 867 64 C 817 4 753 -25 676 -25 C 600 -25 539 -4 495 36 C 450 76 428 148 430 250 L 422 250 C 385 166 344 100 298 50 C 252 0 197 -25 133 -25 Z" unicode="x" />
<glyph horiz-adv-x="1104" d="M 180 -489 C 92 -489 27 -471 -14 -437 C -56 -403 -78 -361 -78 -311 C -78 -265 -63 -230 -35 -207 C -6 -183 23 -172 55 -172 C 85 -172 109 -181 126 -199 C 143 -217 152 -237 152 -260 C 152 -290 144 -313 128 -328 C 112 -342 95 -351 76 -354 C 60 -356 46 -359 33 -361 C 19 -363 12 -372 12 -387 C 12 -417 29 -440 62 -454 C 95 -468 131 -475 170 -475 C 308 -475 421 -410 508 -280 C 594 -150 666 16 723 221 L 717 223 C 677 153 626 94 565 46 C 503 -2 441 -27 377 -27 C 309 -27 254 -4 212 41 C 170 87 150 141 150 203 C 150 217 153 238 161 267 C 168 296 178 325 190 354 L 305 655 C 321 697 334 734 342 766 C 350 798 354 822 354 840 C 354 863 348 881 338 893 C 328 905 314 911 297 911 C 251 911 208 887 168 839 C 128 791 91 723 57 637 L 41 641 C 77 737 117 812 163 866 C 208 920 267 948 340 948 C 394 948 438 935 472 909 C 505 883 522 841 522 784 C 522 759 518 734 511 709 C 503 684 493 654 481 618 L 352 291 C 339 255 329 223 322 197 C 314 170 311 145 311 123 C 311 95 319 72 336 53 C 353 34 381 25 420 25 C 481 25 536 47 586 91 C 635 135 681 194 723 266 L 930 924 L 1112 924 L 891 219 C 814 -25 716 -204 596 -318 C 476 -432 338 -489 180 -489 Z" unicode="y" />
<glyph horiz-adv-x="864" d="M 18 -27 C 1 -27 -14 -21 -29 -10 C -43 1 -51 20 -51 47 C -51 70 -40 93 -20 117 C 0 141 27 166 61 193 C 128 247 224 322 349 419 C 473 516 599 609 727 698 L 725 705 C 693 702 660 704 625 711 C 589 718 554 726 520 736 C 486 744 453 752 421 760 C 389 768 361 772 336 772 C 298 772 268 764 247 749 C 225 734 215 712 215 684 C 215 654 227 628 252 604 C 277 580 306 563 338 555 L 332 545 C 285 559 238 582 192 614 C 146 645 123 688 123 743 C 123 796 142 844 181 886 C 220 928 266 950 319 950 C 365 950 406 938 442 916 C 478 893 512 868 543 840 C 575 810 607 783 638 758 C 668 733 699 721 729 721 C 749 721 764 725 773 734 C 782 743 788 754 791 768 C 793 780 793 794 792 809 C 791 823 791 838 791 852 C 791 883 798 907 813 925 C 828 943 847 952 870 952 C 888 952 903 946 914 935 C 924 924 930 908 930 887 C 930 860 922 835 907 813 C 891 790 861 761 815 725 C 764 684 671 613 536 511 C 401 409 278 315 166 229 L 168 223 C 199 222 229 218 257 210 C 285 202 313 194 341 185 C 370 175 400 166 432 158 C 463 150 497 145 535 145 C 587 143 627 151 655 169 C 683 187 699 210 702 238 C 705 270 697 297 677 318 C 657 338 634 352 606 358 L 612 369 C 676 355 720 330 745 293 C 769 256 782 218 782 180 C 782 125 762 77 722 36 C 682 -4 636 -25 586 -25 C 540 -25 496 -13 452 9 C 408 32 369 59 335 89 C 299 120 264 148 230 172 C 196 196 164 209 135 209 C 120 205 110 199 104 190 C 98 180 94 169 92 156 C 90 142 90 126 92 110 C 93 93 94 76 94 59 C 94 34 88 13 77 -2 C 65 -18 46 -27 18 -27 Z" unicode="z" />
<glyph horiz-adv-x="842" d="M 539 -346 C 405 -346 312 -329 262 -295 C 211 -261 186 -203 186 -121 C 186 -52 207 30 251 127 C 295 224 317 301 317 358 C 317 422 296 468 255 497 C 213 526 147 544 55 551 L 74 627 C 210 637 310 670 372 725 C 434 779 471 882 483 1032 C 495 1211 538 1338 612 1413 C 685 1487 818 1524 1012 1524 L 1010 1513 C 894 1507 812 1471 764 1406 C 716 1341 686 1245 674 1118 C 655 940 602 818 514 750 C 426 682 316 639 184 623 L 166 555 C 257 539 329 515 383 482 C 436 449 463 392 463 311 C 463 235 443 152 405 62 C 367 -28 348 -100 348 -154 C 348 -206 361 -249 389 -281 C 417 -313 467 -332 541 -336 L 539 -346 Z" unicode="{" />
<glyph horiz-adv-x="557" d="M 283 -424 L 283 1528 L 344 1528 L 344 -424 L 283 -424 Z" unicode="|" />
<glyph horiz-adv-x="842" d="M -127 -346 L -125 -336 C -10 -330 70 -295 118 -232 C 166 -168 197 -71 211 59 C 229 230 281 351 366 421 C 450 491 562 536 700 555 L 719 623 C 627 637 555 661 502 694 C 448 727 422 784 422 866 C 422 940 441 1022 479 1112 C 517 1202 537 1275 537 1331 C 537 1384 523 1427 495 1459 C 467 1491 417 1509 344 1513 L 346 1524 C 480 1524 572 1507 622 1473 C 672 1439 698 1380 698 1298 C 698 1221 676 1137 632 1045 C 588 953 567 877 567 819 C 567 755 587 708 629 680 C 671 651 737 633 829 627 L 811 551 C 670 536 569 502 509 449 C 449 396 413 295 403 145 C 389 -37 346 -165 273 -238 C 199 -310 66 -346 -127 -346 Z" unicode="}" />
<glyph horiz-adv-x="1073" d="M 100 393 L 92 399 C 122 463 168 521 230 574 C 291 626 356 653 424 653 C 486 653 549 637 611 607 C 673 576 724 561 764 561 C 816 561 860 572 898 594 C 936 616 971 650 1004 694 L 1012 688 C 981 624 937 564 881 510 C 825 455 763 428 696 428 C 630 428 566 443 504 474 C 441 504 391 520 354 520 C 302 520 254 509 212 489 C 170 469 132 437 100 393 Z" unicode="~" />
<glyph horiz-adv-x="227" d="" unicode=" " />
<glyph horiz-adv-x="643" d="M 455 964 L 469 962 C 441 794 418 618 398 436 C 378 254 362 141 350 99 C 341 65 325 36 302 12 C 278 -11 249 -23 213 -23 C 179 -23 154 -13 138 7 C 122 27 115 54 117 87 C 121 131 158 237 230 405 C 301 573 376 759 455 964 Z M 543 1423 C 577 1423 606 1412 631 1388 C 655 1364 668 1336 668 1302 C 668 1267 655 1237 631 1213 C 606 1189 577 1177 543 1177 C 508 1177 478 1189 454 1213 C 430 1237 418 1267 418 1302 C 418 1336 430 1364 454 1388 C 478 1412 508 1423 543 1423 Z" unicode="¡" />
<glyph horiz-adv-x="922" d="M 203 -233 L 184 -227 L 326 139 C 272 154 222 186 178 236 C 134 286 112 359 113 455 C 113 588 167 730 276 880 C 384 1030 516 1106 672 1106 L 698 1106 L 803 1372 L 821 1366 L 719 1102 C 775 1092 819 1070 852 1035 C 884 999 901 957 901 907 C 901 866 891 837 872 819 C 853 801 829 792 801 793 C 776 793 753 801 733 817 C 712 833 702 854 702 881 C 703 903 713 926 733 948 C 753 970 778 987 809 999 C 806 1018 796 1036 778 1054 C 760 1072 739 1082 715 1085 L 381 219 C 391 212 404 206 419 201 C 433 195 450 193 469 193 C 542 193 610 217 674 267 C 737 316 789 377 831 451 L 846 444 C 782 332 713 251 637 201 C 561 151 488 127 418 127 C 405 127 393 127 381 128 C 369 129 357 131 344 133 L 203 -233 Z M 365 233 L 692 1092 C 595 1092 505 1015 421 861 C 337 706 295 559 295 420 C 295 377 301 339 314 307 C 327 275 344 250 365 233 Z" unicode="¢" />
<glyph horiz-adv-x="1495" d="M 100 -190 C 30 -190 -20 -175 -50 -147 C -80 -118 -94 -83 -94 -43 C -93 21 -54 73 23 115 C 100 157 190 178 293 178 C 331 178 369 175 406 171 C 443 166 477 160 508 154 C 518 179 523 210 524 248 C 524 285 525 326 526 371 L 215 371 L 215 393 L 526 393 C 526 421 528 453 530 491 C 532 528 535 558 539 582 L 250 582 L 250 606 L 541 606 C 570 822 646 1006 770 1158 C 894 1310 1040 1386 1210 1386 C 1320 1386 1404 1357 1463 1301 C 1522 1244 1552 1171 1552 1083 C 1552 981 1520 897 1456 831 C 1392 764 1308 731 1204 731 C 1140 731 1089 750 1050 789 C 1011 828 992 878 993 938 C 993 969 998 1001 1008 1035 C 1017 1069 1032 1102 1053 1135 L 1063 1130 C 1046 1101 1034 1072 1027 1042 C 1020 1012 1016 985 1016 961 C 1015 903 1032 857 1067 823 C 1102 789 1146 772 1198 772 C 1266 772 1320 802 1362 863 C 1403 923 1424 996 1425 1081 C 1425 1167 1407 1237 1370 1290 C 1332 1343 1280 1370 1212 1370 C 1100 1370 1007 1323 934 1230 C 860 1136 808 984 778 774 C 774 746 769 718 765 689 C 761 660 756 632 750 606 L 1128 606 L 1126 582 L 745 582 C 739 551 731 519 721 485 C 711 451 701 421 690 393 L 1090 393 L 1090 371 L 682 371 C 665 330 645 290 623 252 C 601 214 573 177 541 143 C 625 119 713 83 806 36 C 898 -11 984 -35 1063 -35 C 1143 -35 1205 -11 1249 37 C 1293 85 1330 162 1360 268 L 1374 264 C 1342 128 1288 21 1212 -56 C 1136 -133 1031 -172 899 -172 C 825 -172 750 -153 672 -115 C 594 -77 518 -40 444 -4 C 398 -59 346 -104 288 -138 C 230 -172 167 -190 100 -190 Z M 100 -172 C 158 -172 216 -155 276 -122 C 335 -89 385 -46 426 8 C 383 29 336 47 285 62 C 234 76 182 84 129 84 C 71 84 24 71 -14 46 C -52 21 -71 -11 -72 -51 C -72 -85 -56 -113 -25 -137 C 5 -160 47 -172 100 -172 Z" unicode="£" />
<glyph horiz-adv-x="1151" d="M 123 0 L 125 10 C 143 10 170 13 204 17 C 238 21 263 25 279 31 C 304 39 324 52 338 70 C 352 88 362 107 369 129 L 420 317 L 104 317 L 106 344 L 426 344 L 475 518 L 158 518 L 160 543 L 477 543 C 463 611 441 699 413 808 C 385 916 360 1005 340 1073 C 331 1105 320 1131 306 1153 C 292 1175 276 1192 258 1204 C 244 1213 230 1220 216 1225 C 202 1229 186 1232 170 1233 L 172 1243 L 739 1243 L 737 1233 C 699 1230 657 1224 610 1215 C 563 1206 539 1192 539 1174 C 538 1161 550 1097 575 982 C 600 867 634 734 676 584 C 784 709 885 832 981 954 C 1077 1075 1125 1144 1126 1161 C 1126 1184 1104 1201 1058 1212 C 1012 1223 970 1230 932 1233 L 934 1243 L 1382 1243 L 1380 1233 C 1363 1230 1343 1224 1319 1215 C 1295 1206 1272 1194 1249 1180 C 1195 1144 1106 1055 984 915 C 861 775 759 651 678 543 L 1001 543 L 999 518 L 670 518 L 616 344 L 946 344 L 944 317 L 608 317 L 559 135 C 554 113 553 94 557 76 C 560 58 572 45 594 37 C 604 31 626 25 658 19 C 690 13 715 10 735 10 L 733 0 L 123 0 Z" unicode="¥" />
<glyph horiz-adv-x="557" d="M 283 -424 L 283 379 L 344 379 L 344 -424 L 283 -424 Z M 283 743 L 283 1528 L 344 1528 L 344 743 L 283 743 Z" unicode="¦" />
<glyph horiz-adv-x="1012" d="M 256 -463 C 186 -463 137 -446 107 -413 C 77 -379 63 -341 63 -299 C 63 -256 77 -221 105 -194 C 133 -167 165 -154 201 -154 C 226 -154 247 -162 263 -178 C 279 -194 287 -213 287 -236 C 285 -278 266 -305 232 -316 C 198 -327 178 -347 174 -375 C 170 -395 176 -412 194 -425 C 211 -437 233 -444 260 -444 C 334 -444 395 -417 441 -365 C 487 -312 510 -251 510 -182 C 510 -130 497 -76 471 -22 C 445 31 401 109 340 209 C 280 308 235 390 204 456 C 172 522 156 589 156 657 C 156 736 184 801 240 853 C 296 904 373 936 471 948 C 457 980 447 1011 439 1043 C 431 1075 428 1107 428 1139 C 428 1245 464 1333 536 1404 C 608 1475 698 1511 807 1511 C 876 1511 925 1494 953 1460 C 981 1426 995 1388 995 1346 C 995 1304 981 1269 953 1242 C 925 1215 894 1202 860 1202 C 833 1202 811 1209 795 1225 C 779 1241 772 1260 774 1284 C 774 1326 791 1352 824 1363 C 856 1374 875 1393 881 1421 C 883 1441 877 1458 863 1472 C 848 1486 827 1493 801 1493 C 724 1493 663 1466 617 1414 C 571 1362 549 1300 549 1229 C 549 1175 563 1121 591 1065 C 619 1009 663 931 725 829 C 784 732 828 651 858 587 C 888 522 903 457 903 391 C 903 311 874 246 818 195 C 761 144 684 113 588 102 C 602 69 612 37 620 5 C 627 -26 631 -58 631 -92 C 631 -196 596 -283 526 -355 C 456 -427 366 -463 256 -463 Z M 582 115 C 648 125 697 148 729 184 C 761 220 778 266 778 322 C 778 370 763 423 733 479 C 703 535 656 619 590 731 C 566 769 545 805 526 840 C 506 874 489 906 475 936 C 409 923 361 899 329 865 C 297 830 281 785 281 729 C 281 679 296 625 326 569 C 356 512 405 427 471 315 C 493 279 514 243 533 209 C 552 175 568 143 582 115 Z" unicode="§" />
<glyph horiz-adv-x="1024" d="M 483 1182 C 451 1182 427 1192 409 1213 C 391 1234 383 1258 383 1286 C 383 1318 394 1347 418 1373 C 441 1398 472 1411 510 1411 C 537 1411 560 1400 578 1378 C 596 1356 606 1333 606 1309 C 606 1276 595 1247 573 1221 C 551 1195 521 1182 483 1182 Z M 891 1182 C 859 1182 834 1192 817 1213 C 799 1234 791 1258 791 1286 C 791 1318 802 1347 825 1373 C 848 1398 879 1411 918 1411 C 945 1411 967 1400 985 1378 C 1003 1356 1012 1333 1012 1309 C 1012 1276 1001 1247 979 1221 C 957 1195 927 1182 891 1182 Z" unicode="¨" />
<glyph horiz-adv-x="1927" d="M 985 27 C 840 27 723 70 635 156 C 546 242 502 359 502 506 C 502 648 549 766 644 861 C 739 956 862 1004 1012 1004 C 1050 1004 1097 997 1153 983 C 1208 969 1247 955 1270 940 L 1317 1018 L 1327 1018 L 1335 647 L 1325 647 C 1286 759 1239 843 1183 900 C 1127 956 1061 985 983 985 C 913 985 850 945 793 866 C 735 786 707 670 707 516 C 707 390 737 288 799 210 C 861 131 938 92 1032 92 C 1111 92 1177 116 1231 166 C 1284 215 1326 270 1356 330 L 1370 322 C 1337 249 1290 182 1228 120 C 1166 58 1085 27 985 27 Z M 969 -371 C 731 -371 524 -284 348 -110 C 172 64 84 272 84 514 C 84 754 171 960 347 1134 C 523 1308 730 1395 969 1395 C 1204 1395 1409 1308 1585 1134 C 1761 960 1849 754 1849 514 C 1849 272 1761 64 1585 -110 C 1409 -284 1204 -371 969 -371 Z M 969 -315 C 1189 -315 1380 -234 1543 -72 C 1706 90 1788 285 1788 514 C 1788 740 1706 934 1543 1096 C 1380 1258 1189 1339 969 1339 C 746 1339 553 1258 390 1096 C 226 934 145 740 145 514 C 145 285 227 90 391 -72 C 555 -234 747 -315 969 -315 Z" unicode="©" />
<glyph horiz-adv-x="750" d="M 334 725 C 294 725 257 737 223 763 C 189 788 172 835 172 905 C 172 977 202 1056 264 1142 C 326 1227 404 1270 500 1270 C 525 1270 546 1263 563 1249 C 579 1235 591 1212 598 1180 L 602 1180 L 627 1262 L 737 1262 L 612 893 C 606 875 600 856 595 834 C 590 812 588 799 588 793 C 588 779 590 770 596 765 C 601 759 607 756 614 756 C 642 756 669 769 694 797 C 718 824 739 861 756 907 L 768 903 C 749 854 727 812 702 778 C 676 744 642 727 600 727 C 570 727 546 737 526 757 C 506 777 497 807 498 846 L 494 846 C 480 823 460 797 432 768 C 404 739 372 725 334 725 Z M 365 762 C 389 762 412 772 433 792 C 454 812 473 835 489 862 L 586 1165 C 580 1193 572 1213 560 1225 C 548 1237 530 1243 508 1243 C 456 1243 407 1197 361 1107 C 315 1017 293 937 293 868 C 293 834 299 807 313 789 C 326 771 343 762 365 762 Z M 131 545 L 141 588 L 618 588 L 608 545 L 131 545 Z" unicode="ª" />
<glyph horiz-adv-x="1124" d="M 438 35 C 395 79 339 138 269 214 C 199 290 147 344 115 377 C 101 391 92 403 88 413 C 83 423 84 438 90 459 C 94 478 101 492 111 502 C 120 512 134 523 154 537 C 200 566 283 619 401 697 C 519 775 612 836 678 881 L 686 872 L 272 455 L 449 41 L 438 35 Z M 872 35 C 828 79 771 138 702 214 C 632 290 581 344 549 377 C 534 391 525 403 521 413 C 517 423 517 438 522 459 C 528 478 536 492 545 502 C 554 512 568 523 588 537 C 634 566 716 619 834 697 C 952 775 1044 836 1112 881 L 1120 872 L 705 455 L 881 41 L 872 35 Z" unicode="«" />
<glyph horiz-adv-x="1145" d="M 936 80 L 936 522 L 86 522 L 86 592 L 1014 592 L 1014 80 L 936 80 Z" unicode="¬" />
<glyph horiz-adv-x="764" d="M 72 451 L 113 592 L 739 592 L 698 451 L 72 451 Z" unicode="­" />
<glyph horiz-adv-x="961" d="M 786 854 C 762 854 743 863 727 881 C 711 899 700 926 696 961 C 693 985 686 1010 676 1036 C 666 1062 642 1075 606 1075 L 573 1075 L 573 905 C 573 898 574 892 577 887 C 580 881 585 877 592 874 C 596 872 601 870 609 869 C 617 868 624 868 631 868 L 631 860 L 438 860 L 438 868 C 443 868 451 868 461 870 C 471 872 477 873 479 874 C 485 877 490 881 493 887 C 496 892 498 898 498 905 L 498 1243 C 498 1249 496 1256 494 1262 C 491 1268 486 1272 479 1274 C 473 1276 466 1277 458 1279 C 450 1281 443 1282 438 1282 L 438 1290 L 655 1290 C 685 1290 716 1283 747 1269 C 777 1255 793 1230 793 1194 C 793 1160 778 1135 750 1120 C 722 1104 693 1093 664 1087 L 664 1081 C 684 1078 705 1071 727 1060 C 748 1048 762 1031 768 1008 L 791 913 C 793 902 798 895 804 891 C 810 887 816 885 821 885 C 830 885 837 889 843 898 C 849 906 852 921 852 942 L 862 942 C 862 912 856 890 845 876 C 834 861 814 854 786 854 Z M 629 680 C 526 680 438 716 364 789 C 290 862 254 952 254 1059 C 254 1165 290 1255 364 1329 C 438 1403 526 1440 629 1440 C 731 1440 820 1403 894 1329 C 968 1255 1006 1165 1006 1059 C 1006 952 968 862 894 789 C 820 716 731 680 629 680 Z M 629 707 C 724 707 805 740 872 808 C 939 876 973 959 973 1059 C 973 1159 939 1243 872 1311 C 805 1379 724 1413 629 1413 C 533 1413 452 1379 385 1311 C 318 1243 285 1159 285 1059 C 285 959 318 876 385 808 C 452 740 533 707 629 707 Z M 573 1085 L 606 1085 C 634 1085 659 1092 679 1107 C 699 1122 709 1147 709 1182 C 709 1215 700 1240 682 1256 C 664 1272 642 1280 618 1280 L 573 1280 L 573 1085 Z" unicode="®" />
<glyph horiz-adv-x="1024" d="M 360 1219 L 393 1343 L 1069 1343 L 1036 1219 L 360 1219 Z" unicode="¯" />
<glyph horiz-adv-x="825" d="M 526 848 C 444 848 374 874 315 925 C 255 975 226 1049 227 1147 C 227 1236 259 1310 322 1368 C 385 1426 454 1454 530 1454 C 610 1453 682 1427 744 1377 C 806 1327 836 1249 836 1145 C 836 1061 804 991 741 933 C 678 875 606 847 526 848 Z M 532 864 C 581 863 622 891 656 947 C 689 1003 706 1068 707 1143 C 707 1221 692 1289 664 1349 C 635 1408 591 1438 532 1438 C 472 1438 427 1408 398 1348 C 369 1287 354 1222 354 1153 C 354 1081 368 1014 396 954 C 424 894 470 864 532 864 Z" unicode="°" />
<glyph horiz-adv-x="868" d="M 117 688 L 133 754 C 229 808 308 853 371 889 C 434 925 497 968 561 1016 C 649 1083 710 1146 744 1204 C 778 1262 795 1321 795 1380 C 795 1416 784 1447 762 1472 C 740 1496 708 1509 666 1509 C 597 1509 530 1480 466 1424 C 401 1367 369 1311 369 1255 C 369 1231 375 1211 388 1194 C 401 1177 425 1169 459 1169 C 499 1169 533 1181 562 1205 C 591 1229 615 1251 635 1272 L 643 1264 C 611 1225 574 1188 530 1154 C 486 1119 435 1102 377 1102 C 338 1102 307 1113 283 1135 C 259 1157 248 1186 248 1221 C 248 1299 297 1369 395 1433 C 493 1496 588 1528 682 1528 C 766 1528 832 1507 879 1466 C 926 1424 950 1376 950 1321 C 950 1232 904 1154 813 1087 C 722 1019 589 954 414 891 L 283 817 L 692 817 C 728 817 763 833 799 867 C 834 901 868 936 901 973 L 911 967 L 719 688 L 117 688 Z" unicode="²" />
<glyph horiz-adv-x="848" d="M 369 676 C 296 676 234 690 182 720 C 130 749 106 790 109 844 C 109 888 125 923 156 948 C 186 972 215 985 242 985 C 269 985 289 979 303 967 C 316 955 322 940 322 922 C 320 872 303 845 271 841 C 239 837 219 822 213 797 C 207 775 215 752 239 728 C 262 704 301 692 356 692 C 436 692 510 723 577 787 C 644 851 680 926 684 1014 C 686 1046 682 1075 672 1099 C 662 1123 640 1135 606 1135 C 584 1135 559 1124 531 1104 C 502 1084 472 1062 440 1040 L 422 1075 C 536 1131 623 1175 682 1209 C 740 1243 772 1300 776 1382 C 778 1424 768 1456 747 1478 C 725 1500 697 1511 662 1511 C 604 1511 551 1492 501 1454 C 451 1416 426 1373 424 1323 C 422 1304 427 1287 439 1273 C 451 1258 471 1251 500 1251 C 522 1251 542 1256 560 1267 C 578 1278 593 1290 606 1303 L 614 1292 C 589 1268 562 1247 533 1227 C 503 1207 470 1198 432 1198 C 385 1198 352 1207 333 1227 C 313 1246 304 1269 305 1296 C 307 1364 350 1420 435 1463 C 520 1506 605 1528 690 1528 C 778 1528 841 1509 879 1473 C 916 1437 934 1398 934 1358 C 933 1298 904 1253 848 1223 C 792 1193 724 1174 645 1167 L 596 1145 C 604 1147 613 1148 623 1149 C 633 1150 643 1151 653 1151 C 704 1150 750 1135 791 1106 C 832 1076 852 1035 852 981 C 851 883 796 808 686 755 C 576 702 470 676 369 676 Z" unicode="³" />
<glyph horiz-adv-x="1024" d="M 512 1083 L 504 1092 C 552 1146 601 1204 653 1266 C 704 1328 742 1377 768 1413 C 789 1441 811 1464 834 1480 C 856 1496 881 1505 909 1505 C 931 1505 949 1498 963 1485 C 976 1472 983 1456 983 1438 C 983 1411 973 1388 954 1368 C 934 1348 910 1328 881 1309 C 848 1288 796 1256 724 1214 C 652 1172 582 1128 512 1083 Z" unicode="´" />
<glyph horiz-adv-x="1169" d="M -57 -463 C -73 -463 -88 -456 -102 -442 C -116 -428 -121 -406 -119 -377 C -116 -339 -103 -300 -79 -261 C -55 -222 -31 -175 -8 -119 C 4 -86 19 -49 35 -8 C 51 32 66 78 82 129 L 330 924 L 518 924 L 315 291 C 303 255 294 223 288 197 C 282 170 279 145 279 123 C 279 95 287 72 303 53 C 319 34 347 25 385 25 C 446 25 501 46 551 90 C 600 133 642 184 676 242 L 893 924 L 1079 924 L 862 270 C 853 240 844 209 836 175 C 827 141 823 113 823 92 C 823 71 829 54 841 40 C 853 26 867 20 885 20 C 929 20 973 43 1015 91 C 1057 139 1094 206 1128 293 L 1145 287 C 1108 195 1067 121 1021 63 C 975 5 916 -23 842 -23 C 786 -23 742 -4 709 32 C 675 68 664 125 676 203 L 672 205 C 631 134 581 78 521 36 C 461 -6 401 -27 342 -27 C 274 -27 224 -10 190 24 C 156 58 133 99 121 147 L 117 147 L 84 39 C 63 -33 53 -101 54 -165 C 55 -229 51 -285 43 -334 C 36 -376 24 -408 6 -430 C -11 -452 -32 -463 -57 -463 Z" unicode="µ" />
<glyph horiz-adv-x="1212" d="M 387 -256 L 631 705 L 600 705 C 469 705 370 733 304 791 C 238 849 205 920 205 1006 C 205 1105 248 1195 333 1277 C 417 1358 535 1399 686 1399 L 1372 1399 L 1366 1374 L 1083 1374 L 668 -256 L 637 -256 L 1051 1374 L 834 1374 L 420 -256 L 387 -256 Z" unicode="¶" />
<glyph horiz-adv-x="571" d="M 305 412 C 264 412 229 426 201 454 C 172 482 158 516 158 557 C 158 597 172 632 201 660 C 229 688 264 702 305 702 C 345 702 379 688 408 660 C 436 632 451 597 451 557 C 451 516 436 482 408 454 C 379 426 345 412 305 412 Z" unicode="·" />
<glyph horiz-adv-x="1024" d="M 109 -469 L 115 -453 C 189 -452 259 -439 327 -414 C 395 -388 429 -351 430 -303 C 430 -275 419 -256 395 -246 C 371 -236 335 -231 287 -231 L 365 12 L 385 12 L 346 -109 C 402 -107 454 -117 504 -138 C 554 -159 577 -196 575 -250 C 574 -331 525 -388 427 -422 C 329 -456 223 -471 109 -469 Z" unicode="¸" />
<glyph horiz-adv-x="686" d="M 106 694 L 109 705 C 123 705 145 707 176 709 C 207 711 229 714 242 717 C 256 721 269 729 282 741 C 294 753 303 767 307 782 L 483 1440 C 475 1438 466 1436 456 1435 C 446 1434 433 1434 418 1434 C 392 1434 366 1439 338 1450 C 310 1461 285 1477 264 1499 L 268 1507 C 286 1497 309 1489 337 1483 C 365 1477 391 1475 416 1475 C 477 1475 529 1481 571 1494 C 613 1507 648 1520 676 1534 L 688 1534 C 671 1506 657 1473 646 1434 C 634 1394 624 1359 616 1327 L 471 788 C 467 773 467 760 471 748 C 475 736 485 727 500 723 C 508 719 528 715 559 711 C 589 707 611 705 625 705 L 621 694 L 106 694 Z" unicode="¹" />
<glyph horiz-adv-x="676" d="M 352 725 C 312 725 273 741 235 774 C 197 806 178 858 178 930 C 178 996 207 1069 266 1149 C 324 1229 404 1270 504 1270 C 546 1270 585 1253 623 1220 C 661 1186 680 1134 680 1063 C 680 995 650 922 591 843 C 532 764 452 725 352 725 Z M 362 737 C 423 737 471 782 507 874 C 543 965 561 1046 561 1116 C 561 1160 555 1195 544 1220 C 533 1244 517 1257 496 1257 C 440 1257 392 1212 353 1122 C 314 1032 295 952 295 881 C 294 837 299 802 311 776 C 322 750 339 737 362 737 Z M 121 545 L 131 588 L 604 588 L 592 545 L 121 545 Z" unicode="º" />
<glyph horiz-adv-x="1124" d="M 6 37 L -2 45 L 414 463 L 236 877 L 246 883 C 288 839 345 778 417 702 C 488 626 539 571 571 539 C 583 525 592 513 596 503 C 600 493 600 478 596 459 C 590 438 582 423 573 414 C 563 404 548 393 528 381 C 480 350 397 296 281 220 C 165 144 73 83 6 37 Z M 438 37 L 430 45 L 846 463 L 670 877 L 680 883 C 722 839 779 778 850 702 C 920 626 972 571 1004 539 C 1016 525 1025 513 1029 503 C 1033 493 1032 478 1028 459 C 1022 438 1014 423 1005 414 C 995 404 981 393 963 381 C 913 350 830 296 714 220 C 597 144 505 83 438 37 Z" unicode="»" />
<glyph horiz-adv-x="1100" d="M 436 -492 L 504 -289 C 467 -282 426 -269 381 -250 C 336 -230 290 -221 242 -221 C 225 -221 213 -221 206 -222 C 199 -223 192 -224 186 -225 C 165 -245 143 -262 121 -274 C 98 -286 78 -293 61 -293 C 45 -293 32 -289 22 -283 C 12 -277 8 -266 8 -252 C 8 -233 16 -219 34 -211 C 51 -203 70 -199 92 -199 C 102 -199 116 -199 134 -200 C 151 -201 168 -203 184 -205 C 242 -155 290 -82 330 15 C 369 113 409 235 449 381 L 627 381 C 581 250 522 135 450 35 C 378 -64 296 -145 203 -209 C 215 -207 232 -204 253 -200 C 274 -196 293 -195 311 -195 C 347 -195 386 -197 426 -202 C 466 -206 499 -210 526 -213 L 629 70 L 770 70 L 666 -213 C 691 -211 720 -203 753 -191 C 786 -178 813 -160 834 -137 L 842 -145 C 816 -179 787 -209 753 -236 C 719 -262 683 -279 645 -287 L 571 -492 L 436 -492 Z M 373 694 L 375 705 C 389 705 411 707 442 709 C 473 711 495 714 508 717 C 522 721 536 729 548 741 C 560 753 569 767 573 782 L 750 1440 C 741 1438 732 1436 722 1435 C 712 1434 699 1434 684 1434 C 658 1434 632 1439 604 1450 C 576 1461 551 1477 530 1499 L 535 1507 C 553 1497 575 1489 603 1483 C 631 1477 657 1475 682 1475 C 743 1475 795 1481 837 1494 C 879 1507 914 1520 942 1534 L 954 1534 C 938 1506 924 1473 912 1434 C 900 1394 891 1359 883 1327 L 737 788 C 733 773 733 760 737 748 C 741 736 751 727 766 723 C 774 719 794 715 825 711 C 855 707 877 705 891 705 L 887 694 L 373 694 Z M 98 504 L 113 555 L 1059 555 L 1044 504 L 98 504 Z" unicode="¼" />
<glyph horiz-adv-x="1100" d="M 2 -465 L 20 -399 C 116 -346 195 -301 259 -265 C 322 -229 385 -186 449 -137 C 537 -69 598 -7 632 51 C 665 109 682 167 682 225 C 682 261 671 292 649 318 C 627 343 595 356 551 356 C 483 356 416 327 352 271 C 288 214 256 157 256 100 C 256 77 262 57 276 40 C 289 22 312 14 346 14 C 386 14 420 26 449 51 C 478 75 502 98 522 119 L 530 111 C 498 71 460 33 416 -1 C 372 -35 321 -53 264 -53 C 225 -53 194 -41 170 -19 C 146 2 135 31 135 66 C 135 145 184 216 282 280 C 380 343 475 375 569 375 C 653 375 719 354 767 312 C 814 270 838 222 838 166 C 838 78 792 1 700 -67 C 608 -135 475 -200 299 -262 L 168 -338 L 580 -338 C 615 -338 650 -320 686 -286 C 721 -252 755 -216 788 -180 L 799 -186 L 606 -465 L 2 -465 Z M 373 694 L 375 705 C 389 705 411 707 442 709 C 473 711 495 714 508 717 C 522 721 536 729 548 741 C 560 753 569 767 573 782 L 750 1440 C 741 1438 732 1436 722 1435 C 712 1434 699 1434 684 1434 C 658 1434 632 1439 604 1450 C 576 1461 551 1477 530 1499 L 535 1507 C 553 1497 575 1489 603 1483 C 631 1477 657 1475 682 1475 C 743 1475 795 1481 837 1494 C 879 1507 914 1520 942 1534 L 954 1534 C 938 1506 924 1473 912 1434 C 900 1394 891 1359 883 1327 L 737 788 C 733 773 733 760 737 748 C 741 736 751 727 766 723 C 774 719 794 715 825 711 C 855 707 877 705 891 705 L 887 694 L 373 694 Z M 92 504 L 106 555 L 1053 555 L 1038 504 L 92 504 Z" unicode="½" />
<glyph horiz-adv-x="1100" d="M 530 676 C 458 676 396 690 344 720 C 292 749 268 790 270 844 C 270 888 286 923 317 948 C 347 972 376 985 403 985 C 431 985 451 978 465 965 C 478 951 485 936 485 918 C 484 876 467 851 434 845 C 401 838 381 822 375 797 C 368 775 376 752 400 728 C 424 704 463 692 518 692 C 598 692 672 723 739 787 C 806 851 842 926 846 1014 C 848 1046 844 1075 834 1099 C 824 1123 802 1135 768 1135 C 746 1135 721 1124 692 1104 C 663 1084 632 1062 600 1040 L 584 1075 C 698 1131 784 1175 843 1209 C 902 1243 933 1300 936 1382 C 938 1424 929 1456 908 1478 C 886 1500 857 1511 821 1511 C 765 1511 712 1492 662 1454 C 612 1416 586 1373 586 1323 C 584 1304 589 1287 601 1273 C 613 1258 633 1251 662 1251 C 684 1251 704 1256 722 1267 C 739 1278 754 1290 768 1303 L 774 1292 C 750 1268 724 1247 695 1227 C 665 1207 632 1198 594 1198 C 547 1198 514 1207 494 1227 C 474 1246 465 1269 467 1296 C 469 1364 512 1420 597 1463 C 682 1506 767 1528 852 1528 C 940 1528 1003 1509 1041 1473 C 1078 1437 1096 1398 1096 1358 C 1095 1298 1066 1253 1010 1223 C 954 1193 886 1174 807 1167 L 760 1145 C 766 1147 774 1148 784 1149 C 793 1150 802 1151 811 1151 C 863 1151 910 1136 952 1106 C 994 1076 1014 1035 1014 981 C 1013 883 958 808 848 755 C 738 702 632 676 530 676 Z M 406 -492 L 475 -289 C 438 -282 397 -269 352 -250 C 306 -230 259 -221 211 -221 C 194 -221 182 -221 176 -222 C 169 -223 162 -224 156 -225 C 136 -245 115 -262 93 -274 C 70 -286 50 -293 33 -293 C 17 -293 4 -289 -6 -283 C -17 -277 -23 -266 -23 -252 C -23 -233 -14 -219 4 -211 C 22 -203 41 -199 63 -199 C 73 -199 87 -199 105 -200 C 122 -201 138 -203 154 -205 C 212 -155 261 -82 301 15 C 340 113 379 235 418 381 L 596 381 C 551 250 493 135 421 35 C 349 -64 266 -145 174 -209 C 186 -207 203 -204 225 -200 C 246 -196 265 -195 283 -195 C 318 -195 356 -197 396 -202 C 436 -206 469 -210 496 -213 L 600 70 L 741 70 L 637 -213 C 662 -211 691 -203 724 -191 C 757 -178 784 -160 805 -137 L 813 -145 C 787 -179 758 -209 724 -236 C 690 -262 654 -279 614 -287 L 543 -492 L 406 -492 Z M 80 504 L 92 555 L 1036 555 L 1024 504 L 80 504 Z" unicode="¾" />
<glyph horiz-adv-x="885" d="M 569 1071 C 622 1071 666 1054 701 1021 C 735 987 753 939 753 877 C 753 799 726 734 673 681 C 620 628 546 579 450 535 C 352 489 286 444 250 400 C 214 356 196 300 196 233 C 196 175 216 123 254 78 C 292 32 350 10 430 10 C 501 10 560 30 607 71 C 654 112 678 161 678 217 C 678 265 662 305 630 337 C 598 369 560 385 516 385 C 506 385 497 384 488 383 C 478 381 471 379 465 377 L 465 369 C 483 369 503 363 524 350 C 544 337 555 318 555 293 C 555 267 546 246 530 229 C 513 211 491 203 465 203 C 434 203 409 210 390 226 C 371 241 362 264 362 295 C 362 327 376 355 404 377 C 432 399 468 410 512 410 C 562 410 605 392 641 356 C 677 320 696 275 696 219 C 696 153 668 96 612 48 C 556 0 484 -22 395 -22 C 280 -22 193 9 135 73 C 76 137 47 209 47 289 C 47 370 71 438 120 492 C 168 546 238 593 329 633 C 424 675 504 719 568 765 C 632 811 665 868 665 934 C 665 970 653 997 630 1015 C 606 1033 579 1042 549 1042 C 511 1042 478 1025 450 993 C 422 961 405 921 397 874 L 387 879 C 397 937 417 984 449 1019 C 481 1053 521 1071 569 1071 Z M 692 1428 C 726 1428 756 1417 780 1393 C 804 1369 817 1341 817 1307 C 817 1271 804 1241 780 1217 C 756 1193 726 1182 692 1182 C 657 1182 627 1193 603 1217 C 579 1241 567 1271 567 1307 C 567 1341 579 1369 603 1393 C 627 1417 657 1428 692 1428 Z" unicode="¿" />
<glyph horiz-adv-x="1313" d="M -242 0 L -240 10 C -224 10 -203 14 -177 21 C -151 28 -126 37 -104 47 C -74 62 -44 86 -13 120 C 18 153 47 187 74 223 C 196 379 346 574 524 810 C 702 1045 858 1249 991 1421 L 1034 1421 C 1036 1396 1042 1179 1051 771 C 1059 362 1064 153 1065 145 C 1065 117 1068 95 1072 77 C 1076 59 1089 45 1110 35 C 1124 26 1143 20 1165 16 C 1187 12 1207 10 1227 10 L 1225 0 L 627 0 L 631 10 C 662 12 695 15 731 20 C 766 25 792 33 809 43 C 831 51 847 65 855 84 C 863 103 866 122 866 141 L 860 561 L 367 561 C 325 507 281 447 235 383 C 189 319 156 273 137 246 C 119 219 103 193 87 167 C 71 141 63 119 63 102 C 63 70 90 48 145 34 C 199 20 242 12 274 10 L 272 0 L -242 0 Z M 383 586 L 860 586 L 858 1198 C 858 1198 800 1123 685 974 C 570 825 469 696 383 586 Z M 1093 1476 C 1041 1522 991 1566 942 1610 C 892 1654 855 1686 831 1708 C 807 1725 789 1743 778 1761 C 766 1779 761 1799 761 1820 C 761 1841 768 1859 783 1875 C 798 1890 817 1898 841 1898 C 866 1898 887 1889 903 1872 C 919 1854 935 1830 949 1800 C 965 1765 988 1717 1018 1657 C 1048 1597 1075 1539 1101 1483 L 1093 1476 Z" unicode="À" />
<glyph horiz-adv-x="1313" d="M -242 0 L -240 10 C -224 10 -203 14 -177 21 C -151 28 -126 37 -104 47 C -74 62 -44 86 -13 120 C 18 153 47 187 74 223 C 196 379 346 574 524 810 C 702 1045 858 1249 991 1421 L 1034 1421 C 1036 1396 1042 1179 1051 771 C 1059 362 1064 153 1065 145 C 1065 117 1068 95 1072 77 C 1076 59 1089 45 1110 35 C 1124 26 1143 20 1165 16 C 1187 12 1207 10 1227 10 L 1225 0 L 627 0 L 631 10 C 662 12 695 15 731 20 C 766 25 792 33 809 43 C 831 51 847 65 855 84 C 863 103 866 122 866 141 L 860 561 L 367 561 C 325 507 281 447 235 383 C 189 319 156 273 137 246 C 119 219 103 193 87 167 C 71 141 63 119 63 102 C 63 70 90 48 145 34 C 199 20 242 12 274 10 L 272 0 L -242 0 Z M 383 586 L 860 586 L 858 1198 C 858 1198 800 1123 685 974 C 570 825 469 696 383 586 Z M 874 1476 L 866 1485 C 914 1539 963 1597 1015 1659 C 1066 1721 1104 1770 1130 1806 C 1151 1834 1173 1857 1196 1873 C 1218 1889 1243 1898 1271 1898 C 1293 1898 1311 1891 1325 1878 C 1338 1865 1345 1849 1345 1831 C 1345 1804 1335 1781 1316 1761 C 1296 1741 1272 1721 1243 1702 C 1210 1681 1158 1649 1086 1607 C 1014 1565 944 1521 874 1476 Z" unicode="Á" />
<glyph horiz-adv-x="1313" d="M -242 0 L -240 10 C -224 10 -203 14 -177 21 C -151 28 -126 37 -104 47 C -74 62 -44 86 -13 120 C 18 153 47 187 74 223 C 196 379 346 574 524 810 C 702 1045 858 1249 991 1421 L 1034 1421 C 1036 1396 1042 1179 1051 771 C 1059 362 1064 153 1065 145 C 1065 117 1068 95 1072 77 C 1076 59 1089 45 1110 35 C 1124 26 1143 20 1165 16 C 1187 12 1207 10 1227 10 L 1225 0 L 627 0 L 631 10 C 662 12 695 15 731 20 C 766 25 792 33 809 43 C 831 51 847 65 855 84 C 863 103 866 122 866 141 L 860 561 L 367 561 C 325 507 281 447 235 383 C 189 319 156 273 137 246 C 119 219 103 193 87 167 C 71 141 63 119 63 102 C 63 70 90 48 145 34 C 199 20 242 12 274 10 L 272 0 L -242 0 Z M 383 586 L 860 586 L 858 1198 C 858 1198 800 1123 685 974 C 570 825 469 696 383 586 Z M 675 1445 L 665 1454 C 719 1515 779 1583 847 1657 C 914 1731 963 1786 993 1820 C 1007 1836 1020 1847 1032 1852 C 1044 1856 1063 1859 1091 1859 C 1114 1859 1130 1856 1138 1851 C 1146 1846 1154 1837 1161 1824 C 1173 1791 1195 1736 1227 1660 C 1259 1583 1287 1514 1312 1452 L 1300 1445 L 1058 1718 L 675 1445 Z" unicode="Â" />
<glyph horiz-adv-x="1313" d="M -242 0 L -240 10 C -224 10 -203 14 -177 21 C -151 28 -126 37 -104 47 C -74 62 -44 86 -13 120 C 18 153 47 187 74 223 C 196 379 346 574 524 810 C 702 1045 858 1249 991 1421 L 1034 1421 C 1036 1396 1042 1179 1051 771 C 1059 362 1064 153 1065 145 C 1065 117 1068 95 1072 77 C 1076 59 1089 45 1110 35 C 1124 26 1143 20 1165 16 C 1187 12 1207 10 1227 10 L 1225 0 L 627 0 L 631 10 C 662 12 695 15 731 20 C 766 25 792 33 809 43 C 831 51 847 65 855 84 C 863 103 866 122 866 141 L 860 561 L 367 561 C 325 507 281 447 235 383 C 189 319 156 273 137 246 C 119 219 103 193 87 167 C 71 141 63 119 63 102 C 63 70 90 48 145 34 C 199 20 242 12 274 10 L 272 0 L -242 0 Z M 383 586 L 860 586 L 858 1198 C 858 1198 800 1123 685 974 C 570 825 469 696 383 586 Z M 667 1526 L 653 1532 C 701 1611 752 1675 805 1725 C 857 1775 907 1800 954 1800 C 1005 1800 1054 1780 1101 1742 C 1147 1704 1189 1685 1226 1685 C 1266 1685 1306 1702 1348 1736 C 1390 1770 1421 1803 1443 1835 L 1456 1831 C 1420 1764 1374 1701 1318 1642 C 1262 1583 1207 1554 1154 1554 C 1106 1554 1058 1573 1009 1611 C 960 1649 918 1669 882 1669 C 840 1669 799 1653 759 1621 C 719 1589 688 1558 667 1526 Z" unicode="Ã" />
<glyph horiz-adv-x="1313" d="M -242 0 L -240 10 C -224 10 -203 14 -177 21 C -151 28 -126 37 -104 47 C -74 62 -44 86 -13 120 C 18 153 47 187 74 223 C 196 379 346 574 524 810 C 702 1045 858 1249 991 1421 L 1034 1421 C 1036 1396 1042 1179 1051 771 C 1059 362 1064 153 1065 145 C 1065 117 1068 95 1072 77 C 1076 59 1089 45 1110 35 C 1124 26 1143 20 1165 16 C 1187 12 1207 10 1227 10 L 1225 0 L 627 0 L 631 10 C 662 12 695 15 731 20 C 766 25 792 33 809 43 C 831 51 847 65 855 84 C 863 103 866 122 866 141 L 860 561 L 367 561 C 325 507 281 447 235 383 C 189 319 156 273 137 246 C 119 219 103 193 87 167 C 71 141 63 119 63 102 C 63 70 90 48 145 34 C 199 20 242 12 274 10 L 272 0 L -242 0 Z M 383 586 L 860 586 L 858 1198 C 858 1198 800 1123 685 974 C 570 825 469 696 383 586 Z M 833 1558 C 801 1558 777 1568 759 1589 C 741 1610 733 1634 733 1662 C 733 1694 744 1723 768 1749 C 791 1774 822 1787 860 1787 C 887 1787 910 1776 928 1754 C 946 1732 956 1709 956 1685 C 956 1652 945 1623 923 1597 C 901 1571 871 1558 833 1558 Z M 1241 1558 C 1209 1558 1184 1568 1167 1589 C 1149 1610 1141 1634 1141 1662 C 1141 1694 1152 1723 1175 1749 C 1198 1774 1229 1787 1268 1787 C 1295 1787 1317 1776 1335 1754 C 1353 1732 1362 1709 1362 1685 C 1362 1652 1351 1623 1329 1597 C 1307 1571 1277 1558 1241 1558 Z" unicode="Ä" />
<glyph horiz-adv-x="1313" d="M -242 0 L -240 10 C -224 10 -203 14 -177 21 C -151 28 -126 37 -104 47 C -74 62 -44 86 -13 120 C 18 153 47 187 74 223 C 196 379 346 574 524 810 C 702 1045 858 1249 991 1421 L 1034 1421 C 1036 1396 1042 1179 1051 771 C 1059 362 1064 153 1065 145 C 1065 117 1068 95 1072 77 C 1076 59 1089 45 1110 35 C 1124 26 1143 20 1165 16 C 1187 12 1207 10 1227 10 L 1225 0 L 627 0 L 631 10 C 662 12 695 15 731 20 C 766 25 792 33 809 43 C 831 51 847 65 855 84 C 863 103 866 122 866 141 L 860 561 L 367 561 C 325 507 281 447 235 383 C 189 319 156 273 137 246 C 119 219 103 193 87 167 C 71 141 63 119 63 102 C 63 70 90 48 145 34 C 199 20 242 12 274 10 L 272 0 L -242 0 Z M 383 586 L 860 586 L 858 1198 C 858 1198 800 1123 685 974 C 570 825 469 696 383 586 Z M 1038 1476 C 976 1476 925 1492 885 1526 C 845 1559 826 1601 829 1653 C 831 1720 861 1774 919 1816 C 977 1857 1038 1878 1104 1878 C 1163 1878 1213 1861 1254 1829 C 1294 1797 1313 1754 1311 1700 C 1307 1636 1278 1583 1224 1540 C 1169 1497 1107 1476 1038 1476 Z M 1038 1495 C 1087 1495 1126 1520 1155 1570 C 1183 1620 1199 1669 1202 1718 C 1204 1758 1197 1791 1181 1818 C 1165 1845 1140 1859 1104 1859 C 1054 1859 1015 1834 986 1785 C 957 1736 942 1686 940 1634 C 937 1595 943 1562 959 1535 C 975 1508 1001 1495 1038 1495 Z" unicode="Å" />
<glyph horiz-adv-x="1974" d="M -203 0 L -201 8 C -181 8 -157 12 -129 20 C -100 27 -74 36 -51 47 C -21 61 11 86 47 121 C 83 156 120 193 156 233 C 204 285 350 454 595 740 C 839 1026 1016 1233 1124 1362 C 1104 1368 1072 1374 1027 1379 C 981 1384 951 1387 936 1389 L 940 1399 L 2036 1399 L 1946 1069 L 1933 1069 C 1929 1135 1915 1200 1893 1266 C 1870 1331 1836 1367 1790 1374 C 1767 1376 1740 1378 1709 1380 C 1678 1381 1646 1382 1614 1382 L 1393 1382 L 1212 741 L 1391 741 C 1445 741 1487 748 1517 763 C 1547 777 1569 791 1585 805 C 1606 821 1627 847 1649 882 C 1670 917 1691 958 1712 1006 L 1726 1006 L 1565 432 L 1552 432 C 1557 460 1560 499 1561 548 C 1561 597 1555 634 1542 659 C 1535 673 1521 688 1500 702 C 1479 716 1441 723 1386 723 L 1208 723 L 1061 197 C 1055 175 1050 156 1047 140 C 1043 123 1042 108 1042 96 C 1042 62 1058 41 1088 31 C 1118 21 1167 16 1233 16 C 1299 16 1367 18 1438 22 C 1509 26 1559 39 1589 63 C 1637 101 1689 158 1747 235 C 1805 311 1844 366 1866 399 L 1878 399 L 1741 0 L 582 0 L 586 10 C 603 10 631 12 671 16 C 711 20 739 26 756 33 C 781 41 800 54 814 72 C 827 89 837 109 844 133 L 971 586 L 498 586 L 203 233 C 179 203 162 180 152 163 C 141 146 133 129 129 113 C 121 82 142 58 192 40 C 242 22 290 12 336 10 L 334 0 L -203 0 Z M 516 610 L 977 610 L 1184 1360 L 1151 1360 C 1144 1351 1069 1262 926 1093 C 783 924 646 763 516 610 Z" unicode="Æ" />
<glyph horiz-adv-x="1290" d="M 311 -471 L 315 -457 C 389 -456 460 -443 528 -418 C 596 -393 631 -356 633 -307 C 633 -278 621 -258 597 -248 C 573 -238 537 -233 489 -233 L 553 -29 C 419 -16 309 37 221 132 C 133 227 90 352 90 506 C 90 766 174 985 344 1162 C 514 1338 706 1427 922 1427 C 1006 1427 1078 1412 1137 1383 C 1196 1353 1238 1329 1262 1311 L 1362 1419 L 1374 1419 L 1272 909 L 1257 909 C 1249 1041 1217 1157 1162 1257 C 1107 1357 1016 1407 889 1407 C 735 1407 600 1315 484 1131 C 368 947 311 743 311 518 C 311 382 342 265 406 168 C 470 71 567 23 698 23 C 796 23 886 55 970 119 C 1053 183 1126 266 1190 367 L 1206 356 C 1137 239 1055 145 960 75 C 865 4 750 -31 614 -31 C 607 -31 600 -30 593 -30 C 585 -30 578 -29 571 -29 L 547 -111 C 603 -111 655 -121 705 -142 C 754 -162 778 -200 778 -254 C 776 -334 726 -391 628 -425 C 530 -458 424 -473 311 -471 Z" unicode="Ç" />
<glyph horiz-adv-x="1298" d="M -96 0 L -92 10 C -74 10 -46 12 -6 16 C 34 20 62 26 80 33 C 105 41 124 54 137 72 C 150 89 160 109 166 133 L 477 1253 C 481 1274 483 1294 482 1313 C 480 1331 468 1346 444 1358 C 428 1364 403 1370 370 1377 C 336 1383 310 1387 291 1389 L 295 1399 L 1360 1399 L 1268 1069 L 1255 1069 C 1251 1135 1237 1200 1215 1266 C 1192 1331 1158 1367 1112 1374 C 1090 1376 1064 1378 1033 1380 C 1002 1381 970 1382 938 1382 L 717 1382 L 537 741 L 713 741 C 767 741 810 748 840 763 C 870 777 893 791 909 805 C 929 821 950 847 972 882 C 994 917 1014 958 1034 1006 L 1049 1006 L 889 432 L 877 432 C 881 460 883 499 884 548 C 885 597 879 634 866 659 C 858 673 843 688 823 702 C 803 716 765 723 709 723 L 530 723 L 385 197 C 378 174 373 154 370 137 C 367 120 366 105 367 92 C 369 60 384 40 414 30 C 444 20 491 16 555 16 C 621 16 689 18 760 22 C 831 26 882 39 913 63 C 960 101 1012 158 1070 235 C 1128 311 1167 366 1188 399 L 1200 399 L 1065 0 L -96 0 Z M 1102 1476 C 1050 1522 1000 1566 951 1610 C 901 1654 864 1686 840 1708 C 816 1725 798 1743 787 1761 C 775 1779 770 1799 770 1820 C 770 1841 777 1859 792 1875 C 807 1890 826 1898 850 1898 C 875 1898 896 1889 912 1872 C 928 1854 944 1830 958 1800 C 974 1765 997 1717 1027 1657 C 1057 1597 1084 1539 1110 1483 L 1102 1476 Z" unicode="È" />
<glyph horiz-adv-x="1298" d="M -96 0 L -92 10 C -74 10 -46 12 -6 16 C 34 20 62 26 80 33 C 105 41 124 54 137 72 C 150 89 160 109 166 133 L 477 1253 C 481 1274 483 1294 482 1313 C 480 1331 468 1346 444 1358 C 428 1364 403 1370 370 1377 C 336 1383 310 1387 291 1389 L 295 1399 L 1360 1399 L 1268 1069 L 1255 1069 C 1251 1135 1237 1200 1215 1266 C 1192 1331 1158 1367 1112 1374 C 1090 1376 1064 1378 1033 1380 C 1002 1381 970 1382 938 1382 L 717 1382 L 537 741 L 713 741 C 767 741 810 748 840 763 C 870 777 893 791 909 805 C 929 821 950 847 972 882 C 994 917 1014 958 1034 1006 L 1049 1006 L 889 432 L 877 432 C 881 460 883 499 884 548 C 885 597 879 634 866 659 C 858 673 843 688 823 702 C 803 716 765 723 709 723 L 530 723 L 385 197 C 378 174 373 154 370 137 C 367 120 366 105 367 92 C 369 60 384 40 414 30 C 444 20 491 16 555 16 C 621 16 689 18 760 22 C 831 26 882 39 913 63 C 960 101 1012 158 1070 235 C 1128 311 1167 366 1188 399 L 1200 399 L 1065 0 L -96 0 Z M 755 1476 L 747 1485 C 795 1539 844 1597 896 1659 C 947 1721 985 1770 1011 1806 C 1032 1834 1054 1857 1077 1873 C 1099 1889 1124 1898 1152 1898 C 1174 1898 1192 1891 1206 1878 C 1219 1865 1226 1849 1226 1831 C 1226 1804 1216 1781 1197 1761 C 1177 1741 1153 1721 1124 1702 C 1091 1681 1039 1649 967 1607 C 895 1565 825 1521 755 1476 Z" unicode="É" />
<glyph horiz-adv-x="1298" d="M -96 0 L -92 10 C -74 10 -46 12 -6 16 C 34 20 62 26 80 33 C 105 41 124 54 137 72 C 150 89 160 109 166 133 L 477 1253 C 481 1274 483 1294 482 1313 C 480 1331 468 1346 444 1358 C 428 1364 403 1370 370 1377 C 336 1383 310 1387 291 1389 L 295 1399 L 1360 1399 L 1268 1069 L 1255 1069 C 1251 1135 1237 1200 1215 1266 C 1192 1331 1158 1367 1112 1374 C 1090 1376 1064 1378 1033 1380 C 1002 1381 970 1382 938 1382 L 717 1382 L 537 741 L 713 741 C 767 741 810 748 840 763 C 870 777 893 791 909 805 C 929 821 950 847 972 882 C 994 917 1014 958 1034 1006 L 1049 1006 L 889 432 L 877 432 C 881 460 883 499 884 548 C 885 597 879 634 866 659 C 858 673 843 688 823 702 C 803 716 765 723 709 723 L 530 723 L 385 197 C 378 174 373 154 370 137 C 367 120 366 105 367 92 C 369 60 384 40 414 30 C 444 20 491 16 555 16 C 621 16 689 18 760 22 C 831 26 882 39 913 63 C 960 101 1012 158 1070 235 C 1128 311 1167 366 1188 399 L 1200 399 L 1065 0 L -96 0 Z M 609 1478 L 599 1487 C 653 1548 713 1616 781 1690 C 848 1764 897 1819 927 1853 C 941 1869 954 1880 966 1885 C 978 1889 997 1892 1025 1892 C 1048 1892 1064 1889 1072 1884 C 1080 1879 1088 1870 1095 1857 C 1107 1824 1129 1769 1161 1693 C 1193 1616 1221 1547 1246 1485 L 1234 1478 L 992 1751 L 609 1478 Z" unicode="Ê" />
<glyph horiz-adv-x="1298" d="M -96 0 L -92 10 C -74 10 -46 12 -6 16 C 34 20 62 26 80 33 C 105 41 124 54 137 72 C 150 89 160 109 166 133 L 477 1253 C 481 1274 483 1294 482 1313 C 480 1331 468 1346 444 1358 C 428 1364 403 1370 370 1377 C 336 1383 310 1387 291 1389 L 295 1399 L 1360 1399 L 1268 1069 L 1255 1069 C 1251 1135 1237 1200 1215 1266 C 1192 1331 1158 1367 1112 1374 C 1090 1376 1064 1378 1033 1380 C 1002 1381 970 1382 938 1382 L 717 1382 L 537 741 L 713 741 C 767 741 810 748 840 763 C 870 777 893 791 909 805 C 929 821 950 847 972 882 C 994 917 1014 958 1034 1006 L 1049 1006 L 889 432 L 877 432 C 881 460 883 499 884 548 C 885 597 879 634 866 659 C 858 673 843 688 823 702 C 803 716 765 723 709 723 L 530 723 L 385 197 C 378 174 373 154 370 137 C 367 120 366 105 367 92 C 369 60 384 40 414 30 C 444 20 491 16 555 16 C 621 16 689 18 760 22 C 831 26 882 39 913 63 C 960 101 1012 158 1070 235 C 1128 311 1167 366 1188 399 L 1200 399 L 1065 0 L -96 0 Z M 730 1575 C 698 1575 674 1585 656 1606 C 638 1627 630 1651 630 1679 C 630 1711 641 1740 665 1766 C 688 1791 719 1804 757 1804 C 784 1804 807 1793 825 1771 C 843 1749 853 1726 853 1702 C 853 1669 842 1640 820 1614 C 798 1588 768 1575 730 1575 Z M 1138 1575 C 1106 1575 1081 1585 1064 1606 C 1046 1627 1038 1651 1038 1679 C 1038 1711 1049 1740 1072 1766 C 1095 1791 1126 1804 1165 1804 C 1192 1804 1214 1793 1232 1771 C 1250 1749 1259 1726 1259 1702 C 1259 1669 1248 1640 1226 1614 C 1204 1588 1174 1575 1138 1575 Z" unicode="Ë" />
<glyph horiz-adv-x="788" d="M -68 0 L -66 10 C -46 10 -19 12 15 16 C 49 20 74 24 90 29 C 115 37 134 51 147 69 C 160 87 170 107 176 129 L 492 1255 C 496 1276 497 1296 495 1314 C 493 1332 480 1346 457 1358 C 442 1364 419 1370 389 1377 C 358 1383 334 1387 317 1389 L 319 1399 L 948 1399 L 946 1389 C 926 1387 900 1384 866 1380 C 832 1375 805 1370 786 1366 C 759 1358 739 1344 726 1325 C 712 1305 702 1285 696 1264 L 381 135 C 375 112 373 92 377 76 C 381 60 394 47 418 37 C 428 33 449 27 481 21 C 513 14 540 10 561 10 L 559 0 L -68 0 Z M 761 1476 C 709 1522 659 1566 610 1610 C 560 1654 523 1686 499 1708 C 475 1725 457 1743 446 1761 C 434 1779 429 1799 429 1820 C 429 1841 436 1859 451 1875 C 466 1890 485 1898 509 1898 C 534 1898 555 1889 571 1872 C 587 1854 603 1830 617 1800 C 633 1765 656 1717 686 1657 C 716 1597 743 1539 769 1483 L 761 1476 Z" unicode="Ì" />
<glyph horiz-adv-x="788" d="M -68 0 L -66 10 C -46 10 -19 12 15 16 C 49 20 74 24 90 29 C 115 37 134 51 147 69 C 160 87 170 107 176 129 L 492 1255 C 496 1276 497 1296 495 1314 C 493 1332 480 1346 457 1358 C 442 1364 419 1370 389 1377 C 358 1383 334 1387 317 1389 L 319 1399 L 948 1399 L 946 1389 C 926 1387 900 1384 866 1380 C 832 1375 805 1370 786 1366 C 759 1358 739 1344 726 1325 C 712 1305 702 1285 696 1264 L 381 135 C 375 112 373 92 377 76 C 381 60 394 47 418 37 C 428 33 449 27 481 21 C 513 14 540 10 561 10 L 559 0 L -68 0 Z M 528 1476 L 520 1485 C 568 1539 617 1597 669 1659 C 720 1721 758 1770 784 1806 C 805 1834 827 1857 850 1873 C 872 1889 897 1898 925 1898 C 947 1898 965 1891 979 1878 C 992 1865 999 1849 999 1831 C 999 1804 989 1781 970 1761 C 950 1741 926 1721 897 1702 C 864 1681 812 1649 740 1607 C 668 1565 598 1521 528 1476 Z" unicode="Í" />
<glyph horiz-adv-x="788" d="M -68 0 L -66 10 C -46 10 -19 12 15 16 C 49 20 74 24 90 29 C 115 37 134 51 147 69 C 160 87 170 107 176 129 L 492 1255 C 496 1276 497 1296 495 1314 C 493 1332 480 1346 457 1358 C 442 1364 419 1370 389 1377 C 358 1383 334 1387 317 1389 L 319 1399 L 948 1399 L 946 1389 C 926 1387 900 1384 866 1380 C 832 1375 805 1370 786 1366 C 759 1358 739 1344 726 1325 C 712 1305 702 1285 696 1264 L 381 135 C 375 112 373 92 377 76 C 381 60 394 47 418 37 C 428 33 449 27 481 21 C 513 14 540 10 561 10 L 559 0 L -68 0 Z M 338 1478 L 328 1487 C 382 1548 442 1616 510 1690 C 577 1764 626 1819 656 1853 C 670 1869 683 1880 695 1885 C 707 1889 726 1892 754 1892 C 777 1892 793 1889 801 1884 C 809 1879 817 1870 824 1857 C 836 1824 858 1769 890 1693 C 922 1616 950 1547 975 1485 L 963 1478 L 721 1751 L 338 1478 Z" unicode="Î" />
<glyph horiz-adv-x="788" d="M -68 0 L -66 10 C -46 10 -19 12 15 16 C 49 20 74 24 90 29 C 115 37 134 51 147 69 C 160 87 170 107 176 129 L 492 1255 C 496 1276 497 1296 495 1314 C 493 1332 480 1346 457 1358 C 442 1364 419 1370 389 1377 C 358 1383 334 1387 317 1389 L 319 1399 L 948 1399 L 946 1389 C 926 1387 900 1384 866 1380 C 832 1375 805 1370 786 1366 C 759 1358 739 1344 726 1325 C 712 1305 702 1285 696 1264 L 381 135 C 375 112 373 92 377 76 C 381 60 394 47 418 37 C 428 33 449 27 481 21 C 513 14 540 10 561 10 L 559 0 L -68 0 Z M 479 1575 C 447 1575 423 1585 405 1606 C 387 1627 379 1651 379 1679 C 379 1711 390 1740 414 1766 C 437 1791 468 1804 506 1804 C 533 1804 556 1793 574 1771 C 592 1749 602 1726 602 1702 C 602 1669 591 1640 569 1614 C 547 1588 517 1575 479 1575 Z M 887 1575 C 855 1575 830 1585 813 1606 C 795 1627 787 1651 787 1679 C 787 1711 798 1740 821 1766 C 844 1791 875 1804 914 1804 C 941 1804 963 1793 981 1771 C 999 1749 1008 1726 1008 1702 C 1008 1669 997 1640 975 1614 C 953 1588 923 1575 887 1575 Z" unicode="Ï" />
<glyph horiz-adv-x="1513" d="M -82 0 L -78 10 C -58 10 -32 12 2 16 C 36 20 60 24 76 29 C 102 37 122 50 135 66 C 147 82 157 103 164 129 L 326 717 L 125 717 L 137 754 L 338 754 L 477 1255 C 481 1275 482 1295 481 1314 C 480 1332 468 1347 444 1358 C 423 1366 399 1372 371 1378 C 343 1384 320 1387 303 1389 L 305 1399 L 926 1399 C 1092 1399 1227 1353 1331 1263 C 1435 1172 1487 1038 1487 862 C 1487 605 1394 397 1208 238 C 1022 79 796 0 530 0 L -82 0 Z M 541 16 C 743 16 913 98 1052 262 C 1191 426 1263 624 1268 854 C 1271 1029 1238 1161 1168 1249 C 1098 1337 995 1382 858 1382 C 855 1382 835 1381 799 1380 C 762 1379 734 1378 715 1378 L 539 754 L 856 754 L 844 717 L 528 717 L 377 170 C 361 114 366 75 391 51 C 415 27 465 16 541 16 Z" unicode="Ð" />
<glyph horiz-adv-x="1511" d="M 1057 -12 L 487 1223 L 256 350 C 244 310 234 260 224 200 C 214 140 222 96 248 70 C 263 53 295 39 343 28 C 391 16 424 10 442 10 L 438 0 L -123 0 L -119 10 C -95 10 -61 16 -15 26 C 30 36 62 48 82 61 C 109 78 134 109 158 155 C 181 200 203 262 225 342 L 440 1135 C 448 1165 452 1198 452 1233 C 451 1267 439 1297 416 1323 C 397 1342 371 1357 337 1368 C 303 1379 261 1386 213 1389 L 217 1399 L 621 1399 L 1141 266 L 1350 1055 C 1360 1092 1370 1142 1381 1204 C 1391 1266 1382 1308 1354 1331 C 1337 1345 1307 1358 1264 1370 C 1220 1381 1187 1387 1165 1389 L 1167 1399 L 1724 1399 L 1722 1389 C 1704 1387 1671 1382 1625 1374 C 1578 1365 1543 1354 1520 1341 C 1487 1322 1460 1288 1438 1238 C 1416 1188 1396 1131 1378 1065 L 1087 -12 L 1057 -12 Z M 661 1526 L 647 1532 C 695 1611 746 1675 799 1725 C 851 1775 901 1800 948 1800 C 999 1800 1048 1780 1095 1742 C 1141 1704 1183 1685 1220 1685 C 1260 1685 1300 1702 1342 1736 C 1384 1770 1415 1803 1437 1835 L 1450 1831 C 1414 1764 1368 1701 1312 1642 C 1256 1583 1201 1554 1148 1554 C 1100 1554 1052 1573 1003 1611 C 954 1649 912 1669 876 1669 C 834 1669 793 1653 753 1621 C 713 1589 682 1558 661 1526 Z" unicode="Ñ" />
<glyph horiz-adv-x="1473" d="M 616 -33 C 550 -33 486 -20 424 6 C 361 32 306 69 258 117 C 209 165 170 223 140 293 C 110 362 96 441 96 530 C 96 658 121 779 171 891 C 221 1003 286 1100 367 1182 C 442 1258 527 1318 623 1363 C 719 1407 816 1430 915 1430 C 977 1430 1037 1419 1096 1398 C 1155 1376 1208 1346 1255 1307 C 1311 1259 1356 1199 1390 1127 C 1424 1054 1442 971 1442 879 C 1442 763 1421 651 1379 541 C 1337 431 1280 334 1208 250 C 1134 165 1047 97 946 45 C 844 -7 734 -33 616 -33 Z M 631 -14 C 730 -14 818 19 894 85 C 970 151 1033 234 1083 334 C 1131 429 1167 533 1192 646 C 1216 758 1229 865 1229 965 C 1229 1079 1205 1181 1159 1273 C 1113 1365 1030 1411 911 1411 C 824 1411 747 1386 679 1337 C 611 1288 552 1225 504 1149 C 440 1048 391 932 359 801 C 326 670 309 548 309 436 C 309 317 333 212 381 122 C 429 31 512 -14 631 -14 Z M 1065 1476 C 1013 1522 963 1566 914 1610 C 864 1654 827 1686 803 1708 C 779 1725 761 1743 750 1761 C 738 1779 733 1799 733 1820 C 733 1841 740 1859 755 1875 C 770 1890 789 1898 813 1898 C 838 1898 859 1889 875 1872 C 891 1854 907 1830 921 1800 C 937 1765 960 1717 990 1657 C 1020 1597 1047 1539 1073 1483 L 1065 1476 Z" unicode="Ò" />
<glyph horiz-adv-x="1473" d="M 616 -33 C 550 -33 486 -20 424 6 C 361 32 306 69 258 117 C 209 165 170 223 140 293 C 110 362 96 441 96 530 C 96 658 121 779 171 891 C 221 1003 286 1100 367 1182 C 442 1258 527 1318 623 1363 C 719 1407 816 1430 915 1430 C 977 1430 1037 1419 1096 1398 C 1155 1376 1208 1346 1255 1307 C 1311 1259 1356 1199 1390 1127 C 1424 1054 1442 971 1442 879 C 1442 763 1421 651 1379 541 C 1337 431 1280 334 1208 250 C 1134 165 1047 97 946 45 C 844 -7 734 -33 616 -33 Z M 631 -14 C 730 -14 818 19 894 85 C 970 151 1033 234 1083 334 C 1131 429 1167 533 1192 646 C 1216 758 1229 865 1229 965 C 1229 1079 1205 1181 1159 1273 C 1113 1365 1030 1411 911 1411 C 824 1411 747 1386 679 1337 C 611 1288 552 1225 504 1149 C 440 1048 391 932 359 801 C 326 670 309 548 309 436 C 309 317 333 212 381 122 C 429 31 512 -14 631 -14 Z M 839 1476 L 831 1485 C 879 1539 928 1597 980 1659 C 1031 1721 1069 1770 1095 1806 C 1116 1834 1138 1857 1161 1873 C 1183 1889 1208 1898 1236 1898 C 1258 1898 1276 1891 1290 1878 C 1303 1865 1310 1849 1310 1831 C 1310 1804 1300 1781 1281 1761 C 1261 1741 1237 1721 1208 1702 C 1175 1681 1123 1649 1051 1607 C 979 1565 909 1521 839 1476 Z" unicode="Ó" />
<glyph horiz-adv-x="1473" d="M 616 -33 C 550 -33 486 -20 424 6 C 361 32 306 69 258 117 C 209 165 170 223 140 293 C 110 362 96 441 96 530 C 96 658 121 779 171 891 C 221 1003 286 1100 367 1182 C 442 1258 527 1318 623 1363 C 719 1407 816 1430 915 1430 C 977 1430 1037 1419 1096 1398 C 1155 1376 1208 1346 1255 1307 C 1311 1259 1356 1199 1390 1127 C 1424 1054 1442 971 1442 879 C 1442 763 1421 651 1379 541 C 1337 431 1280 334 1208 250 C 1134 165 1047 97 946 45 C 844 -7 734 -33 616 -33 Z M 631 -14 C 730 -14 818 19 894 85 C 970 151 1033 234 1083 334 C 1131 429 1167 533 1192 646 C 1216 758 1229 865 1229 965 C 1229 1079 1205 1181 1159 1273 C 1113 1365 1030 1411 911 1411 C 824 1411 747 1386 679 1337 C 611 1288 552 1225 504 1149 C 440 1048 391 932 359 801 C 326 670 309 548 309 436 C 309 317 333 212 381 122 C 429 31 512 -14 631 -14 Z M 618 1478 L 608 1487 C 662 1548 722 1616 790 1690 C 857 1764 906 1819 936 1853 C 950 1869 963 1880 975 1885 C 987 1889 1006 1892 1034 1892 C 1057 1892 1073 1889 1081 1884 C 1089 1879 1097 1870 1104 1857 C 1116 1824 1138 1769 1170 1693 C 1202 1616 1230 1547 1255 1485 L 1243 1478 L 1001 1751 L 618 1478 Z" unicode="Ô" />
<glyph horiz-adv-x="1473" d="M 616 -33 C 550 -33 486 -20 424 6 C 361 32 306 69 258 117 C 209 165 170 223 140 293 C 110 362 96 441 96 530 C 96 658 121 779 171 891 C 221 1003 286 1100 367 1182 C 442 1258 527 1318 623 1363 C 719 1407 816 1430 915 1430 C 977 1430 1037 1419 1096 1398 C 1155 1376 1208 1346 1255 1307 C 1311 1259 1356 1199 1390 1127 C 1424 1054 1442 971 1442 879 C 1442 763 1421 651 1379 541 C 1337 431 1280 334 1208 250 C 1134 165 1047 97 946 45 C 844 -7 734 -33 616 -33 Z M 631 -14 C 730 -14 818 19 894 85 C 970 151 1033 234 1083 334 C 1131 429 1167 533 1192 646 C 1216 758 1229 865 1229 965 C 1229 1079 1205 1181 1159 1273 C 1113 1365 1030 1411 911 1411 C 824 1411 747 1386 679 1337 C 611 1288 552 1225 504 1149 C 440 1048 391 932 359 801 C 326 670 309 548 309 436 C 309 317 333 212 381 122 C 429 31 512 -14 631 -14 Z M 612 1526 L 598 1532 C 646 1611 697 1675 750 1725 C 802 1775 852 1800 899 1800 C 950 1800 999 1780 1046 1742 C 1092 1704 1134 1685 1171 1685 C 1211 1685 1251 1702 1293 1736 C 1335 1770 1366 1803 1388 1835 L 1401 1831 C 1365 1764 1319 1701 1263 1642 C 1207 1583 1152 1554 1099 1554 C 1051 1554 1003 1573 954 1611 C 905 1649 863 1669 827 1669 C 785 1669 744 1653 704 1621 C 664 1589 633 1558 612 1526 Z" unicode="Õ" />
<glyph horiz-adv-x="1473" d="M 616 -33 C 550 -33 486 -20 424 6 C 361 32 306 69 258 117 C 209 165 170 223 140 293 C 110 362 96 441 96 530 C 96 658 121 779 171 891 C 221 1003 286 1100 367 1182 C 442 1258 527 1318 623 1363 C 719 1407 816 1430 915 1430 C 977 1430 1037 1419 1096 1398 C 1155 1376 1208 1346 1255 1307 C 1311 1259 1356 1199 1390 1127 C 1424 1054 1442 971 1442 879 C 1442 763 1421 651 1379 541 C 1337 431 1280 334 1208 250 C 1134 165 1047 97 946 45 C 844 -7 734 -33 616 -33 Z M 631 -14 C 730 -14 818 19 894 85 C 970 151 1033 234 1083 334 C 1131 429 1167 533 1192 646 C 1216 758 1229 865 1229 965 C 1229 1079 1205 1181 1159 1273 C 1113 1365 1030 1411 911 1411 C 824 1411 747 1386 679 1337 C 611 1288 552 1225 504 1149 C 440 1048 391 932 359 801 C 326 670 309 548 309 436 C 309 317 333 212 381 122 C 429 31 512 -14 631 -14 Z M 755 1558 C 723 1558 699 1568 681 1589 C 663 1610 655 1634 655 1662 C 655 1694 666 1723 690 1749 C 713 1774 744 1787 782 1787 C 809 1787 832 1776 850 1754 C 868 1732 878 1709 878 1685 C 878 1652 867 1623 845 1597 C 823 1571 793 1558 755 1558 Z M 1163 1558 C 1131 1558 1106 1568 1089 1589 C 1071 1610 1063 1634 1063 1662 C 1063 1694 1074 1723 1097 1749 C 1120 1774 1151 1787 1190 1787 C 1217 1787 1239 1776 1257 1754 C 1275 1732 1284 1709 1284 1685 C 1284 1652 1273 1623 1251 1597 C 1229 1571 1199 1558 1163 1558 Z" unicode="Ö" />
<glyph horiz-adv-x="1145" d="M 193 76 L 145 123 L 553 528 L 147 934 L 199 983 L 602 580 L 1004 983 L 1051 936 L 647 535 L 1053 129 L 1004 78 L 596 483 L 193 76 Z" unicode="×" />
<glyph horiz-adv-x="1473" d="M 0 -76 L -16 -59 L 211 168 C 174 216 146 270 126 331 C 106 391 96 458 96 530 C 96 657 121 777 171 890 C 221 1003 285 1100 365 1182 C 440 1258 526 1318 622 1363 C 718 1407 815 1430 915 1430 C 990 1430 1062 1414 1130 1384 C 1198 1353 1257 1310 1307 1255 L 1516 1464 L 1532 1448 L 1323 1239 C 1359 1191 1388 1136 1410 1076 C 1431 1016 1442 950 1442 879 C 1442 749 1415 623 1363 502 C 1311 381 1240 277 1151 190 C 1081 122 1000 68 909 28 C 817 -12 720 -33 616 -33 C 542 -33 471 -17 403 15 C 334 47 275 92 225 150 L 0 -76 Z M 631 -14 C 731 -14 820 19 896 85 C 972 151 1035 233 1085 333 C 1127 419 1160 513 1184 615 C 1207 716 1220 813 1223 907 C 1225 943 1223 983 1218 1026 C 1213 1068 1208 1101 1204 1124 L 336 256 C 353 174 385 109 432 60 C 479 10 545 -14 631 -14 Z M 330 285 L 1200 1153 C 1181 1228 1148 1290 1101 1338 C 1054 1386 991 1411 911 1411 C 829 1411 752 1387 682 1341 C 612 1295 552 1232 502 1152 C 443 1058 398 950 366 830 C 334 709 317 595 315 487 C 314 451 315 414 318 375 C 320 336 324 306 330 285 Z" unicode="Ø" />
<glyph horiz-adv-x="1608" d="M 672 -33 C 519 -33 405 -3 330 56 C 254 115 217 197 217 301 C 217 327 219 356 223 386 C 227 416 234 448 244 481 L 459 1255 C 463 1276 464 1296 462 1314 C 460 1332 447 1346 424 1358 C 409 1364 386 1370 356 1377 C 325 1383 301 1387 285 1389 L 287 1399 L 913 1399 L 911 1389 C 891 1387 865 1384 832 1380 C 799 1375 773 1370 754 1366 C 727 1358 707 1344 693 1325 C 679 1305 670 1285 664 1264 L 457 518 C 445 477 436 437 430 398 C 423 359 420 324 420 293 C 420 220 448 159 505 111 C 562 63 642 39 745 39 C 870 39 976 76 1064 150 C 1151 224 1215 334 1255 481 L 1413 1040 C 1424 1078 1436 1131 1448 1197 C 1460 1263 1451 1307 1423 1331 C 1407 1345 1377 1358 1333 1370 C 1289 1381 1256 1387 1235 1389 L 1237 1399 L 1792 1399 L 1790 1389 C 1771 1387 1738 1382 1692 1374 C 1645 1365 1610 1354 1587 1341 C 1554 1322 1526 1285 1504 1231 C 1481 1177 1460 1117 1442 1051 L 1276 471 C 1230 307 1159 182 1065 96 C 970 10 839 -33 672 -33 Z M 1212 1476 C 1160 1522 1110 1566 1061 1610 C 1011 1654 974 1686 950 1708 C 926 1725 908 1743 897 1761 C 885 1779 880 1799 880 1820 C 880 1841 887 1859 902 1875 C 917 1890 936 1898 960 1898 C 985 1898 1006 1889 1022 1872 C 1038 1854 1054 1830 1068 1800 C 1084 1765 1107 1717 1137 1657 C 1167 1597 1194 1539 1220 1483 L 1212 1476 Z" unicode="Ù" />
<glyph horiz-adv-x="1608" d="M 672 -33 C 519 -33 405 -3 330 56 C 254 115 217 197 217 301 C 217 327 219 356 223 386 C 227 416 234 448 244 481 L 459 1255 C 463 1276 464 1296 462 1314 C 460 1332 447 1346 424 1358 C 409 1364 386 1370 356 1377 C 325 1383 301 1387 285 1389 L 287 1399 L 913 1399 L 911 1389 C 891 1387 865 1384 832 1380 C 799 1375 773 1370 754 1366 C 727 1358 707 1344 693 1325 C 679 1305 670 1285 664 1264 L 457 518 C 445 477 436 437 430 398 C 423 359 420 324 420 293 C 420 220 448 159 505 111 C 562 63 642 39 745 39 C 870 39 976 76 1064 150 C 1151 224 1215 334 1255 481 L 1413 1040 C 1424 1078 1436 1131 1448 1197 C 1460 1263 1451 1307 1423 1331 C 1407 1345 1377 1358 1333 1370 C 1289 1381 1256 1387 1235 1389 L 1237 1399 L 1792 1399 L 1790 1389 C 1771 1387 1738 1382 1692 1374 C 1645 1365 1610 1354 1587 1341 C 1554 1322 1526 1285 1504 1231 C 1481 1177 1460 1117 1442 1051 L 1276 471 C 1230 307 1159 182 1065 96 C 970 10 839 -33 672 -33 Z M 929 1476 L 921 1485 C 969 1539 1018 1597 1070 1659 C 1121 1721 1159 1770 1185 1806 C 1206 1834 1228 1857 1251 1873 C 1273 1889 1298 1898 1326 1898 C 1348 1898 1366 1891 1380 1878 C 1393 1865 1400 1849 1400 1831 C 1400 1804 1390 1781 1371 1761 C 1351 1741 1327 1721 1298 1702 C 1265 1681 1213 1649 1141 1607 C 1069 1565 999 1521 929 1476 Z" unicode="Ú" />
<glyph horiz-adv-x="1608" d="M 672 -33 C 519 -33 405 -3 330 56 C 254 115 217 197 217 301 C 217 327 219 356 223 386 C 227 416 234 448 244 481 L 459 1255 C 463 1276 464 1296 462 1314 C 460 1332 447 1346 424 1358 C 409 1364 386 1370 356 1377 C 325 1383 301 1387 285 1389 L 287 1399 L 913 1399 L 911 1389 C 891 1387 865 1384 832 1380 C 799 1375 773 1370 754 1366 C 727 1358 707 1344 693 1325 C 679 1305 670 1285 664 1264 L 457 518 C 445 477 436 437 430 398 C 423 359 420 324 420 293 C 420 220 448 159 505 111 C 562 63 642 39 745 39 C 870 39 976 76 1064 150 C 1151 224 1215 334 1255 481 L 1413 1040 C 1424 1078 1436 1131 1448 1197 C 1460 1263 1451 1307 1423 1331 C 1407 1345 1377 1358 1333 1370 C 1289 1381 1256 1387 1235 1389 L 1237 1399 L 1792 1399 L 1790 1389 C 1771 1387 1738 1382 1692 1374 C 1645 1365 1610 1354 1587 1341 C 1554 1322 1526 1285 1504 1231 C 1481 1177 1460 1117 1442 1051 L 1276 471 C 1230 307 1159 182 1065 96 C 970 10 839 -33 672 -33 Z M 753 1478 L 743 1487 C 797 1548 857 1616 925 1690 C 992 1764 1041 1819 1071 1853 C 1085 1869 1098 1880 1110 1885 C 1122 1889 1141 1892 1169 1892 C 1192 1892 1208 1889 1216 1884 C 1224 1879 1232 1870 1239 1857 C 1251 1824 1273 1769 1305 1693 C 1337 1616 1365 1547 1390 1485 L 1378 1478 L 1136 1751 L 753 1478 Z" unicode="Û" />
<glyph horiz-adv-x="1608" d="M 672 -33 C 519 -33 405 -3 330 56 C 254 115 217 197 217 301 C 217 327 219 356 223 386 C 227 416 234 448 244 481 L 459 1255 C 463 1276 464 1296 462 1314 C 460 1332 447 1346 424 1358 C 409 1364 386 1370 356 1377 C 325 1383 301 1387 285 1389 L 287 1399 L 913 1399 L 911 1389 C 891 1387 865 1384 832 1380 C 799 1375 773 1370 754 1366 C 727 1358 707 1344 693 1325 C 679 1305 670 1285 664 1264 L 457 518 C 445 477 436 437 430 398 C 423 359 420 324 420 293 C 420 220 448 159 505 111 C 562 63 642 39 745 39 C 870 39 976 76 1064 150 C 1151 224 1215 334 1255 481 L 1413 1040 C 1424 1078 1436 1131 1448 1197 C 1460 1263 1451 1307 1423 1331 C 1407 1345 1377 1358 1333 1370 C 1289 1381 1256 1387 1235 1389 L 1237 1399 L 1792 1399 L 1790 1389 C 1771 1387 1738 1382 1692 1374 C 1645 1365 1610 1354 1587 1341 C 1554 1322 1526 1285 1504 1231 C 1481 1177 1460 1117 1442 1051 L 1276 471 C 1230 307 1159 182 1065 96 C 970 10 839 -33 672 -33 Z M 886 1575 C 854 1575 830 1585 812 1606 C 794 1627 786 1651 786 1679 C 786 1711 797 1740 821 1766 C 844 1791 875 1804 913 1804 C 940 1804 963 1793 981 1771 C 999 1749 1009 1726 1009 1702 C 1009 1669 998 1640 976 1614 C 954 1588 924 1575 886 1575 Z M 1294 1575 C 1262 1575 1237 1585 1220 1606 C 1202 1627 1194 1651 1194 1679 C 1194 1711 1205 1740 1228 1766 C 1251 1791 1282 1804 1321 1804 C 1348 1804 1370 1793 1388 1771 C 1406 1749 1415 1726 1415 1702 C 1415 1669 1404 1640 1382 1614 C 1360 1588 1330 1575 1294 1575 Z" unicode="Ü" />
<glyph horiz-adv-x="1296" d="M 229 0 L 233 10 C 250 10 275 13 307 17 C 339 21 363 25 379 31 C 405 39 425 54 438 74 C 450 94 459 113 463 131 L 594 666 C 604 710 610 759 612 813 C 613 867 614 910 614 944 C 614 1032 596 1115 562 1193 C 527 1270 461 1309 365 1309 C 317 1309 271 1292 226 1259 C 181 1225 146 1173 121 1102 L 106 1108 C 142 1212 189 1291 249 1344 C 309 1396 380 1423 463 1423 C 567 1423 646 1384 700 1308 C 754 1231 784 1138 791 1028 C 793 992 792 948 789 898 C 786 848 782 802 776 762 L 795 762 C 821 831 848 893 876 948 C 904 1002 933 1053 963 1100 C 1028 1202 1096 1282 1167 1339 C 1237 1396 1304 1425 1368 1425 C 1416 1425 1451 1411 1473 1384 C 1494 1357 1505 1331 1505 1307 C 1505 1264 1494 1231 1472 1207 C 1450 1183 1422 1171 1386 1171 C 1346 1171 1319 1185 1304 1214 C 1289 1242 1282 1264 1282 1280 C 1282 1297 1284 1313 1289 1328 C 1294 1343 1301 1356 1311 1366 L 1303 1376 C 1261 1366 1212 1338 1157 1292 C 1102 1246 1043 1173 979 1073 C 950 1029 919 973 886 905 C 852 837 825 763 805 684 L 668 139 C 662 117 662 98 667 80 C 672 62 686 49 709 39 C 719 34 744 28 785 21 C 825 13 855 10 874 10 L 870 0 L 229 0 Z M 782 1476 L 774 1485 C 822 1539 871 1597 923 1659 C 974 1721 1012 1770 1038 1806 C 1059 1834 1081 1857 1104 1873 C 1126 1889 1151 1898 1179 1898 C 1201 1898 1219 1891 1233 1878 C 1246 1865 1253 1849 1253 1831 C 1253 1804 1243 1781 1224 1761 C 1204 1741 1180 1721 1151 1702 C 1118 1681 1066 1649 994 1607 C 922 1565 852 1521 782 1476 Z" unicode="Ý" />
<glyph horiz-adv-x="1245" d="M -82 0 L -78 10 C -58 10 -32 12 2 16 C 36 20 60 24 76 29 C 102 37 122 51 135 69 C 148 87 158 107 164 129 L 477 1255 C 481 1276 483 1296 482 1314 C 480 1332 468 1346 444 1358 C 430 1364 407 1370 376 1377 C 344 1383 320 1387 303 1389 L 305 1399 L 922 1399 L 920 1389 C 900 1386 876 1383 847 1379 C 817 1375 793 1370 774 1364 C 747 1356 726 1342 712 1324 C 698 1305 688 1285 682 1264 L 639 1112 L 817 1112 C 957 1112 1060 1082 1126 1024 C 1192 965 1223 890 1221 799 C 1215 659 1150 551 1026 477 C 901 402 743 365 553 365 L 432 365 L 369 135 C 362 114 361 95 365 79 C 369 62 382 49 403 39 C 415 33 439 26 474 20 C 508 14 535 10 555 10 L 553 0 L -82 0 Z M 438 383 L 545 383 C 685 383 794 418 873 488 C 952 558 994 654 999 776 C 1003 866 985 942 945 1003 C 904 1063 836 1094 741 1094 L 635 1094 L 438 383 Z" unicode="Þ" />
<glyph horiz-adv-x="1151" d="M -268 -483 C -338 -483 -388 -466 -418 -433 C -448 -399 -463 -364 -463 -326 C -463 -301 -453 -277 -435 -254 C -416 -230 -390 -219 -358 -219 C -334 -219 -310 -226 -286 -241 C -262 -256 -250 -281 -250 -315 C -250 -338 -258 -359 -274 -379 C -290 -399 -303 -416 -313 -432 C -312 -443 -306 -452 -296 -459 C -286 -465 -277 -469 -270 -469 C -194 -469 -133 -435 -87 -367 C -41 -299 6 -185 55 -25 C 105 139 151 303 193 468 C 235 632 280 803 326 981 C 346 1061 376 1138 416 1211 C 456 1284 507 1349 571 1405 C 613 1443 662 1472 719 1493 C 775 1513 837 1524 905 1524 C 991 1524 1056 1501 1100 1457 C 1143 1412 1165 1357 1165 1292 C 1165 1247 1158 1203 1144 1160 C 1130 1116 1113 1080 1092 1051 C 996 1017 928 981 887 943 C 845 905 825 865 825 821 C 825 776 836 734 858 695 C 880 655 904 617 932 580 C 960 540 987 498 1013 456 C 1039 413 1052 366 1053 315 C 1055 202 1021 116 953 58 C 884 0 808 -29 725 -29 C 641 -29 580 -9 541 30 C 502 69 483 110 483 152 C 483 187 494 218 518 245 C 541 271 569 285 602 285 C 629 285 652 277 670 261 C 688 245 698 225 698 201 C 698 182 692 165 682 151 C 672 136 657 127 639 123 C 623 119 609 116 597 115 C 584 113 578 106 578 94 C 578 62 593 36 623 16 C 653 -3 690 -14 733 -14 C 784 -14 825 5 855 45 C 885 85 901 135 901 197 C 901 249 890 295 870 336 C 849 376 825 415 799 451 C 770 488 743 526 718 566 C 692 605 680 650 680 700 C 680 749 697 796 731 842 C 765 888 822 933 903 977 C 941 1006 971 1049 994 1107 C 1017 1165 1029 1224 1030 1284 C 1030 1345 1016 1397 989 1441 C 961 1485 921 1507 868 1507 C 798 1507 734 1470 676 1397 C 617 1323 566 1211 522 1059 C 484 927 441 765 393 573 C 345 381 298 209 252 57 C 226 -24 194 -101 155 -173 C 116 -245 70 -307 16 -358 C -24 -396 -69 -427 -118 -449 C -167 -471 -217 -483 -268 -483 Z" unicode="ß" />
<glyph horiz-adv-x="1120" d="M 317 -27 C 247 -27 185 -4 129 42 C 73 88 45 171 45 293 C 45 441 100 588 210 734 C 320 879 452 952 606 952 C 668 952 716 934 750 900 C 784 866 804 831 811 795 L 815 795 L 866 940 L 1040 940 L 807 264 C 792 224 781 190 775 162 C 768 134 764 110 764 92 C 763 63 768 42 780 29 C 791 16 805 10 823 10 C 870 10 916 35 962 85 C 1008 135 1047 204 1081 291 L 1098 287 C 1061 195 1019 120 971 62 C 923 4 861 -25 784 -25 C 731 -25 689 -7 657 29 C 625 65 618 123 637 205 L 631 207 C 595 139 550 83 497 39 C 443 -4 383 -27 317 -27 Z M 362 27 C 415 23 463 40 507 76 C 551 112 590 163 625 227 L 801 760 C 793 808 774 846 742 875 C 710 903 667 918 614 918 C 515 918 427 839 349 683 C 271 527 233 375 233 227 C 233 157 244 106 268 75 C 291 43 322 27 362 27 Z M 830 1083 C 778 1129 728 1173 679 1217 C 629 1261 592 1293 568 1315 C 544 1332 526 1350 515 1368 C 503 1386 498 1406 498 1427 C 498 1448 505 1466 520 1482 C 535 1497 554 1505 578 1505 C 603 1505 624 1496 640 1479 C 656 1461 672 1437 686 1407 C 702 1372 725 1324 755 1264 C 785 1204 812 1146 838 1090 L 830 1083 Z" unicode="à" />
<glyph horiz-adv-x="1120" d="M 317 -27 C 247 -27 185 -4 129 42 C 73 88 45 171 45 293 C 45 441 100 588 210 734 C 320 879 452 952 606 952 C 668 952 716 934 750 900 C 784 866 804 831 811 795 L 815 795 L 866 940 L 1040 940 L 807 264 C 792 224 781 190 775 162 C 768 134 764 110 764 92 C 763 63 768 42 780 29 C 791 16 805 10 823 10 C 870 10 916 35 962 85 C 1008 135 1047 204 1081 291 L 1098 287 C 1061 195 1019 120 971 62 C 923 4 861 -25 784 -25 C 731 -25 689 -7 657 29 C 625 65 618 123 637 205 L 631 207 C 595 139 550 83 497 39 C 443 -4 383 -27 317 -27 Z M 362 27 C 415 23 463 40 507 76 C 551 112 590 163 625 227 L 801 760 C 793 808 774 846 742 875 C 710 903 667 918 614 918 C 515 918 427 839 349 683 C 271 527 233 375 233 227 C 233 157 244 106 268 75 C 291 43 322 27 362 27 Z M 557 1083 L 549 1092 C 597 1146 646 1204 698 1266 C 749 1328 787 1377 813 1413 C 834 1441 856 1464 879 1480 C 901 1496 926 1505 954 1505 C 976 1505 994 1498 1008 1485 C 1021 1472 1028 1456 1028 1438 C 1028 1411 1018 1388 999 1368 C 979 1348 955 1328 926 1309 C 893 1288 841 1256 769 1214 C 697 1172 627 1128 557 1083 Z" unicode="á" />
<glyph horiz-adv-x="1120" d="M 317 -27 C 247 -27 185 -4 129 42 C 73 88 45 171 45 293 C 45 441 100 588 210 734 C 320 879 452 952 606 952 C 668 952 716 934 750 900 C 784 866 804 831 811 795 L 815 795 L 866 940 L 1040 940 L 807 264 C 792 224 781 190 775 162 C 768 134 764 110 764 92 C 763 63 768 42 780 29 C 791 16 805 10 823 10 C 870 10 916 35 962 85 C 1008 135 1047 204 1081 291 L 1098 287 C 1061 195 1019 120 971 62 C 923 4 861 -25 784 -25 C 731 -25 689 -7 657 29 C 625 65 618 123 637 205 L 631 207 C 595 139 550 83 497 39 C 443 -4 383 -27 317 -27 Z M 362 27 C 415 23 463 40 507 76 C 551 112 590 163 625 227 L 801 760 C 793 808 774 846 742 875 C 710 903 667 918 614 918 C 515 918 427 839 349 683 C 271 527 233 375 233 227 C 233 157 244 106 268 75 C 291 43 322 27 362 27 Z M 382 1085 L 372 1094 C 426 1155 486 1223 554 1297 C 621 1371 670 1426 700 1460 C 714 1476 727 1487 739 1492 C 751 1496 770 1499 798 1499 C 821 1499 837 1496 845 1491 C 853 1486 861 1477 868 1464 C 880 1431 902 1376 934 1300 C 966 1223 994 1154 1019 1092 L 1007 1085 L 765 1358 L 382 1085 Z" unicode="â" />
<glyph horiz-adv-x="1120" d="M 317 -27 C 247 -27 185 -4 129 42 C 73 88 45 171 45 293 C 45 441 100 588 210 734 C 320 879 452 952 606 952 C 668 952 716 934 750 900 C 784 866 804 831 811 795 L 815 795 L 866 940 L 1040 940 L 807 264 C 792 224 781 190 775 162 C 768 134 764 110 764 92 C 763 63 768 42 780 29 C 791 16 805 10 823 10 C 870 10 916 35 962 85 C 1008 135 1047 204 1081 291 L 1098 287 C 1061 195 1019 120 971 62 C 923 4 861 -25 784 -25 C 731 -25 689 -7 657 29 C 625 65 618 123 637 205 L 631 207 C 595 139 550 83 497 39 C 443 -4 383 -27 317 -27 Z M 362 27 C 415 23 463 40 507 76 C 551 112 590 163 625 227 L 801 760 C 793 808 774 846 742 875 C 710 903 667 918 614 918 C 515 918 427 839 349 683 C 271 527 233 375 233 227 C 233 157 244 106 268 75 C 291 43 322 27 362 27 Z M 317 1123 L 303 1129 C 351 1208 402 1272 455 1322 C 507 1372 557 1397 604 1397 C 655 1397 704 1377 751 1339 C 797 1301 839 1282 876 1282 C 916 1282 956 1299 998 1333 C 1040 1367 1071 1400 1093 1432 L 1106 1428 C 1070 1361 1024 1298 968 1239 C 912 1180 857 1151 804 1151 C 756 1151 708 1170 659 1208 C 610 1246 568 1266 532 1266 C 490 1266 449 1250 409 1218 C 369 1186 338 1155 317 1123 Z" unicode="ã" />
<glyph horiz-adv-x="1120" d="M 317 -27 C 247 -27 185 -4 129 42 C 73 88 45 171 45 293 C 45 441 100 588 210 734 C 320 879 452 952 606 952 C 668 952 716 934 750 900 C 784 866 804 831 811 795 L 815 795 L 866 940 L 1040 940 L 807 264 C 792 224 781 190 775 162 C 768 134 764 110 764 92 C 763 63 768 42 780 29 C 791 16 805 10 823 10 C 870 10 916 35 962 85 C 1008 135 1047 204 1081 291 L 1098 287 C 1061 195 1019 120 971 62 C 923 4 861 -25 784 -25 C 731 -25 689 -7 657 29 C 625 65 618 123 637 205 L 631 207 C 595 139 550 83 497 39 C 443 -4 383 -27 317 -27 Z M 362 27 C 415 23 463 40 507 76 C 551 112 590 163 625 227 L 801 760 C 793 808 774 846 742 875 C 710 903 667 918 614 918 C 515 918 427 839 349 683 C 271 527 233 375 233 227 C 233 157 244 106 268 75 C 291 43 322 27 362 27 Z M 495 1152 C 463 1152 439 1162 421 1183 C 403 1204 395 1228 395 1256 C 395 1288 406 1317 430 1343 C 453 1368 484 1381 522 1381 C 549 1381 572 1370 590 1348 C 608 1326 618 1303 618 1279 C 618 1246 607 1217 585 1191 C 563 1165 533 1152 495 1152 Z M 903 1152 C 871 1152 846 1162 829 1183 C 811 1204 803 1228 803 1256 C 803 1288 814 1317 837 1343 C 860 1368 891 1381 930 1381 C 957 1381 979 1370 997 1348 C 1015 1326 1024 1303 1024 1279 C 1024 1246 1013 1217 991 1191 C 969 1165 939 1152 903 1152 Z" unicode="ä" />
<glyph horiz-adv-x="1120" d="M 317 -27 C 247 -27 185 -4 129 42 C 73 88 45 171 45 293 C 45 441 100 588 210 734 C 320 879 452 952 606 952 C 668 952 716 934 750 900 C 784 866 804 831 811 795 L 815 795 L 866 940 L 1040 940 L 807 264 C 792 224 781 190 775 162 C 768 134 764 110 764 92 C 763 63 768 42 780 29 C 791 16 805 10 823 10 C 870 10 916 35 962 85 C 1008 135 1047 204 1081 291 L 1098 287 C 1061 195 1019 120 971 62 C 923 4 861 -25 784 -25 C 731 -25 689 -7 657 29 C 625 65 618 123 637 205 L 631 207 C 595 139 550 83 497 39 C 443 -4 383 -27 317 -27 Z M 362 27 C 415 23 463 40 507 76 C 551 112 590 163 625 227 L 801 760 C 793 808 774 846 742 875 C 710 903 667 918 614 918 C 515 918 427 839 349 683 C 271 527 233 375 233 227 C 233 157 244 106 268 75 C 291 43 322 27 362 27 Z M 710 1083 C 648 1083 597 1099 557 1133 C 517 1166 498 1208 501 1260 C 503 1327 533 1381 591 1423 C 649 1464 710 1485 776 1485 C 835 1485 885 1468 926 1436 C 966 1404 985 1361 983 1307 C 979 1243 950 1190 896 1147 C 841 1104 779 1083 710 1083 Z M 710 1102 C 759 1102 798 1127 827 1177 C 855 1227 871 1276 874 1325 C 876 1365 869 1398 853 1425 C 837 1452 812 1466 776 1466 C 726 1466 687 1441 658 1392 C 629 1343 614 1293 612 1241 C 609 1202 615 1169 631 1142 C 647 1115 673 1102 710 1102 Z" unicode="å" />
<glyph horiz-adv-x="1442" d="M 317 -27 C 247 -27 185 -4 129 42 C 73 88 45 171 45 293 C 45 441 100 588 210 734 C 320 879 452 952 606 952 C 668 952 716 934 750 900 C 784 866 804 831 811 795 L 815 795 L 866 940 L 999 940 L 965 838 C 1001 871 1042 898 1090 920 C 1137 941 1188 952 1243 952 C 1296 952 1343 939 1383 914 C 1423 889 1444 853 1444 807 C 1444 707 1390 626 1284 562 C 1178 498 1043 461 879 449 C 871 416 865 380 861 341 C 856 301 854 265 854 233 C 854 169 867 118 895 81 C 923 43 962 25 1014 25 C 1089 25 1158 53 1221 109 C 1284 165 1336 231 1376 309 L 1391 301 C 1329 181 1261 96 1189 46 C 1117 -3 1045 -29 973 -29 C 901 -29 834 -8 772 33 C 710 75 674 151 664 262 C 612 162 559 89 504 43 C 449 -3 387 -27 317 -27 Z M 362 27 C 415 23 463 40 507 76 C 551 112 590 163 625 227 L 801 760 C 793 808 774 846 742 875 C 710 903 667 918 614 918 C 515 918 427 839 349 683 C 271 527 233 375 233 227 C 233 157 244 106 268 75 C 291 43 322 27 362 27 Z M 881 461 C 1021 479 1125 523 1192 593 C 1258 663 1292 733 1292 803 C 1292 841 1284 873 1270 898 C 1255 923 1232 936 1202 936 C 1138 936 1076 886 1015 787 C 954 688 909 579 881 461 Z" unicode="æ" />
<glyph horiz-adv-x="825" d="M 45 -469 L 49 -453 C 123 -452 194 -439 262 -414 C 329 -388 364 -351 367 -303 C 367 -275 355 -256 331 -246 C 307 -236 271 -231 223 -231 L 287 -23 C 217 -13 158 18 112 72 C 66 126 43 203 43 303 C 43 449 99 593 213 737 C 326 880 456 952 602 952 C 667 952 720 933 762 897 C 804 861 825 814 825 756 C 825 716 815 686 795 666 C 775 646 751 637 725 637 C 697 637 673 645 652 661 C 631 677 621 700 621 729 C 621 753 631 777 652 799 C 673 821 701 837 735 848 C 732 870 718 891 694 910 C 669 928 640 938 606 938 C 516 938 433 860 355 704 C 277 548 238 393 238 238 C 238 166 252 112 282 74 C 311 36 351 18 401 18 C 475 18 544 45 606 101 C 668 157 720 223 762 301 L 776 295 C 731 211 673 136 603 70 C 532 4 450 -29 356 -29 C 347 -29 339 -28 331 -28 C 323 -28 314 -27 305 -27 L 281 -109 C 337 -107 389 -117 439 -138 C 488 -159 512 -196 512 -250 C 510 -331 459 -388 361 -422 C 263 -456 157 -471 45 -469 Z" unicode="ç" />
<glyph horiz-adv-x="823" d="M 354 -29 C 266 -29 192 -1 132 52 C 72 106 43 191 43 307 C 43 445 100 587 214 733 C 328 879 465 952 625 952 C 677 952 724 939 764 914 C 804 889 825 853 825 807 C 825 700 768 616 656 556 C 544 495 412 459 262 449 C 254 416 247 380 243 341 C 238 301 236 265 236 233 C 236 169 249 118 277 81 C 305 43 344 25 395 25 C 470 25 539 53 602 109 C 665 165 718 231 760 309 L 774 301 C 710 181 643 96 571 46 C 499 -3 427 -29 354 -29 Z M 264 461 C 412 482 517 528 580 600 C 642 672 674 739 674 803 C 674 841 666 873 652 898 C 638 923 615 936 584 936 C 522 936 460 886 399 787 C 337 688 292 579 264 461 Z M 718 1083 C 666 1129 616 1173 567 1217 C 517 1261 480 1293 456 1315 C 432 1332 414 1350 403 1368 C 391 1386 386 1406 386 1427 C 386 1448 393 1466 408 1482 C 423 1497 442 1505 466 1505 C 491 1505 512 1496 528 1479 C 544 1461 560 1437 574 1407 C 590 1372 613 1324 643 1264 C 673 1204 700 1146 726 1090 L 718 1083 Z" unicode="è" />
<glyph horiz-adv-x="823" d="M 354 -29 C 266 -29 192 -1 132 52 C 72 106 43 191 43 307 C 43 445 100 587 214 733 C 328 879 465 952 625 952 C 677 952 724 939 764 914 C 804 889 825 853 825 807 C 825 700 768 616 656 556 C 544 495 412 459 262 449 C 254 416 247 380 243 341 C 238 301 236 265 236 233 C 236 169 249 118 277 81 C 305 43 344 25 395 25 C 470 25 539 53 602 109 C 665 165 718 231 760 309 L 774 301 C 710 181 643 96 571 46 C 499 -3 427 -29 354 -29 Z M 264 461 C 412 482 517 528 580 600 C 642 672 674 739 674 803 C 674 841 666 873 652 898 C 638 923 615 936 584 936 C 522 936 460 886 399 787 C 337 688 292 579 264 461 Z M 467 1083 L 459 1092 C 507 1146 556 1204 608 1266 C 659 1328 697 1377 723 1413 C 744 1441 766 1464 789 1480 C 811 1496 836 1505 864 1505 C 886 1505 904 1498 918 1485 C 931 1472 938 1456 938 1438 C 938 1411 928 1388 909 1368 C 889 1348 865 1328 836 1309 C 803 1288 751 1256 679 1214 C 607 1172 537 1128 467 1083 Z" unicode="é" />
<glyph horiz-adv-x="823" d="M 354 -29 C 266 -29 192 -1 132 52 C 72 106 43 191 43 307 C 43 445 100 587 214 733 C 328 879 465 952 625 952 C 677 952 724 939 764 914 C 804 889 825 853 825 807 C 825 700 768 616 656 556 C 544 495 412 459 262 449 C 254 416 247 380 243 341 C 238 301 236 265 236 233 C 236 169 249 118 277 81 C 305 43 344 25 395 25 C 470 25 539 53 602 109 C 665 165 718 231 760 309 L 774 301 C 710 181 643 96 571 46 C 499 -3 427 -29 354 -29 Z M 264 461 C 412 482 517 528 580 600 C 642 672 674 739 674 803 C 674 841 666 873 652 898 C 638 923 615 936 584 936 C 522 936 460 886 399 787 C 337 688 292 579 264 461 Z M 270 1053 L 260 1062 C 314 1123 374 1191 442 1265 C 509 1339 558 1394 588 1428 C 602 1444 615 1455 627 1460 C 639 1464 658 1467 686 1467 C 709 1467 725 1464 733 1459 C 741 1454 749 1445 756 1432 C 768 1399 790 1344 822 1268 C 854 1191 882 1122 907 1060 L 895 1053 L 653 1326 L 270 1053 Z" unicode="ê" />
<glyph horiz-adv-x="823" d="M 354 -29 C 266 -29 192 -1 132 52 C 72 106 43 191 43 307 C 43 445 100 587 214 733 C 328 879 465 952 625 952 C 677 952 724 939 764 914 C 804 889 825 853 825 807 C 825 700 768 616 656 556 C 544 495 412 459 262 449 C 254 416 247 380 243 341 C 238 301 236 265 236 233 C 236 169 249 118 277 81 C 305 43 344 25 395 25 C 470 25 539 53 602 109 C 665 165 718 231 760 309 L 774 301 C 710 181 643 96 571 46 C 499 -3 427 -29 354 -29 Z M 264 461 C 412 482 517 528 580 600 C 642 672 674 739 674 803 C 674 841 666 873 652 898 C 638 923 615 936 584 936 C 522 936 460 886 399 787 C 337 688 292 579 264 461 Z M 393 1152 C 361 1152 337 1162 319 1183 C 301 1204 293 1228 293 1256 C 293 1288 304 1317 328 1343 C 351 1368 382 1381 420 1381 C 447 1381 470 1370 488 1348 C 506 1326 516 1303 516 1279 C 516 1246 505 1217 483 1191 C 461 1165 431 1152 393 1152 Z M 801 1152 C 769 1152 744 1162 727 1183 C 709 1204 701 1228 701 1256 C 701 1288 712 1317 735 1343 C 758 1368 789 1381 828 1381 C 855 1381 877 1370 895 1348 C 913 1326 922 1303 922 1279 C 922 1246 911 1217 889 1191 C 867 1165 837 1152 801 1152 Z" unicode="ë" />
<glyph horiz-adv-x="668" d="M 324 -23 C 274 -23 230 -11 192 12 C 154 36 135 79 135 141 C 135 165 138 190 146 216 C 153 241 163 271 176 307 L 315 664 C 331 708 343 744 351 773 C 358 802 362 826 362 846 C 362 869 357 886 347 896 C 337 906 322 911 303 911 C 256 911 212 887 171 839 C 130 791 93 723 59 637 L 45 641 C 81 731 122 806 166 864 C 210 922 270 952 346 952 C 394 952 436 937 471 907 C 506 877 524 832 524 772 C 524 749 517 717 505 677 C 492 637 479 601 467 571 L 350 270 C 330 221 317 182 310 152 C 302 122 299 98 299 80 C 299 58 305 43 318 33 C 331 23 347 18 367 18 C 413 18 457 41 499 89 C 541 137 578 204 612 291 L 627 287 C 592 195 552 121 506 63 C 460 5 400 -23 324 -23 Z M 574 1083 C 522 1129 472 1173 423 1217 C 373 1261 336 1293 312 1315 C 288 1332 270 1350 259 1368 C 247 1386 242 1406 242 1427 C 242 1448 249 1466 264 1482 C 279 1497 298 1505 322 1505 C 347 1505 368 1496 384 1479 C 400 1461 416 1437 430 1407 C 446 1372 469 1324 499 1264 C 529 1204 556 1146 582 1090 L 574 1083 Z" unicode="ì" />
<glyph horiz-adv-x="668" d="M 246 1083 L 238 1092 C 286 1146 335 1204 387 1266 C 438 1328 476 1377 502 1413 C 523 1441 545 1464 568 1480 C 590 1496 615 1505 643 1505 C 665 1505 683 1498 697 1485 C 710 1472 717 1456 717 1438 C 717 1411 707 1388 688 1368 C 668 1348 644 1328 615 1309 C 582 1288 530 1256 458 1214 C 386 1172 316 1128 246 1083 Z M 324 -23 C 274 -23 230 -11 192 12 C 154 36 135 79 135 141 C 135 165 138 190 146 216 C 153 241 163 271 176 307 L 315 664 C 331 708 343 744 351 773 C 358 802 362 826 362 846 C 362 869 357 886 347 896 C 337 906 322 911 303 911 C 256 911 212 887 171 839 C 130 791 93 723 59 637 L 45 641 C 81 731 122 806 166 864 C 210 922 270 952 346 952 C 394 952 436 937 471 907 C 506 877 524 832 524 772 C 524 749 517 717 505 677 C 492 637 479 601 467 571 L 350 270 C 330 221 317 182 310 152 C 302 122 299 98 299 80 C 299 58 305 43 318 33 C 331 23 347 18 367 18 C 413 18 457 41 499 89 C 541 137 578 204 612 291 L 627 287 C 592 195 552 121 506 63 C 460 5 400 -23 324 -23 Z" unicode="í" />
<glyph horiz-adv-x="668" d="M 94 1085 L 84 1094 C 138 1155 198 1223 266 1297 C 333 1371 382 1426 412 1460 C 426 1476 439 1487 451 1492 C 463 1496 482 1499 510 1499 C 533 1499 549 1496 557 1491 C 565 1486 573 1477 580 1464 C 592 1431 614 1376 646 1300 C 678 1223 706 1154 731 1092 L 719 1085 L 477 1358 L 94 1085 Z M 324 -23 C 274 -23 230 -11 192 12 C 154 36 135 79 135 141 C 135 165 138 190 146 216 C 153 241 163 271 176 307 L 315 664 C 331 708 343 744 351 773 C 358 802 362 826 362 846 C 362 869 357 886 347 896 C 337 906 322 911 303 911 C 256 911 212 887 171 839 C 130 791 93 723 59 637 L 45 641 C 81 731 122 806 166 864 C 210 922 270 952 346 952 C 394 952 436 937 471 907 C 506 877 524 832 524 772 C 524 749 517 717 505 677 C 492 637 479 601 467 571 L 350 270 C 330 221 317 182 310 152 C 302 122 299 98 299 80 C 299 58 305 43 318 33 C 331 23 347 18 367 18 C 413 18 457 41 499 89 C 541 137 578 204 612 291 L 627 287 C 592 195 552 121 506 63 C 460 5 400 -23 324 -23 Z" unicode="î" />
<glyph horiz-adv-x="668" d="M 223 1152 C 191 1152 167 1162 149 1183 C 131 1204 123 1228 123 1256 C 123 1288 134 1317 158 1343 C 181 1368 212 1381 250 1381 C 277 1381 300 1370 318 1348 C 336 1326 346 1303 346 1279 C 346 1246 335 1217 313 1191 C 291 1165 261 1152 223 1152 Z M 631 1152 C 599 1152 574 1162 557 1183 C 539 1204 531 1228 531 1256 C 531 1288 542 1317 565 1343 C 588 1368 619 1381 658 1381 C 685 1381 707 1370 725 1348 C 743 1326 752 1303 752 1279 C 752 1246 741 1217 719 1191 C 697 1165 667 1152 631 1152 Z M 324 -23 C 274 -23 230 -11 192 12 C 154 36 135 79 135 141 C 135 165 138 190 146 216 C 153 241 163 271 176 307 L 315 664 C 331 708 343 744 351 773 C 358 802 362 826 362 846 C 362 869 357 886 347 896 C 337 906 322 911 303 911 C 256 911 212 887 171 839 C 130 791 93 723 59 637 L 45 641 C 81 731 122 806 166 864 C 210 922 270 952 346 952 C 394 952 436 937 471 907 C 506 877 524 832 524 772 C 524 749 517 717 505 677 C 492 637 479 601 467 571 L 350 270 C 330 221 317 182 310 152 C 302 122 299 98 299 80 C 299 58 305 43 318 33 C 331 23 347 18 367 18 C 413 18 457 41 499 89 C 541 137 578 204 612 291 L 627 287 C 592 195 552 121 506 63 C 460 5 400 -23 324 -23 Z" unicode="ï" />
<glyph horiz-adv-x="983" d="M 358 -29 C 275 -29 203 2 142 66 C 81 130 51 220 51 338 C 51 481 106 619 218 752 C 330 885 460 952 608 952 C 646 952 683 942 719 922 C 755 902 782 875 799 842 L 803 842 C 809 917 807 994 796 1072 C 785 1150 761 1228 725 1305 L 492 1135 L 473 1167 L 709 1337 C 690 1367 669 1399 646 1431 C 622 1463 597 1491 571 1516 L 582 1526 C 615 1505 649 1482 683 1457 C 717 1431 746 1406 772 1382 L 971 1526 L 991 1495 L 799 1354 C 869 1274 917 1189 943 1099 C 969 1008 983 921 983 838 C 983 599 922 395 802 225 C 682 55 534 -29 358 -29 Z M 385 -12 C 484 -12 570 64 642 217 C 714 369 750 521 750 672 C 750 760 735 826 707 870 C 678 914 644 936 604 936 C 505 936 419 860 346 708 C 272 556 236 404 236 254 C 236 158 250 90 279 49 C 307 8 343 -12 385 -12 Z" unicode="ð" />
<glyph horiz-adv-x="1217" d="M 889 -23 C 838 -23 792 -11 752 13 C 712 37 692 79 692 141 C 692 165 696 191 704 217 C 712 243 723 273 735 307 L 860 635 C 873 671 884 704 893 734 C 902 764 907 788 907 807 C 907 845 895 869 871 880 C 847 891 823 897 799 897 C 731 897 672 870 621 818 C 569 765 528 710 498 653 L 283 0 L 94 0 L 315 655 C 331 703 344 743 352 777 C 360 810 365 836 365 856 C 365 877 359 892 348 900 C 337 908 324 913 309 913 C 261 913 216 888 176 840 C 136 791 99 723 66 637 L 49 641 C 85 731 126 806 170 864 C 214 922 274 952 350 952 C 402 952 445 932 480 893 C 514 853 522 792 504 709 L 508 707 C 550 778 602 837 662 883 C 722 929 782 952 842 952 C 915 952 971 930 1009 886 C 1047 842 1067 793 1067 739 C 1067 716 1063 689 1055 658 C 1047 626 1038 597 1028 571 L 914 270 C 898 229 886 192 876 158 C 866 124 862 98 862 82 C 862 56 869 39 884 31 C 898 22 915 18 934 18 C 980 18 1024 41 1065 89 C 1105 137 1143 204 1178 291 L 1194 287 C 1157 195 1116 121 1072 63 C 1027 5 966 -23 889 -23 Z M 411 1123 L 397 1129 C 445 1208 496 1272 549 1322 C 601 1372 651 1397 698 1397 C 749 1397 798 1377 845 1339 C 891 1301 933 1282 970 1282 C 1010 1282 1050 1299 1092 1333 C 1134 1367 1165 1400 1187 1432 L 1200 1428 C 1164 1361 1118 1298 1062 1239 C 1006 1180 951 1151 898 1151 C 850 1151 802 1170 753 1208 C 704 1246 662 1266 626 1266 C 584 1266 543 1250 503 1218 C 463 1186 432 1155 411 1123 Z" unicode="ñ" />
<glyph horiz-adv-x="983" d="M 363 -29 C 282 -29 209 1 144 62 C 79 123 47 215 47 338 C 47 476 103 613 216 749 C 328 884 459 952 608 952 C 697 952 773 920 836 857 C 898 793 930 702 930 584 C 930 445 874 308 762 173 C 650 38 517 -29 363 -29 Z M 379 -12 C 477 -12 563 63 635 215 C 707 366 744 519 744 674 C 744 768 730 836 702 876 C 674 916 640 936 600 936 C 503 936 417 860 343 710 C 269 560 232 408 232 254 C 232 158 246 90 275 49 C 303 8 338 -12 379 -12 Z M 769 1083 C 717 1129 667 1173 618 1217 C 568 1261 531 1293 507 1315 C 483 1332 465 1350 454 1368 C 442 1386 437 1406 437 1427 C 437 1448 444 1466 459 1482 C 474 1497 493 1505 517 1505 C 542 1505 563 1496 579 1479 C 595 1461 611 1437 625 1407 C 641 1372 664 1324 694 1264 C 724 1204 751 1146 777 1090 L 769 1083 Z" unicode="ò" />
<glyph horiz-adv-x="983" d="M 363 -29 C 282 -29 209 1 144 62 C 79 123 47 215 47 338 C 47 476 103 613 216 749 C 328 884 459 952 608 952 C 697 952 773 920 836 857 C 898 793 930 702 930 584 C 930 445 874 308 762 173 C 650 38 517 -29 363 -29 Z M 379 -12 C 477 -12 563 63 635 215 C 707 366 744 519 744 674 C 744 768 730 836 702 876 C 674 916 640 936 600 936 C 503 936 417 860 343 710 C 269 560 232 408 232 254 C 232 158 246 90 275 49 C 303 8 338 -12 379 -12 Z M 480 1083 L 472 1092 C 520 1146 569 1204 621 1266 C 672 1328 710 1377 736 1413 C 757 1441 779 1464 802 1480 C 824 1496 849 1505 877 1505 C 899 1505 917 1498 931 1485 C 944 1472 951 1456 951 1438 C 951 1411 941 1388 922 1368 C 902 1348 878 1328 849 1309 C 816 1288 764 1256 692 1214 C 620 1172 550 1128 480 1083 Z" unicode="ó" />
<glyph horiz-adv-x="983" d="M 363 -29 C 282 -29 209 1 144 62 C 79 123 47 215 47 338 C 47 476 103 613 216 749 C 328 884 459 952 608 952 C 697 952 773 920 836 857 C 898 793 930 702 930 584 C 930 445 874 308 762 173 C 650 38 517 -29 363 -29 Z M 379 -12 C 477 -12 563 63 635 215 C 707 366 744 519 744 674 C 744 768 730 836 702 876 C 674 916 640 936 600 936 C 503 936 417 860 343 710 C 269 560 232 408 232 254 C 232 158 246 90 275 49 C 303 8 338 -12 379 -12 Z M 299 1053 L 289 1062 C 343 1123 403 1191 471 1265 C 538 1339 587 1394 617 1428 C 631 1444 644 1455 656 1460 C 668 1464 687 1467 715 1467 C 738 1467 754 1464 762 1459 C 770 1454 778 1445 785 1432 C 797 1399 819 1344 851 1268 C 883 1191 911 1122 936 1060 L 924 1053 L 682 1326 L 299 1053 Z" unicode="ô" />
<glyph horiz-adv-x="983" d="M 363 -29 C 282 -29 209 1 144 62 C 79 123 47 215 47 338 C 47 476 103 613 216 749 C 328 884 459 952 608 952 C 697 952 773 920 836 857 C 898 793 930 702 930 584 C 930 445 874 308 762 173 C 650 38 517 -29 363 -29 Z M 379 -12 C 477 -12 563 63 635 215 C 707 366 744 519 744 674 C 744 768 730 836 702 876 C 674 916 640 936 600 936 C 503 936 417 860 343 710 C 269 560 232 408 232 254 C 232 158 246 90 275 49 C 303 8 338 -12 379 -12 Z M 273 1101 L 259 1107 C 307 1186 358 1250 411 1300 C 463 1350 513 1375 560 1375 C 611 1375 660 1355 707 1317 C 753 1279 795 1260 832 1260 C 872 1260 912 1277 954 1311 C 996 1345 1027 1378 1049 1410 L 1062 1406 C 1026 1339 980 1276 924 1217 C 868 1158 813 1129 760 1129 C 712 1129 664 1148 615 1186 C 566 1224 524 1244 488 1244 C 446 1244 405 1228 365 1196 C 325 1164 294 1133 273 1101 Z" unicode="õ" />
<glyph horiz-adv-x="983" d="M 363 -29 C 282 -29 209 1 144 62 C 79 123 47 215 47 338 C 47 476 103 613 216 749 C 328 884 459 952 608 952 C 697 952 773 920 836 857 C 898 793 930 702 930 584 C 930 445 874 308 762 173 C 650 38 517 -29 363 -29 Z M 379 -12 C 477 -12 563 63 635 215 C 707 366 744 519 744 674 C 744 768 730 836 702 876 C 674 916 640 936 600 936 C 503 936 417 860 343 710 C 269 560 232 408 232 254 C 232 158 246 90 275 49 C 303 8 338 -12 379 -12 Z M 438 1152 C 406 1152 382 1162 364 1183 C 346 1204 338 1228 338 1256 C 338 1288 349 1317 373 1343 C 396 1368 427 1381 465 1381 C 492 1381 515 1370 533 1348 C 551 1326 561 1303 561 1279 C 561 1246 550 1217 528 1191 C 506 1165 476 1152 438 1152 Z M 846 1152 C 814 1152 789 1162 772 1183 C 754 1204 746 1228 746 1256 C 746 1288 757 1317 780 1343 C 803 1368 834 1381 873 1381 C 900 1381 922 1370 940 1348 C 958 1326 967 1303 967 1279 C 967 1246 956 1217 934 1191 C 912 1165 882 1152 846 1152 Z" unicode="ö" />
<glyph horiz-adv-x="1145" d="M 582 125 C 553 125 529 135 509 155 C 489 175 479 199 479 229 C 479 257 489 282 509 303 C 529 323 553 334 582 334 C 611 334 636 323 657 303 C 677 282 688 257 688 229 C 688 199 677 175 657 155 C 636 135 611 125 582 125 Z M 582 729 C 553 729 529 738 509 758 C 489 778 479 802 479 831 C 479 861 489 886 509 906 C 529 926 553 936 582 936 C 611 936 636 926 657 906 C 677 886 688 861 688 831 C 688 802 677 778 657 758 C 636 738 611 729 582 729 Z M 92 496 L 92 567 L 1073 567 L 1073 496 L 92 496 Z" unicode="÷" />
<glyph horiz-adv-x="983" d="M 12 -74 L -2 -59 L 129 86 C 104 115 85 151 71 193 C 57 235 51 284 51 338 C 51 477 107 614 220 749 C 332 884 463 952 612 952 C 654 952 694 944 733 929 C 771 913 806 890 836 860 L 958 997 L 973 981 L 850 844 C 875 813 895 776 911 733 C 926 689 934 640 934 584 C 934 444 878 307 766 173 C 654 38 521 -29 367 -29 C 325 -29 284 -20 245 -4 C 205 12 171 38 143 72 L 12 -74 Z M 383 -12 C 481 -12 562 58 628 198 C 693 338 729 470 735 596 C 735 619 736 641 736 663 C 736 684 735 704 735 723 L 246 176 C 248 159 250 144 253 130 C 256 116 259 103 262 92 C 274 54 291 27 313 11 C 334 -4 357 -12 383 -12 Z M 244 205 L 733 754 C 732 766 731 778 730 790 C 729 801 727 812 725 823 C 713 865 696 895 673 911 C 650 927 627 936 604 936 C 507 936 424 866 356 727 C 287 588 250 451 244 315 C 243 295 243 276 243 258 C 243 240 243 222 244 205 Z" unicode="ø" />
<glyph horiz-adv-x="1204" d="M 377 -27 C 309 -27 254 -5 212 37 C 170 79 150 135 150 203 C 150 217 153 238 161 267 C 168 296 178 325 190 354 L 305 655 C 322 699 334 737 342 768 C 350 798 354 822 354 840 C 354 863 348 881 338 893 C 328 905 314 911 297 911 C 251 911 208 887 168 839 C 128 791 91 723 57 637 L 41 641 C 77 731 116 805 160 862 C 203 919 263 948 340 948 C 392 948 436 935 470 909 C 504 883 522 841 522 784 C 522 759 518 734 511 709 C 503 684 493 654 481 618 L 352 291 C 339 255 329 223 322 197 C 314 170 311 145 311 123 C 311 95 319 72 336 53 C 353 34 381 25 420 25 C 481 25 536 46 585 90 C 634 133 676 184 711 242 L 928 924 L 1114 924 L 897 270 C 887 240 878 209 870 175 C 862 141 858 113 858 92 C 858 71 864 54 876 40 C 888 26 902 20 920 20 C 964 20 1008 43 1050 91 C 1092 139 1129 206 1163 293 L 1180 287 C 1142 195 1100 121 1055 63 C 1010 5 951 -23 877 -23 C 821 -23 777 -4 744 32 C 710 68 699 125 711 203 L 707 205 C 666 134 615 78 555 36 C 494 -6 435 -27 377 -27 Z M 874 1083 C 822 1129 772 1173 723 1217 C 673 1261 636 1293 612 1315 C 588 1332 570 1350 559 1368 C 547 1386 542 1406 542 1427 C 542 1448 549 1466 564 1482 C 579 1497 598 1505 622 1505 C 647 1505 668 1496 684 1479 C 700 1461 716 1437 730 1407 C 746 1372 769 1324 799 1264 C 829 1204 856 1146 882 1090 L 874 1083 Z" unicode="ù" />
<glyph horiz-adv-x="1204" d="M 377 -27 C 309 -27 254 -5 212 37 C 170 79 150 135 150 203 C 150 217 153 238 161 267 C 168 296 178 325 190 354 L 305 655 C 322 699 334 737 342 768 C 350 798 354 822 354 840 C 354 863 348 881 338 893 C 328 905 314 911 297 911 C 251 911 208 887 168 839 C 128 791 91 723 57 637 L 41 641 C 77 731 116 805 160 862 C 203 919 263 948 340 948 C 392 948 436 935 470 909 C 504 883 522 841 522 784 C 522 759 518 734 511 709 C 503 684 493 654 481 618 L 352 291 C 339 255 329 223 322 197 C 314 170 311 145 311 123 C 311 95 319 72 336 53 C 353 34 381 25 420 25 C 481 25 536 46 585 90 C 634 133 676 184 711 242 L 928 924 L 1114 924 L 897 270 C 887 240 878 209 870 175 C 862 141 858 113 858 92 C 858 71 864 54 876 40 C 888 26 902 20 920 20 C 964 20 1008 43 1050 91 C 1092 139 1129 206 1163 293 L 1180 287 C 1142 195 1100 121 1055 63 C 1010 5 951 -23 877 -23 C 821 -23 777 -4 744 32 C 710 68 699 125 711 203 L 707 205 C 666 134 615 78 555 36 C 494 -6 435 -27 377 -27 Z M 595 1083 L 587 1092 C 635 1146 684 1204 736 1266 C 787 1328 825 1377 851 1413 C 872 1441 894 1464 917 1480 C 939 1496 964 1505 992 1505 C 1014 1505 1032 1498 1046 1485 C 1059 1472 1066 1456 1066 1438 C 1066 1411 1056 1388 1037 1368 C 1017 1348 993 1328 964 1309 C 931 1288 879 1256 807 1214 C 735 1172 665 1128 595 1083 Z" unicode="ú" />
<glyph horiz-adv-x="1204" d="M 377 -27 C 309 -27 254 -5 212 37 C 170 79 150 135 150 203 C 150 217 153 238 161 267 C 168 296 178 325 190 354 L 305 655 C 322 699 334 737 342 768 C 350 798 354 822 354 840 C 354 863 348 881 338 893 C 328 905 314 911 297 911 C 251 911 208 887 168 839 C 128 791 91 723 57 637 L 41 641 C 77 731 116 805 160 862 C 203 919 263 948 340 948 C 392 948 436 935 470 909 C 504 883 522 841 522 784 C 522 759 518 734 511 709 C 503 684 493 654 481 618 L 352 291 C 339 255 329 223 322 197 C 314 170 311 145 311 123 C 311 95 319 72 336 53 C 353 34 381 25 420 25 C 481 25 536 46 585 90 C 634 133 676 184 711 242 L 928 924 L 1114 924 L 897 270 C 887 240 878 209 870 175 C 862 141 858 113 858 92 C 858 71 864 54 876 40 C 888 26 902 20 920 20 C 964 20 1008 43 1050 91 C 1092 139 1129 206 1163 293 L 1180 287 C 1142 195 1100 121 1055 63 C 1010 5 951 -23 877 -23 C 821 -23 777 -4 744 32 C 710 68 699 125 711 203 L 707 205 C 666 134 615 78 555 36 C 494 -6 435 -27 377 -27 Z M 425 1085 L 415 1094 C 469 1155 529 1223 597 1297 C 664 1371 713 1426 743 1460 C 757 1476 770 1487 782 1492 C 794 1496 813 1499 841 1499 C 864 1499 880 1496 888 1491 C 896 1486 904 1477 911 1464 C 923 1431 945 1376 977 1300 C 1009 1223 1037 1154 1062 1092 L 1050 1085 L 808 1358 L 425 1085 Z" unicode="û" />
<glyph horiz-adv-x="1204" d="M 377 -27 C 309 -27 254 -5 212 37 C 170 79 150 135 150 203 C 150 217 153 238 161 267 C 168 296 178 325 190 354 L 305 655 C 322 699 334 737 342 768 C 350 798 354 822 354 840 C 354 863 348 881 338 893 C 328 905 314 911 297 911 C 251 911 208 887 168 839 C 128 791 91 723 57 637 L 41 641 C 77 731 116 805 160 862 C 203 919 263 948 340 948 C 392 948 436 935 470 909 C 504 883 522 841 522 784 C 522 759 518 734 511 709 C 503 684 493 654 481 618 L 352 291 C 339 255 329 223 322 197 C 314 170 311 145 311 123 C 311 95 319 72 336 53 C 353 34 381 25 420 25 C 481 25 536 46 585 90 C 634 133 676 184 711 242 L 928 924 L 1114 924 L 897 270 C 887 240 878 209 870 175 C 862 141 858 113 858 92 C 858 71 864 54 876 40 C 888 26 902 20 920 20 C 964 20 1008 43 1050 91 C 1092 139 1129 206 1163 293 L 1180 287 C 1142 195 1100 121 1055 63 C 1010 5 951 -23 877 -23 C 821 -23 777 -4 744 32 C 710 68 699 125 711 203 L 707 205 C 666 134 615 78 555 36 C 494 -6 435 -27 377 -27 Z M 542 1152 C 510 1152 486 1162 468 1183 C 450 1204 442 1228 442 1256 C 442 1288 453 1317 477 1343 C 500 1368 531 1381 569 1381 C 596 1381 619 1370 637 1348 C 655 1326 665 1303 665 1279 C 665 1246 654 1217 632 1191 C 610 1165 580 1152 542 1152 Z M 950 1152 C 918 1152 893 1162 876 1183 C 858 1204 850 1228 850 1256 C 850 1288 861 1317 884 1343 C 907 1368 938 1381 977 1381 C 1004 1381 1026 1370 1044 1348 C 1062 1326 1071 1303 1071 1279 C 1071 1246 1060 1217 1038 1191 C 1016 1165 986 1152 950 1152 Z" unicode="ü" />
<glyph horiz-adv-x="1104" d="M 180 -489 C 92 -489 27 -471 -14 -437 C -56 -403 -78 -361 -78 -311 C -78 -265 -63 -230 -35 -207 C -6 -183 23 -172 55 -172 C 85 -172 109 -181 126 -199 C 143 -217 152 -237 152 -260 C 152 -290 144 -313 128 -328 C 112 -342 95 -351 76 -354 C 60 -356 46 -359 33 -361 C 19 -363 12 -372 12 -387 C 12 -417 29 -440 62 -454 C 95 -468 131 -475 170 -475 C 308 -475 421 -410 508 -280 C 594 -150 666 16 723 221 L 717 223 C 677 153 626 94 565 46 C 503 -2 441 -27 377 -27 C 309 -27 254 -4 212 41 C 170 87 150 141 150 203 C 150 217 153 238 161 267 C 168 296 178 325 190 354 L 305 655 C 321 697 334 734 342 766 C 350 798 354 822 354 840 C 354 863 348 881 338 893 C 328 905 314 911 297 911 C 251 911 208 887 168 839 C 128 791 91 723 57 637 L 41 641 C 77 737 117 812 163 866 C 208 920 267 948 340 948 C 394 948 438 935 472 909 C 505 883 522 841 522 784 C 522 759 518 734 511 709 C 503 684 493 654 481 618 L 352 291 C 339 255 329 223 322 197 C 314 170 311 145 311 123 C 311 95 319 72 336 53 C 353 34 381 25 420 25 C 481 25 536 47 586 91 C 635 135 681 194 723 266 L 930 924 L 1112 924 L 891 219 C 814 -25 716 -204 596 -318 C 476 -432 338 -489 180 -489 Z M 589 1083 L 581 1092 C 629 1146 678 1204 730 1266 C 781 1328 819 1377 845 1413 C 866 1441 888 1464 911 1480 C 933 1496 958 1505 986 1505 C 1008 1505 1026 1498 1040 1485 C 1053 1472 1060 1456 1060 1438 C 1060 1411 1050 1388 1031 1368 C 1011 1348 987 1328 958 1309 C 925 1288 873 1256 801 1214 C 729 1172 659 1128 589 1083 Z" unicode="ý" />
<glyph horiz-adv-x="1030" d="M -309 -479 L -307 -469 C -260 -467 -227 -462 -208 -455 C -189 -448 -174 -438 -162 -424 C -142 -402 -126 -374 -114 -340 C -102 -306 -92 -276 -84 -252 L 403 1274 C 414 1308 422 1336 427 1358 C 431 1380 434 1397 434 1411 C 434 1433 426 1449 410 1458 C 394 1467 374 1473 352 1477 C 326 1479 304 1481 285 1483 C 265 1484 243 1485 219 1487 L 219 1499 L 662 1520 L 455 885 C 443 852 434 825 426 803 C 418 781 407 757 395 731 L 401 729 C 443 791 490 844 544 887 C 597 930 655 952 717 952 C 798 952 863 925 913 873 C 962 821 987 739 987 629 C 987 477 933 329 826 187 C 719 44 586 -27 428 -27 C 376 -27 333 -11 299 19 C 264 50 239 92 223 145 L 219 145 L 98 -256 C 88 -287 80 -314 76 -338 C 72 -361 70 -379 70 -393 C 70 -415 78 -431 94 -440 C 110 -449 130 -455 154 -459 C 179 -461 199 -463 215 -464 C 230 -464 250 -465 274 -467 L 270 -479 L -309 -479 Z M 424 8 C 522 8 610 86 686 244 C 762 401 801 555 801 707 C 801 775 789 823 767 853 C 745 882 714 897 676 897 C 623 897 571 876 521 834 C 471 792 427 740 389 676 L 231 174 C 241 127 262 88 295 56 C 328 24 371 8 424 8 Z" unicode="þ" />
<glyph horiz-adv-x="1104" d="M 180 -489 C 92 -489 27 -471 -14 -437 C -56 -403 -78 -361 -78 -311 C -78 -265 -63 -230 -35 -207 C -6 -183 23 -172 55 -172 C 85 -172 109 -181 126 -199 C 143 -217 152 -237 152 -260 C 152 -290 144 -313 128 -328 C 112 -342 95 -351 76 -354 C 60 -356 46 -359 33 -361 C 19 -363 12 -372 12 -387 C 12 -417 29 -440 62 -454 C 95 -468 131 -475 170 -475 C 308 -475 421 -410 508 -280 C 594 -150 666 16 723 221 L 717 223 C 677 153 626 94 565 46 C 503 -2 441 -27 377 -27 C 309 -27 254 -4 212 41 C 170 87 150 141 150 203 C 150 217 153 238 161 267 C 168 296 178 325 190 354 L 305 655 C 321 697 334 734 342 766 C 350 798 354 822 354 840 C 354 863 348 881 338 893 C 328 905 314 911 297 911 C 251 911 208 887 168 839 C 128 791 91 723 57 637 L 41 641 C 77 737 117 812 163 866 C 208 920 267 948 340 948 C 394 948 438 935 472 909 C 505 883 522 841 522 784 C 522 759 518 734 511 709 C 503 684 493 654 481 618 L 352 291 C 339 255 329 223 322 197 C 314 170 311 145 311 123 C 311 95 319 72 336 53 C 353 34 381 25 420 25 C 481 25 536 47 586 91 C 635 135 681 194 723 266 L 930 924 L 1112 924 L 891 219 C 814 -25 716 -204 596 -318 C 476 -432 338 -489 180 -489 Z M 528 1152 C 496 1152 472 1162 454 1183 C 436 1204 428 1228 428 1256 C 428 1288 439 1317 463 1343 C 486 1368 517 1381 555 1381 C 582 1381 605 1370 623 1348 C 641 1326 651 1303 651 1279 C 651 1246 640 1217 618 1191 C 596 1165 566 1152 528 1152 Z M 936 1152 C 904 1152 879 1162 862 1183 C 844 1204 836 1228 836 1256 C 836 1288 847 1317 870 1343 C 893 1368 924 1381 963 1381 C 990 1381 1012 1370 1030 1348 C 1048 1326 1057 1303 1057 1279 C 1057 1246 1046 1217 1024 1191 C 1002 1165 972 1152 936 1152 Z" unicode="ÿ" />
<glyph horiz-adv-x="668" d="M 324 -23 C 274 -23 230 -11 192 12 C 154 36 135 79 135 141 C 135 165 138 190 146 216 C 153 241 163 271 176 307 L 315 664 C 331 708 343 744 351 773 C 358 802 362 826 362 846 C 362 869 357 886 347 896 C 337 906 322 911 303 911 C 256 911 212 887 171 839 C 130 791 93 723 59 637 L 45 641 C 81 731 122 806 166 864 C 210 922 270 952 346 952 C 394 952 436 937 471 907 C 506 877 524 832 524 772 C 524 749 517 717 505 677 C 492 637 479 601 467 571 L 350 270 C 330 221 317 182 310 152 C 302 122 299 98 299 80 C 299 58 305 43 318 33 C 331 23 347 18 367 18 C 413 18 457 41 499 89 C 541 137 578 204 612 291 L 627 287 C 592 195 552 121 506 63 C 460 5 400 -23 324 -23 Z" unicode="ı" />
<glyph horiz-adv-x="1272" d="M -96 0 L -92 10 C -74 10 -46 12 -6 16 C 34 20 62 26 80 33 C 105 41 124 54 137 72 C 150 89 160 109 166 133 L 307 635 C 278 626 235 612 177 593 C 119 574 90 565 90 565 L 80 602 C 80 602 111 612 175 633 C 239 653 286 669 317 680 L 477 1253 C 481 1274 483 1294 482 1313 C 480 1331 468 1346 444 1358 C 428 1364 403 1370 370 1377 C 336 1383 310 1387 291 1389 L 295 1399 L 934 1399 L 930 1389 C 910 1387 884 1384 851 1380 C 817 1375 791 1370 772 1366 C 745 1358 725 1344 711 1325 C 697 1305 688 1285 682 1264 L 537 743 L 915 868 L 924 831 C 924 831 868 813 758 777 C 648 741 570 714 526 698 L 387 201 C 381 178 376 158 372 140 C 368 122 367 107 367 94 C 367 62 383 41 413 31 C 443 21 495 16 571 16 C 629 16 691 18 759 22 C 826 26 871 37 895 55 C 931 85 982 139 1047 217 C 1112 295 1160 358 1190 406 L 1202 406 L 1063 0 L -96 0 Z" unicode="Ł" />
<glyph horiz-adv-x="586" d="M 254 -23 C 202 -23 158 -11 123 11 C 87 34 70 77 70 139 C 70 163 73 190 81 218 C 89 246 97 276 106 307 L 207 629 L 43 575 L 35 606 L 219 668 L 412 1276 C 422 1310 430 1338 435 1360 C 439 1382 442 1399 442 1413 C 442 1435 434 1451 418 1461 C 402 1470 382 1476 360 1479 C 334 1481 312 1483 293 1484 C 273 1485 251 1486 227 1487 L 227 1499 L 672 1520 L 418 727 L 616 795 L 623 762 L 408 688 L 270 258 C 256 214 245 178 238 151 C 230 124 227 99 227 76 C 227 54 233 38 245 28 C 257 17 274 12 295 12 C 343 12 387 36 429 86 C 470 136 508 204 543 291 L 559 287 C 521 193 479 118 435 62 C 391 5 330 -23 254 -23 Z" unicode="ł" />
<glyph horiz-adv-x="2054" d="M 627 0 C 485 0 361 44 255 133 C 149 222 96 354 96 530 C 96 664 122 788 176 900 C 229 1012 299 1107 387 1186 C 460 1252 544 1304 640 1342 C 735 1380 835 1399 940 1399 L 2116 1399 L 2025 1069 L 2011 1069 C 2007 1135 1993 1200 1971 1266 C 1949 1331 1914 1367 1868 1374 C 1846 1376 1820 1378 1789 1380 C 1758 1381 1726 1382 1694 1382 L 1473 1382 L 1292 741 L 1470 741 C 1524 741 1566 748 1596 763 C 1626 777 1649 791 1665 805 C 1685 821 1706 847 1728 882 C 1750 917 1770 958 1790 1006 L 1804 1006 L 1645 432 L 1632 432 C 1636 460 1638 499 1640 548 C 1641 597 1635 634 1622 659 C 1615 673 1601 688 1580 702 C 1558 716 1520 723 1464 723 L 1288 723 L 1141 197 C 1134 177 1129 160 1126 144 C 1123 128 1122 114 1122 102 C 1121 66 1136 43 1166 32 C 1196 21 1245 16 1313 16 C 1378 16 1446 18 1518 22 C 1589 26 1639 39 1669 63 C 1717 101 1769 158 1827 235 C 1884 311 1923 366 1944 399 L 1956 399 L 1821 0 L 627 0 Z M 633 18 C 694 18 745 24 786 36 C 826 48 858 71 881 104 C 914 151 945 223 975 321 C 1005 418 1044 555 1092 731 C 1123 847 1150 951 1172 1041 C 1194 1131 1204 1202 1200 1255 C 1196 1293 1174 1323 1135 1345 C 1095 1367 1026 1378 928 1378 C 848 1378 776 1360 711 1326 C 646 1291 589 1243 541 1182 C 467 1088 410 974 370 840 C 330 705 309 572 309 440 C 309 321 338 221 396 140 C 454 58 533 18 633 18 Z" unicode="Œ" />
<glyph horiz-adv-x="1473" d="M 367 -29 C 286 -29 213 1 148 62 C 83 123 51 215 51 338 C 51 477 107 614 219 749 C 331 884 462 952 612 952 C 671 952 726 935 776 903 C 826 871 864 822 889 756 C 935 812 991 858 1057 896 C 1123 933 1195 952 1274 952 C 1330 952 1378 939 1417 913 C 1455 887 1475 852 1475 807 C 1475 704 1421 621 1313 559 C 1205 497 1070 460 909 449 C 902 416 896 380 892 341 C 887 301 885 265 885 233 C 885 169 898 118 926 81 C 954 43 993 25 1044 25 C 1119 25 1188 53 1251 109 C 1314 165 1366 231 1407 309 L 1421 301 C 1359 181 1292 96 1220 46 C 1148 -3 1076 -29 1004 -29 C 945 -29 891 -15 843 10 C 794 36 757 80 731 141 C 687 92 633 51 571 19 C 508 -12 440 -29 367 -29 Z M 383 -12 C 493 -12 581 69 647 231 C 713 393 746 540 748 674 C 748 772 733 841 703 879 C 673 917 640 936 604 936 C 507 936 421 860 347 710 C 273 559 236 407 236 254 C 236 158 250 90 279 49 C 307 8 342 -12 383 -12 Z M 911 461 C 1061 482 1167 528 1229 600 C 1291 672 1323 739 1323 803 C 1323 844 1315 876 1300 900 C 1285 924 1263 936 1233 936 C 1171 936 1109 886 1048 787 C 986 688 941 579 911 461 Z" unicode="œ" />
<glyph horiz-adv-x="1102" d="M 451 -27 C 368 -27 290 -14 218 11 C 146 36 95 60 66 84 L -35 -20 L -49 -20 L 59 467 L 72 467 C 91 331 133 218 199 128 C 265 38 358 -6 479 -6 C 596 -6 685 28 746 97 C 807 165 838 237 838 313 C 838 380 822 434 791 474 C 760 514 681 568 553 637 C 432 701 348 763 302 821 C 255 879 235 947 242 1024 C 251 1134 300 1228 390 1308 C 479 1387 593 1427 733 1427 C 798 1427 862 1415 926 1393 C 990 1370 1035 1346 1063 1321 L 1155 1419 L 1171 1419 L 1061 950 L 1049 950 C 1033 1086 1000 1197 949 1281 C 898 1365 819 1407 713 1407 C 630 1407 557 1379 494 1325 C 430 1270 399 1201 399 1118 C 399 1040 419 981 460 940 C 501 899 564 857 649 813 C 791 738 886 675 933 625 C 980 575 1004 505 1004 416 C 1004 295 951 191 847 104 C 742 16 610 -27 451 -27 Z M 778 1495 C 753 1495 736 1497 728 1502 C 719 1507 712 1516 706 1530 C 693 1562 671 1617 639 1694 C 607 1770 580 1840 557 1902 L 567 1909 L 809 1636 L 1192 1909 L 1202 1900 C 1148 1838 1088 1770 1021 1696 C 954 1622 906 1568 876 1534 C 860 1517 847 1506 836 1502 C 824 1497 805 1495 778 1495 Z" unicode="Š" />
<glyph horiz-adv-x="784" d="M 317 -29 C 219 -29 143 -6 89 38 C 35 82 8 137 8 203 C 8 241 20 273 44 301 C 68 328 98 342 133 342 C 165 342 190 333 206 315 C 222 297 231 276 231 252 C 231 227 223 206 208 188 C 193 170 170 162 139 162 C 120 162 105 161 95 161 C 85 160 80 153 80 139 C 80 104 101 70 145 37 C 189 4 244 -12 311 -12 C 373 -12 425 5 467 41 C 509 77 530 122 530 176 C 530 211 520 244 501 276 C 482 307 431 352 348 412 C 284 456 240 498 214 536 C 188 574 176 618 176 670 C 176 744 206 809 268 866 C 330 923 408 952 504 952 C 585 952 646 931 688 890 C 729 848 750 800 750 745 C 750 707 740 677 721 653 C 701 629 675 618 643 618 C 620 618 599 624 581 638 C 562 652 553 673 553 702 C 553 722 558 739 569 753 C 580 766 593 777 607 786 C 621 795 635 802 649 808 C 663 814 670 819 672 825 C 666 857 649 883 621 904 C 592 925 554 936 506 936 C 458 936 415 919 377 887 C 338 854 319 808 319 748 C 319 703 335 664 369 630 C 403 596 442 562 487 528 C 565 469 615 421 637 384 C 659 346 670 306 670 264 C 670 188 639 120 577 60 C 515 0 428 -29 317 -29 Z M 547 1102 C 522 1102 505 1104 497 1109 C 488 1114 481 1123 475 1137 C 462 1169 440 1224 408 1301 C 376 1377 349 1447 326 1509 L 336 1516 L 578 1243 L 961 1516 L 971 1507 C 917 1445 857 1377 790 1303 C 723 1229 675 1175 645 1141 C 629 1124 616 1113 605 1109 C 593 1104 574 1102 547 1102 Z" unicode="š" />
<glyph horiz-adv-x="1296" d="M 229 0 L 233 10 C 250 10 275 13 307 17 C 339 21 363 25 379 31 C 405 39 425 54 438 74 C 450 94 459 113 463 131 L 594 666 C 604 710 610 759 612 813 C 613 867 614 910 614 944 C 614 1032 596 1115 562 1193 C 527 1270 461 1309 365 1309 C 317 1309 271 1292 226 1259 C 181 1225 146 1173 121 1102 L 106 1108 C 142 1212 189 1291 249 1344 C 309 1396 380 1423 463 1423 C 567 1423 646 1384 700 1308 C 754 1231 784 1138 791 1028 C 793 992 792 948 789 898 C 786 848 782 802 776 762 L 795 762 C 821 831 848 893 876 948 C 904 1002 933 1053 963 1100 C 1028 1202 1096 1282 1167 1339 C 1237 1396 1304 1425 1368 1425 C 1416 1425 1451 1411 1473 1384 C 1494 1357 1505 1331 1505 1307 C 1505 1264 1494 1231 1472 1207 C 1450 1183 1422 1171 1386 1171 C 1346 1171 1319 1185 1304 1214 C 1289 1242 1282 1264 1282 1280 C 1282 1297 1284 1313 1289 1328 C 1294 1343 1301 1356 1311 1366 L 1303 1376 C 1261 1366 1212 1338 1157 1292 C 1102 1246 1043 1173 979 1073 C 950 1029 919 973 886 905 C 852 837 825 763 805 684 L 668 139 C 662 117 662 98 667 80 C 672 62 686 49 709 39 C 719 34 744 28 785 21 C 825 13 855 10 874 10 L 870 0 L 229 0 Z M 716 1575 C 684 1575 660 1585 642 1606 C 624 1627 616 1651 616 1679 C 616 1711 627 1740 651 1766 C 674 1791 705 1804 743 1804 C 770 1804 793 1793 811 1771 C 829 1749 839 1726 839 1702 C 839 1669 828 1640 806 1614 C 784 1588 754 1575 716 1575 Z M 1124 1575 C 1092 1575 1067 1585 1050 1606 C 1032 1627 1024 1651 1024 1679 C 1024 1711 1035 1740 1058 1766 C 1081 1791 1112 1804 1151 1804 C 1178 1804 1200 1793 1218 1771 C 1236 1749 1245 1726 1245 1702 C 1245 1669 1234 1640 1212 1614 C 1190 1588 1160 1575 1124 1575 Z" unicode="Ÿ" />
<glyph horiz-adv-x="1221" d="M -137 0 L -133 16 L 1145 1380 L 768 1380 C 729 1380 694 1379 663 1377 C 631 1375 605 1372 584 1368 C 530 1357 467 1310 395 1228 C 322 1146 265 1075 225 1016 L 213 1016 L 352 1399 L 1391 1399 L 1386 1384 L 104 18 L 508 18 C 578 18 643 21 704 29 C 765 37 810 51 838 72 C 890 114 946 171 1006 245 C 1066 319 1112 380 1145 428 L 1157 428 L 1004 0 L -137 0 Z M 872 1495 C 847 1495 830 1497 822 1502 C 813 1507 806 1516 800 1530 C 787 1562 765 1617 733 1694 C 701 1770 674 1840 651 1902 L 661 1909 L 903 1636 L 1286 1909 L 1296 1900 C 1242 1838 1182 1770 1115 1696 C 1048 1622 1000 1568 970 1534 C 954 1517 941 1506 930 1502 C 918 1497 899 1495 872 1495 Z" unicode="Ž" />
<glyph horiz-adv-x="864" d="M 18 -27 C 1 -27 -14 -21 -29 -10 C -43 1 -51 20 -51 47 C -51 70 -40 93 -20 117 C 0 141 27 166 61 193 C 128 247 224 322 349 419 C 473 516 599 609 727 698 L 725 705 C 693 702 660 704 625 711 C 589 718 554 726 520 736 C 486 744 453 752 421 760 C 389 768 361 772 336 772 C 298 772 268 764 247 749 C 225 734 215 712 215 684 C 215 654 227 628 252 604 C 277 580 306 563 338 555 L 332 545 C 285 559 238 582 192 614 C 146 645 123 688 123 743 C 123 796 142 844 181 886 C 220 928 266 950 319 950 C 365 950 406 938 442 916 C 478 893 512 868 543 840 C 575 810 607 783 638 758 C 668 733 699 721 729 721 C 749 721 764 725 773 734 C 782 743 788 754 791 768 C 793 780 793 794 792 809 C 791 823 791 838 791 852 C 791 883 798 907 813 925 C 828 943 847 952 870 952 C 888 952 903 946 914 935 C 924 924 930 908 930 887 C 930 860 922 835 907 813 C 891 790 861 761 815 725 C 764 684 671 613 536 511 C 401 409 278 315 166 229 L 168 223 C 199 222 229 218 257 210 C 285 202 313 194 341 185 C 370 175 400 166 432 158 C 463 150 497 145 535 145 C 587 143 627 151 655 169 C 683 187 699 210 702 238 C 705 270 697 297 677 318 C 657 338 634 352 606 358 L 612 369 C 676 355 720 330 745 293 C 769 256 782 218 782 180 C 782 125 762 77 722 36 C 682 -4 636 -25 586 -25 C 540 -25 496 -13 452 9 C 408 32 369 59 335 89 C 299 120 264 148 230 172 C 196 196 164 209 135 209 C 120 205 110 199 104 190 C 98 180 94 169 92 156 C 90 142 90 126 92 110 C 93 93 94 76 94 59 C 94 34 88 13 77 -2 C 65 -18 46 -27 18 -27 Z M 588 1102 C 563 1102 546 1104 538 1109 C 529 1114 522 1123 516 1137 C 503 1169 481 1224 449 1301 C 417 1377 390 1447 367 1509 L 377 1516 L 619 1243 L 1002 1516 L 1012 1507 C 958 1445 898 1377 831 1303 C 764 1229 716 1175 686 1141 C 670 1124 657 1113 646 1109 C 634 1104 615 1102 588 1102 Z" unicode="ž" />
<glyph horiz-adv-x="973" d="M -203 -397 C -251 -397 -293 -385 -329 -362 C -365 -339 -383 -306 -383 -264 C -383 -235 -373 -209 -355 -185 C -336 -161 -310 -150 -276 -150 C -245 -150 -221 -158 -204 -174 C -186 -190 -178 -214 -178 -246 C -178 -269 -185 -291 -201 -313 C -216 -334 -230 -349 -244 -358 C -241 -365 -234 -371 -224 -375 C -213 -379 -203 -381 -195 -381 C -121 -381 -58 -343 -5 -269 C 47 -195 100 -79 154 78 C 193 194 225 296 251 386 C 277 475 303 564 330 653 L 113 653 L 121 684 L 336 684 C 367 788 403 878 443 955 C 483 1032 536 1099 602 1157 C 648 1195 697 1225 748 1246 C 798 1267 852 1278 909 1278 C 972 1278 1023 1265 1062 1239 C 1100 1213 1120 1179 1120 1139 C 1120 1110 1112 1084 1096 1060 C 1080 1036 1056 1024 1024 1024 C 994 1024 970 1031 952 1046 C 933 1060 924 1083 924 1114 C 924 1130 928 1149 938 1171 C 947 1193 960 1214 977 1235 C 973 1243 962 1249 946 1254 C 930 1259 914 1262 899 1262 C 827 1262 763 1223 707 1147 C 651 1071 603 959 561 811 L 524 684 L 782 684 L 772 653 L 518 653 C 490 559 463 468 437 380 C 410 292 384 210 358 135 C 330 56 297 -15 258 -79 C 218 -143 171 -201 117 -252 C 67 -296 15 -332 -39 -358 C -94 -384 -149 -397 -203 -397 Z" unicode="ƒ" />
<glyph horiz-adv-x="373" d="M 324 963 C 281 963 249 978 229 1008 C 208 1038 199 1075 201 1120 C 205 1186 233 1251 286 1317 C 339 1382 422 1439 535 1487 L 539 1473 C 481 1445 428 1407 380 1360 C 332 1312 299 1260 281 1202 L 350 1202 C 396 1202 427 1190 444 1167 C 461 1144 469 1121 469 1098 C 468 1064 455 1033 429 1005 C 403 977 368 963 324 963 Z" unicode="ʻ" />
<glyph horiz-adv-x="1024" d="M 358 1085 L 348 1094 C 402 1155 462 1223 530 1297 C 597 1371 646 1426 676 1460 C 690 1476 703 1487 715 1492 C 727 1496 746 1499 774 1499 C 797 1499 813 1496 821 1491 C 829 1486 837 1477 844 1464 C 856 1431 878 1376 910 1300 C 942 1223 970 1154 995 1092 L 983 1085 L 741 1358 L 358 1085 Z" unicode="ˆ" />
<glyph horiz-adv-x="1024" d="M 676 1102 C 651 1102 634 1104 626 1109 C 617 1114 610 1123 604 1137 C 591 1169 569 1224 537 1301 C 505 1377 478 1447 455 1509 L 465 1516 L 707 1243 L 1090 1516 L 1100 1507 C 1046 1445 986 1377 919 1303 C 852 1229 804 1175 774 1141 C 758 1124 745 1113 734 1109 C 722 1104 703 1102 676 1102 Z" unicode="ˇ" />
<glyph horiz-adv-x="1024" d="M 360 1219 L 393 1343 L 1069 1343 L 1036 1219 L 360 1219 Z" unicode="ˉ" />
<glyph horiz-adv-x="1024" d="M 680 1098 C 616 1098 563 1135 522 1210 C 480 1285 460 1374 461 1477 L 475 1483 C 485 1436 510 1385 550 1330 C 589 1274 644 1247 715 1247 C 781 1247 847 1272 914 1324 C 981 1376 1034 1429 1073 1483 L 1085 1477 C 1033 1374 969 1285 893 1210 C 817 1135 746 1098 680 1098 Z" unicode="˘" />
<glyph horiz-adv-x="1024" d="M 727 1202 C 692 1202 662 1215 636 1241 C 610 1267 598 1297 598 1331 C 598 1367 610 1398 636 1424 C 662 1450 692 1464 727 1464 C 765 1464 796 1451 822 1426 C 847 1400 860 1371 860 1337 C 860 1301 847 1270 821 1243 C 795 1215 763 1202 727 1202 Z" unicode="˙" />
<glyph horiz-adv-x="1024" d="M 692 1083 C 630 1083 579 1099 539 1133 C 499 1166 480 1208 483 1260 C 485 1327 515 1381 573 1423 C 631 1464 692 1485 758 1485 C 817 1485 867 1468 908 1436 C 948 1404 967 1361 965 1307 C 961 1243 932 1190 878 1147 C 823 1104 761 1083 692 1083 Z M 692 1102 C 741 1102 780 1127 809 1177 C 837 1227 853 1276 856 1325 C 858 1365 851 1398 835 1425 C 819 1452 794 1466 758 1466 C 708 1466 669 1441 640 1392 C 611 1343 596 1293 594 1241 C 591 1202 597 1169 613 1142 C 629 1115 655 1102 692 1102 Z" unicode="˚" />
<glyph horiz-adv-x="1024" d="M 406 -467 C 306 -467 226 -455 164 -431 C 102 -406 73 -367 76 -313 C 78 -260 109 -209 168 -161 C 227 -113 326 -59 465 0 L 475 0 C 386 -63 324 -119 288 -167 C 252 -215 231 -257 227 -291 C 223 -327 234 -362 261 -394 C 288 -426 338 -446 412 -453 L 406 -467 Z" unicode="˛" />
<glyph horiz-adv-x="1024" d="M 301 1133 L 287 1139 C 335 1218 386 1282 439 1332 C 491 1382 541 1407 588 1407 C 639 1407 688 1387 735 1349 C 781 1311 823 1292 860 1292 C 900 1292 940 1309 982 1343 C 1024 1377 1055 1410 1077 1442 L 1090 1438 C 1054 1371 1008 1308 952 1249 C 896 1190 841 1161 788 1161 C 740 1161 692 1180 643 1218 C 594 1256 552 1276 516 1276 C 474 1276 433 1260 393 1228 C 353 1196 322 1165 301 1133 Z" unicode="˜" />
<glyph horiz-adv-x="1024" d="M 692 1106 L 686 1114 C 734 1169 785 1226 839 1286 C 893 1346 934 1393 963 1427 C 987 1457 1010 1481 1032 1497 C 1053 1513 1077 1522 1104 1522 C 1124 1522 1140 1515 1150 1501 C 1160 1487 1165 1472 1163 1456 C 1161 1430 1150 1408 1132 1388 C 1113 1368 1089 1350 1061 1333 C 1027 1312 974 1280 902 1236 C 830 1192 760 1148 692 1106 Z M 319 1106 L 313 1114 C 361 1169 411 1226 465 1286 C 518 1346 559 1393 588 1427 C 611 1457 634 1481 656 1497 C 678 1513 701 1522 727 1522 C 747 1522 763 1515 774 1501 C 784 1487 789 1472 788 1456 C 786 1430 775 1408 756 1388 C 736 1368 712 1350 684 1333 L 319 1106 Z" unicode="˝" />
<glyph horiz-adv-x="1169" d="M -57 -463 C -73 -463 -88 -456 -102 -442 C -116 -428 -121 -406 -119 -377 C -116 -339 -103 -300 -79 -261 C -55 -222 -31 -175 -8 -119 C 4 -86 19 -49 35 -8 C 51 32 66 78 82 129 L 330 924 L 518 924 L 315 291 C 303 255 294 223 288 197 C 282 170 279 145 279 123 C 279 95 287 72 303 53 C 319 34 347 25 385 25 C 446 25 501 46 551 90 C 600 133 642 184 676 242 L 893 924 L 1079 924 L 862 270 C 853 240 844 209 836 175 C 827 141 823 113 823 92 C 823 71 829 54 841 40 C 853 26 867 20 885 20 C 929 20 973 43 1015 91 C 1057 139 1094 206 1128 293 L 1145 287 C 1108 195 1067 121 1021 63 C 975 5 916 -23 842 -23 C 786 -23 742 -4 709 32 C 675 68 664 125 676 203 L 672 205 C 631 134 581 78 521 36 C 461 -6 401 -27 342 -27 C 274 -27 224 -10 190 24 C 156 58 133 99 121 147 L 117 147 L 84 39 C 63 -33 53 -101 54 -165 C 55 -229 51 -285 43 -334 C 36 -376 24 -408 6 -430 C -11 -452 -32 -463 -57 -463 Z" unicode="μ" />
<glyph horiz-adv-x="764" d="M 72 451 L 113 592 L 739 592 L 698 451 L 72 451 Z" unicode="‐" />
<glyph horiz-adv-x="1114" d="M 92 461 L 127 582 L 1036 582 L 1004 461 L 92 461 Z" unicode="–" />
<glyph horiz-adv-x="1810" d="M 92 461 L 127 582 L 1733 582 L 1700 461 L 92 461 Z" unicode="—" />
<glyph horiz-adv-x="373" d="M 324 963 C 281 963 249 978 229 1008 C 208 1038 199 1075 201 1120 C 205 1186 233 1251 286 1317 C 339 1382 422 1439 535 1487 L 539 1473 C 481 1445 428 1407 380 1360 C 332 1312 299 1260 281 1202 L 350 1202 C 396 1202 427 1190 444 1167 C 461 1144 469 1121 469 1098 C 468 1064 455 1033 429 1005 C 403 977 368 963 324 963 Z" unicode="‘" />
<glyph horiz-adv-x="373" d="M 240 1001 L 236 1016 C 294 1043 346 1080 394 1128 C 442 1175 475 1228 494 1286 L 424 1286 C 378 1286 346 1297 329 1320 C 312 1343 304 1367 305 1391 C 305 1424 319 1455 345 1483 C 371 1511 405 1526 449 1526 C 493 1526 525 1510 545 1480 C 565 1450 574 1412 571 1368 C 567 1302 538 1236 485 1171 C 432 1105 350 1049 240 1001 Z" unicode="’" />
<glyph horiz-adv-x="383" d="M -102 -281 L -106 -268 C -48 -239 4 -201 52 -155 C 100 -108 133 -55 152 4 L 82 4 C 36 4 4 15 -12 38 C -29 60 -37 84 -37 109 C -36 142 -23 173 3 201 C 29 229 63 244 106 244 C 150 244 182 228 203 198 C 223 168 232 130 229 86 C 226 20 198 -45 144 -111 C 90 -176 8 -233 -102 -281 Z" unicode="‚" />
<glyph horiz-adv-x="743" d="M 324 963 C 281 963 249 978 229 1008 C 208 1038 199 1075 201 1120 C 205 1186 233 1251 286 1317 C 339 1382 422 1439 535 1487 L 539 1473 C 481 1445 428 1407 380 1360 C 332 1312 299 1260 281 1202 L 350 1202 C 396 1202 427 1190 444 1167 C 461 1144 469 1121 469 1098 C 468 1064 455 1033 429 1005 C 403 977 368 963 324 963 Z M 696 963 C 652 963 619 978 599 1008 C 579 1038 570 1075 573 1120 C 577 1186 606 1251 659 1317 C 712 1382 794 1439 905 1487 L 909 1473 C 851 1445 798 1407 750 1360 C 702 1312 669 1260 651 1202 L 721 1202 C 767 1202 798 1190 815 1167 C 832 1144 840 1121 840 1098 C 839 1064 825 1033 799 1005 C 773 977 738 963 696 963 Z" unicode="“" />
<glyph horiz-adv-x="743" d="M 240 1001 L 236 1016 C 294 1043 346 1080 394 1128 C 442 1175 475 1228 494 1286 L 424 1286 C 378 1286 346 1297 329 1320 C 312 1343 304 1367 305 1391 C 305 1424 319 1455 345 1483 C 371 1511 405 1526 449 1526 C 493 1526 525 1510 545 1480 C 565 1450 574 1412 571 1368 C 567 1302 538 1236 485 1171 C 432 1105 350 1049 240 1001 Z M 610 1001 L 606 1016 C 664 1043 716 1080 764 1128 C 812 1175 845 1228 864 1286 L 795 1286 C 749 1286 717 1297 700 1320 C 683 1343 675 1367 676 1391 C 676 1424 690 1455 716 1483 C 742 1511 777 1526 821 1526 C 863 1526 895 1510 916 1480 C 936 1450 946 1412 944 1368 C 940 1302 911 1236 858 1171 C 805 1105 722 1049 610 1001 Z" unicode="”" />
<glyph horiz-adv-x="756" d="M -102 -281 L -106 -268 C -48 -239 4 -201 52 -155 C 100 -108 133 -55 152 4 L 82 4 C 36 4 4 15 -12 38 C -29 60 -37 84 -37 109 C -36 142 -23 173 3 201 C 29 229 63 244 106 244 C 150 244 182 228 203 198 C 223 168 232 130 229 86 C 226 20 198 -45 144 -111 C 90 -176 8 -233 -102 -281 Z M 268 -281 L 264 -268 C 322 -239 375 -201 423 -155 C 471 -108 504 -55 524 4 L 453 4 C 407 4 375 15 358 38 C 341 60 333 84 334 109 C 334 142 348 173 375 201 C 401 229 436 244 479 244 C 521 244 553 228 574 198 C 594 168 604 130 602 86 C 598 20 569 -45 516 -111 C 463 -176 380 -233 268 -281 Z" unicode="„" />
<glyph horiz-adv-x="846" d="M 358 227 L 346 229 C 372 342 399 474 427 624 C 454 774 478 905 500 1016 C 504 1035 505 1051 503 1063 C 501 1075 494 1082 483 1085 C 473 1088 462 1086 450 1080 C 438 1074 426 1067 414 1059 C 397 1047 378 1036 358 1026 C 338 1016 318 1013 299 1018 C 272 1024 253 1038 242 1058 C 230 1078 228 1101 236 1128 C 240 1145 248 1158 262 1168 C 276 1177 291 1180 309 1176 C 325 1170 337 1160 344 1145 C 351 1129 354 1109 354 1085 C 369 1084 391 1088 419 1097 C 447 1105 470 1108 489 1104 C 503 1101 517 1095 531 1085 C 544 1075 554 1063 561 1051 C 569 1097 572 1150 568 1210 C 564 1270 566 1316 575 1348 C 581 1369 592 1387 608 1403 C 623 1419 643 1423 668 1417 C 694 1410 710 1396 716 1374 C 721 1352 721 1331 717 1311 C 707 1279 686 1238 653 1188 C 619 1138 594 1091 578 1047 C 592 1053 606 1057 622 1059 C 637 1060 652 1059 668 1057 C 687 1050 707 1036 727 1016 C 747 995 763 981 776 973 C 787 994 801 1009 818 1018 C 834 1026 851 1028 868 1024 C 883 1020 894 1011 900 997 C 906 983 907 967 903 950 C 896 923 882 904 862 893 C 841 881 817 880 791 889 C 772 893 756 904 743 923 C 730 941 719 960 711 979 C 703 992 696 1004 689 1016 C 682 1028 674 1035 666 1038 C 653 1040 643 1037 636 1029 C 628 1021 621 1005 614 983 C 578 877 534 751 483 605 C 431 459 390 333 358 227 Z" unicode="†" />
<glyph horiz-adv-x="846" d="M 289 31 C 266 37 251 50 245 70 C 238 90 239 112 248 137 C 256 169 274 200 301 232 C 328 263 347 289 358 311 C 348 306 334 302 317 299 C 300 295 281 297 260 303 C 238 309 222 317 210 327 C 198 337 186 345 174 352 C 163 331 149 315 131 305 C 113 295 95 292 78 297 C 58 303 47 315 43 333 C 39 351 39 367 43 383 C 49 402 60 416 77 426 C 94 436 114 438 137 434 C 173 424 197 404 209 374 C 220 344 239 325 266 317 C 279 313 291 318 302 334 C 312 350 323 368 334 389 C 344 409 364 455 396 525 C 428 595 452 652 469 696 L 481 692 C 473 646 464 584 456 507 C 448 430 442 381 440 360 C 438 338 437 318 439 298 C 440 278 448 266 463 262 C 493 254 520 259 543 279 C 566 298 595 303 629 295 C 654 289 671 277 680 259 C 688 241 690 221 684 201 C 679 184 668 170 652 159 C 636 147 618 144 600 150 C 581 156 569 167 563 183 C 557 199 554 219 555 242 C 540 242 525 242 510 241 C 495 239 477 242 457 248 C 438 252 421 260 407 273 C 392 285 381 297 375 307 C 373 280 376 247 384 209 C 392 171 393 136 385 104 C 378 77 366 56 349 42 C 332 28 312 24 289 31 Z M 498 752 L 485 756 C 494 802 503 863 511 940 C 519 1016 524 1065 526 1087 C 528 1108 529 1129 529 1149 C 528 1169 520 1182 506 1186 C 475 1194 448 1188 425 1169 C 402 1150 374 1145 340 1153 C 315 1159 298 1171 289 1189 C 279 1207 278 1226 285 1247 C 289 1263 299 1277 315 1289 C 331 1300 348 1303 367 1298 C 385 1292 397 1280 404 1264 C 411 1248 414 1228 414 1206 C 428 1205 442 1205 457 1207 C 471 1208 489 1206 510 1200 C 529 1195 546 1186 561 1174 C 576 1162 587 1151 594 1141 C 594 1167 591 1200 583 1238 C 575 1276 575 1311 584 1343 C 590 1369 602 1390 618 1405 C 634 1419 654 1423 678 1417 C 701 1410 716 1397 723 1377 C 729 1357 729 1335 721 1311 C 710 1279 692 1247 666 1216 C 640 1184 621 1158 610 1137 C 620 1141 634 1145 651 1149 C 667 1152 686 1151 707 1145 C 728 1139 745 1131 757 1121 C 769 1111 781 1102 795 1096 C 805 1116 818 1132 836 1142 C 854 1152 871 1155 889 1151 C 908 1145 920 1133 925 1115 C 929 1097 930 1080 926 1065 C 919 1045 907 1031 889 1021 C 871 1011 851 1010 829 1016 C 793 1026 770 1045 758 1074 C 746 1103 728 1122 702 1130 C 689 1134 677 1129 665 1113 C 653 1097 643 1079 635 1059 C 624 1038 602 993 570 923 C 538 853 514 796 498 752 Z" unicode="‡" />
<glyph horiz-adv-x="817" d="M 459 391 C 393 391 332 418 276 472 C 220 526 193 590 193 666 C 193 741 220 806 276 861 C 332 916 393 944 459 944 C 525 944 585 916 641 861 C 697 806 725 741 725 666 C 725 590 697 526 641 472 C 585 418 525 391 459 391 Z" unicode="•" />
<glyph horiz-adv-x="1348" d="M 193 -18 C 157 -18 126 -5 100 19 C 74 44 61 75 61 111 C 61 146 74 177 100 203 C 126 229 157 242 193 242 C 229 242 259 229 285 203 C 311 177 324 146 324 111 C 324 75 311 44 285 19 C 259 -5 229 -18 193 -18 Z M 641 -18 C 605 -18 574 -5 548 19 C 522 44 510 75 510 111 C 510 146 522 177 548 203 C 574 229 605 242 641 242 C 677 242 707 229 733 203 C 759 177 772 146 772 111 C 772 75 759 44 733 19 C 707 -5 677 -18 641 -18 Z M 1087 -18 C 1053 -18 1023 -5 997 19 C 971 44 958 75 958 111 C 958 146 971 177 997 203 C 1023 229 1053 242 1087 242 C 1123 242 1154 229 1180 203 C 1206 177 1219 146 1219 111 C 1219 75 1206 44 1180 19 C 1154 -5 1123 -18 1087 -18 Z" unicode="…" />
</font>
</defs>
</svg>
