<?xml version="1.0" encoding="utf-8" ?><svg version="1.1" xmlns = 'http://www.w3.org/2000/svg'><defs><font id='web' horiz-adv-x="1000">
<font-face font-family="web" descent="-476" cap-height="1399" units-per-em="2048" bbox="-283,-467,2333,1929" x-height="924" ascent="1572" />
<missing-glyph horiz-adv-x="1024" d="M 906 16 L 906 1032 L 118 1032 L 118 16 L 906 16 Z M 102 1048 L 922 1048 L 922 0 L 102 0 L 102 1048 Z" /><glyph horiz-adv-x="492" d="" unicode=" " />
<glyph horiz-adv-x="655" d="M 319 424 C 312 601 294 784 265 974 C 235 1163 221 1276 221 1313 C 221 1345 230 1374 250 1400 C 270 1425 296 1438 328 1438 C 359 1438 384 1425 404 1400 C 424 1374 434 1345 434 1313 C 434 1277 419 1164 391 976 C 362 787 342 603 332 424 L 319 424 Z M 326 -14 C 293 -14 265 -2 243 19 C 220 41 209 69 209 102 C 209 134 220 162 243 186 C 265 209 293 221 326 221 C 358 221 386 209 409 186 C 432 162 444 134 444 102 C 444 69 432 41 409 19 C 386 -2 358 -14 326 -14 Z" unicode="!" />
<glyph horiz-adv-x="754" d="M 176 1014 C 155 1158 135 1254 117 1303 C 99 1351 90 1388 90 1413 C 90 1440 96 1463 110 1483 C 124 1503 147 1513 180 1513 C 212 1513 235 1503 249 1483 C 263 1463 270 1440 270 1413 C 270 1391 262 1355 246 1304 C 230 1252 210 1156 186 1014 L 176 1014 Z M 569 1014 C 548 1158 528 1254 510 1303 C 492 1351 483 1388 483 1413 C 483 1440 489 1463 503 1483 C 517 1503 540 1513 573 1513 C 605 1513 628 1503 642 1483 C 656 1463 664 1440 664 1413 C 664 1391 656 1355 640 1304 C 624 1252 604 1156 580 1014 L 569 1014 Z" unicode="&#x22;" />
<glyph horiz-adv-x="1044" d="M 375 -14 L 375 358 L 141 301 L 141 432 L 375 489 L 375 752 L 141 694 L 141 823 L 375 881 L 375 1284 L 391 1284 L 391 887 L 653 954 L 653 1284 L 670 1284 L 670 961 L 903 1018 L 903 887 L 670 829 L 670 567 L 903 625 L 903 496 L 670 438 L 670 -14 L 653 -14 L 653 432 L 391 365 L 391 -14 L 375 -14 Z M 391 494 L 653 563 L 653 825 L 391 756 L 391 494 Z" unicode="#" />
<glyph horiz-adv-x="1223" d="M 522 -291 L 522 -8 C 427 4 344 37 274 90 C 203 142 168 204 168 274 C 168 323 178 362 200 391 C 222 419 249 434 281 434 C 308 434 329 424 343 405 C 357 386 365 362 365 334 C 365 294 355 267 337 255 C 318 243 301 223 287 197 C 287 139 313 96 365 66 C 417 36 469 16 522 8 L 522 571 C 420 587 339 621 281 672 C 222 723 193 795 193 887 C 193 968 220 1044 274 1116 C 328 1188 411 1236 522 1260 L 522 1460 L 539 1460 L 539 1262 C 551 1264 567 1265 586 1267 C 604 1269 621 1270 637 1270 C 651 1270 667 1269 684 1268 C 700 1267 715 1266 729 1264 L 729 1460 L 745 1460 L 745 1262 C 829 1247 898 1218 950 1174 C 1002 1130 1028 1080 1028 1022 C 1028 972 1017 936 997 914 C 976 892 954 881 932 881 C 911 881 892 888 875 904 C 858 920 850 942 850 971 C 850 1007 861 1033 885 1051 C 908 1068 924 1093 934 1126 C 926 1150 905 1174 872 1197 C 838 1220 796 1236 745 1245 L 745 719 C 847 707 927 674 985 621 C 1043 568 1073 489 1073 385 C 1073 301 1045 223 989 149 C 933 75 851 25 745 0 L 745 -291 L 729 -291 L 729 -2 C 713 -4 694 -7 670 -10 C 646 -12 624 -14 604 -14 C 595 -14 583 -13 569 -12 C 555 -11 545 -10 539 -10 L 539 -291 L 522 -291 Z M 539 6 C 545 5 555 4 570 3 C 584 2 596 2 604 2 C 625 2 647 3 671 6 C 695 8 714 11 729 14 L 729 543 C 704 549 675 554 641 558 C 607 562 573 566 539 569 L 539 6 Z M 729 721 L 729 1247 C 715 1249 700 1250 684 1251 C 667 1252 651 1253 637 1253 C 620 1253 603 1252 585 1250 C 567 1248 551 1247 539 1245 L 539 750 C 564 744 594 739 630 734 C 665 729 698 725 729 721 Z M 522 752 L 522 1241 C 446 1225 392 1193 359 1145 C 325 1096 309 1048 309 1001 C 309 929 327 873 365 833 C 402 793 454 766 522 752 Z M 745 16 C 819 36 874 71 910 121 C 945 171 963 225 963 285 C 963 354 943 409 904 450 C 865 490 812 520 745 539 L 745 16 Z" unicode="$" />
<glyph horiz-adv-x="1716" d="M 446 635 C 370 635 301 660 237 712 C 173 764 141 841 141 944 C 141 1041 174 1120 242 1180 C 310 1240 378 1270 446 1270 C 522 1270 595 1244 664 1194 C 733 1144 768 1060 768 944 C 768 857 734 784 666 724 C 598 664 524 635 446 635 Z M 457 649 C 507 649 550 676 586 732 C 621 787 639 857 639 942 C 639 1032 623 1107 591 1166 C 559 1225 513 1255 453 1255 C 389 1255 343 1224 313 1163 C 283 1101 268 1031 268 952 C 268 872 283 801 313 740 C 343 679 391 649 457 649 Z M 1253 -29 C 1177 -29 1107 -2 1043 49 C 979 101 948 178 948 279 C 948 374 982 452 1050 514 C 1118 575 1185 606 1253 606 C 1329 606 1402 581 1471 531 C 1540 481 1575 397 1575 281 C 1575 191 1540 117 1472 59 C 1403 0 1330 -29 1253 -29 Z M 1264 -16 C 1312 -16 1355 12 1391 70 C 1427 127 1446 196 1446 276 C 1446 365 1430 440 1398 501 C 1366 561 1320 592 1260 592 C 1195 592 1148 560 1119 496 C 1089 432 1075 363 1075 287 C 1075 208 1090 138 1120 76 C 1150 14 1198 -16 1264 -16 Z M 432 -197 L 403 -180 L 1282 1405 L 1313 1389 L 432 -197 Z" unicode="%" />
<glyph horiz-adv-x="1485" d="M 449 -33 C 348 -33 260 -3 186 56 C 111 116 74 203 74 317 C 74 409 105 486 168 550 C 231 614 317 680 426 750 C 374 831 335 899 309 954 C 283 1008 270 1062 270 1114 C 270 1205 304 1280 374 1340 C 443 1400 519 1430 602 1430 C 691 1430 756 1401 798 1344 C 839 1287 860 1226 860 1161 C 860 1083 829 1015 767 956 C 705 897 640 847 571 807 C 607 751 661 676 733 582 C 804 488 872 401 938 322 C 1006 411 1053 499 1079 587 C 1105 674 1118 735 1118 770 C 1118 794 1097 815 1056 832 C 1014 849 967 863 913 874 L 913 883 L 1505 883 L 1505 874 C 1447 868 1394 858 1347 846 C 1300 834 1260 810 1227 774 C 1210 756 1176 694 1124 587 C 1072 479 1015 385 952 305 C 994 254 1035 207 1074 163 C 1112 119 1142 92 1163 80 C 1199 57 1240 40 1287 29 C 1334 18 1378 12 1419 10 L 1419 0 L 1001 0 C 994 10 977 32 950 67 C 923 101 890 143 850 193 C 778 119 712 63 652 25 C 592 -13 524 -33 449 -33 Z M 514 74 C 574 74 631 85 687 107 C 743 129 794 162 840 207 C 782 278 715 362 641 459 C 567 555 499 648 438 737 C 370 697 321 646 290 584 C 259 522 244 454 244 379 C 244 295 267 224 315 164 C 362 104 428 74 514 74 Z M 563 821 C 638 861 692 909 726 967 C 759 1024 776 1087 776 1155 C 776 1224 763 1284 737 1336 C 711 1387 666 1413 602 1413 C 523 1413 473 1381 451 1318 C 429 1255 418 1201 418 1157 C 418 1111 430 1059 455 1001 C 480 943 516 883 563 821 Z" unicode="&#x26;" />
<glyph horiz-adv-x="360" d="M 176 1014 C 155 1158 135 1254 117 1303 C 99 1351 90 1388 90 1413 C 90 1440 96 1463 110 1483 C 124 1503 147 1513 180 1513 C 212 1513 235 1503 249 1483 C 263 1463 270 1440 270 1413 C 270 1391 262 1355 246 1304 C 230 1252 210 1156 186 1014 L 176 1014 Z" unicode="'" />
<glyph horiz-adv-x="727" d="M 621 -309 C 480 -218 357 -104 251 31 C 145 167 92 358 92 604 C 92 840 145 1025 251 1160 C 357 1294 480 1411 621 1511 L 635 1503 C 519 1414 413 1299 315 1157 C 217 1015 168 830 168 604 C 168 372 218 183 320 37 C 422 -109 527 -222 635 -301 L 621 -309 Z" unicode="(" />
<glyph horiz-adv-x="727" d="M 66 -309 L 51 -301 C 166 -212 273 -97 371 45 C 469 187 518 371 518 598 C 518 829 467 1018 365 1165 C 263 1312 159 1425 51 1503 L 66 1511 C 206 1420 329 1307 435 1171 C 541 1035 594 844 594 598 C 594 362 541 176 435 42 C 329 -92 206 -209 66 -309 Z" unicode=")" />
<glyph horiz-adv-x="778" d="M 389 809 C 374 809 363 813 356 821 C 349 829 346 839 346 852 C 346 857 347 869 350 889 C 353 909 357 931 361 957 C 365 982 369 1008 373 1035 C 377 1062 381 1086 383 1108 C 357 1091 333 1073 309 1054 C 285 1034 263 1016 243 1000 C 223 983 205 969 190 958 C 174 947 163 942 155 942 C 145 942 137 946 129 955 C 121 964 117 973 117 983 C 117 996 123 1007 137 1017 C 150 1027 168 1036 192 1046 C 215 1055 243 1065 275 1076 C 307 1087 343 1101 381 1118 C 345 1134 311 1147 279 1158 C 247 1168 219 1178 195 1188 C 171 1198 152 1208 138 1218 C 124 1228 118 1240 118 1255 C 118 1267 122 1277 130 1284 C 138 1290 147 1294 157 1294 C 168 1294 182 1288 198 1276 C 214 1264 231 1250 251 1233 C 270 1216 291 1198 313 1179 C 335 1159 359 1142 383 1128 C 381 1149 378 1173 374 1201 C 370 1228 366 1254 362 1280 C 358 1305 354 1327 351 1347 C 347 1366 346 1378 346 1384 C 346 1412 360 1427 389 1427 C 405 1427 417 1422 424 1414 C 430 1405 434 1395 434 1384 C 434 1380 432 1368 429 1348 C 425 1328 421 1306 417 1280 C 413 1254 408 1228 404 1200 C 400 1172 397 1148 395 1128 C 421 1146 445 1164 468 1184 C 491 1204 512 1222 532 1238 C 551 1254 568 1268 584 1279 C 600 1289 612 1295 622 1295 C 632 1295 641 1290 648 1281 C 655 1271 659 1262 659 1253 C 659 1239 652 1228 638 1219 C 624 1209 606 1200 582 1191 C 558 1181 530 1171 498 1160 C 466 1148 433 1134 397 1118 C 431 1103 463 1090 495 1080 C 527 1069 555 1059 579 1049 C 603 1039 622 1029 636 1019 C 650 1009 658 997 658 983 C 658 971 653 961 645 953 C 637 945 628 941 620 941 C 610 941 598 946 582 958 C 566 969 548 983 529 1000 C 510 1016 489 1034 465 1054 C 441 1074 418 1092 395 1108 C 397 1087 400 1063 404 1035 C 408 1007 413 981 417 955 C 421 929 425 906 429 887 C 432 867 434 856 434 852 C 434 840 430 830 422 822 C 414 813 403 809 389 809 Z" unicode="*" />
<glyph horiz-adv-x="1139" d="M 541 39 L 541 502 L 76 502 L 76 561 L 541 561 L 541 1026 L 598 1026 L 598 561 L 1063 561 L 1063 502 L 598 502 L 598 39 L 541 39 Z" unicode="+" />
<glyph horiz-adv-x="467" d="M 98 -326 L 94 -317 C 148 -283 191 -238 225 -180 C 259 -122 278 -59 283 8 L 217 8 C 174 8 144 19 126 42 C 108 65 100 91 100 119 C 100 143 110 167 130 189 C 150 211 178 223 213 223 C 265 223 303 205 327 170 C 350 134 362 89 362 33 C 362 -66 325 -146 251 -207 C 177 -267 126 -307 98 -326 Z" unicode="," />
<glyph horiz-adv-x="811" d="M 72 463 L 72 573 L 739 573 L 739 463 L 72 463 Z" unicode="-" />
<glyph horiz-adv-x="467" d="M 236 -14 C 203 -14 175 -2 153 19 C 130 41 119 69 119 102 C 119 134 130 162 153 186 C 175 209 203 221 236 221 C 268 221 296 209 319 186 C 342 162 354 134 354 102 C 354 69 342 41 319 19 C 296 -2 268 -14 236 -14 Z" unicode="." />
<glyph horiz-adv-x="823" d="M 115 -424 L 66 -410 L 707 1540 L 756 1526 L 115 -424 Z" unicode="/" />
<glyph horiz-adv-x="1214" d="M 598 -27 C 438 -27 316 34 232 158 C 148 282 106 426 106 592 C 106 800 158 965 262 1086 C 366 1207 484 1268 616 1268 C 774 1268 895 1206 980 1084 C 1065 961 1108 816 1108 649 C 1108 441 1056 276 953 155 C 849 33 731 -27 598 -27 Z M 602 -14 C 702 -14 783 46 844 167 C 905 287 936 439 936 623 C 936 785 911 931 862 1061 C 813 1190 729 1255 610 1255 C 511 1255 431 1194 370 1074 C 309 953 279 801 279 618 C 279 449 303 301 353 175 C 402 49 485 -14 602 -14 Z" unicode="0" />
<glyph horiz-adv-x="842" d="M 752 0 L 170 0 L 170 8 C 188 8 216 10 253 13 C 289 15 315 19 330 25 C 348 31 363 42 374 60 C 385 78 391 98 391 121 L 391 1141 C 378 1137 365 1134 351 1132 C 337 1130 319 1130 299 1130 C 272 1130 241 1135 206 1147 C 170 1159 134 1182 98 1217 L 102 1223 C 128 1208 157 1198 187 1192 C 217 1186 248 1184 281 1184 C 335 1184 385 1192 430 1208 C 474 1224 515 1244 551 1270 L 561 1270 C 551 1234 545 1186 543 1127 C 541 1067 541 1015 541 969 L 541 131 C 541 109 546 90 556 72 C 566 54 581 41 600 33 C 615 25 639 19 673 15 C 707 11 733 8 752 8 L 752 0 Z" unicode="1" />
<glyph horiz-adv-x="1141" d="M 76 0 L 70 10 C 192 112 289 195 363 261 C 437 327 510 399 584 479 C 677 579 739 671 771 755 C 803 839 819 917 819 991 C 819 1070 797 1133 755 1180 C 713 1227 660 1251 596 1251 C 552 1251 511 1243 475 1227 C 438 1211 406 1189 378 1163 C 331 1119 294 1064 268 998 C 242 932 229 871 229 813 C 229 770 237 737 253 714 C 269 691 296 680 334 680 C 378 680 419 693 456 720 C 492 746 520 772 539 797 L 545 793 C 514 745 477 707 435 679 C 392 651 339 637 276 637 C 238 637 200 649 162 675 C 123 700 104 745 104 809 C 104 857 118 910 147 968 C 176 1026 217 1079 271 1129 C 316 1171 370 1204 432 1230 C 494 1255 561 1268 631 1268 C 728 1268 810 1238 876 1179 C 942 1120 975 1046 975 956 C 975 883 961 816 935 754 C 909 692 868 632 812 573 C 759 516 692 457 611 397 C 529 337 434 271 324 199 L 233 131 L 791 131 C 841 131 881 152 911 195 C 941 238 966 281 987 324 L 995 319 L 883 0 L 76 0 Z" unicode="2" />
<glyph horiz-adv-x="1128" d="M 430 -53 C 346 -53 264 -29 184 19 C 103 67 63 136 63 227 C 63 276 75 313 100 337 C 124 361 151 373 180 373 C 204 373 226 365 245 350 C 264 334 274 312 274 283 C 274 248 261 229 235 226 C 209 222 197 200 197 160 C 197 115 215 70 251 26 C 287 -18 351 -41 442 -41 C 539 -41 627 2 705 89 C 783 175 823 284 823 416 C 823 495 807 553 776 589 C 745 625 702 643 647 643 C 608 643 574 629 544 603 C 514 576 483 548 453 520 L 432 543 C 527 610 614 679 693 750 C 771 821 811 912 811 1022 C 811 1080 795 1133 765 1181 C 734 1229 681 1253 606 1253 C 540 1253 473 1223 405 1164 C 337 1104 303 1029 303 938 C 303 901 311 872 329 851 C 346 829 369 819 399 819 C 427 819 454 826 480 841 C 505 855 525 872 541 891 L 547 885 C 526 860 496 834 456 807 C 416 779 378 766 342 766 C 284 766 242 781 218 811 C 194 841 182 873 182 907 C 182 989 227 1070 319 1150 C 411 1230 517 1270 639 1270 C 741 1270 822 1244 882 1192 C 941 1140 971 1077 971 1004 C 971 940 943 880 889 824 C 834 768 759 726 664 698 L 616 662 C 636 664 660 667 686 671 C 712 674 728 676 735 676 C 789 676 844 656 902 617 C 960 577 989 505 989 399 C 989 263 934 154 825 71 C 716 -11 584 -53 430 -53 Z" unicode="3" />
<glyph horiz-adv-x="1110" d="M 393 0 L 393 8 C 411 8 436 9 466 11 C 496 13 517 16 530 20 C 549 26 562 38 570 54 C 578 70 582 90 582 113 L 582 436 L 47 436 L 47 457 L 723 1288 L 725 1288 L 725 514 C 797 514 845 514 869 516 C 893 517 911 521 922 528 C 940 541 955 565 969 601 C 983 636 990 668 991 698 L 999 698 L 999 244 L 991 244 C 990 277 984 312 972 350 C 960 387 944 410 926 420 C 901 432 869 437 831 437 C 793 436 757 436 725 436 L 725 127 C 725 103 729 83 737 66 C 745 49 759 37 778 29 C 793 21 815 16 844 13 C 873 10 897 8 915 8 L 915 0 L 393 0 Z M 115 514 L 582 514 L 582 1090 L 115 514 Z" unicode="4" />
<glyph horiz-adv-x="1024" d="M 438 -29 C 318 -29 227 -3 167 47 C 106 97 76 151 76 209 C 76 257 88 288 114 302 C 139 315 159 322 174 322 C 196 322 216 315 232 301 C 248 287 256 269 256 246 C 256 223 251 205 241 193 C 231 181 227 164 227 143 C 227 101 244 64 278 32 C 312 0 364 -16 436 -16 C 534 -16 608 32 660 130 C 711 227 737 350 737 498 C 737 577 716 641 676 691 C 636 741 578 766 502 766 C 442 766 383 749 324 715 C 265 681 225 638 205 586 L 188 590 L 342 1264 L 358 1264 C 382 1241 418 1222 466 1206 C 514 1190 571 1182 637 1182 C 704 1182 760 1191 806 1209 C 851 1227 890 1252 922 1286 L 928 1282 C 880 1193 814 1130 728 1093 C 642 1056 556 1038 469 1038 C 444 1038 416 1039 384 1042 C 352 1044 328 1047 313 1051 L 223 657 C 265 699 310 730 360 752 C 409 773 461 784 516 784 C 621 784 711 748 786 676 C 861 604 899 511 899 397 C 899 276 851 175 757 93 C 662 11 556 -29 438 -29 Z" unicode="5" />
<glyph horiz-adv-x="1112" d="M 541 -27 C 415 -27 313 26 237 132 C 161 238 123 377 123 547 C 123 646 137 742 165 836 C 193 929 232 1013 281 1089 C 347 1192 428 1275 523 1339 C 618 1402 714 1434 811 1434 C 886 1434 945 1415 987 1377 C 1029 1339 1051 1295 1051 1245 C 1051 1213 1044 1188 1030 1170 C 1016 1152 995 1143 969 1143 C 929 1143 904 1165 894 1210 C 884 1254 875 1286 868 1305 C 853 1340 835 1365 814 1380 C 793 1395 763 1403 723 1403 C 632 1403 544 1335 458 1199 C 372 1063 315 890 289 682 L 297 678 C 341 734 388 778 440 811 C 492 843 554 860 627 860 C 727 860 814 820 886 740 C 958 660 995 560 995 440 C 995 319 953 211 871 116 C 788 20 678 -27 541 -27 Z M 539 -14 C 635 -14 706 30 754 119 C 801 207 825 317 825 449 C 825 557 802 647 756 719 C 710 791 642 827 553 827 C 477 827 412 788 357 711 C 301 634 274 531 274 403 C 274 291 297 193 343 110 C 389 27 454 -14 539 -14 Z" unicode="6" />
<glyph horiz-adv-x="1020" d="M 428 -244 C 396 -244 374 -234 360 -215 C 346 -196 340 -167 340 -129 C 340 -67 368 24 426 148 C 484 271 540 386 596 492 C 646 590 704 691 768 794 C 832 896 893 994 952 1087 L 313 1087 C 235 1087 181 1050 151 978 C 121 905 102 855 96 829 L 84 831 L 201 1333 L 207 1333 L 236 1219 L 1049 1219 L 1049 1208 C 973 1097 906 987 846 878 C 786 769 732 650 682 522 C 644 426 611 333 585 242 C 558 150 540 37 532 -98 C 530 -132 521 -165 507 -197 C 493 -228 466 -244 428 -244 Z" unicode="7" />
<glyph horiz-adv-x="1106" d="M 516 -27 C 402 -27 310 2 238 62 C 166 121 131 193 131 279 C 131 361 160 431 218 489 C 276 547 348 591 434 623 L 434 629 C 354 655 291 696 244 752 C 197 807 174 866 174 928 C 174 1026 216 1110 300 1178 C 384 1246 473 1280 569 1280 C 684 1280 773 1252 836 1197 C 898 1141 930 1071 930 987 C 930 929 906 873 860 820 C 814 767 751 724 672 692 L 672 686 C 748 662 817 621 880 565 C 943 508 975 438 975 354 C 975 245 927 154 832 82 C 737 9 632 -27 516 -27 Z M 522 -14 C 602 -14 671 14 727 72 C 783 129 811 203 811 295 C 811 385 776 457 706 509 C 636 561 551 597 451 616 C 397 593 350 548 311 480 C 271 412 252 344 252 276 C 252 194 274 126 318 70 C 362 14 430 -14 522 -14 Z M 651 698 C 721 730 768 773 792 827 C 815 881 827 941 827 1008 C 827 1077 805 1138 763 1190 C 721 1242 660 1268 580 1268 C 499 1268 437 1239 394 1183 C 351 1127 330 1065 330 999 C 330 921 358 857 415 806 C 471 755 550 719 651 698 Z" unicode="8" />
<glyph horiz-adv-x="1112" d="M 313 -207 C 233 -207 167 -186 117 -146 C 66 -105 41 -59 41 -8 C 41 32 49 60 66 76 C 82 92 103 100 129 100 C 142 100 153 97 163 92 C 172 86 180 79 186 69 C 194 55 201 31 207 -2 C 213 -36 220 -60 227 -74 C 243 -106 261 -133 283 -153 C 304 -173 334 -184 373 -184 C 441 -184 504 -159 562 -109 C 620 -59 671 10 714 99 C 746 165 772 238 792 320 C 812 402 825 487 831 575 C 831 581 829 585 825 586 C 821 586 817 584 813 578 C 803 564 793 550 783 537 C 773 523 761 510 749 497 C 716 461 677 433 632 412 C 587 391 536 381 479 381 C 381 381 297 419 227 495 C 156 571 121 673 121 801 C 121 925 161 1033 241 1127 C 321 1221 423 1268 545 1268 C 678 1268 785 1219 866 1121 C 946 1023 987 871 987 666 C 987 542 969 426 933 316 C 897 206 849 111 787 32 C 727 -44 656 -103 576 -145 C 495 -186 407 -207 313 -207 Z M 551 416 C 582 416 614 424 646 440 C 678 456 708 479 735 507 C 769 543 795 586 814 637 C 832 688 842 745 842 809 C 842 934 815 1039 761 1125 C 707 1210 636 1253 547 1253 C 461 1253 397 1215 353 1140 C 309 1065 287 968 287 850 C 287 709 308 601 352 527 C 395 453 461 416 551 416 Z" unicode="9" />
<glyph horiz-adv-x="555" d="M 277 -14 C 244 -14 216 -2 194 19 C 171 41 160 69 160 102 C 160 134 171 162 194 186 C 216 209 244 221 277 221 C 309 221 337 209 360 186 C 383 162 395 134 395 102 C 395 69 383 41 360 19 C 337 -2 309 -14 277 -14 Z M 277 686 C 244 686 216 697 194 719 C 171 741 160 769 160 802 C 160 834 171 862 194 886 C 216 909 244 921 277 921 C 309 921 337 909 360 886 C 383 862 395 834 395 802 C 395 769 383 741 360 719 C 337 697 309 686 277 686 Z" unicode=":" />
<glyph horiz-adv-x="555" d="M 149 -326 L 145 -317 C 199 -283 242 -238 276 -180 C 310 -122 329 -59 334 8 L 268 8 C 225 8 195 19 177 42 C 159 65 151 91 151 119 C 151 143 161 167 181 189 C 201 211 229 223 264 223 C 316 223 354 205 378 170 C 401 134 413 89 413 33 C 413 -66 376 -146 302 -207 C 228 -267 177 -307 149 -326 Z M 277 686 C 244 686 216 697 194 719 C 171 741 160 769 160 802 C 160 834 171 862 194 886 C 216 909 244 921 277 921 C 309 921 337 909 360 886 C 383 862 395 834 395 802 C 395 769 383 741 360 719 C 337 697 309 686 277 686 Z" unicode=";" />
<glyph horiz-adv-x="1139" d="M 1014 72 L 109 512 L 109 553 L 1014 993 L 1014 934 L 184 532 L 1014 131 L 1014 72 Z" unicode="&#x3C;" />
<glyph horiz-adv-x="1139" d="M 117 326 L 117 381 L 1022 381 L 1022 326 L 117 326 Z M 117 684 L 117 739 L 1022 739 L 1022 684 L 117 684 Z" unicode="=" />
<glyph horiz-adv-x="1139" d="M 125 72 L 125 131 L 954 532 L 125 934 L 125 993 L 1030 553 L 1030 512 L 125 72 Z" unicode="&#x3E;" />
<glyph horiz-adv-x="938" d="M 348 340 L 348 725 C 445 735 525 763 587 809 C 649 855 680 925 680 1020 C 680 1150 655 1250 606 1318 C 557 1386 494 1421 418 1421 C 392 1421 366 1416 339 1407 C 311 1397 293 1384 283 1368 C 287 1336 290 1307 292 1279 C 294 1251 293 1229 289 1212 C 281 1193 270 1178 256 1167 C 242 1156 222 1151 197 1151 C 169 1151 148 1160 135 1178 C 121 1196 115 1218 115 1245 C 115 1295 142 1339 196 1376 C 250 1413 324 1432 418 1432 C 551 1432 655 1394 729 1320 C 803 1246 840 1150 840 1032 C 840 913 798 815 715 737 C 631 659 519 613 379 598 L 362 340 L 348 340 Z M 358 -14 C 325 -14 297 -2 274 19 C 251 41 240 69 240 102 C 240 134 251 162 274 186 C 297 209 325 221 358 221 C 390 221 418 209 442 186 C 465 162 477 134 477 102 C 477 69 465 41 442 19 C 418 -2 390 -14 358 -14 Z" unicode="?" />
<glyph horiz-adv-x="2011" d="M 1038 -440 C 920 -440 801 -417 682 -372 C 563 -327 462 -259 378 -168 C 317 -103 268 -26 232 63 C 196 152 178 253 178 367 C 178 495 204 620 257 742 C 310 864 383 970 476 1062 C 562 1146 664 1214 781 1266 C 898 1317 1025 1343 1163 1343 C 1266 1343 1357 1326 1437 1294 C 1517 1262 1584 1219 1640 1165 C 1703 1102 1751 1028 1783 944 C 1815 860 1831 773 1831 684 C 1831 592 1813 506 1779 426 C 1744 345 1699 277 1644 221 C 1597 173 1545 136 1489 109 C 1432 81 1375 68 1317 68 C 1269 68 1227 83 1193 114 C 1159 144 1142 190 1143 252 L 1137 254 C 1111 208 1075 166 1029 128 C 983 90 937 72 889 72 C 873 72 854 74 833 80 C 812 85 792 95 772 110 C 746 128 724 155 706 193 C 687 230 678 280 678 344 C 678 373 683 409 695 453 C 707 497 724 541 748 587 C 794 675 849 745 913 796 C 977 846 1048 872 1128 872 C 1168 872 1204 860 1235 836 C 1265 812 1283 779 1288 737 L 1294 737 L 1341 860 L 1440 860 L 1251 322 C 1245 305 1239 285 1235 263 C 1231 240 1229 222 1229 209 C 1229 173 1236 142 1250 118 C 1264 94 1291 82 1329 82 C 1378 82 1429 95 1483 121 C 1536 147 1585 183 1631 231 C 1680 284 1721 350 1754 429 C 1787 508 1804 597 1804 696 C 1804 782 1788 864 1757 941 C 1726 1018 1681 1085 1623 1141 C 1568 1193 1501 1234 1423 1265 C 1345 1295 1257 1311 1159 1311 C 1057 1311 955 1288 853 1243 C 751 1198 660 1134 581 1050 C 505 970 444 874 398 760 C 351 646 328 519 328 377 C 328 257 346 151 383 57 C 419 -37 468 -116 530 -181 C 595 -250 671 -303 759 -339 C 847 -375 938 -393 1034 -393 C 1250 -393 1437 -337 1594 -225 C 1750 -113 1863 43 1931 244 L 1942 240 C 1880 30 1764 -135 1593 -257 C 1422 -379 1237 -440 1038 -440 Z M 901 109 C 961 109 1010 128 1050 167 C 1090 205 1125 254 1155 313 L 1284 700 C 1275 754 1257 793 1229 816 C 1201 838 1163 850 1116 850 C 1063 850 1011 821 960 764 C 909 706 867 632 834 540 C 818 498 806 457 798 415 C 790 373 786 334 786 299 C 786 250 790 212 800 186 C 810 160 821 141 835 130 C 845 121 856 115 868 113 C 880 110 891 109 901 109 Z" unicode="@" />
<glyph horiz-adv-x="1380" d="M -53 0 L -53 8 C -33 8 -11 12 13 20 C 38 27 60 36 80 47 C 103 60 127 80 151 108 C 175 136 195 169 211 207 C 283 381 364 578 456 799 C 547 1020 631 1227 709 1421 L 727 1421 C 831 1160 930 906 1026 658 C 1122 410 1189 239 1227 145 C 1235 124 1244 105 1256 89 C 1268 73 1286 57 1311 43 C 1329 31 1350 23 1372 17 C 1394 11 1414 8 1434 8 L 1434 0 L 840 0 L 840 8 C 875 10 921 17 977 29 C 1033 41 1061 60 1061 86 C 1061 92 1060 100 1059 110 C 1057 120 1055 128 1053 135 L 899 522 L 367 522 C 343 464 321 409 302 358 C 283 307 269 265 260 233 C 253 209 247 188 243 169 C 238 149 236 133 236 119 C 236 82 266 55 327 37 C 387 19 440 10 485 8 L 485 0 L -53 0 Z M 375 547 L 891 547 L 643 1202 L 375 547 Z" unicode="A" />
<glyph horiz-adv-x="1321" d="M 102 0 L 102 8 C 120 8 146 12 180 18 C 213 24 236 30 250 35 C 274 43 291 56 300 72 C 308 88 313 108 313 131 L 313 1255 C 313 1277 308 1297 300 1315 C 291 1333 274 1347 250 1358 C 227 1366 203 1374 179 1380 C 155 1386 133 1390 115 1391 L 115 1399 L 795 1399 C 885 1399 967 1374 1039 1324 C 1111 1274 1147 1204 1147 1114 C 1147 1010 1113 930 1047 876 C 980 822 882 780 754 750 L 754 743 C 876 741 984 707 1079 641 C 1173 575 1221 483 1221 367 C 1221 325 1212 285 1196 248 C 1180 210 1157 176 1128 146 C 1087 103 1035 68 973 41 C 910 13 857 0 813 0 L 102 0 Z M 686 16 C 798 16 881 52 935 124 C 989 196 1016 293 1016 416 C 1016 504 987 579 930 641 C 873 702 793 733 690 733 C 689 733 659 732 601 731 C 542 730 501 729 479 729 L 479 162 C 487 104 507 66 538 46 C 569 26 618 16 686 16 Z M 479 748 L 641 748 C 747 748 824 779 874 843 C 923 906 948 990 948 1094 C 948 1187 922 1259 870 1310 C 818 1360 755 1386 680 1386 C 660 1386 629 1385 587 1384 C 545 1383 509 1382 479 1382 L 479 748 Z" unicode="B" />
<glyph horiz-adv-x="1288" d="M 737 -31 C 536 -31 376 34 258 166 C 139 297 80 469 80 682 C 80 886 147 1061 283 1205 C 418 1349 585 1421 784 1421 C 836 1421 896 1409 966 1385 C 1036 1361 1094 1328 1141 1288 L 1206 1421 L 1219 1421 L 1227 918 L 1217 918 C 1165 1063 1102 1180 1027 1269 C 952 1358 849 1403 719 1403 C 614 1403 513 1345 417 1230 C 320 1114 272 934 272 690 C 272 492 323 331 425 206 C 527 80 648 18 788 18 C 916 18 1019 53 1095 124 C 1171 194 1226 275 1260 365 L 1280 354 C 1241 263 1180 176 1096 93 C 1012 10 892 -31 737 -31 Z" unicode="C" />
<glyph horiz-adv-x="1569" d="M 98 0 L 98 8 C 118 8 145 9 179 13 C 213 17 236 21 250 27 C 274 35 291 48 300 66 C 308 84 313 104 313 127 L 313 1255 C 313 1277 308 1298 300 1316 C 291 1334 274 1349 250 1360 C 225 1370 199 1377 173 1382 C 147 1387 124 1390 106 1391 L 106 1399 L 741 1399 C 841 1399 943 1380 1049 1342 C 1154 1304 1245 1244 1321 1162 C 1370 1109 1410 1043 1441 965 C 1471 887 1487 795 1487 690 C 1487 597 1472 514 1443 441 C 1414 367 1375 303 1327 249 C 1251 164 1156 101 1043 61 C 929 20 815 0 700 0 L 98 0 Z M 719 14 C 801 14 874 26 938 50 C 1002 74 1056 109 1102 153 C 1164 213 1211 289 1242 382 C 1272 474 1288 577 1288 690 C 1288 801 1270 902 1236 993 C 1202 1083 1154 1159 1092 1221 C 1039 1273 977 1314 905 1343 C 833 1371 755 1386 670 1386 C 645 1386 613 1385 574 1384 C 535 1383 503 1382 479 1380 L 479 186 C 488 122 509 78 542 52 C 575 26 634 14 719 14 Z" unicode="D" />
<glyph horiz-adv-x="1327" d="M 88 0 L 88 8 C 106 8 134 11 171 15 C 208 19 234 24 250 31 C 274 39 291 52 300 70 C 308 88 313 108 313 131 L 313 1255 C 313 1277 308 1297 300 1314 C 292 1331 275 1345 250 1356 C 230 1364 203 1371 168 1379 C 133 1386 106 1390 88 1391 L 88 1399 L 1169 1399 L 1169 1090 L 1159 1090 C 1149 1134 1123 1190 1082 1260 C 1040 1330 998 1368 956 1374 C 931 1376 901 1378 865 1380 C 829 1381 794 1382 762 1382 L 479 1382 L 479 733 L 702 733 C 759 733 799 741 821 757 C 843 773 860 788 872 801 C 887 815 900 846 910 892 C 920 938 927 974 930 1001 L 940 1001 L 940 438 L 930 438 C 928 468 921 507 909 556 C 897 605 884 636 872 649 C 859 663 841 678 819 694 C 796 709 757 717 702 717 L 479 717 L 479 203 C 479 119 494 67 525 47 C 555 26 622 16 725 16 C 797 16 873 17 953 19 C 1033 21 1085 35 1110 61 C 1140 93 1172 147 1205 223 C 1237 299 1259 352 1270 383 L 1280 383 L 1253 0 L 88 0 Z" unicode="E" />
<glyph horiz-adv-x="1214" d="M 88 0 L 88 8 C 106 8 134 11 171 15 C 208 19 234 24 250 31 C 274 39 291 52 300 69 C 308 86 313 106 313 129 L 313 1255 C 313 1277 308 1297 300 1314 C 292 1331 275 1345 250 1356 C 230 1364 203 1371 168 1379 C 133 1386 106 1390 88 1391 L 88 1399 L 1180 1399 L 1180 1073 L 1169 1073 C 1160 1117 1133 1176 1088 1252 C 1043 1327 1000 1368 958 1374 C 933 1378 905 1380 873 1381 C 841 1381 808 1382 776 1382 L 479 1382 L 479 729 L 729 729 C 779 729 815 737 838 753 C 861 769 879 784 893 799 C 905 811 917 837 929 876 C 940 914 948 955 952 997 L 963 997 L 961 428 L 950 428 C 948 457 941 496 930 544 C 919 592 907 624 895 641 C 882 657 863 673 837 689 C 811 705 775 713 729 713 L 479 713 L 479 137 C 479 114 483 94 493 77 C 503 60 519 47 543 37 C 555 32 579 26 617 19 C 654 12 682 8 700 8 L 700 0 L 88 0 Z" unicode="F" />
<glyph horiz-adv-x="1487" d="M 1290 -49 L 1174 88 C 1084 43 1004 12 934 -5 C 864 -22 784 -31 696 -31 C 550 -31 410 29 276 150 C 142 270 76 441 76 662 C 76 868 149 1046 295 1196 C 441 1346 604 1421 786 1421 C 875 1421 956 1408 1028 1383 C 1100 1358 1163 1326 1219 1286 L 1294 1421 L 1303 1421 L 1315 932 L 1305 932 C 1270 1044 1207 1152 1116 1254 C 1024 1356 910 1407 772 1407 C 627 1407 507 1341 413 1210 C 319 1078 272 898 272 668 C 272 463 316 299 406 175 C 495 51 616 -10 768 -10 C 905 -10 1002 25 1060 95 C 1118 165 1147 235 1147 305 L 1147 440 C 1147 470 1142 497 1133 521 C 1123 545 1105 562 1079 571 C 1050 581 1010 589 958 594 C 906 598 870 601 852 602 L 852 612 L 1513 612 L 1513 602 C 1483 599 1455 596 1429 592 C 1402 588 1379 582 1360 573 C 1335 561 1318 545 1310 527 C 1302 508 1298 487 1298 465 L 1298 -47 L 1290 -49 Z" unicode="G" />
<glyph horiz-adv-x="1716" d="M 106 0 L 106 8 C 124 8 150 10 182 14 C 214 17 236 21 250 27 C 274 35 291 48 300 66 C 308 84 313 104 313 127 L 313 1255 C 313 1277 308 1297 300 1314 C 291 1331 274 1345 250 1356 C 232 1362 209 1370 179 1378 C 149 1386 124 1390 106 1391 L 106 1399 L 690 1399 L 690 1391 C 671 1390 646 1387 616 1382 C 586 1377 561 1372 543 1366 C 517 1358 500 1345 492 1327 C 483 1309 479 1288 479 1266 L 479 743 L 1237 743 L 1237 1255 C 1237 1277 1232 1297 1223 1314 C 1213 1331 1197 1345 1174 1356 C 1156 1362 1132 1370 1101 1378 C 1069 1386 1044 1390 1026 1391 L 1026 1399 L 1610 1399 L 1610 1391 C 1591 1390 1567 1387 1538 1382 C 1508 1377 1484 1372 1466 1366 C 1440 1358 1423 1345 1415 1327 C 1407 1309 1403 1288 1403 1266 L 1403 137 C 1403 114 1407 94 1417 78 C 1426 61 1442 47 1466 37 C 1478 31 1501 24 1533 18 C 1565 12 1591 8 1610 8 L 1610 0 L 1026 0 L 1026 8 C 1044 8 1070 10 1104 14 C 1137 17 1160 21 1174 27 C 1198 35 1215 48 1224 66 C 1232 84 1237 104 1237 127 L 1237 719 L 479 719 L 479 137 C 479 114 483 94 493 77 C 503 60 519 47 543 37 C 555 32 577 26 611 19 C 645 12 671 8 690 8 L 690 0 L 106 0 Z" unicode="H" />
<glyph horiz-adv-x="801" d="M 104 0 L 104 8 C 122 8 149 10 183 14 C 217 17 240 21 254 27 C 278 35 295 48 304 65 C 312 82 317 102 317 125 L 317 1257 C 317 1279 313 1299 305 1315 C 297 1331 280 1345 254 1356 C 235 1362 210 1370 179 1378 C 147 1386 122 1390 104 1391 L 104 1399 L 696 1399 L 696 1391 C 677 1390 652 1387 621 1382 C 590 1377 565 1372 547 1366 C 521 1358 504 1345 496 1328 C 487 1310 483 1290 483 1268 L 483 135 C 483 112 487 92 497 76 C 507 60 523 47 547 37 C 559 32 582 26 616 19 C 650 12 677 8 696 8 L 696 0 L 104 0 Z" unicode="I" />
<glyph horiz-adv-x="944" d="M 236 -33 C 155 -33 94 -15 53 20 C 12 55 -8 95 -8 139 C -8 171 3 200 25 226 C 47 252 77 266 113 266 C 148 266 176 254 196 232 C 216 210 227 182 227 150 C 227 112 218 81 201 57 C 183 33 161 16 135 4 L 135 -2 C 141 -4 150 -7 163 -10 C 175 -12 188 -14 201 -14 C 251 -14 294 -7 328 4 C 362 16 391 34 414 58 C 438 82 458 116 474 162 C 490 207 498 305 498 455 L 498 1255 C 498 1277 493 1297 484 1313 C 475 1329 458 1343 434 1356 C 410 1368 381 1376 346 1382 C 311 1387 283 1390 262 1391 L 262 1399 L 887 1399 L 887 1391 C 868 1390 841 1387 807 1382 C 772 1377 745 1372 727 1366 C 701 1358 684 1345 676 1327 C 668 1309 664 1288 664 1266 L 664 391 C 664 345 651 292 625 230 C 599 168 562 115 512 70 C 478 40 438 15 392 -4 C 346 -23 294 -33 236 -33 Z" unicode="J" />
<glyph horiz-adv-x="1442" d="M 106 0 L 106 8 C 124 8 150 10 182 14 C 214 17 236 21 250 27 C 274 35 291 48 300 66 C 308 84 313 104 313 127 L 313 1255 C 313 1277 308 1297 300 1314 C 291 1331 274 1345 250 1356 C 233 1362 209 1370 179 1378 C 149 1386 124 1390 106 1391 L 106 1399 L 690 1399 L 690 1391 C 671 1390 646 1387 616 1382 C 586 1377 561 1372 543 1366 C 517 1358 500 1345 492 1327 C 483 1309 479 1288 479 1266 L 479 715 L 496 715 C 630 821 757 934 879 1054 C 1000 1174 1061 1261 1061 1315 C 1061 1331 1054 1344 1041 1354 C 1028 1363 1014 1370 999 1374 C 973 1380 941 1384 903 1387 C 865 1389 844 1391 840 1391 L 840 1399 L 1413 1399 L 1413 1391 C 1386 1391 1342 1386 1280 1376 C 1218 1366 1168 1338 1130 1294 C 1050 1201 968 1113 886 1031 C 804 949 717 871 627 797 C 743 680 850 572 947 473 C 1043 373 1134 272 1219 170 C 1237 146 1260 122 1288 97 C 1316 72 1348 52 1384 37 C 1402 28 1426 21 1456 16 C 1485 11 1509 8 1528 8 L 1528 0 L 799 0 L 799 8 C 820 8 844 9 872 11 C 899 13 924 16 948 20 C 976 25 1000 34 1019 46 C 1037 58 1047 73 1047 92 C 1047 132 966 235 805 401 C 644 566 544 666 504 700 L 479 700 L 479 137 C 479 114 483 94 493 77 C 503 60 519 47 543 37 C 555 32 579 26 617 19 C 654 11 682 8 700 8 L 700 0 L 106 0 Z" unicode="K" />
<glyph horiz-adv-x="1251" d="M 109 0 L 109 8 C 127 8 151 11 183 15 C 214 19 236 23 250 29 C 274 37 291 51 300 69 C 308 87 313 108 313 131 L 313 1249 C 313 1271 308 1291 300 1309 C 292 1326 275 1340 250 1352 C 231 1360 207 1368 179 1377 C 150 1385 127 1390 109 1391 L 109 1399 L 692 1399 L 692 1391 C 673 1390 648 1386 617 1380 C 586 1374 561 1368 543 1362 C 517 1354 500 1340 492 1322 C 483 1303 479 1282 479 1260 L 479 205 C 479 118 491 65 517 45 C 543 25 612 16 725 16 C 784 16 850 20 924 28 C 997 36 1043 50 1063 72 C 1087 99 1123 151 1169 228 C 1215 304 1242 357 1249 387 L 1257 387 L 1225 0 L 109 0 Z" unicode="L" />
<glyph horiz-adv-x="1921" d="M 43 0 L 43 8 C 60 10 90 14 132 21 C 174 28 208 40 233 57 C 257 74 275 106 285 153 C 295 200 301 263 301 342 L 301 1167 C 301 1209 295 1243 285 1269 C 274 1295 258 1316 238 1333 C 213 1352 183 1366 148 1376 C 112 1385 81 1390 53 1391 L 53 1399 L 434 1399 L 977 264 L 1386 1186 C 1410 1240 1426 1286 1434 1323 C 1441 1360 1445 1385 1446 1399 L 1823 1399 L 1823 1391 C 1804 1390 1779 1387 1747 1382 C 1715 1377 1689 1372 1671 1366 C 1645 1358 1628 1345 1620 1327 C 1612 1309 1608 1288 1608 1266 L 1608 137 C 1608 114 1612 94 1622 78 C 1631 61 1647 47 1671 37 C 1683 31 1707 24 1743 18 C 1779 12 1806 8 1825 8 L 1825 0 L 1198 0 L 1198 8 C 1216 8 1247 11 1291 15 C 1335 19 1364 25 1378 33 C 1401 45 1418 59 1428 76 C 1438 93 1444 113 1444 137 L 1444 1262 L 895 23 L 887 23 C 871 69 854 116 836 162 C 818 208 797 256 774 307 L 324 1251 L 324 352 C 324 274 329 212 341 164 C 353 116 370 84 393 66 C 410 51 446 38 501 26 C 556 14 593 8 612 8 L 612 0 L 43 0 Z" unicode="M" />
<glyph horiz-adv-x="1577" d="M 1325 -18 L 324 1214 L 324 354 C 324 276 330 215 343 170 C 356 124 374 92 397 74 C 414 59 450 44 506 30 C 561 16 598 8 616 8 L 616 0 L 43 0 L 43 8 C 62 10 94 17 140 31 C 186 44 215 54 227 61 C 250 74 268 103 281 147 C 294 191 301 257 301 344 L 301 1143 C 301 1178 295 1209 284 1237 C 273 1265 257 1287 236 1305 C 211 1325 175 1344 128 1361 C 80 1377 40 1388 8 1393 L 8 1399 L 381 1399 L 1317 248 L 1317 1057 C 1317 1128 1311 1188 1299 1238 C 1287 1287 1269 1318 1247 1331 C 1227 1343 1192 1356 1142 1370 C 1091 1383 1053 1390 1028 1391 L 1028 1399 L 1593 1399 L 1593 1391 C 1574 1391 1542 1384 1497 1371 C 1452 1358 1423 1348 1411 1341 C 1381 1324 1362 1290 1353 1240 C 1343 1189 1339 1132 1339 1069 L 1339 -18 L 1325 -18 Z" unicode="N" />
<glyph horiz-adv-x="1556" d="M 770 -31 C 679 -31 593 -14 512 20 C 431 54 358 102 293 166 C 227 229 176 304 138 390 C 100 476 82 574 82 684 C 82 802 100 907 138 997 C 175 1087 225 1163 287 1227 C 352 1293 427 1343 513 1378 C 599 1412 687 1430 778 1430 C 870 1430 958 1413 1042 1381 C 1126 1348 1208 1292 1288 1214 C 1346 1156 1391 1081 1425 989 C 1458 897 1475 804 1475 709 C 1475 605 1459 507 1428 417 C 1396 326 1344 244 1270 170 C 1206 106 1132 56 1049 21 C 965 -13 872 -31 770 -31 Z M 778 -14 C 947 -14 1073 55 1157 193 C 1240 331 1282 500 1282 702 C 1282 922 1236 1096 1144 1223 C 1052 1349 930 1413 778 1413 C 626 1413 504 1348 412 1220 C 320 1091 274 911 274 680 C 274 491 315 328 399 191 C 482 54 608 -14 778 -14 Z" unicode="O" />
<glyph horiz-adv-x="1227" d="M 109 0 L 109 8 C 127 8 151 11 183 15 C 214 19 236 23 250 29 C 274 37 291 51 300 69 C 308 87 313 108 313 131 L 313 1262 C 313 1284 308 1306 300 1326 C 292 1346 275 1359 250 1366 C 221 1374 193 1380 165 1384 C 137 1388 114 1390 96 1391 L 96 1399 L 754 1399 C 856 1399 948 1368 1030 1308 C 1112 1248 1153 1169 1153 1071 C 1153 945 1105 847 1009 777 C 913 707 798 672 664 672 L 479 672 L 479 129 C 479 106 483 85 492 67 C 501 49 518 35 543 27 C 557 21 581 17 615 14 C 649 10 680 8 709 8 L 709 0 L 109 0 Z M 479 686 L 604 686 C 718 686 805 718 863 782 C 921 846 950 926 950 1020 C 950 1136 925 1226 875 1289 C 825 1352 748 1384 643 1384 L 479 1384 L 479 686 Z" unicode="P" />
<glyph horiz-adv-x="1565" d="M 1325 -248 C 1271 -248 1203 -231 1123 -198 C 1043 -164 993 -94 975 14 C 947 3 915 -6 879 -14 C 842 -22 806 -27 770 -27 C 676 -27 588 -9 505 24 C 421 58 346 110 279 178 C 217 240 169 313 134 398 C 99 482 82 578 82 684 C 82 798 100 901 136 995 C 172 1088 223 1167 289 1231 C 358 1297 434 1346 517 1380 C 600 1413 687 1430 778 1430 C 871 1430 960 1413 1044 1380 C 1128 1346 1210 1290 1290 1212 C 1348 1154 1393 1079 1426 988 C 1458 896 1475 803 1475 709 C 1475 579 1443 462 1380 356 C 1316 250 1234 165 1133 100 C 1155 -6 1200 -78 1267 -115 C 1334 -151 1400 -170 1464 -170 C 1519 -170 1569 -150 1615 -110 C 1661 -70 1695 -32 1718 2 L 1729 -8 C 1704 -46 1656 -96 1584 -157 C 1512 -217 1425 -248 1325 -248 Z M 1128 115 C 1176 167 1213 242 1241 342 C 1268 442 1282 562 1282 702 C 1282 922 1236 1096 1144 1223 C 1052 1349 930 1413 778 1413 C 626 1413 504 1348 412 1220 C 320 1091 274 916 274 694 C 274 577 287 472 313 379 C 339 286 378 210 428 152 C 462 255 514 326 583 366 C 651 406 716 426 778 426 C 862 426 937 393 1003 328 C 1068 263 1110 192 1128 115 Z M 778 -10 C 812 -10 846 -6 880 1 C 914 9 944 18 971 29 C 955 170 923 266 873 317 C 823 367 767 393 707 393 C 689 393 649 377 586 346 C 523 315 474 245 440 137 C 491 82 542 44 594 22 C 645 0 706 -10 778 -10 Z" unicode="Q" />
<glyph horiz-adv-x="1446" d="M 1221 -23 C 1145 -23 1089 6 1053 66 C 1017 126 990 213 973 328 C 951 473 915 573 865 627 C 815 681 752 709 674 709 L 479 709 L 479 129 C 479 106 483 85 492 67 C 501 49 518 35 543 27 C 557 21 581 17 616 14 C 650 10 677 8 696 8 L 696 0 L 109 0 L 109 8 C 127 8 151 11 183 15 C 214 19 236 23 250 29 C 274 37 291 51 300 69 C 308 87 313 108 313 131 L 313 1264 C 313 1286 308 1307 300 1327 C 292 1346 275 1359 250 1366 C 232 1370 209 1375 180 1381 C 150 1387 127 1390 109 1391 L 109 1399 L 799 1399 C 896 1399 986 1371 1068 1315 C 1150 1259 1192 1182 1192 1083 C 1192 985 1150 906 1066 844 C 982 782 880 741 760 723 L 760 717 C 845 713 921 693 989 659 C 1057 624 1100 571 1120 500 C 1135 444 1147 389 1156 335 C 1165 281 1177 230 1192 180 C 1202 140 1217 110 1235 91 C 1253 72 1277 63 1305 63 C 1332 63 1358 77 1384 105 C 1410 133 1423 186 1423 264 L 1423 307 L 1438 307 L 1438 264 C 1438 168 1422 97 1390 49 C 1358 1 1302 -23 1221 -23 Z M 479 725 L 643 725 C 742 725 824 752 890 808 C 956 863 989 945 989 1053 C 989 1163 962 1245 909 1301 C 855 1356 786 1384 700 1384 L 479 1384 L 479 725 Z" unicode="R" />
<glyph horiz-adv-x="1069" d="M 582 -25 C 496 -25 423 -12 363 14 C 302 40 247 70 199 104 L 121 -20 L 115 -20 L 100 446 L 109 446 C 159 312 222 203 299 119 C 376 35 473 -6 590 -6 C 684 -6 757 24 808 84 C 859 144 885 214 885 295 C 885 358 866 413 829 460 C 791 507 742 544 680 571 C 616 599 566 620 531 634 C 495 648 445 671 379 702 C 303 736 245 781 204 836 C 163 890 143 965 143 1059 C 143 1165 177 1252 246 1320 C 315 1387 400 1421 500 1421 C 586 1421 657 1407 711 1381 C 765 1354 810 1326 846 1296 L 924 1421 L 930 1421 L 940 958 L 930 958 C 887 1086 831 1193 762 1277 C 692 1361 599 1403 483 1403 C 409 1403 350 1377 304 1326 C 258 1275 236 1221 236 1163 C 236 1099 251 1047 281 1008 C 311 968 356 933 416 901 C 470 872 517 849 559 832 C 601 815 647 795 698 772 C 809 721 886 668 929 614 C 971 560 993 487 993 395 C 993 263 951 160 867 86 C 783 12 688 -25 582 -25 Z" unicode="S" />
<glyph horiz-adv-x="1288" d="M 330 0 L 330 8 C 348 8 378 11 418 16 C 458 20 484 25 498 31 C 522 39 539 53 548 71 C 556 89 561 110 561 133 L 561 1382 L 430 1382 C 409 1382 379 1381 341 1380 C 302 1378 270 1376 246 1374 C 202 1368 156 1320 110 1230 C 63 1140 35 1072 25 1028 L 14 1028 L 14 1399 L 1274 1399 L 1274 1028 L 1264 1028 C 1252 1072 1223 1140 1177 1230 C 1131 1320 1086 1368 1042 1374 C 1017 1376 987 1378 952 1380 C 916 1381 885 1382 858 1382 L 729 1382 L 729 143 C 729 120 733 100 743 82 C 752 64 769 51 793 41 C 805 36 831 29 872 21 C 912 13 942 8 961 8 L 961 0 L 330 0 Z" unicode="T" />
<glyph horiz-adv-x="1579" d="M 793 -33 C 629 -33 504 4 417 79 C 330 154 287 236 287 326 L 287 1253 C 287 1275 282 1295 272 1312 C 262 1328 246 1343 223 1356 C 204 1364 180 1372 150 1379 C 120 1386 96 1390 80 1391 L 80 1399 L 666 1399 L 666 1391 C 647 1390 622 1387 592 1381 C 561 1375 536 1370 518 1364 C 492 1356 475 1343 467 1325 C 459 1307 455 1286 455 1264 L 455 377 C 455 281 486 201 549 135 C 612 69 708 37 838 37 C 979 37 1089 68 1169 130 C 1248 192 1288 277 1288 385 L 1288 1061 C 1288 1131 1282 1191 1271 1241 C 1259 1291 1242 1322 1219 1335 C 1190 1351 1152 1365 1105 1375 C 1057 1385 1021 1390 995 1391 L 995 1399 L 1565 1399 L 1565 1391 C 1546 1391 1515 1385 1472 1375 C 1428 1365 1397 1354 1378 1343 C 1348 1326 1330 1291 1322 1237 C 1314 1183 1311 1128 1311 1073 L 1311 381 C 1311 267 1265 169 1175 88 C 1084 7 957 -33 793 -33 Z" unicode="U" />
<glyph horiz-adv-x="1350" d="M 651 -16 C 556 246 459 502 359 752 C 259 1002 192 1174 160 1266 C 153 1282 144 1298 133 1313 C 121 1328 104 1343 82 1358 C 63 1368 41 1376 16 1382 C -8 1387 -29 1390 -47 1391 L -47 1399 L 537 1399 L 537 1391 C 520 1393 482 1388 423 1378 C 363 1367 334 1347 334 1319 C 334 1312 335 1303 337 1292 C 339 1281 342 1272 344 1266 C 376 1168 431 1025 507 835 C 583 645 661 442 741 225 C 807 380 877 547 951 726 C 1025 904 1077 1030 1108 1104 C 1118 1128 1128 1159 1138 1196 C 1148 1232 1153 1260 1153 1280 C 1153 1314 1122 1340 1062 1359 C 1001 1378 949 1389 907 1393 L 907 1399 L 1411 1399 L 1411 1393 C 1391 1392 1370 1387 1347 1378 C 1323 1369 1302 1360 1284 1352 C 1260 1339 1241 1320 1225 1294 C 1209 1268 1194 1238 1180 1204 C 1138 1107 1061 926 950 662 C 838 397 743 171 664 -16 L 651 -16 Z" unicode="V" />
<glyph horiz-adv-x="1919" d="M 553 -16 C 473 250 394 506 316 752 C 237 997 185 1165 160 1257 C 153 1279 145 1298 135 1312 C 125 1326 108 1341 86 1356 C 67 1366 46 1375 22 1381 C -2 1387 -23 1390 -43 1391 L -43 1399 L 545 1399 L 545 1391 C 509 1388 462 1381 404 1369 C 346 1357 317 1339 317 1315 C 317 1309 318 1300 320 1289 C 322 1278 324 1270 326 1264 C 340 1218 379 1100 445 910 C 510 720 577 511 647 283 L 932 1077 C 934 1084 935 1092 937 1101 C 939 1110 940 1119 940 1128 C 940 1156 930 1195 911 1246 C 892 1297 867 1333 836 1354 C 821 1362 797 1370 765 1378 C 732 1386 706 1390 688 1391 L 688 1399 L 1272 1399 L 1272 1391 C 1236 1388 1192 1380 1142 1368 C 1092 1356 1067 1337 1067 1313 C 1067 1305 1067 1297 1069 1287 C 1071 1277 1073 1268 1075 1262 C 1088 1219 1129 1104 1197 918 C 1265 732 1335 523 1407 293 C 1462 451 1512 598 1558 732 C 1603 866 1638 974 1663 1057 C 1679 1113 1691 1157 1697 1190 C 1703 1223 1706 1253 1706 1280 C 1706 1316 1676 1342 1618 1360 C 1559 1377 1506 1387 1460 1391 L 1460 1399 L 1974 1399 L 1974 1391 C 1954 1390 1933 1386 1910 1379 C 1886 1371 1865 1362 1847 1352 C 1820 1335 1798 1316 1781 1295 C 1764 1273 1751 1249 1743 1223 C 1701 1097 1639 914 1558 672 C 1477 430 1400 200 1327 -16 L 1317 -16 C 1255 196 1190 401 1121 598 C 1051 795 996 958 956 1087 L 565 -16 L 553 -16 Z" unicode="W" />
<glyph horiz-adv-x="1528" d="M -8 0 L -8 8 C 7 8 27 11 51 15 C 75 19 98 25 119 35 C 159 52 191 70 217 90 C 242 110 265 134 287 162 C 345 234 410 315 484 405 C 557 495 626 580 692 662 C 652 714 582 807 483 940 C 383 1072 308 1171 258 1237 C 240 1259 220 1283 197 1307 C 173 1331 149 1350 125 1364 C 112 1370 90 1376 60 1382 C 29 1388 8 1391 -4 1391 L -4 1399 L 684 1399 L 684 1391 C 667 1390 640 1388 604 1385 C 568 1381 541 1378 524 1374 C 503 1369 486 1362 473 1353 C 459 1343 453 1330 453 1313 C 453 1293 473 1250 513 1183 C 553 1115 650 980 803 776 C 888 882 968 987 1043 1091 C 1117 1195 1155 1269 1155 1311 C 1155 1331 1147 1346 1131 1356 C 1115 1366 1091 1374 1059 1380 C 1042 1382 1018 1385 987 1387 C 956 1389 934 1391 920 1391 L 920 1399 L 1477 1399 L 1477 1391 C 1461 1390 1440 1387 1413 1383 C 1385 1379 1361 1372 1341 1364 C 1301 1346 1270 1326 1246 1303 C 1222 1279 1202 1257 1186 1237 L 817 760 C 901 650 988 536 1076 420 C 1164 304 1231 218 1276 164 C 1291 145 1312 121 1340 93 C 1367 65 1390 45 1409 33 C 1421 24 1439 18 1463 14 C 1486 10 1511 8 1538 8 L 1538 0 L 850 0 L 850 8 C 867 8 894 9 930 11 C 966 13 999 18 1028 27 C 1049 33 1063 41 1071 51 C 1079 61 1083 71 1083 82 C 1083 113 1049 177 983 273 C 917 369 825 494 707 647 C 639 563 555 459 455 333 C 355 207 305 128 305 96 C 305 54 332 28 388 20 C 444 12 492 8 532 8 L 532 0 L -8 0 Z" unicode="X" />
<glyph horiz-adv-x="1200" d="M 262 0 L 262 8 C 280 8 310 11 350 16 C 390 20 416 25 430 31 C 454 39 471 53 480 71 C 489 89 494 110 494 133 L 494 559 C 494 571 488 590 477 615 C 465 639 455 663 446 686 C 402 774 354 867 304 964 C 254 1060 208 1145 166 1219 C 148 1249 130 1276 110 1300 C 90 1324 67 1343 43 1358 C 24 1368 5 1376 -13 1382 C -31 1387 -50 1390 -70 1391 L -70 1399 L 528 1399 L 528 1391 C 492 1388 446 1382 389 1372 C 331 1362 303 1345 303 1321 C 303 1306 343 1221 425 1067 C 507 913 583 770 655 639 C 726 755 806 887 895 1035 C 983 1183 1028 1268 1028 1292 C 1028 1324 996 1347 932 1363 C 868 1378 812 1387 766 1391 L 766 1399 L 1274 1399 L 1274 1391 C 1264 1391 1249 1387 1229 1381 C 1209 1375 1194 1370 1184 1366 C 1164 1359 1145 1348 1126 1332 C 1106 1316 1085 1293 1063 1262 C 1015 1195 957 1104 890 990 C 823 875 765 772 717 682 C 696 644 682 606 674 569 C 666 531 662 499 662 473 L 662 143 C 662 118 666 97 676 81 C 685 64 701 51 725 41 C 737 36 764 29 804 21 C 844 13 874 8 893 8 L 893 0 L 262 0 Z" unicode="Y" />
<glyph horiz-adv-x="1233" d="M 6 0 L 6 12 L 1001 1382 L 559 1382 C 533 1382 508 1381 483 1381 C 457 1381 434 1380 414 1378 C 348 1367 281 1318 215 1230 C 149 1142 111 1076 102 1032 L 90 1032 L 133 1399 L 1192 1399 L 1192 1386 L 197 16 L 686 16 C 726 16 779 20 845 28 C 910 36 954 49 977 68 C 1023 106 1068 158 1110 226 C 1152 293 1184 354 1206 410 L 1219 410 L 1171 0 L 6 0 Z" unicode="Z" />
<glyph horiz-adv-x="1110" d="M 981 -406 L 971 -399 C 979 -392 987 -380 997 -362 C 1007 -344 1012 -326 1012 -309 C 1012 -297 1005 -278 991 -252 C 977 -226 921 -213 823 -213 C 725 -213 630 -221 538 -239 C 446 -256 334 -279 203 -309 L 156 -326 L 156 1489 L 203 1473 C 333 1443 445 1419 538 1402 C 630 1384 725 1376 823 1376 C 921 1376 977 1387 991 1409 C 1005 1431 1012 1452 1012 1473 C 1012 1489 1008 1505 1001 1521 C 994 1536 987 1549 979 1561 L 989 1567 C 1000 1558 1011 1542 1023 1520 C 1034 1497 1040 1474 1040 1452 C 1040 1388 1019 1336 977 1296 C 935 1256 869 1237 778 1237 C 664 1237 568 1259 490 1303 C 412 1347 317 1398 207 1454 L 207 -291 C 317 -235 412 -184 490 -140 C 568 -96 664 -74 778 -74 C 869 -74 935 -93 977 -133 C 1019 -173 1040 -225 1040 -289 C 1040 -315 1032 -339 1017 -360 C 1001 -381 989 -396 981 -406 Z" unicode="[" />
<glyph horiz-adv-x="823" d="M 707 -424 L 66 1526 L 115 1540 L 756 -410 L 707 -424 Z" unicode="\" />
<glyph horiz-adv-x="1110" d="M 129 -406 C 120 -396 108 -381 93 -360 C 77 -339 70 -315 70 -289 C 70 -225 91 -173 133 -133 C 175 -93 241 -74 332 -74 C 446 -74 542 -96 620 -140 C 698 -184 792 -235 903 -291 L 903 1454 C 792 1398 698 1347 620 1303 C 542 1259 446 1237 332 1237 C 241 1237 175 1256 133 1296 C 91 1336 70 1388 70 1452 C 70 1474 75 1497 87 1520 C 98 1542 109 1558 121 1567 L 131 1561 C 123 1549 115 1536 108 1521 C 101 1505 98 1489 98 1473 C 98 1452 105 1431 119 1409 C 133 1387 189 1376 287 1376 C 384 1376 479 1384 572 1402 C 664 1419 776 1443 907 1473 L 954 1489 L 954 -326 L 907 -309 C 775 -279 663 -256 571 -239 C 479 -221 384 -213 287 -213 C 189 -213 133 -226 119 -252 C 105 -278 98 -297 98 -309 C 98 -326 102 -344 112 -362 C 122 -380 131 -392 139 -399 L 129 -406 Z" unicode="]" />
<glyph horiz-adv-x="872" d="M 436 1128 L 117 864 L 106 872 C 165 965 210 1035 242 1082 C 273 1128 305 1175 338 1223 C 353 1242 367 1254 379 1260 C 391 1265 410 1268 436 1268 C 461 1268 480 1265 493 1260 C 505 1254 519 1242 535 1223 C 567 1175 599 1128 630 1082 C 661 1035 706 965 766 872 L 756 864 L 436 1128 Z" unicode="^" />
<glyph horiz-adv-x="1221" d="M -14 -287 L -14 -225 L 1235 -225 L 1235 -287 L -14 -287 Z" unicode="_" />
<glyph horiz-adv-x="1024" d="M 684 1092 C 602 1154 538 1200 490 1230 C 442 1260 403 1288 373 1313 C 347 1333 328 1350 316 1364 C 303 1378 297 1397 297 1423 C 297 1442 303 1459 315 1474 C 327 1489 345 1497 369 1497 C 395 1497 417 1490 435 1477 C 453 1463 471 1441 489 1409 C 511 1371 538 1328 568 1281 C 598 1234 640 1173 692 1098 L 684 1092 Z" unicode="`" />
<glyph horiz-adv-x="948" d="M 309 -20 C 239 -20 182 -2 140 34 C 97 70 76 120 76 186 C 76 246 89 297 115 338 C 141 378 195 414 276 446 C 334 468 394 490 457 510 C 520 530 574 553 618 578 L 616 717 C 614 802 597 860 565 890 C 532 920 488 936 432 936 C 393 936 360 928 334 914 C 308 900 291 886 283 874 C 283 856 286 829 291 794 C 296 758 299 732 299 715 C 299 693 289 675 271 660 C 252 644 228 637 199 637 C 173 637 154 647 144 667 C 134 687 129 709 129 733 C 129 791 160 841 224 885 C 287 928 358 950 436 950 C 564 950 651 924 696 874 C 741 824 764 748 764 647 C 764 558 762 468 759 376 C 755 284 754 222 754 188 C 754 154 760 125 773 101 C 786 77 809 66 842 66 C 871 66 895 80 914 109 C 933 137 945 180 950 236 L 963 236 C 954 142 935 76 905 39 C 875 2 836 -16 786 -16 C 744 -16 708 -4 680 18 C 652 40 631 75 618 121 L 612 121 C 574 75 528 40 472 16 C 416 -8 362 -20 309 -20 Z M 383 31 C 433 31 477 40 514 60 C 550 79 582 105 610 139 L 618 557 C 593 547 569 537 547 529 C 525 520 503 512 483 504 C 401 472 339 433 296 389 C 252 344 231 285 231 211 C 231 155 243 111 269 79 C 295 47 333 31 383 31 Z" unicode="a" />
<glyph horiz-adv-x="1096" d="M 174 -47 L 168 -43 C 170 -2 172 52 174 122 C 175 191 176 262 176 336 L 176 1350 C 176 1379 171 1403 161 1422 C 151 1441 137 1456 121 1466 C 108 1473 87 1480 58 1487 C 28 1494 4 1498 -14 1499 L -14 1507 L 309 1528 L 317 1518 L 317 809 L 324 807 C 352 839 391 871 441 903 C 491 934 545 950 602 950 C 721 950 822 905 905 815 C 988 725 1030 607 1030 459 C 1030 320 982 204 886 112 C 790 19 685 -27 571 -27 C 520 -27 464 -16 404 6 C 343 28 296 48 262 68 L 174 -47 Z M 567 -14 C 651 -14 723 28 781 114 C 839 199 868 315 868 461 C 868 581 840 682 786 764 C 731 846 653 887 551 887 C 497 887 452 877 414 858 C 376 838 343 814 317 784 L 317 205 C 331 157 358 108 396 59 C 434 10 491 -14 567 -14 Z" unicode="b" />
<glyph horiz-adv-x="862" d="M 479 -20 C 346 -20 244 26 173 118 C 101 210 66 326 66 467 C 66 591 104 703 182 802 C 260 900 366 950 500 950 C 598 950 674 925 726 876 C 778 827 805 773 805 713 C 805 680 797 654 781 636 C 765 617 742 608 713 608 C 696 608 676 614 652 627 C 628 639 616 664 616 700 C 616 730 620 753 628 771 C 636 789 641 807 641 827 C 634 863 618 891 592 911 C 566 930 535 940 498 940 C 427 940 364 902 308 827 C 252 751 225 637 225 483 C 225 364 251 259 304 168 C 356 76 429 31 522 31 C 586 31 641 44 689 70 C 736 96 783 145 829 217 L 836 213 C 797 134 747 75 686 37 C 624 0 555 -20 479 -20 Z" unicode="c" />
<glyph horiz-adv-x="1122" d="M 504 -25 C 381 -25 277 20 193 110 C 108 200 66 322 66 475 C 66 613 114 727 210 816 C 306 905 415 950 537 950 C 591 950 641 943 687 930 C 732 916 764 905 784 895 L 784 1337 C 784 1363 779 1387 769 1408 C 759 1429 746 1445 731 1456 C 713 1468 686 1478 648 1486 C 610 1494 578 1499 551 1501 L 551 1507 L 918 1528 L 928 1518 L 928 150 C 928 128 932 108 942 91 C 951 74 964 60 981 49 C 993 41 1012 35 1037 31 C 1061 27 1083 25 1102 25 L 1102 16 L 797 -2 L 786 8 L 786 113 L 778 115 C 755 91 720 62 672 27 C 624 -7 568 -25 504 -25 Z M 557 35 C 610 35 654 45 689 66 C 723 86 755 111 784 141 L 784 741 C 765 799 734 846 691 883 C 647 919 593 938 528 938 C 442 938 371 892 313 802 C 255 711 227 594 227 451 C 227 338 254 240 310 158 C 366 76 448 35 557 35 Z" unicode="d" />
<glyph horiz-adv-x="891" d="M 496 -20 C 358 -20 252 25 178 116 C 103 206 66 325 66 471 C 66 602 103 715 179 809 C 254 903 352 950 473 950 C 597 950 688 913 748 839 C 808 765 838 665 838 539 L 838 524 L 223 524 L 223 504 C 223 362 249 248 303 162 C 356 76 435 33 541 33 C 619 33 680 49 724 82 C 768 114 808 162 846 225 L 856 219 C 821 146 773 88 711 45 C 649 1 577 -20 496 -20 Z M 223 541 L 684 545 C 684 677 667 776 635 841 C 602 905 549 938 477 938 C 405 938 346 903 298 834 C 250 765 225 667 223 541 Z" unicode="e" />
<glyph horiz-adv-x="618" d="M 74 0 L 74 8 C 92 8 108 9 122 11 C 135 12 149 15 164 20 C 183 26 197 38 206 55 C 214 72 219 92 219 115 L 219 895 L 8 895 L 8 924 L 219 924 L 219 987 C 219 1072 229 1151 251 1223 C 272 1295 307 1358 356 1411 C 394 1451 438 1481 488 1501 C 538 1520 585 1530 627 1530 C 693 1530 739 1512 766 1478 C 793 1444 807 1408 807 1370 C 807 1354 799 1336 783 1316 C 767 1296 745 1286 717 1286 C 689 1286 667 1294 650 1312 C 633 1330 625 1352 625 1380 C 625 1390 626 1405 629 1424 C 632 1442 636 1461 641 1481 C 635 1489 626 1496 614 1501 C 602 1506 590 1509 580 1509 C 513 1509 462 1473 427 1402 C 391 1331 371 1215 365 1055 C 363 1039 362 1018 362 990 C 362 962 362 940 362 924 L 618 924 L 618 895 L 362 895 L 362 125 C 362 102 366 82 375 66 C 383 49 397 37 416 31 C 430 24 451 19 478 15 C 505 11 528 8 547 8 L 547 0 L 74 0 Z" unicode="f" />
<glyph horiz-adv-x="1012" d="M 465 -461 C 318 -461 210 -439 141 -396 C 71 -352 37 -291 37 -213 C 37 -153 69 -103 133 -64 C 197 -25 282 0 387 10 L 387 20 C 314 36 255 59 211 91 C 167 122 145 161 145 209 C 145 247 161 278 193 302 C 225 326 267 346 317 362 L 317 369 C 245 400 191 440 153 489 C 115 537 96 591 96 651 C 96 745 129 818 196 871 C 262 923 342 950 436 950 C 495 950 548 940 596 922 C 644 904 680 885 705 866 C 725 876 753 891 790 911 C 826 930 865 940 905 940 C 939 940 967 932 989 918 C 1011 903 1022 881 1022 852 C 1022 822 1015 799 1002 781 C 988 763 969 754 944 754 C 907 754 882 767 869 795 C 856 822 852 860 856 909 C 841 909 818 903 788 892 C 757 881 729 864 705 842 L 705 831 C 723 804 739 772 751 736 C 763 699 770 667 770 641 C 770 552 735 481 665 429 C 595 376 524 350 451 350 L 322 350 C 299 343 280 332 265 317 C 249 301 242 280 242 254 C 242 229 249 209 263 194 C 277 179 297 168 325 161 C 345 155 367 152 393 150 C 419 148 445 146 473 145 L 678 135 C 750 131 814 105 871 57 C 927 9 956 -55 956 -137 C 956 -229 913 -306 827 -368 C 741 -430 621 -461 465 -461 Z M 496 -446 C 604 -446 688 -422 749 -374 C 809 -326 840 -259 840 -174 C 840 -136 831 -103 813 -77 C 795 -51 765 -30 725 -16 C 701 -13 667 -10 622 -7 C 576 -3 504 -2 406 -2 C 314 -13 251 -36 215 -72 C 179 -107 162 -155 162 -217 C 162 -275 187 -327 237 -375 C 287 -422 373 -446 496 -446 Z M 432 362 C 496 362 543 392 574 452 C 605 512 621 577 621 647 C 621 726 605 794 574 852 C 542 909 494 938 430 938 C 366 938 320 912 291 861 C 262 810 248 741 248 653 C 248 577 265 509 299 450 C 333 391 378 362 432 362 Z" unicode="g" />
<glyph horiz-adv-x="1145" d="M 53 0 L 53 8 C 71 8 87 9 101 11 C 115 12 129 15 143 20 C 162 26 176 38 185 55 C 194 72 199 92 199 115 L 199 1350 C 199 1375 193 1398 183 1420 C 173 1441 159 1457 143 1468 C 131 1476 110 1483 80 1489 C 50 1495 26 1498 8 1499 L 8 1507 L 334 1528 L 342 1518 L 342 762 L 346 762 C 366 782 385 802 405 822 C 425 842 445 860 467 877 C 495 900 528 918 564 931 C 600 943 640 950 682 950 C 772 950 840 921 886 865 C 931 809 954 729 954 627 L 954 123 C 954 100 958 81 968 65 C 977 49 991 37 1010 29 C 1024 22 1037 17 1051 14 C 1065 10 1081 8 1100 8 L 1100 0 L 641 0 L 641 8 C 661 8 680 9 697 11 C 714 13 730 16 745 20 C 766 26 782 38 793 55 C 803 72 809 92 809 115 L 809 655 C 809 723 790 778 753 818 C 715 858 671 879 621 879 C 585 879 552 874 520 864 C 488 854 459 840 435 824 C 415 811 398 796 382 780 C 366 764 353 747 342 729 L 342 125 C 342 102 347 83 358 67 C 368 51 383 39 401 31 C 417 23 434 18 451 14 C 468 10 486 8 506 8 L 506 0 L 53 0 Z" unicode="h" />
<glyph horiz-adv-x="553" d="M 74 0 L 74 8 C 92 8 108 9 122 11 C 135 12 149 15 164 20 C 183 26 197 39 206 57 C 214 75 219 94 219 115 L 219 764 C 219 785 213 805 203 823 C 192 841 178 855 162 866 C 149 874 131 883 107 891 C 83 899 61 904 43 905 L 43 913 L 350 936 L 360 926 L 360 127 C 360 104 364 84 374 68 C 383 52 397 39 416 31 C 433 24 449 19 464 15 C 479 11 493 8 506 8 L 506 0 L 74 0 Z M 272 1239 C 243 1239 218 1249 198 1270 C 178 1291 168 1315 168 1343 C 168 1371 178 1397 198 1420 C 218 1442 243 1454 272 1454 C 304 1454 331 1444 351 1424 C 371 1404 381 1381 381 1356 C 381 1325 370 1298 350 1274 C 330 1250 304 1239 272 1239 Z" unicode="i" />
<glyph horiz-adv-x="561" d="M 20 -461 C -28 -461 -71 -449 -109 -425 C -147 -401 -166 -368 -166 -326 C -166 -304 -156 -283 -136 -262 C -116 -241 -91 -231 -61 -231 C -35 -231 -12 -238 9 -252 C 30 -266 41 -290 41 -322 C 41 -338 37 -355 30 -373 C 23 -391 21 -408 25 -426 C 29 -428 36 -429 46 -431 C 55 -433 65 -434 76 -434 C 140 -434 184 -401 210 -337 C 235 -272 248 -158 248 6 L 248 756 C 248 777 242 798 231 818 C 220 838 207 854 193 864 C 180 872 153 881 113 890 C 72 899 43 904 25 905 L 25 913 L 379 936 L 389 926 L 389 80 C 389 -4 380 -83 362 -156 C 344 -229 310 -292 260 -344 C 217 -386 178 -416 142 -434 C 106 -452 66 -461 20 -461 Z M 295 1239 C 267 1239 243 1249 222 1270 C 200 1291 190 1315 190 1343 C 190 1371 200 1397 222 1420 C 243 1442 267 1454 295 1454 C 327 1454 353 1444 373 1424 C 393 1404 403 1381 403 1356 C 403 1325 392 1298 372 1274 C 352 1250 326 1239 295 1239 Z" unicode="j" />
<glyph horiz-adv-x="1053" d="M 53 0 L 53 8 C 71 8 87 9 101 11 C 115 12 129 15 143 20 C 162 26 176 38 185 55 C 194 72 199 92 199 115 L 199 1348 C 199 1375 193 1399 183 1419 C 173 1439 159 1455 143 1466 C 127 1477 105 1485 77 1490 C 49 1495 26 1498 8 1499 L 8 1507 L 332 1528 L 342 1518 L 342 459 C 378 491 438 547 520 627 C 602 707 664 770 707 817 C 713 825 718 833 722 840 C 725 846 727 853 727 860 C 727 877 707 890 667 898 C 627 906 593 912 567 915 L 567 924 L 967 924 L 967 915 C 905 898 858 883 828 870 C 797 857 763 834 725 801 C 684 764 647 729 613 697 C 579 664 544 630 508 594 C 606 558 685 495 747 405 C 808 315 869 210 930 88 C 936 74 946 63 958 53 C 970 43 985 35 1001 27 C 1019 17 1035 12 1048 10 C 1061 8 1068 8 1069 8 L 1069 0 L 793 0 C 759 108 707 215 637 319 C 567 423 499 475 434 475 C 410 475 391 471 376 464 C 361 456 350 449 342 442 L 342 125 C 342 102 346 83 356 67 C 366 51 380 39 399 33 C 415 26 431 20 447 16 C 463 11 480 8 500 8 L 500 0 L 53 0 Z" unicode="k" />
<glyph horiz-adv-x="539" d="M 55 0 L 55 8 C 73 8 89 9 103 11 C 117 12 131 15 145 20 C 164 26 178 38 187 55 C 196 72 201 92 201 115 L 201 1343 C 201 1369 195 1392 185 1413 C 175 1433 161 1449 145 1460 C 130 1470 111 1479 89 1485 C 66 1491 38 1496 4 1499 L 4 1507 L 336 1528 L 344 1520 L 344 121 C 344 98 347 79 355 63 C 363 47 376 35 395 27 C 410 19 425 14 440 12 C 454 10 471 8 489 8 L 489 0 L 55 0 Z" unicode="l" />
<glyph horiz-adv-x="1753" d="M 70 0 L 70 8 C 88 8 103 9 117 11 C 131 12 145 15 160 20 C 179 26 193 38 203 55 C 212 72 217 92 217 115 L 217 768 C 217 789 212 808 202 824 C 192 840 178 853 162 864 C 149 872 133 881 113 889 C 93 897 73 902 55 903 L 55 913 L 346 936 L 356 926 L 356 762 L 362 762 C 381 780 400 799 420 820 C 440 840 461 860 483 878 C 510 900 541 917 575 930 C 609 943 648 950 694 950 C 761 950 817 931 862 894 C 906 856 938 812 956 760 C 998 800 1043 841 1090 885 C 1137 928 1204 950 1292 950 C 1387 950 1456 918 1498 855 C 1540 791 1561 711 1561 614 L 1561 125 C 1561 102 1565 82 1574 66 C 1583 49 1597 37 1616 29 C 1630 22 1646 17 1663 14 C 1679 10 1697 8 1716 8 L 1716 0 L 1260 0 L 1260 8 C 1278 8 1294 9 1308 11 C 1322 13 1336 16 1352 20 C 1374 26 1391 38 1401 55 C 1411 72 1417 92 1417 115 L 1417 659 C 1417 729 1398 784 1360 822 C 1322 860 1279 879 1231 879 C 1150 879 1088 859 1044 820 C 1000 781 971 751 958 731 L 958 125 C 958 102 963 82 973 66 C 983 49 998 37 1018 29 C 1032 22 1047 17 1062 14 C 1077 10 1095 8 1116 8 L 1116 0 L 666 0 L 666 8 C 685 8 700 9 712 11 C 723 13 736 16 752 20 C 774 26 791 38 801 55 C 811 72 817 92 817 115 L 817 659 C 817 729 798 784 760 822 C 722 860 679 879 631 879 C 599 879 567 874 537 865 C 506 855 478 842 452 824 C 428 808 409 792 395 776 C 381 760 368 744 358 729 L 358 127 C 358 104 363 84 375 68 C 386 51 401 39 420 31 C 436 23 452 18 468 14 C 483 10 501 8 522 8 L 522 0 L 70 0 Z" unicode="m" />
<glyph horiz-adv-x="1163" d="M 70 0 L 70 8 C 88 8 103 9 117 11 C 131 12 145 15 160 20 C 179 26 193 38 203 55 C 212 72 217 92 217 115 L 217 764 C 217 785 212 806 202 826 C 192 846 178 861 162 872 C 149 880 134 888 116 894 C 98 900 79 904 61 905 L 61 913 L 350 936 L 358 928 L 358 762 L 362 762 C 380 780 398 799 418 819 C 437 839 458 859 482 877 C 508 897 538 915 572 929 C 606 943 647 950 694 950 C 789 950 859 920 904 861 C 948 801 971 723 971 627 L 971 123 C 971 100 975 81 984 65 C 993 49 1007 37 1026 29 C 1040 22 1054 17 1068 14 C 1081 10 1097 8 1116 8 L 1116 0 L 659 0 L 659 8 C 679 8 698 9 715 11 C 732 13 748 16 764 20 C 785 26 801 38 811 55 C 821 72 827 92 827 115 L 827 655 C 827 726 807 781 767 820 C 727 859 683 879 633 879 C 597 879 563 873 531 863 C 499 852 473 839 451 824 C 426 807 406 790 391 772 C 375 754 364 739 358 729 L 358 125 C 358 102 363 83 374 67 C 385 51 400 39 420 31 C 436 23 453 18 470 14 C 487 10 505 8 524 8 L 524 0 L 70 0 Z" unicode="n" />
<glyph horiz-adv-x="1028" d="M 502 -27 C 382 -27 279 18 193 108 C 106 198 63 314 63 457 C 63 601 105 720 189 812 C 273 904 384 950 520 950 C 654 950 762 903 843 811 C 924 719 965 606 965 473 C 965 333 922 214 837 118 C 752 21 640 -27 502 -27 Z M 516 -14 C 608 -14 680 33 731 127 C 781 221 807 336 807 471 C 807 603 782 714 732 804 C 682 893 610 938 516 938 C 416 938 341 893 293 803 C 245 713 221 604 221 475 C 221 337 246 221 296 127 C 346 33 420 -14 516 -14 Z" unicode="o" />
<glyph horiz-adv-x="1120" d="M 35 -463 L 35 -455 C 53 -454 73 -452 93 -450 C 113 -447 131 -443 145 -438 C 164 -432 178 -418 186 -397 C 194 -376 199 -354 199 -332 L 199 770 C 199 789 194 808 184 827 C 174 846 161 861 145 872 C 133 880 116 888 94 895 C 72 902 51 906 33 907 L 33 913 L 330 936 L 338 930 L 338 799 L 346 797 C 371 827 409 860 461 896 C 512 932 567 950 625 950 C 743 950 845 904 929 814 C 1013 723 1055 603 1055 455 C 1055 314 1007 199 911 109 C 815 19 706 -25 586 -25 C 526 -25 477 -18 440 -6 C 403 6 373 21 350 39 L 342 39 L 342 -328 C 342 -349 346 -369 356 -388 C 366 -406 380 -419 399 -426 C 414 -432 436 -438 465 -444 C 494 -450 518 -454 537 -455 L 537 -463 L 35 -463 Z M 590 -12 C 675 -12 746 30 804 114 C 862 198 891 312 891 457 C 891 583 863 686 808 766 C 752 846 675 887 575 887 C 522 887 477 876 439 854 C 401 832 368 806 342 776 L 342 174 C 356 130 384 88 428 48 C 471 8 525 -12 590 -12 Z" unicode="p" />
<glyph horiz-adv-x="1094" d="M 616 -463 L 616 -455 C 634 -454 654 -452 675 -449 C 696 -445 714 -442 729 -438 C 749 -432 764 -419 772 -401 C 780 -383 784 -362 784 -340 L 784 111 L 778 113 C 755 89 720 60 672 26 C 624 -7 568 -25 504 -25 C 385 -25 282 20 196 111 C 109 201 66 323 66 475 C 66 613 114 726 211 816 C 308 905 414 950 528 950 C 594 950 653 938 704 916 C 754 893 792 872 817 852 L 940 975 L 944 971 C 942 930 938 868 934 786 C 930 703 928 640 928 598 L 928 -324 C 928 -346 932 -367 941 -386 C 950 -404 964 -418 983 -426 C 998 -432 1017 -438 1040 -444 C 1062 -449 1083 -453 1102 -455 L 1102 -463 L 616 -463 Z M 557 37 C 610 37 654 46 689 65 C 723 84 755 107 784 135 L 784 745 C 768 795 737 840 692 879 C 646 918 592 938 528 938 C 443 938 372 892 314 801 C 256 710 227 593 227 449 C 227 331 255 233 313 155 C 370 76 451 37 557 37 Z" unicode="q" />
<glyph horiz-adv-x="748" d="M 70 0 L 70 8 C 88 8 103 9 117 11 C 131 12 145 15 160 20 C 179 26 193 38 203 55 C 212 72 217 92 217 115 L 217 762 C 217 783 212 804 202 825 C 192 845 178 861 162 872 C 149 880 134 888 116 894 C 98 900 79 904 61 905 L 61 913 L 350 936 L 358 928 L 358 760 L 362 760 C 407 818 454 863 504 896 C 554 929 599 946 639 946 C 664 946 689 936 713 917 C 737 897 750 873 750 844 C 750 814 741 788 725 766 C 709 744 685 733 655 733 C 628 733 606 739 589 753 C 571 766 563 788 563 819 C 563 829 565 841 569 854 C 573 867 578 878 584 887 C 530 887 482 867 441 827 C 400 787 372 754 358 729 L 358 125 C 358 102 362 82 372 66 C 381 49 395 37 414 31 C 431 23 452 18 478 14 C 503 10 525 8 545 8 L 545 0 L 70 0 Z" unicode="r" />
<glyph horiz-adv-x="784" d="M 389 -27 C 337 -27 287 -18 240 0 C 193 17 155 35 127 55 L 88 -8 L 80 -8 L 70 299 L 80 299 C 99 216 137 143 195 81 C 252 19 319 -12 397 -12 C 477 -12 536 9 573 53 C 610 97 629 147 629 205 C 629 259 607 299 564 325 C 520 351 457 377 375 403 C 283 431 213 466 165 509 C 117 551 94 612 94 690 C 94 764 119 826 170 876 C 221 925 290 950 377 950 C 421 950 464 944 505 932 C 546 920 579 905 604 889 L 643 952 L 651 952 L 666 680 L 655 680 C 640 745 605 804 551 857 C 496 909 435 936 367 936 C 303 936 256 917 224 880 C 192 842 176 800 176 754 C 176 692 197 650 241 627 C 284 603 348 579 432 555 C 516 530 584 494 635 447 C 685 399 711 336 711 256 C 711 170 679 102 616 50 C 553 -1 477 -27 389 -27 Z" unicode="s" />
<glyph horiz-adv-x="682" d="M 430 -16 C 353 -16 296 7 258 55 C 220 102 201 170 201 260 L 201 895 L 0 895 L 0 924 L 205 924 L 205 1241 L 342 1241 L 342 924 L 623 924 L 623 895 L 344 895 L 344 272 C 344 206 353 153 372 113 C 390 73 429 53 487 53 C 527 53 564 70 596 104 C 628 138 649 184 659 244 L 672 244 C 661 173 637 112 601 61 C 564 9 507 -16 430 -16 Z" unicode="t" />
<glyph horiz-adv-x="1126" d="M 457 -23 C 361 -23 293 8 252 72 C 210 136 190 215 190 311 L 190 768 C 190 789 185 809 176 827 C 166 845 153 859 137 870 C 125 878 110 885 92 891 C 74 897 55 900 37 901 L 37 911 L 326 936 L 336 926 L 336 258 C 336 186 354 131 390 92 C 426 52 469 33 518 33 C 584 33 640 47 686 75 C 731 103 764 135 784 170 L 784 774 C 784 795 779 815 769 833 C 759 851 746 865 729 877 C 717 885 697 890 671 894 C 644 898 616 900 588 901 L 588 911 L 918 936 L 928 926 L 928 147 C 928 125 932 106 942 90 C 951 74 964 60 981 49 C 993 41 1008 35 1024 31 C 1040 27 1058 25 1077 25 L 1077 16 L 801 -2 L 786 12 L 786 137 L 780 137 C 741 91 696 52 646 22 C 596 -7 533 -23 457 -23 Z" unicode="u" />
<glyph horiz-adv-x="932" d="M 475 -16 C 403 164 343 305 294 409 C 245 513 187 647 119 813 C 105 845 85 869 57 885 C 29 901 1 911 -29 915 L -29 924 L 379 924 L 379 913 C 355 912 330 908 302 901 C 274 894 260 882 260 866 C 260 865 261 860 264 852 C 266 843 270 833 274 823 C 294 770 333 679 391 550 C 449 420 499 300 541 190 L 547 190 C 589 290 629 387 669 482 C 708 577 749 678 791 784 C 793 790 795 799 798 811 C 801 823 803 833 803 842 C 803 865 781 882 737 894 C 693 906 663 913 647 915 L 647 924 L 977 924 L 977 915 C 957 912 931 901 898 883 C 864 865 840 838 825 803 C 793 729 754 638 708 528 C 662 418 617 311 573 205 C 559 170 545 136 531 102 C 517 68 504 28 492 -16 L 475 -16 Z" unicode="v" />
<glyph horiz-adv-x="1452" d="M 465 -16 C 391 168 330 319 280 439 C 230 558 177 682 123 811 C 110 840 91 864 65 883 C 39 901 12 912 -16 915 L -16 924 L 387 924 L 387 913 C 361 912 335 909 307 903 C 279 897 266 884 266 866 C 266 865 266 861 268 853 C 270 845 273 835 279 823 C 300 770 336 681 387 555 C 438 429 486 311 530 199 L 535 199 C 569 288 603 375 639 461 C 674 546 707 633 739 723 C 739 723 733 738 722 769 C 711 800 703 820 698 829 C 682 861 664 883 644 894 C 624 905 599 912 569 915 L 569 924 L 936 924 L 936 915 C 912 914 888 911 864 906 C 839 900 827 889 827 872 C 827 861 828 850 832 840 C 835 830 839 819 844 807 C 864 753 899 663 949 537 C 999 410 1043 295 1081 193 L 1087 193 C 1132 311 1174 421 1214 522 C 1253 622 1286 714 1313 797 C 1315 805 1318 815 1320 825 C 1322 835 1323 843 1323 848 C 1323 873 1298 891 1248 901 C 1198 911 1163 916 1145 915 L 1145 924 L 1505 924 L 1505 915 C 1469 913 1435 900 1404 876 C 1372 852 1350 822 1337 788 L 1108 199 C 1093 163 1080 129 1069 98 C 1058 66 1045 28 1030 -16 L 1018 -16 C 975 104 929 224 881 345 C 833 466 789 580 750 686 C 720 614 687 535 653 449 C 618 362 586 279 557 199 C 543 163 530 130 518 100 C 506 70 492 32 477 -16 L 465 -16 Z" unicode="w" />
<glyph horiz-adv-x="911" d="M 0 0 L 0 6 C 42 21 75 38 99 56 C 122 74 145 98 168 127 L 403 434 L 141 821 C 114 861 92 886 74 897 C 56 908 36 914 14 915 L 14 924 L 381 924 L 381 913 C 360 913 336 910 308 904 C 280 898 266 891 266 883 C 266 876 267 869 271 862 C 275 855 279 848 285 840 C 291 827 315 791 356 732 C 396 673 441 609 489 539 C 521 583 557 630 595 682 C 633 733 665 779 692 819 C 694 823 696 828 698 835 C 699 841 700 848 700 854 C 700 868 682 880 646 890 C 610 900 576 908 545 915 L 545 924 L 885 924 L 885 915 C 840 904 804 890 778 872 C 752 854 730 834 713 811 C 689 780 658 738 619 684 C 579 630 540 577 500 524 C 542 462 589 393 639 318 C 689 242 735 175 776 115 C 797 83 815 59 829 43 C 843 27 871 15 913 8 L 913 0 L 520 0 L 520 8 C 546 10 575 14 605 22 C 635 29 651 39 651 51 C 651 55 648 63 643 75 C 638 87 631 100 623 115 L 414 420 C 374 368 331 313 287 255 C 243 197 209 151 186 119 C 179 108 174 99 171 92 C 167 85 166 78 166 72 C 166 51 192 35 245 25 C 298 14 330 8 342 8 L 342 0 L 0 0 Z" unicode="x" />
<glyph horiz-adv-x="918" d="M 117 -461 C 92 -461 63 -452 30 -434 C -3 -416 -20 -384 -20 -338 C -20 -314 -10 -291 8 -268 C 26 -244 52 -233 84 -233 C 103 -233 123 -239 144 -251 C 165 -263 176 -288 176 -324 L 176 -414 C 218 -407 263 -372 311 -308 C 359 -244 409 -146 461 -16 C 381 192 316 352 265 464 C 213 576 163 692 115 813 C 102 843 83 867 57 884 C 31 900 3 911 -27 915 L -27 924 L 375 924 L 375 913 C 351 912 326 908 298 900 C 270 892 256 881 256 866 C 256 862 257 856 261 848 C 264 840 267 832 270 823 C 289 769 328 676 387 544 C 446 412 497 292 539 182 L 541 182 C 583 282 623 380 663 478 C 703 576 743 678 784 784 C 787 792 790 802 794 813 C 797 823 799 833 799 842 C 799 861 772 877 719 891 C 665 905 630 913 614 915 L 614 924 L 965 924 L 965 915 C 948 913 923 901 889 881 C 855 860 832 834 819 803 L 565 197 C 543 145 525 99 509 58 C 493 17 481 -12 473 -31 C 397 -205 335 -320 285 -376 C 235 -432 179 -461 117 -461 Z" unicode="y" />
<glyph horiz-adv-x="868" d="M 53 0 L 53 12 L 645 907 C 573 907 487 906 389 906 C 290 905 225 899 195 887 C 170 876 150 849 136 805 C 121 761 108 714 98 666 L 90 666 L 90 924 L 809 924 L 809 911 L 219 16 C 255 15 288 14 317 14 C 346 14 374 14 401 14 C 425 14 462 14 512 15 C 562 16 610 18 655 20 C 681 21 701 31 714 49 C 726 67 736 86 743 106 C 749 122 759 152 773 196 C 787 239 797 274 803 301 L 813 301 L 815 0 L 53 0 Z" unicode="z" />
<glyph horiz-adv-x="840" d="M 786 -346 C 722 -346 665 -342 615 -335 C 565 -328 522 -315 487 -295 C 445 -271 413 -235 392 -187 C 370 -139 360 -76 360 4 C 360 46 365 89 376 135 C 387 181 393 225 393 268 C 393 361 367 427 316 466 C 264 505 180 528 63 535 L 63 643 C 178 649 262 671 314 709 C 366 747 393 813 393 909 C 393 951 387 996 376 1042 C 365 1088 360 1132 360 1174 C 360 1254 370 1317 391 1365 C 412 1412 444 1448 488 1473 C 522 1492 565 1505 615 1513 C 665 1520 722 1524 786 1524 L 786 1513 C 747 1512 708 1505 669 1493 C 630 1480 599 1460 575 1434 C 555 1412 540 1385 529 1353 C 517 1321 512 1282 512 1235 C 512 1194 515 1155 521 1118 C 527 1080 530 1041 530 1001 C 530 883 501 797 445 743 C 389 689 299 654 176 639 L 176 539 C 302 522 392 486 447 431 C 502 375 530 290 530 176 C 530 135 527 96 521 59 C 515 22 512 -16 512 -57 C 512 -104 517 -144 529 -176 C 540 -208 555 -235 575 -257 C 599 -283 631 -303 670 -315 C 708 -327 747 -334 786 -336 L 786 -346 Z" unicode="{" />
<glyph horiz-adv-x="553" d="M 250 -424 L 250 1528 L 303 1528 L 303 -424 L 250 -424 Z" unicode="|" />
<glyph horiz-adv-x="840" d="M 53 -346 L 53 -336 C 92 -334 131 -327 170 -315 C 208 -302 240 -282 265 -256 C 283 -235 298 -208 310 -176 C 322 -144 328 -104 328 -57 C 328 -16 324 22 318 59 C 312 96 309 135 309 176 C 309 291 336 376 392 431 C 447 486 538 522 664 539 L 664 639 C 541 654 451 689 394 743 C 337 797 309 883 309 1001 C 309 1041 312 1080 318 1118 C 324 1155 328 1194 328 1235 C 328 1282 322 1321 310 1353 C 298 1385 283 1411 265 1433 C 240 1460 208 1480 170 1493 C 131 1505 92 1512 53 1513 L 53 1524 C 117 1524 175 1520 225 1513 C 275 1505 317 1492 352 1472 C 395 1447 427 1411 448 1364 C 468 1317 479 1254 479 1174 C 479 1132 473 1088 462 1042 C 451 996 446 951 446 909 C 446 813 472 747 525 709 C 577 671 661 649 776 643 L 776 535 C 659 528 575 505 523 467 C 471 428 446 362 446 268 C 446 225 451 181 462 135 C 473 89 479 46 479 4 C 479 -76 468 -140 447 -187 C 426 -234 394 -270 352 -295 C 317 -315 274 -328 224 -335 C 174 -342 117 -346 53 -346 Z" unicode="}" />
<glyph horiz-adv-x="1065" d="M 115 393 L 104 397 C 120 456 155 510 208 559 C 261 608 321 633 387 633 C 463 633 528 618 582 588 C 636 558 689 543 741 543 C 793 543 835 554 868 577 C 900 600 928 634 952 678 L 961 674 C 944 614 913 559 868 507 C 822 455 766 430 700 430 C 618 430 552 445 501 475 C 449 505 398 520 346 520 C 294 520 248 509 209 489 C 169 469 138 437 115 393 Z" unicode="~" />
<glyph horiz-adv-x="246" d="" unicode=" " />
<glyph horiz-adv-x="655" d="M 334 999 C 340 821 358 638 388 449 C 417 259 432 146 432 110 C 432 77 422 48 402 23 C 382 -2 357 -14 325 -14 C 293 -14 268 -2 248 23 C 228 48 219 77 219 110 C 219 146 233 258 262 447 C 290 635 310 819 321 999 L 334 999 Z M 327 1436 C 359 1436 387 1425 410 1403 C 432 1381 444 1353 444 1321 C 444 1288 432 1260 410 1237 C 387 1213 359 1202 327 1202 C 294 1202 266 1213 243 1237 C 220 1260 209 1288 209 1321 C 209 1353 220 1381 243 1403 C 266 1425 294 1436 327 1436 Z" unicode="¡" />
<glyph horiz-adv-x="946" d="M 315 -231 L 291 -225 L 381 156 C 294 186 227 243 181 326 C 134 409 111 507 111 621 C 111 745 149 856 227 955 C 305 1054 411 1104 545 1104 C 555 1104 564 1103 574 1102 C 584 1101 593 1100 602 1100 L 666 1372 L 692 1366 L 629 1096 C 697 1081 749 1052 785 1008 C 821 964 840 917 840 866 C 840 833 832 807 816 789 C 800 771 777 762 748 762 C 731 762 711 768 687 780 C 663 792 651 817 651 854 C 651 898 656 929 667 947 C 678 964 684 982 684 1001 C 680 1020 672 1036 662 1048 C 651 1060 639 1070 625 1077 L 426 238 C 445 224 466 214 490 206 C 513 198 537 195 563 195 C 627 195 683 206 732 228 C 780 250 828 297 874 369 L 881 367 C 842 288 792 229 731 191 C 669 152 600 133 524 133 C 502 133 482 134 462 137 C 442 139 424 143 406 147 L 315 -231 Z M 403 256 L 600 1087 C 592 1089 583 1091 574 1092 C 564 1093 555 1094 547 1094 C 477 1094 413 1056 355 981 C 297 905 268 791 268 637 C 268 557 279 484 303 416 C 327 348 360 294 403 256 Z" unicode="¢" />
<glyph horiz-adv-x="1481" d="M 139 -201 C 56 -201 -4 -183 -42 -147 C -80 -111 -100 -69 -100 -20 C -100 40 -63 86 10 117 C 83 148 165 164 256 164 C 290 164 334 159 386 149 C 438 139 489 129 539 117 C 547 157 551 201 551 247 C 551 293 551 340 549 387 L 207 387 L 207 408 L 549 408 C 548 440 547 474 546 509 C 545 543 545 574 545 602 L 219 602 L 219 625 L 545 625 C 553 867 608 1061 711 1209 C 813 1356 944 1430 1102 1430 C 1158 1430 1208 1421 1254 1403 C 1300 1385 1338 1363 1369 1336 C 1409 1300 1438 1258 1458 1212 C 1477 1166 1487 1122 1487 1081 C 1487 983 1457 904 1398 844 C 1339 784 1266 754 1180 754 C 1109 754 1053 778 1012 828 C 970 877 950 938 950 1012 C 950 1040 953 1067 960 1093 C 967 1119 976 1144 987 1169 L 997 1165 C 986 1138 978 1111 973 1085 C 967 1059 965 1036 965 1018 C 965 950 986 898 1028 860 C 1070 822 1120 803 1180 803 C 1250 803 1301 828 1335 878 C 1369 928 1386 992 1386 1071 C 1386 1127 1378 1180 1362 1230 C 1346 1280 1322 1320 1288 1352 C 1266 1372 1241 1388 1212 1400 C 1183 1411 1150 1417 1114 1417 C 998 1417 908 1365 844 1262 C 780 1159 744 1003 737 793 C 735 761 734 730 733 702 C 732 674 731 648 729 625 L 1057 625 L 1057 602 L 727 602 C 724 572 719 537 713 497 C 706 456 700 426 696 408 L 1040 408 L 1040 387 L 692 387 C 679 338 663 285 644 229 C 625 172 606 128 588 98 C 656 72 734 40 824 1 C 913 -37 996 -57 1073 -57 C 1109 -57 1140 -51 1167 -41 C 1194 -30 1217 -15 1237 3 C 1269 34 1294 73 1312 120 C 1329 167 1342 216 1350 268 L 1362 266 C 1354 203 1339 143 1316 85 C 1292 27 1257 -22 1211 -63 C 1175 -93 1131 -118 1078 -136 C 1025 -154 962 -164 889 -164 C 829 -164 766 -148 700 -116 C 634 -84 570 -52 506 -20 C 466 -68 411 -110 343 -146 C 275 -182 207 -201 139 -201 Z M 137 -184 C 201 -184 264 -168 327 -136 C 389 -104 442 -63 485 -12 C 409 24 341 49 282 65 C 222 80 163 88 104 88 C 51 88 8 76 -24 53 C -57 29 -74 -2 -74 -43 C -74 -75 -56 -107 -22 -138 C 11 -168 65 -184 137 -184 Z" unicode="£" />
<glyph horiz-adv-x="1149" d="M 258 0 L 258 6 C 276 6 304 9 342 13 C 379 17 405 21 420 27 C 438 33 453 44 465 62 C 477 80 483 100 483 123 L 483 326 L 162 326 L 162 348 L 483 348 L 483 520 L 162 520 L 162 543 L 481 543 C 438 630 392 722 344 819 C 295 915 249 1001 207 1075 C 188 1107 169 1133 150 1155 C 131 1177 111 1194 90 1206 C 74 1215 58 1222 40 1227 C 22 1231 5 1234 -12 1235 L -12 1243 L 504 1243 L 504 1235 C 473 1233 436 1228 394 1220 C 351 1212 330 1199 330 1180 C 330 1162 360 1093 422 973 C 484 853 554 724 633 586 C 708 711 780 833 850 951 C 919 1069 954 1137 954 1157 C 954 1183 929 1202 879 1214 C 829 1225 785 1232 745 1235 L 745 1243 L 1159 1243 L 1159 1235 C 1133 1232 1106 1223 1077 1207 C 1048 1191 1026 1172 1012 1151 C 968 1091 907 998 831 873 C 754 747 689 637 635 543 L 967 543 L 967 520 L 633 520 L 633 348 L 967 348 L 967 326 L 633 326 L 633 133 C 633 111 638 92 648 74 C 658 56 673 43 692 35 C 707 27 732 21 766 15 C 800 9 827 6 846 6 L 846 0 L 258 0 Z" unicode="¥" />
<glyph horiz-adv-x="553" d="M 250 -424 L 250 379 L 303 379 L 303 -424 L 250 -424 Z M 250 743 L 250 1528 L 303 1528 L 303 743 L 250 743 Z" unicode="¦" />
<glyph horiz-adv-x="1065" d="M 457 -465 C 379 -465 320 -440 279 -390 C 237 -340 217 -296 217 -258 C 217 -213 227 -179 247 -155 C 267 -131 294 -119 326 -119 C 348 -119 369 -126 388 -142 C 406 -158 416 -182 416 -215 C 416 -251 404 -276 382 -288 C 359 -300 348 -319 348 -346 C 348 -374 359 -399 382 -421 C 405 -442 435 -453 471 -453 C 531 -453 577 -428 611 -380 C 645 -331 662 -271 662 -199 C 662 -149 651 -106 631 -68 C 611 -30 581 14 541 66 C 501 118 460 164 418 206 C 376 247 328 301 272 369 C 222 427 183 480 157 528 C 130 575 117 630 117 694 C 117 776 145 839 203 882 C 261 924 321 950 383 958 C 360 992 341 1029 325 1070 C 309 1111 301 1157 301 1208 C 301 1287 332 1357 396 1419 C 460 1480 532 1511 614 1511 C 688 1511 745 1486 783 1437 C 821 1387 840 1344 840 1307 C 840 1262 829 1227 809 1203 C 789 1179 763 1167 731 1167 C 708 1167 687 1175 669 1191 C 650 1207 641 1231 641 1264 C 641 1302 657 1326 691 1338 C 724 1349 741 1367 741 1391 C 741 1418 728 1443 703 1465 C 678 1487 642 1499 594 1499 C 544 1499 499 1476 459 1432 C 419 1388 399 1332 399 1264 C 399 1214 410 1170 432 1132 C 454 1094 485 1049 524 997 C 562 945 601 898 641 856 C 681 814 729 759 786 692 C 838 630 878 576 906 528 C 934 480 948 425 948 362 C 948 278 919 217 861 181 C 803 144 741 121 676 111 C 700 74 721 33 739 -11 C 757 -56 766 -106 766 -160 C 766 -239 734 -310 671 -372 C 608 -434 537 -465 457 -465 Z M 668 121 C 722 135 765 158 796 190 C 826 222 842 264 842 317 C 842 351 832 385 813 421 C 793 456 771 489 745 520 C 675 603 609 682 545 756 C 481 830 429 894 389 948 C 345 940 305 919 269 886 C 233 853 215 804 215 739 C 215 710 225 677 246 639 C 266 601 289 567 315 537 C 382 455 448 380 512 311 C 576 241 628 178 668 121 Z" unicode="§" />
<glyph horiz-adv-x="1024" d="M 293 1188 C 265 1188 241 1197 221 1217 C 200 1237 190 1260 190 1288 C 190 1316 200 1341 221 1362 C 241 1382 265 1393 293 1393 C 323 1393 349 1383 369 1364 C 389 1344 399 1322 399 1296 C 399 1266 389 1241 369 1220 C 349 1198 323 1188 293 1188 Z M 727 1188 C 698 1188 674 1197 654 1217 C 634 1237 625 1260 625 1288 C 625 1316 634 1341 654 1362 C 674 1382 698 1393 727 1393 C 757 1393 782 1383 802 1364 C 821 1344 831 1322 831 1296 C 831 1266 821 1241 801 1220 C 781 1198 756 1188 727 1188 Z" unicode="¨" />
<glyph horiz-adv-x="1923" d="M 975 27 C 835 27 720 70 632 156 C 544 242 500 359 500 506 C 500 646 548 764 644 860 C 740 956 860 1004 1004 1004 C 1056 1004 1106 996 1154 982 C 1201 967 1237 951 1262 934 L 1307 1018 L 1315 1018 L 1323 647 L 1315 647 C 1291 730 1249 807 1190 878 C 1131 949 1056 985 965 985 C 888 985 820 943 762 860 C 703 777 674 662 674 516 C 674 389 707 287 775 209 C 842 131 922 92 1016 92 C 1096 92 1165 116 1222 165 C 1278 213 1320 268 1348 330 L 1358 324 C 1327 246 1278 177 1212 117 C 1146 57 1067 27 975 27 Z M 963 -371 C 729 -371 523 -284 347 -110 C 170 64 82 272 82 514 C 82 754 169 960 345 1134 C 521 1308 727 1395 963 1395 C 1196 1395 1401 1308 1577 1134 C 1753 960 1841 754 1841 514 C 1841 272 1753 64 1577 -110 C 1401 -284 1196 -371 963 -371 Z M 963 -322 C 1183 -322 1375 -240 1540 -76 C 1705 88 1788 284 1788 514 C 1788 741 1705 936 1540 1100 C 1375 1264 1183 1346 963 1346 C 740 1346 546 1264 382 1100 C 217 936 135 741 135 514 C 135 284 217 88 383 -76 C 548 -240 741 -322 963 -322 Z" unicode="©" />
<glyph horiz-adv-x="692" d="M 244 696 C 204 696 171 708 145 732 C 119 756 106 787 106 827 C 106 877 118 913 144 935 C 169 957 196 975 225 987 C 257 1000 292 1011 328 1020 C 364 1029 395 1040 420 1053 L 420 1116 C 420 1137 413 1166 401 1202 C 389 1238 361 1257 317 1257 C 296 1257 280 1252 269 1244 C 258 1236 250 1229 246 1223 C 246 1212 247 1197 251 1177 C 254 1157 256 1140 256 1128 C 256 1115 251 1103 243 1091 C 235 1079 219 1073 197 1073 C 174 1073 158 1079 150 1093 C 141 1106 137 1121 137 1139 C 137 1175 157 1205 199 1231 C 240 1257 282 1270 324 1270 C 376 1270 423 1260 464 1240 C 505 1220 526 1170 526 1090 C 526 1038 524 986 522 934 C 519 881 518 845 518 827 C 518 819 521 805 528 786 C 534 767 549 758 573 758 C 593 758 608 770 617 794 C 625 818 630 841 631 862 L 641 862 C 637 804 624 762 603 736 C 582 710 554 698 520 698 C 497 698 477 704 461 718 C 445 732 432 753 424 782 C 401 755 373 734 340 719 C 307 703 275 696 244 696 Z M 305 739 C 335 739 357 744 372 754 C 387 764 401 777 414 793 L 420 1038 C 366 1018 319 994 279 964 C 239 934 219 896 219 848 C 219 815 227 789 245 769 C 262 749 282 739 305 739 Z M 117 502 L 117 530 L 610 530 L 610 502 L 117 502 Z" unicode="ª" />
<glyph horiz-adv-x="1108" d="M 551 45 C 505 85 434 143 338 220 C 242 296 175 351 137 383 C 120 397 108 409 102 419 C 95 428 92 441 92 459 C 92 476 95 489 101 498 C 107 507 117 518 133 530 C 167 558 235 612 335 690 C 435 768 507 828 551 870 L 557 864 L 244 455 L 557 51 L 551 45 Z M 979 45 C 933 85 862 143 766 220 C 670 296 603 351 565 383 C 548 397 536 409 530 419 C 523 428 520 441 520 459 C 520 476 523 489 529 498 C 535 507 545 518 561 530 C 595 558 663 612 763 690 C 863 768 935 828 979 870 L 985 864 L 672 455 L 985 51 L 979 45 Z" unicode="«" />
<glyph horiz-adv-x="1139" d="M 948 80 L 948 526 L 86 526 L 86 584 L 1006 584 L 1006 80 L 948 80 Z" unicode="¬" />
<glyph horiz-adv-x="811" d="M 72 463 L 72 573 L 739 573 L 739 463 L 72 463 Z" unicode="­" />
<glyph horiz-adv-x="958" d="M 635 866 C 614 866 596 874 581 892 C 566 910 557 936 553 971 C 550 994 542 1018 529 1044 C 516 1070 492 1083 457 1083 L 416 1083 L 416 915 C 416 908 417 902 420 897 C 422 891 427 887 434 885 C 438 883 444 881 453 880 C 461 879 469 879 475 879 L 475 872 L 295 872 L 295 879 C 299 879 307 879 317 881 C 327 883 334 884 336 885 C 342 887 346 891 349 897 C 352 902 354 908 354 915 L 354 1247 C 354 1254 352 1260 350 1266 C 347 1272 342 1276 336 1278 C 330 1280 322 1281 314 1283 C 306 1285 299 1286 295 1286 L 295 1292 L 504 1292 C 534 1292 563 1284 591 1270 C 619 1256 633 1232 633 1198 C 633 1164 618 1140 590 1126 C 562 1112 536 1102 514 1096 L 514 1090 C 528 1087 546 1080 567 1070 C 588 1059 602 1042 608 1020 C 612 1004 616 987 620 969 C 624 950 629 934 633 920 C 635 909 640 902 646 898 C 652 894 658 893 664 893 C 674 893 681 897 687 906 C 693 915 696 930 696 952 L 705 952 C 705 922 700 901 690 887 C 680 873 662 866 635 866 Z M 479 694 C 379 694 293 730 221 802 C 149 874 113 962 113 1067 C 113 1171 149 1260 221 1332 C 293 1404 379 1440 479 1440 C 579 1440 665 1404 737 1332 C 809 1260 846 1171 846 1067 C 846 962 809 874 737 802 C 665 730 579 694 479 694 Z M 479 717 C 573 717 653 750 719 817 C 785 884 819 967 819 1067 C 819 1166 785 1249 719 1316 C 653 1383 573 1417 479 1417 C 385 1417 305 1383 239 1316 C 172 1249 139 1166 139 1067 C 139 967 172 884 239 817 C 305 750 385 717 479 717 Z M 416 1092 L 455 1092 C 482 1092 506 1099 528 1113 C 550 1127 561 1151 561 1186 C 561 1220 551 1244 533 1260 C 515 1276 494 1284 471 1284 L 416 1284 L 416 1092 Z" unicode="®" />
<glyph horiz-adv-x="1024" d="M 174 1233 L 174 1333 L 850 1333 L 850 1233 L 174 1233 Z" unicode="¯" />
<glyph horiz-adv-x="778" d="M 385 848 C 306 848 237 873 179 923 C 121 973 92 1047 92 1145 C 92 1234 122 1308 184 1366 C 246 1424 313 1454 385 1454 C 462 1454 531 1429 593 1379 C 655 1329 686 1251 686 1147 C 686 1063 655 993 593 935 C 531 877 462 848 385 848 Z M 391 862 C 442 862 485 890 521 946 C 557 1002 575 1068 575 1143 C 575 1221 559 1290 527 1350 C 495 1410 449 1440 387 1440 C 325 1440 278 1409 247 1348 C 216 1287 201 1222 201 1153 C 201 1081 216 1014 248 953 C 279 892 327 862 391 862 Z" unicode="°" />
<glyph horiz-adv-x="936" d="M 156 690 L 156 748 C 245 806 319 853 378 890 C 436 926 491 969 541 1018 C 603 1079 643 1133 661 1180 C 679 1226 688 1278 688 1335 C 688 1389 672 1432 642 1466 C 611 1499 567 1516 510 1516 C 431 1516 367 1488 318 1433 C 268 1377 244 1324 244 1274 C 244 1248 251 1225 267 1205 C 283 1184 311 1174 352 1174 C 400 1174 436 1187 462 1213 C 488 1239 507 1263 520 1286 L 528 1278 C 506 1242 475 1205 435 1168 C 394 1130 340 1112 274 1112 C 240 1112 210 1122 186 1143 C 162 1164 150 1196 150 1239 C 150 1304 187 1368 263 1432 C 339 1496 427 1528 528 1528 C 620 1528 694 1507 752 1465 C 809 1423 838 1372 838 1313 C 838 1227 804 1154 738 1092 C 671 1030 560 962 406 889 C 392 883 372 869 344 849 C 316 829 295 813 281 803 L 727 803 C 763 803 792 819 816 853 C 839 886 863 922 889 961 L 895 958 L 766 690 L 156 690 Z" unicode="²" />
<glyph horiz-adv-x="924" d="M 381 680 C 319 680 258 695 196 727 C 134 758 104 804 104 866 C 104 900 115 928 138 949 C 160 970 185 981 213 981 C 234 981 251 974 265 960 C 278 946 285 928 285 905 C 285 871 272 850 246 842 C 220 834 207 818 207 795 C 207 770 222 746 252 724 C 282 701 325 690 381 690 C 458 690 525 720 583 780 C 641 840 670 905 670 975 C 670 1017 661 1057 643 1095 C 625 1133 593 1153 545 1153 C 519 1153 492 1141 463 1118 C 434 1094 406 1071 379 1049 L 360 1075 C 445 1121 517 1164 575 1202 C 633 1240 662 1292 662 1358 C 662 1404 647 1441 617 1471 C 587 1501 548 1516 502 1516 C 467 1516 422 1498 367 1463 C 312 1428 285 1385 285 1333 C 285 1309 292 1289 306 1273 C 320 1257 342 1249 373 1249 C 401 1249 425 1256 443 1270 C 461 1284 476 1295 487 1305 L 492 1300 C 473 1276 447 1254 413 1232 C 379 1210 345 1200 311 1200 C 264 1200 231 1209 211 1229 C 191 1248 182 1273 182 1303 C 182 1357 221 1408 299 1456 C 377 1504 459 1528 547 1528 C 642 1528 708 1508 745 1468 C 782 1428 801 1391 801 1358 C 801 1320 779 1283 737 1247 C 695 1211 631 1183 547 1163 C 615 1163 677 1149 733 1123 C 789 1097 817 1049 817 979 C 817 890 773 818 686 763 C 598 707 497 680 381 680 Z" unicode="³" />
<glyph horiz-adv-x="1024" d="M 338 1092 L 330 1098 C 382 1173 423 1234 453 1281 C 483 1328 509 1371 532 1409 C 550 1441 568 1463 586 1477 C 604 1490 626 1497 653 1497 C 676 1497 694 1489 706 1474 C 718 1459 725 1442 725 1423 C 725 1397 718 1378 706 1364 C 693 1350 674 1333 649 1313 C 618 1288 579 1261 531 1231 C 483 1201 419 1155 338 1092 Z" unicode="´" />
<glyph horiz-adv-x="1133" d="M 207 -463 C 186 -463 167 -453 151 -435 C 135 -416 127 -392 127 -362 C 127 -308 133 -257 145 -211 C 157 -164 166 -124 170 -92 C 174 -59 176 -23 178 16 C 179 55 180 93 180 129 L 180 926 L 324 926 L 324 283 C 324 214 344 159 385 117 C 425 75 474 55 530 55 C 606 55 664 68 703 94 C 742 120 768 143 780 164 L 780 926 L 924 926 L 924 188 C 924 166 933 143 952 119 C 971 94 1000 82 1038 82 C 1074 82 1101 99 1120 134 C 1139 168 1150 205 1153 244 L 1159 244 C 1153 148 1135 80 1107 41 C 1078 1 1032 -18 969 -18 C 921 -18 882 -4 853 23 C 823 50 800 89 784 139 L 778 139 C 742 94 697 56 643 26 C 589 -4 531 -20 469 -20 C 413 -20 363 -7 319 18 C 275 44 238 79 209 123 L 205 123 L 205 -14 C 205 -78 219 -138 247 -195 C 275 -251 289 -305 289 -356 C 289 -390 280 -417 263 -435 C 246 -453 227 -463 207 -463 Z" unicode="µ" />
<glyph horiz-adv-x="1231" d="M 635 -256 L 635 717 L 573 717 C 391 717 271 752 211 823 C 151 894 121 969 121 1049 C 121 1123 149 1199 205 1279 C 261 1359 360 1399 502 1399 L 1208 1399 L 1208 1374 L 918 1374 L 918 -256 L 889 -256 L 889 1374 L 664 1374 L 664 -256 L 635 -256 Z" unicode="¶" />
<glyph horiz-adv-x="467" d="M 236 440 C 203 440 175 451 153 474 C 130 496 119 524 119 557 C 119 589 130 617 153 641 C 175 664 203 676 236 676 C 268 676 296 664 319 641 C 342 617 354 589 354 557 C 354 524 342 496 319 474 C 296 451 268 440 236 440 Z" unicode="·" />
<glyph horiz-adv-x="1024" d="M 371 -467 L 371 -453 C 434 -453 496 -444 557 -428 C 618 -411 649 -372 649 -311 C 649 -272 630 -248 592 -239 C 554 -229 515 -225 475 -225 L 475 16 L 492 16 L 492 -119 C 569 -119 636 -129 692 -151 C 748 -172 776 -213 776 -274 C 776 -357 734 -410 652 -433 C 569 -455 475 -467 371 -467 Z" unicode="¸" />
<glyph horiz-adv-x="686" d="M 90 694 L 90 702 C 105 703 130 705 165 707 C 199 709 222 712 233 715 C 247 719 259 727 269 739 C 278 751 283 765 283 780 L 283 1442 C 273 1440 264 1438 255 1437 C 246 1436 234 1436 219 1436 C 192 1436 163 1441 132 1452 C 100 1462 69 1479 39 1503 L 41 1507 C 59 1500 84 1493 114 1486 C 144 1478 173 1475 199 1475 C 255 1475 303 1481 341 1495 C 379 1508 411 1521 436 1534 L 442 1534 C 435 1504 430 1473 427 1439 C 423 1405 422 1367 422 1325 L 422 786 C 422 772 426 758 434 746 C 442 734 453 725 469 721 C 480 717 502 713 536 709 C 570 705 593 703 606 702 L 606 694 L 90 694 Z" unicode="¹" />
<glyph horiz-adv-x="733" d="M 362 688 C 294 688 233 714 178 766 C 123 818 96 888 96 977 C 96 1063 122 1134 175 1188 C 227 1242 292 1270 369 1270 C 446 1270 510 1242 561 1188 C 611 1133 637 1065 637 985 C 637 903 611 833 560 775 C 509 717 443 688 362 688 Z M 369 700 C 423 700 461 730 483 792 C 505 853 516 917 516 983 C 516 1042 505 1102 484 1164 C 463 1226 425 1257 369 1257 C 309 1257 268 1225 247 1161 C 225 1097 215 1038 215 985 C 215 919 226 855 250 793 C 273 731 313 700 369 700 Z M 119 502 L 119 530 L 612 530 L 612 502 L 119 502 Z" unicode="º" />
<glyph horiz-adv-x="1108" d="M 129 45 L 123 51 L 436 455 L 123 864 L 129 870 C 173 828 245 768 345 690 C 445 612 512 558 547 530 C 562 518 573 507 579 498 C 585 489 588 476 588 459 C 588 441 584 428 577 419 C 570 409 559 397 543 383 C 505 351 438 296 342 220 C 246 143 175 85 129 45 Z M 557 45 L 551 51 L 864 455 L 551 864 L 557 870 C 601 828 673 768 773 690 C 873 612 940 558 975 530 C 990 518 1001 507 1007 498 C 1013 489 1016 476 1016 459 C 1016 441 1012 428 1006 419 C 999 409 987 397 971 383 C 933 351 866 296 770 220 C 674 143 603 85 557 45 Z" unicode="»" />
<glyph horiz-adv-x="1147" d="M 467 -465 L 467 -457 C 480 -456 498 -454 521 -452 C 544 -450 560 -447 569 -444 C 582 -440 592 -432 600 -421 C 608 -410 612 -397 612 -383 L 612 -186 L 178 -186 L 178 -152 L 711 377 L 741 377 L 741 -129 C 783 -129 820 -128 853 -127 C 885 -126 909 -121 924 -111 C 936 -101 945 -86 953 -66 C 961 -45 965 -26 965 -10 L 973 -10 L 973 -311 L 965 -311 C 964 -291 960 -271 952 -249 C 944 -227 934 -211 920 -201 C 908 -191 887 -186 855 -186 C 823 -186 785 -186 741 -186 L 741 -375 C 741 -389 744 -401 751 -413 C 757 -425 768 -433 782 -438 C 792 -442 808 -446 830 -450 C 852 -454 870 -456 885 -457 L 885 -465 L 467 -465 Z M 328 694 L 328 702 C 342 703 367 705 402 707 C 437 709 460 712 471 715 C 485 719 497 727 506 739 C 515 751 520 765 520 780 L 520 1442 C 511 1440 502 1438 493 1437 C 483 1436 471 1436 457 1436 C 430 1436 401 1441 369 1452 C 337 1462 306 1479 276 1503 L 279 1507 C 297 1500 321 1493 352 1486 C 382 1478 410 1475 436 1475 C 493 1475 541 1481 579 1495 C 617 1508 649 1521 674 1534 L 680 1534 C 673 1504 668 1473 664 1439 C 660 1405 659 1367 659 1325 L 659 786 C 659 772 663 758 671 746 C 679 734 691 725 707 721 C 717 717 739 713 773 709 C 807 705 830 703 844 702 L 844 694 L 328 694 Z M 96 508 L 96 551 L 1049 551 L 1049 508 L 96 508 Z M 221 -129 L 612 -129 L 612 260 L 221 -129 Z" unicode="¼" />
<glyph horiz-adv-x="1147" d="M 250 -465 L 250 -408 C 339 -350 413 -302 472 -266 C 530 -229 585 -186 635 -137 C 697 -75 737 -21 755 25 C 773 71 782 123 782 180 C 782 234 766 277 736 310 C 705 343 661 360 604 360 C 525 360 461 332 412 277 C 362 222 338 169 338 119 C 338 93 346 70 362 49 C 378 28 406 18 446 18 C 494 18 530 31 556 57 C 582 83 601 108 614 131 L 623 123 C 601 87 570 50 529 13 C 488 -24 435 -43 369 -43 C 334 -43 304 -32 280 -11 C 256 9 244 41 244 84 C 244 149 282 213 358 277 C 434 341 522 373 623 373 C 714 373 788 351 846 309 C 903 267 932 216 932 158 C 932 72 898 -1 832 -63 C 765 -125 654 -192 500 -266 C 486 -272 466 -286 438 -306 C 410 -326 389 -341 375 -352 L 821 -352 C 857 -352 886 -335 910 -302 C 933 -268 957 -233 983 -195 L 989 -197 L 860 -465 L 250 -465 Z M 328 694 L 328 702 C 342 703 367 705 402 707 C 437 709 460 712 471 715 C 485 719 497 727 506 739 C 515 751 520 765 520 780 L 520 1442 C 511 1440 502 1438 493 1437 C 483 1436 471 1436 457 1436 C 430 1436 401 1441 369 1452 C 337 1462 306 1479 276 1503 L 279 1507 C 297 1500 321 1493 352 1486 C 382 1478 410 1475 436 1475 C 493 1475 541 1481 579 1495 C 617 1508 649 1521 674 1534 L 680 1534 C 673 1504 668 1473 664 1439 C 660 1405 659 1367 659 1325 L 659 786 C 659 772 663 758 671 746 C 679 734 691 725 707 721 C 717 717 739 713 773 709 C 807 705 830 703 844 702 L 844 694 L 328 694 Z M 96 508 L 96 551 L 1049 551 L 1049 508 L 96 508 Z" unicode="½" />
<glyph horiz-adv-x="1147" d="M 473 680 C 411 680 350 695 289 727 C 227 758 197 804 197 866 C 197 900 208 928 230 949 C 252 970 277 981 305 981 C 326 981 343 974 357 960 C 370 946 377 928 377 905 C 377 871 364 850 338 842 C 312 834 299 818 299 795 C 299 770 314 746 344 724 C 374 701 417 690 473 690 C 550 690 617 720 675 780 C 733 840 762 905 762 975 C 762 1017 753 1057 735 1095 C 717 1133 685 1153 637 1153 C 611 1153 584 1141 555 1118 C 526 1094 498 1071 471 1049 L 453 1075 C 538 1121 609 1164 667 1202 C 725 1240 754 1292 754 1358 C 754 1404 739 1441 709 1471 C 679 1501 640 1516 594 1516 C 559 1516 514 1498 459 1463 C 404 1428 377 1385 377 1333 C 377 1309 384 1289 398 1273 C 412 1257 434 1249 465 1249 C 493 1249 517 1256 535 1270 C 553 1284 568 1295 580 1305 L 584 1300 C 565 1276 539 1254 505 1232 C 471 1210 437 1200 403 1200 C 356 1200 323 1209 303 1229 C 283 1248 274 1273 274 1303 C 274 1357 313 1408 391 1456 C 469 1504 551 1528 639 1528 C 734 1528 800 1508 837 1468 C 874 1428 893 1391 893 1358 C 893 1320 871 1283 829 1247 C 787 1211 723 1183 639 1163 C 707 1163 769 1149 825 1123 C 881 1097 909 1049 909 979 C 909 890 865 818 778 763 C 691 707 589 680 473 680 Z M 467 -465 L 467 -457 C 480 -456 498 -454 521 -452 C 544 -450 560 -447 569 -444 C 582 -440 592 -432 600 -421 C 608 -410 612 -397 612 -383 L 612 -186 L 178 -186 L 178 -152 L 711 377 L 741 377 L 741 -129 C 783 -129 820 -128 853 -127 C 885 -126 909 -121 924 -111 C 936 -101 945 -86 953 -66 C 961 -45 965 -26 965 -10 L 973 -10 L 973 -311 L 965 -311 C 964 -291 960 -271 952 -249 C 944 -227 934 -211 920 -201 C 908 -191 887 -186 855 -186 C 823 -186 785 -186 741 -186 L 741 -375 C 741 -389 744 -401 751 -413 C 757 -425 768 -433 782 -438 C 792 -442 808 -446 830 -450 C 852 -454 870 -456 885 -457 L 885 -465 L 467 -465 Z M 96 508 L 96 551 L 1049 551 L 1049 508 L 96 508 Z M 221 -129 L 612 -129 L 612 260 L 221 -129 Z" unicode="¾" />
<glyph horiz-adv-x="938" d="M 589 1077 L 589 692 C 491 681 412 653 350 607 C 288 561 257 491 257 397 C 257 266 281 166 330 98 C 379 30 442 -3 519 -3 C 544 -3 570 0 598 10 C 625 19 644 32 654 49 C 649 80 646 109 644 137 C 642 165 644 187 648 205 C 655 223 666 238 680 249 C 694 260 714 266 740 266 C 768 266 788 257 802 239 C 815 221 822 198 822 172 C 822 121 795 77 741 40 C 687 3 613 -14 519 -14 C 385 -14 282 22 208 96 C 134 170 97 267 97 385 C 97 503 138 601 222 679 C 305 757 417 803 558 819 L 575 1077 L 589 1077 Z M 579 1430 C 611 1430 639 1419 662 1397 C 685 1375 697 1347 697 1315 C 697 1282 685 1254 662 1231 C 639 1207 611 1196 579 1196 C 546 1196 518 1207 495 1231 C 471 1254 460 1282 460 1315 C 460 1347 471 1375 495 1397 C 518 1419 546 1430 579 1430 Z" unicode="¿" />
<glyph horiz-adv-x="1380" d="M -53 0 L -53 8 C -33 8 -11 12 13 20 C 38 27 60 36 80 47 C 103 60 127 80 151 108 C 175 136 195 169 211 207 C 283 381 364 578 456 799 C 547 1020 631 1227 709 1421 L 727 1421 C 831 1160 930 906 1026 658 C 1122 410 1189 239 1227 145 C 1235 124 1244 105 1256 89 C 1268 73 1286 57 1311 43 C 1329 31 1350 23 1372 17 C 1394 11 1414 8 1434 8 L 1434 0 L 840 0 L 840 8 C 875 10 921 17 977 29 C 1033 41 1061 60 1061 86 C 1061 92 1060 100 1059 110 C 1057 120 1055 128 1053 135 L 899 522 L 367 522 C 343 464 321 409 302 358 C 283 307 269 265 260 233 C 253 209 247 188 243 169 C 238 149 236 133 236 119 C 236 82 266 55 327 37 C 387 19 440 10 485 8 L 485 0 L -53 0 Z M 375 547 L 891 547 L 643 1202 L 375 547 Z M 882 1505 C 800 1567 736 1613 688 1643 C 640 1673 601 1701 571 1726 C 545 1746 526 1763 514 1777 C 501 1791 495 1810 495 1836 C 495 1855 501 1872 513 1887 C 525 1902 543 1910 567 1910 C 593 1910 615 1903 633 1890 C 651 1876 669 1854 687 1822 C 709 1784 736 1741 766 1694 C 796 1647 838 1586 890 1511 L 882 1505 Z" unicode="À" />
<glyph horiz-adv-x="1380" d="M -53 0 L -53 8 C -33 8 -11 12 13 20 C 38 27 60 36 80 47 C 103 60 127 80 151 108 C 175 136 195 169 211 207 C 283 381 364 578 456 799 C 547 1020 631 1227 709 1421 L 727 1421 C 831 1160 930 906 1026 658 C 1122 410 1189 239 1227 145 C 1235 124 1244 105 1256 89 C 1268 73 1286 57 1311 43 C 1329 31 1350 23 1372 17 C 1394 11 1414 8 1434 8 L 1434 0 L 840 0 L 840 8 C 875 10 921 17 977 29 C 1033 41 1061 60 1061 86 C 1061 92 1060 100 1059 110 C 1057 120 1055 128 1053 135 L 899 522 L 367 522 C 343 464 321 409 302 358 C 283 307 269 265 260 233 C 253 209 247 188 243 169 C 238 149 236 133 236 119 C 236 82 266 55 327 37 C 387 19 440 10 485 8 L 485 0 L -53 0 Z M 375 547 L 891 547 L 643 1202 L 375 547 Z M 536 1505 L 528 1511 C 580 1586 621 1647 651 1694 C 681 1741 707 1784 730 1822 C 748 1854 766 1876 784 1890 C 802 1903 824 1910 851 1910 C 874 1910 892 1902 904 1887 C 916 1872 923 1855 923 1836 C 923 1810 916 1791 904 1777 C 891 1763 872 1746 847 1726 C 816 1701 777 1674 729 1644 C 681 1614 617 1568 536 1505 Z" unicode="Á" />
<glyph horiz-adv-x="1380" d="M -53 0 L -53 8 C -33 8 -11 12 13 20 C 38 27 60 36 80 47 C 103 60 127 80 151 108 C 175 136 195 169 211 207 C 283 381 364 578 456 799 C 547 1020 631 1227 709 1421 L 727 1421 C 831 1160 930 906 1026 658 C 1122 410 1189 239 1227 145 C 1235 124 1244 105 1256 89 C 1268 73 1286 57 1311 43 C 1329 31 1350 23 1372 17 C 1394 11 1414 8 1434 8 L 1434 0 L 840 0 L 840 8 C 875 10 921 17 977 29 C 1033 41 1061 60 1061 86 C 1061 92 1060 100 1059 110 C 1057 120 1055 128 1053 135 L 899 522 L 367 522 C 343 464 321 409 302 358 C 283 307 269 265 260 233 C 253 209 247 188 243 169 C 238 149 236 133 236 119 C 236 82 266 55 327 37 C 387 19 440 10 485 8 L 485 0 L -53 0 Z M 375 547 L 891 547 L 643 1202 L 375 547 Z M 1011 1503 L 712 1777 L 407 1505 L 399 1511 C 453 1589 498 1658 535 1720 C 572 1781 603 1831 628 1869 C 641 1888 652 1900 662 1906 C 672 1911 688 1914 712 1914 C 734 1914 750 1911 760 1906 C 770 1900 780 1889 792 1873 C 817 1836 848 1786 884 1724 C 920 1661 965 1590 1019 1511 L 1011 1503 Z" unicode="Â" />
<glyph horiz-adv-x="1380" d="M -53 0 L -53 8 C -33 8 -11 12 13 20 C 38 27 60 36 80 47 C 103 60 127 80 151 108 C 175 136 195 169 211 207 C 283 381 364 578 456 799 C 547 1020 631 1227 709 1421 L 727 1421 C 831 1160 930 906 1026 658 C 1122 410 1189 239 1227 145 C 1235 124 1244 105 1256 89 C 1268 73 1286 57 1311 43 C 1329 31 1350 23 1372 17 C 1394 11 1414 8 1434 8 L 1434 0 L 840 0 L 840 8 C 875 10 921 17 977 29 C 1033 41 1061 60 1061 86 C 1061 92 1060 100 1059 110 C 1057 120 1055 128 1053 135 L 899 522 L 367 522 C 343 464 321 409 302 358 C 283 307 269 265 260 233 C 253 209 247 188 243 169 C 238 149 236 133 236 119 C 236 82 266 55 327 37 C 387 19 440 10 485 8 L 485 0 L -53 0 Z M 375 547 L 891 547 L 643 1202 L 375 547 Z M 337 1546 L 329 1550 C 347 1606 377 1661 420 1713 C 463 1765 515 1791 575 1791 C 635 1791 692 1772 745 1736 C 798 1699 842 1681 876 1681 C 938 1681 982 1693 1010 1718 C 1037 1743 1060 1777 1079 1820 L 1087 1818 C 1071 1755 1041 1699 997 1650 C 953 1600 899 1576 835 1576 C 770 1576 711 1594 657 1632 C 603 1670 558 1689 524 1689 C 481 1689 446 1676 418 1652 C 390 1627 363 1592 337 1546 Z" unicode="Ã" />
<glyph horiz-adv-x="1380" d="M -53 0 L -53 8 C -33 8 -11 12 13 20 C 38 27 60 36 80 47 C 103 60 127 80 151 108 C 175 136 195 169 211 207 C 283 381 364 578 456 799 C 547 1020 631 1227 709 1421 L 727 1421 C 831 1160 930 906 1026 658 C 1122 410 1189 239 1227 145 C 1235 124 1244 105 1256 89 C 1268 73 1286 57 1311 43 C 1329 31 1350 23 1372 17 C 1394 11 1414 8 1434 8 L 1434 0 L 840 0 L 840 8 C 875 10 921 17 977 29 C 1033 41 1061 60 1061 86 C 1061 92 1060 100 1059 110 C 1057 120 1055 128 1053 135 L 899 522 L 367 522 C 343 464 321 409 302 358 C 283 307 269 265 260 233 C 253 209 247 188 243 169 C 238 149 236 133 236 119 C 236 82 266 55 327 37 C 387 19 440 10 485 8 L 485 0 L -53 0 Z M 375 547 L 891 547 L 643 1202 L 375 547 Z M 491 1550 C 463 1550 439 1559 419 1579 C 398 1599 388 1622 388 1650 C 388 1678 398 1703 419 1724 C 439 1744 463 1755 491 1755 C 521 1755 547 1745 567 1726 C 587 1706 597 1684 597 1658 C 597 1628 587 1603 567 1582 C 547 1560 521 1550 491 1550 Z M 925 1550 C 896 1550 872 1559 852 1579 C 832 1599 823 1622 823 1650 C 823 1678 832 1703 852 1724 C 872 1744 896 1755 925 1755 C 955 1755 980 1745 1000 1726 C 1019 1706 1029 1684 1029 1658 C 1029 1628 1019 1603 999 1582 C 979 1560 954 1550 925 1550 Z" unicode="Ä" />
<glyph horiz-adv-x="1380" d="M -53 0 L -53 8 C -33 8 -11 12 13 20 C 38 27 60 36 80 47 C 103 60 127 80 151 108 C 175 136 195 169 211 207 C 283 381 364 578 456 799 C 547 1020 631 1227 709 1421 L 727 1421 C 831 1160 930 906 1026 658 C 1122 410 1189 239 1227 145 C 1235 124 1244 105 1256 89 C 1268 73 1286 57 1311 43 C 1329 31 1350 23 1372 17 C 1394 11 1414 8 1434 8 L 1434 0 L 840 0 L 840 8 C 875 10 921 17 977 29 C 1033 41 1061 60 1061 86 C 1061 92 1060 100 1059 110 C 1057 120 1055 128 1053 135 L 899 522 L 367 522 C 343 464 321 409 302 358 C 283 307 269 265 260 233 C 253 209 247 188 243 169 C 238 149 236 133 236 119 C 236 82 266 55 327 37 C 387 19 440 10 485 8 L 485 0 L -53 0 Z M 375 547 L 891 547 L 643 1202 L 375 547 Z M 710 1500 C 640 1500 585 1518 546 1555 C 506 1592 487 1641 487 1701 C 487 1760 508 1808 551 1846 C 593 1883 646 1902 710 1902 C 776 1902 829 1883 871 1846 C 912 1809 933 1761 933 1701 C 933 1643 913 1595 873 1557 C 833 1519 779 1500 710 1500 Z M 710 1511 C 756 1511 789 1530 809 1568 C 829 1606 839 1650 839 1701 C 839 1749 829 1793 809 1833 C 789 1872 756 1892 710 1892 C 665 1892 632 1873 612 1836 C 591 1799 581 1754 581 1701 C 581 1649 590 1604 610 1567 C 630 1529 663 1511 710 1511 Z" unicode="Å" />
<glyph horiz-adv-x="1970" d="M -53 0 L -53 8 C -33 8 -10 12 16 20 C 43 27 66 36 86 47 C 109 60 133 81 159 111 C 184 140 207 172 229 207 C 269 272 368 440 526 712 C 683 984 806 1200 895 1362 C 872 1368 835 1375 784 1381 C 733 1387 700 1390 686 1391 L 686 1399 L 1812 1399 L 1812 1090 L 1802 1090 C 1792 1134 1766 1190 1725 1260 C 1684 1330 1642 1368 1599 1374 C 1574 1376 1544 1378 1508 1380 C 1472 1381 1437 1382 1405 1382 L 1122 1382 L 1122 733 L 1346 733 C 1402 733 1442 741 1464 757 C 1486 773 1503 788 1516 801 C 1530 815 1543 846 1553 892 C 1563 938 1570 974 1573 1001 L 1583 1001 L 1583 438 L 1573 438 C 1571 468 1564 507 1552 556 C 1540 605 1528 636 1516 649 C 1502 663 1484 678 1462 694 C 1439 709 1400 717 1346 717 L 1122 717 L 1122 203 C 1122 119 1137 67 1168 47 C 1198 26 1265 16 1368 16 C 1440 16 1516 17 1596 19 C 1676 21 1728 35 1753 61 C 1783 93 1815 147 1848 223 C 1880 299 1902 352 1913 383 L 1923 383 L 1896 0 L 731 0 L 731 8 C 749 8 777 11 814 15 C 851 19 877 24 893 31 C 917 39 934 52 943 70 C 951 88 956 108 956 131 L 956 569 L 471 569 C 424 486 383 412 347 348 C 311 284 291 245 285 233 C 276 217 267 196 259 171 C 250 146 246 127 246 113 C 246 83 276 58 338 39 C 400 20 455 10 504 8 L 504 0 L -53 0 Z M 483 594 L 956 594 L 956 1360 L 922 1360 C 922 1360 871 1273 771 1099 C 671 925 575 757 483 594 Z" unicode="Æ" />
<glyph horiz-adv-x="1288" d="M 561 -467 L 561 -453 C 624 -453 686 -444 748 -428 C 809 -411 840 -372 840 -311 C 840 -272 820 -248 782 -239 C 744 -229 705 -225 666 -225 L 666 -27 C 485 -11 342 60 237 188 C 132 316 80 481 80 682 C 80 886 147 1061 283 1205 C 418 1349 585 1421 784 1421 C 836 1421 896 1409 966 1385 C 1036 1361 1094 1328 1141 1288 L 1206 1421 L 1219 1421 L 1227 918 L 1217 918 C 1165 1063 1102 1180 1027 1269 C 952 1358 849 1403 719 1403 C 614 1403 513 1345 417 1230 C 320 1114 272 934 272 690 C 272 492 323 331 425 206 C 527 80 648 18 788 18 C 916 18 1019 53 1095 124 C 1171 194 1226 275 1260 365 L 1280 354 C 1241 263 1180 176 1096 93 C 1012 10 892 -31 737 -31 C 728 -31 719 -30 709 -30 C 699 -29 690 -29 682 -29 L 682 -119 C 759 -119 826 -129 882 -151 C 938 -172 967 -213 967 -274 C 967 -357 925 -410 842 -433 C 759 -455 665 -467 561 -467 Z" unicode="Ç" />
<glyph horiz-adv-x="1327" d="M 88 0 L 88 8 C 106 8 134 11 171 15 C 208 19 234 24 250 31 C 274 39 291 52 300 70 C 308 88 313 108 313 131 L 313 1255 C 313 1277 308 1297 300 1314 C 292 1331 275 1345 250 1356 C 230 1364 203 1371 168 1379 C 133 1386 106 1390 88 1391 L 88 1399 L 1169 1399 L 1169 1090 L 1159 1090 C 1149 1134 1123 1190 1082 1260 C 1040 1330 998 1368 956 1374 C 931 1376 901 1378 865 1380 C 829 1381 794 1382 762 1382 L 479 1382 L 479 733 L 702 733 C 759 733 799 741 821 757 C 843 773 860 788 872 801 C 887 815 900 846 910 892 C 920 938 927 974 930 1001 L 940 1001 L 940 438 L 930 438 C 928 468 921 507 909 556 C 897 605 884 636 872 649 C 859 663 841 678 819 694 C 796 709 757 717 702 717 L 479 717 L 479 203 C 479 119 494 67 525 47 C 555 26 622 16 725 16 C 797 16 873 17 953 19 C 1033 21 1085 35 1110 61 C 1140 93 1172 147 1205 223 C 1237 299 1259 352 1270 383 L 1280 383 L 1253 0 L 88 0 Z M 835 1505 C 753 1567 689 1613 641 1643 C 593 1673 554 1701 524 1726 C 498 1746 479 1763 467 1777 C 454 1791 448 1810 448 1836 C 448 1855 454 1872 466 1887 C 478 1902 496 1910 520 1910 C 546 1910 568 1903 586 1890 C 604 1876 622 1854 640 1822 C 662 1784 689 1741 719 1694 C 749 1647 791 1586 843 1511 L 835 1505 Z" unicode="È" />
<glyph horiz-adv-x="1327" d="M 88 0 L 88 8 C 106 8 134 11 171 15 C 208 19 234 24 250 31 C 274 39 291 52 300 70 C 308 88 313 108 313 131 L 313 1255 C 313 1277 308 1297 300 1314 C 292 1331 275 1345 250 1356 C 230 1364 203 1371 168 1379 C 133 1386 106 1390 88 1391 L 88 1399 L 1169 1399 L 1169 1090 L 1159 1090 C 1149 1134 1123 1190 1082 1260 C 1040 1330 998 1368 956 1374 C 931 1376 901 1378 865 1380 C 829 1381 794 1382 762 1382 L 479 1382 L 479 733 L 702 733 C 759 733 799 741 821 757 C 843 773 860 788 872 801 C 887 815 900 846 910 892 C 920 938 927 974 930 1001 L 940 1001 L 940 438 L 930 438 C 928 468 921 507 909 556 C 897 605 884 636 872 649 C 859 663 841 678 819 694 C 796 709 757 717 702 717 L 479 717 L 479 203 C 479 119 494 67 525 47 C 555 26 622 16 725 16 C 797 16 873 17 953 19 C 1033 21 1085 35 1110 61 C 1140 93 1172 147 1205 223 C 1237 299 1259 352 1270 383 L 1280 383 L 1253 0 L 88 0 Z M 587 1505 L 579 1511 C 631 1586 672 1647 702 1694 C 732 1741 758 1784 781 1822 C 799 1854 817 1876 835 1890 C 853 1903 875 1910 902 1910 C 925 1910 943 1902 955 1887 C 967 1872 974 1855 974 1836 C 974 1810 967 1791 955 1777 C 942 1763 923 1746 898 1726 C 867 1701 828 1674 780 1644 C 732 1614 668 1568 587 1505 Z" unicode="É" />
<glyph horiz-adv-x="1327" d="M 88 0 L 88 8 C 106 8 134 11 171 15 C 208 19 234 24 250 31 C 274 39 291 52 300 70 C 308 88 313 108 313 131 L 313 1255 C 313 1277 308 1297 300 1314 C 292 1331 275 1345 250 1356 C 230 1364 203 1371 168 1379 C 133 1386 106 1390 88 1391 L 88 1399 L 1169 1399 L 1169 1090 L 1159 1090 C 1149 1134 1123 1190 1082 1260 C 1040 1330 998 1368 956 1374 C 931 1376 901 1378 865 1380 C 829 1381 794 1382 762 1382 L 479 1382 L 479 733 L 702 733 C 759 733 799 741 821 757 C 843 773 860 788 872 801 C 887 815 900 846 910 892 C 920 938 927 974 930 1001 L 940 1001 L 940 438 L 930 438 C 928 468 921 507 909 556 C 897 605 884 636 872 649 C 859 663 841 678 819 694 C 796 709 757 717 702 717 L 479 717 L 479 203 C 479 119 494 67 525 47 C 555 26 622 16 725 16 C 797 16 873 17 953 19 C 1033 21 1085 35 1110 61 C 1140 93 1172 147 1205 223 C 1237 299 1259 352 1270 383 L 1280 383 L 1253 0 L 88 0 Z M 964 1503 L 665 1777 L 360 1505 L 352 1511 C 406 1589 451 1658 488 1720 C 525 1781 556 1831 581 1869 C 594 1888 605 1900 615 1906 C 625 1911 641 1914 665 1914 C 687 1914 703 1911 713 1906 C 723 1900 733 1889 745 1873 C 770 1836 801 1786 837 1724 C 873 1661 918 1590 972 1511 L 964 1503 Z" unicode="Ê" />
<glyph horiz-adv-x="1327" d="M 88 0 L 88 8 C 106 8 134 11 171 15 C 208 19 234 24 250 31 C 274 39 291 52 300 70 C 308 88 313 108 313 131 L 313 1255 C 313 1277 308 1297 300 1314 C 292 1331 275 1345 250 1356 C 230 1364 203 1371 168 1379 C 133 1386 106 1390 88 1391 L 88 1399 L 1169 1399 L 1169 1090 L 1159 1090 C 1149 1134 1123 1190 1082 1260 C 1040 1330 998 1368 956 1374 C 931 1376 901 1378 865 1380 C 829 1381 794 1382 762 1382 L 479 1382 L 479 733 L 702 733 C 759 733 799 741 821 757 C 843 773 860 788 872 801 C 887 815 900 846 910 892 C 920 938 927 974 930 1001 L 940 1001 L 940 438 L 930 438 C 928 468 921 507 909 556 C 897 605 884 636 872 649 C 859 663 841 678 819 694 C 796 709 757 717 702 717 L 479 717 L 479 203 C 479 119 494 67 525 47 C 555 26 622 16 725 16 C 797 16 873 17 953 19 C 1033 21 1085 35 1110 61 C 1140 93 1172 147 1205 223 C 1237 299 1259 352 1270 383 L 1280 383 L 1253 0 L 88 0 Z M 460 1550 C 432 1550 408 1559 388 1579 C 367 1599 357 1622 357 1650 C 357 1678 367 1703 388 1724 C 408 1744 432 1755 460 1755 C 490 1755 516 1745 536 1726 C 556 1706 566 1684 566 1658 C 566 1628 556 1603 536 1582 C 516 1560 490 1550 460 1550 Z M 894 1550 C 865 1550 841 1559 821 1579 C 801 1599 792 1622 792 1650 C 792 1678 801 1703 821 1724 C 841 1744 865 1755 894 1755 C 924 1755 949 1745 969 1726 C 988 1706 998 1684 998 1658 C 998 1628 988 1603 968 1582 C 948 1560 923 1550 894 1550 Z" unicode="Ë" />
<glyph horiz-adv-x="801" d="M 104 0 L 104 8 C 122 8 149 10 183 14 C 217 17 240 21 254 27 C 278 35 295 48 304 65 C 312 82 317 102 317 125 L 317 1257 C 317 1279 313 1299 305 1315 C 297 1331 280 1345 254 1356 C 235 1362 210 1370 179 1378 C 147 1386 122 1390 104 1391 L 104 1399 L 696 1399 L 696 1391 C 677 1390 652 1387 621 1382 C 590 1377 565 1372 547 1366 C 521 1358 504 1345 496 1328 C 487 1310 483 1290 483 1268 L 483 135 C 483 112 487 92 497 76 C 507 60 523 47 547 37 C 559 32 582 26 616 19 C 650 12 677 8 696 8 L 696 0 L 104 0 Z M 523 1505 C 441 1567 377 1613 329 1643 C 281 1673 242 1701 212 1726 C 186 1746 167 1763 155 1777 C 142 1791 136 1810 136 1836 C 136 1855 142 1872 154 1887 C 166 1902 184 1910 208 1910 C 234 1910 256 1903 274 1890 C 292 1876 310 1854 328 1822 C 350 1784 377 1741 407 1694 C 437 1647 479 1586 531 1511 L 523 1505 Z" unicode="Ì" />
<glyph horiz-adv-x="801" d="M 104 0 L 104 8 C 122 8 149 10 183 14 C 217 17 240 21 254 27 C 278 35 295 48 304 65 C 312 82 317 102 317 125 L 317 1257 C 317 1279 313 1299 305 1315 C 297 1331 280 1345 254 1356 C 235 1362 210 1370 179 1378 C 147 1386 122 1390 104 1391 L 104 1399 L 696 1399 L 696 1391 C 677 1390 652 1387 621 1382 C 590 1377 565 1372 547 1366 C 521 1358 504 1345 496 1328 C 487 1310 483 1290 483 1268 L 483 135 C 483 112 487 92 497 76 C 507 60 523 47 547 37 C 559 32 582 26 616 19 C 650 12 677 8 696 8 L 696 0 L 104 0 Z M 293 1505 L 285 1511 C 337 1586 378 1647 408 1694 C 438 1741 464 1784 487 1822 C 505 1854 523 1876 541 1890 C 559 1903 581 1910 608 1910 C 631 1910 649 1902 661 1887 C 673 1872 680 1855 680 1836 C 680 1810 673 1791 661 1777 C 648 1763 629 1746 604 1726 C 573 1701 534 1674 486 1644 C 438 1614 374 1568 293 1505 Z" unicode="Í" />
<glyph horiz-adv-x="801" d="M 104 0 L 104 8 C 122 8 149 10 183 14 C 217 17 240 21 254 27 C 278 35 295 48 304 65 C 312 82 317 102 317 125 L 317 1257 C 317 1279 313 1299 305 1315 C 297 1331 280 1345 254 1356 C 235 1362 210 1370 179 1378 C 147 1386 122 1390 104 1391 L 104 1399 L 696 1399 L 696 1391 C 677 1390 652 1387 621 1382 C 590 1377 565 1372 547 1366 C 521 1358 504 1345 496 1328 C 487 1310 483 1290 483 1268 L 483 135 C 483 112 487 92 497 76 C 507 60 523 47 547 37 C 559 32 582 26 616 19 C 650 12 677 8 696 8 L 696 0 L 104 0 Z M 701 1503 L 402 1777 L 97 1505 L 89 1511 C 143 1589 188 1658 225 1720 C 262 1781 293 1831 318 1869 C 331 1888 342 1900 352 1906 C 362 1911 378 1914 402 1914 C 424 1914 440 1911 450 1906 C 460 1900 470 1889 482 1873 C 507 1836 538 1786 574 1724 C 610 1661 655 1590 709 1511 L 701 1503 Z" unicode="Î" />
<glyph horiz-adv-x="801" d="M 104 0 L 104 8 C 122 8 149 10 183 14 C 217 17 240 21 254 27 C 278 35 295 48 304 65 C 312 82 317 102 317 125 L 317 1257 C 317 1279 313 1299 305 1315 C 297 1331 280 1345 254 1356 C 235 1362 210 1370 179 1378 C 147 1386 122 1390 104 1391 L 104 1399 L 696 1399 L 696 1391 C 677 1390 652 1387 621 1382 C 590 1377 565 1372 547 1366 C 521 1358 504 1345 496 1328 C 487 1310 483 1290 483 1268 L 483 135 C 483 112 487 92 497 76 C 507 60 523 47 547 37 C 559 32 582 26 616 19 C 650 12 677 8 696 8 L 696 0 L 104 0 Z M 181 1550 C 153 1550 129 1559 109 1579 C 88 1599 78 1622 78 1650 C 78 1678 88 1703 109 1724 C 129 1744 153 1755 181 1755 C 211 1755 237 1745 257 1726 C 277 1706 287 1684 287 1658 C 287 1628 277 1603 257 1582 C 237 1560 211 1550 181 1550 Z M 615 1550 C 586 1550 562 1559 542 1579 C 522 1599 513 1622 513 1650 C 513 1678 522 1703 542 1724 C 562 1744 586 1755 615 1755 C 645 1755 670 1745 690 1726 C 709 1706 719 1684 719 1658 C 719 1628 709 1603 689 1582 C 669 1560 644 1550 615 1550 Z" unicode="Ï" />
<glyph horiz-adv-x="1569" d="M 98 0 L 98 8 C 118 8 145 9 179 13 C 213 17 236 21 250 27 C 274 35 291 48 300 66 C 308 84 313 104 313 127 L 313 725 L 94 725 L 94 762 L 313 762 L 313 1255 C 313 1277 308 1298 300 1316 C 291 1334 274 1349 250 1360 C 225 1370 199 1377 173 1382 C 147 1387 124 1390 106 1391 L 106 1399 L 741 1399 C 841 1399 943 1380 1049 1342 C 1155 1304 1246 1244 1322 1162 C 1370 1109 1410 1043 1441 965 C 1471 886 1487 794 1487 690 C 1487 597 1472 514 1443 441 C 1414 367 1375 303 1326 248 C 1250 164 1156 101 1043 61 C 929 20 815 0 700 0 L 98 0 Z M 719 14 C 800 14 873 26 937 50 C 1001 74 1055 109 1101 153 C 1164 213 1211 289 1242 382 C 1272 475 1288 578 1288 690 C 1288 800 1270 901 1236 992 C 1202 1083 1154 1159 1093 1221 C 1040 1273 978 1313 906 1342 C 834 1371 755 1386 670 1386 C 645 1386 613 1385 574 1384 C 535 1383 503 1382 479 1380 L 479 762 L 801 762 L 801 725 L 479 725 L 479 178 C 487 120 508 78 542 52 C 575 26 634 14 719 14 Z" unicode="Ð" />
<glyph horiz-adv-x="1577" d="M 1325 -18 L 324 1214 L 324 354 C 324 276 330 215 343 170 C 356 124 374 92 397 74 C 414 59 450 44 506 30 C 561 16 598 8 616 8 L 616 0 L 43 0 L 43 8 C 62 10 94 17 140 31 C 186 44 215 54 227 61 C 250 74 268 103 281 147 C 294 191 301 257 301 344 L 301 1143 C 301 1178 295 1209 284 1237 C 273 1265 257 1287 236 1305 C 211 1325 175 1344 128 1361 C 80 1377 40 1388 8 1393 L 8 1399 L 381 1399 L 1317 248 L 1317 1057 C 1317 1128 1311 1188 1299 1238 C 1287 1287 1269 1318 1247 1331 C 1227 1343 1192 1356 1142 1370 C 1091 1383 1053 1390 1028 1391 L 1028 1399 L 1593 1399 L 1593 1391 C 1574 1391 1542 1384 1497 1371 C 1452 1358 1423 1348 1411 1341 C 1381 1324 1362 1290 1353 1240 C 1343 1189 1339 1132 1339 1069 L 1339 -18 L 1325 -18 Z M 464 1546 L 456 1550 C 474 1606 504 1661 547 1713 C 590 1765 642 1791 702 1791 C 762 1791 819 1772 872 1736 C 925 1699 969 1681 1003 1681 C 1065 1681 1109 1693 1137 1718 C 1164 1743 1187 1777 1206 1820 L 1214 1818 C 1198 1755 1168 1699 1124 1650 C 1080 1600 1026 1576 962 1576 C 897 1576 838 1594 784 1632 C 730 1670 685 1689 651 1689 C 608 1689 573 1676 545 1652 C 517 1627 490 1592 464 1546 Z" unicode="Ñ" />
<glyph horiz-adv-x="1556" d="M 770 -31 C 679 -31 593 -14 512 20 C 431 54 358 102 293 166 C 227 229 176 304 138 390 C 100 476 82 574 82 684 C 82 802 100 907 138 997 C 175 1087 225 1163 287 1227 C 352 1293 427 1343 513 1378 C 599 1412 687 1430 778 1430 C 870 1430 958 1413 1042 1381 C 1126 1348 1208 1292 1288 1214 C 1346 1156 1391 1081 1425 989 C 1458 897 1475 804 1475 709 C 1475 605 1459 507 1428 417 C 1396 326 1344 244 1270 170 C 1206 106 1132 56 1049 21 C 965 -13 872 -31 770 -31 Z M 778 -14 C 947 -14 1073 55 1157 193 C 1240 331 1282 500 1282 702 C 1282 922 1236 1096 1144 1223 C 1052 1349 930 1413 778 1413 C 626 1413 504 1348 412 1220 C 320 1091 274 911 274 680 C 274 491 315 328 399 191 C 482 54 608 -14 778 -14 Z M 950 1505 C 868 1567 804 1613 756 1643 C 708 1673 669 1701 639 1726 C 613 1746 594 1763 582 1777 C 569 1791 563 1810 563 1836 C 563 1855 569 1872 581 1887 C 593 1902 611 1910 635 1910 C 661 1910 683 1903 701 1890 C 719 1876 737 1854 755 1822 C 777 1784 804 1741 834 1694 C 864 1647 906 1586 958 1511 L 950 1505 Z" unicode="Ò" />
<glyph horiz-adv-x="1556" d="M 770 -31 C 679 -31 593 -14 512 20 C 431 54 358 102 293 166 C 227 229 176 304 138 390 C 100 476 82 574 82 684 C 82 802 100 907 138 997 C 175 1087 225 1163 287 1227 C 352 1293 427 1343 513 1378 C 599 1412 687 1430 778 1430 C 870 1430 958 1413 1042 1381 C 1126 1348 1208 1292 1288 1214 C 1346 1156 1391 1081 1425 989 C 1458 897 1475 804 1475 709 C 1475 605 1459 507 1428 417 C 1396 326 1344 244 1270 170 C 1206 106 1132 56 1049 21 C 965 -13 872 -31 770 -31 Z M 778 -14 C 947 -14 1073 55 1157 193 C 1240 331 1282 500 1282 702 C 1282 922 1236 1096 1144 1223 C 1052 1349 930 1413 778 1413 C 626 1413 504 1348 412 1220 C 320 1091 274 911 274 680 C 274 491 315 328 399 191 C 482 54 608 -14 778 -14 Z M 604 1505 L 596 1511 C 648 1586 689 1647 719 1694 C 749 1741 775 1784 798 1822 C 816 1854 834 1876 852 1890 C 870 1903 892 1910 919 1910 C 942 1910 960 1902 972 1887 C 984 1872 991 1855 991 1836 C 991 1810 984 1791 972 1777 C 959 1763 940 1746 915 1726 C 884 1701 845 1674 797 1644 C 749 1614 685 1568 604 1505 Z" unicode="Ó" />
<glyph horiz-adv-x="1556" d="M 770 -31 C 679 -31 593 -14 512 20 C 431 54 358 102 293 166 C 227 229 176 304 138 390 C 100 476 82 574 82 684 C 82 802 100 907 138 997 C 175 1087 225 1163 287 1227 C 352 1293 427 1343 513 1378 C 599 1412 687 1430 778 1430 C 870 1430 958 1413 1042 1381 C 1126 1348 1208 1292 1288 1214 C 1346 1156 1391 1081 1425 989 C 1458 897 1475 804 1475 709 C 1475 605 1459 507 1428 417 C 1396 326 1344 244 1270 170 C 1206 106 1132 56 1049 21 C 965 -13 872 -31 770 -31 Z M 778 -14 C 947 -14 1073 55 1157 193 C 1240 331 1282 500 1282 702 C 1282 922 1236 1096 1144 1223 C 1052 1349 930 1413 778 1413 C 626 1413 504 1348 412 1220 C 320 1091 274 911 274 680 C 274 491 315 328 399 191 C 482 54 608 -14 778 -14 Z M 1079 1503 L 780 1777 L 475 1505 L 467 1511 C 521 1589 566 1658 603 1720 C 640 1781 671 1831 696 1869 C 709 1888 720 1900 730 1906 C 740 1911 756 1914 780 1914 C 802 1914 818 1911 828 1906 C 838 1900 848 1889 860 1873 C 885 1836 916 1786 952 1724 C 988 1661 1033 1590 1087 1511 L 1079 1503 Z" unicode="Ô" />
<glyph horiz-adv-x="1556" d="M 770 -31 C 679 -31 593 -14 512 20 C 431 54 358 102 293 166 C 227 229 176 304 138 390 C 100 476 82 574 82 684 C 82 802 100 907 138 997 C 175 1087 225 1163 287 1227 C 352 1293 427 1343 513 1378 C 599 1412 687 1430 778 1430 C 870 1430 958 1413 1042 1381 C 1126 1348 1208 1292 1288 1214 C 1346 1156 1391 1081 1425 989 C 1458 897 1475 804 1475 709 C 1475 605 1459 507 1428 417 C 1396 326 1344 244 1270 170 C 1206 106 1132 56 1049 21 C 965 -13 872 -31 770 -31 Z M 778 -14 C 947 -14 1073 55 1157 193 C 1240 331 1282 500 1282 702 C 1282 922 1236 1096 1144 1223 C 1052 1349 930 1413 778 1413 C 626 1413 504 1348 412 1220 C 320 1091 274 911 274 680 C 274 491 315 328 399 191 C 482 54 608 -14 778 -14 Z M 405 1546 L 397 1550 C 415 1606 445 1661 488 1713 C 531 1765 583 1791 643 1791 C 703 1791 760 1772 813 1736 C 866 1699 910 1681 944 1681 C 1006 1681 1050 1693 1078 1718 C 1105 1743 1128 1777 1147 1820 L 1155 1818 C 1139 1755 1109 1699 1065 1650 C 1021 1600 967 1576 903 1576 C 838 1576 779 1594 725 1632 C 671 1670 626 1689 592 1689 C 549 1689 514 1676 486 1652 C 458 1627 431 1592 405 1546 Z" unicode="Õ" />
<glyph horiz-adv-x="1556" d="M 770 -31 C 679 -31 593 -14 512 20 C 431 54 358 102 293 166 C 227 229 176 304 138 390 C 100 476 82 574 82 684 C 82 802 100 907 138 997 C 175 1087 225 1163 287 1227 C 352 1293 427 1343 513 1378 C 599 1412 687 1430 778 1430 C 870 1430 958 1413 1042 1381 C 1126 1348 1208 1292 1288 1214 C 1346 1156 1391 1081 1425 989 C 1458 897 1475 804 1475 709 C 1475 605 1459 507 1428 417 C 1396 326 1344 244 1270 170 C 1206 106 1132 56 1049 21 C 965 -13 872 -31 770 -31 Z M 778 -14 C 947 -14 1073 55 1157 193 C 1240 331 1282 500 1282 702 C 1282 922 1236 1096 1144 1223 C 1052 1349 930 1413 778 1413 C 626 1413 504 1348 412 1220 C 320 1091 274 911 274 680 C 274 491 315 328 399 191 C 482 54 608 -14 778 -14 Z M 559 1550 C 531 1550 507 1559 487 1579 C 466 1599 456 1622 456 1650 C 456 1678 466 1703 487 1724 C 507 1744 531 1755 559 1755 C 589 1755 615 1745 635 1726 C 655 1706 665 1684 665 1658 C 665 1628 655 1603 635 1582 C 615 1560 589 1550 559 1550 Z M 993 1550 C 964 1550 940 1559 920 1579 C 900 1599 891 1622 891 1650 C 891 1678 900 1703 920 1724 C 940 1744 964 1755 993 1755 C 1023 1755 1048 1745 1068 1726 C 1087 1706 1097 1684 1097 1658 C 1097 1628 1087 1603 1067 1582 C 1047 1560 1022 1550 993 1550 Z" unicode="Ö" />
<glyph horiz-adv-x="1139" d="M 152 74 L 113 113 L 530 528 L 113 946 L 156 987 L 571 571 L 987 987 L 1026 948 L 610 532 L 1026 117 L 985 74 L 567 492 L 152 74 Z" unicode="×" />
<glyph horiz-adv-x="1556" d="M 115 -68 L 94 -51 L 291 166 C 227 229 176 304 138 390 C 100 476 82 574 82 684 C 82 802 100 907 138 997 C 175 1087 225 1163 287 1227 C 352 1293 427 1343 513 1378 C 599 1412 687 1430 778 1430 C 864 1430 947 1415 1027 1386 C 1107 1357 1184 1308 1260 1239 L 1454 1454 L 1475 1440 L 1278 1223 C 1341 1161 1390 1083 1424 991 C 1458 898 1475 804 1475 709 C 1475 605 1459 507 1428 417 C 1396 326 1344 244 1270 170 C 1206 106 1132 56 1049 21 C 965 -13 872 -31 770 -31 C 683 -31 600 -15 522 16 C 444 47 373 92 309 150 L 115 -68 Z M 365 248 L 1186 1157 C 1142 1238 1085 1301 1015 1346 C 945 1390 866 1413 778 1413 C 626 1413 504 1348 412 1220 C 320 1091 274 911 274 680 C 274 599 281 522 297 448 C 312 374 335 307 365 248 Z M 778 -14 C 947 -14 1073 55 1157 193 C 1240 331 1282 500 1282 702 C 1282 787 1274 866 1260 939 C 1245 1012 1224 1077 1198 1133 L 377 223 C 419 151 473 93 540 50 C 607 7 686 -14 778 -14 Z" unicode="Ø" />
<glyph horiz-adv-x="1579" d="M 793 -33 C 629 -33 504 4 417 79 C 330 154 287 236 287 326 L 287 1253 C 287 1275 282 1295 272 1312 C 262 1328 246 1343 223 1356 C 204 1364 180 1372 150 1379 C 120 1386 96 1390 80 1391 L 80 1399 L 666 1399 L 666 1391 C 647 1390 622 1387 592 1381 C 561 1375 536 1370 518 1364 C 492 1356 475 1343 467 1325 C 459 1307 455 1286 455 1264 L 455 377 C 455 281 486 201 549 135 C 612 69 708 37 838 37 C 979 37 1089 68 1169 130 C 1248 192 1288 277 1288 385 L 1288 1061 C 1288 1131 1282 1191 1271 1241 C 1259 1291 1242 1322 1219 1335 C 1190 1351 1152 1365 1105 1375 C 1057 1385 1021 1390 995 1391 L 995 1399 L 1565 1399 L 1565 1391 C 1546 1391 1515 1385 1472 1375 C 1428 1365 1397 1354 1378 1343 C 1348 1326 1330 1291 1322 1237 C 1314 1183 1311 1128 1311 1073 L 1311 381 C 1311 267 1265 169 1175 88 C 1084 7 957 -33 793 -33 Z M 993 1505 C 911 1567 847 1613 799 1643 C 751 1673 712 1701 682 1726 C 656 1746 637 1763 625 1777 C 612 1791 606 1810 606 1836 C 606 1855 612 1872 624 1887 C 636 1902 654 1910 678 1910 C 704 1910 726 1903 744 1890 C 762 1876 780 1854 798 1822 C 820 1784 847 1741 877 1694 C 907 1647 949 1586 1001 1511 L 993 1505 Z" unicode="Ù" />
<glyph horiz-adv-x="1579" d="M 793 -33 C 629 -33 504 4 417 79 C 330 154 287 236 287 326 L 287 1253 C 287 1275 282 1295 272 1312 C 262 1328 246 1343 223 1356 C 204 1364 180 1372 150 1379 C 120 1386 96 1390 80 1391 L 80 1399 L 666 1399 L 666 1391 C 647 1390 622 1387 592 1381 C 561 1375 536 1370 518 1364 C 492 1356 475 1343 467 1325 C 459 1307 455 1286 455 1264 L 455 377 C 455 281 486 201 549 135 C 612 69 708 37 838 37 C 979 37 1089 68 1169 130 C 1248 192 1288 277 1288 385 L 1288 1061 C 1288 1131 1282 1191 1271 1241 C 1259 1291 1242 1322 1219 1335 C 1190 1351 1152 1365 1105 1375 C 1057 1385 1021 1390 995 1391 L 995 1399 L 1565 1399 L 1565 1391 C 1546 1391 1515 1385 1472 1375 C 1428 1365 1397 1354 1378 1343 C 1348 1326 1330 1291 1322 1237 C 1314 1183 1311 1128 1311 1073 L 1311 381 C 1311 267 1265 169 1175 88 C 1084 7 957 -33 793 -33 Z M 686 1505 L 678 1511 C 730 1586 771 1647 801 1694 C 831 1741 857 1784 880 1822 C 898 1854 916 1876 934 1890 C 952 1903 974 1910 1001 1910 C 1024 1910 1042 1902 1054 1887 C 1066 1872 1073 1855 1073 1836 C 1073 1810 1066 1791 1054 1777 C 1041 1763 1022 1746 997 1726 C 966 1701 927 1674 879 1644 C 831 1614 767 1568 686 1505 Z" unicode="Ú" />
<glyph horiz-adv-x="1579" d="M 793 -33 C 629 -33 504 4 417 79 C 330 154 287 236 287 326 L 287 1253 C 287 1275 282 1295 272 1312 C 262 1328 246 1343 223 1356 C 204 1364 180 1372 150 1379 C 120 1386 96 1390 80 1391 L 80 1399 L 666 1399 L 666 1391 C 647 1390 622 1387 592 1381 C 561 1375 536 1370 518 1364 C 492 1356 475 1343 467 1325 C 459 1307 455 1286 455 1264 L 455 377 C 455 281 486 201 549 135 C 612 69 708 37 838 37 C 979 37 1089 68 1169 130 C 1248 192 1288 277 1288 385 L 1288 1061 C 1288 1131 1282 1191 1271 1241 C 1259 1291 1242 1322 1219 1335 C 1190 1351 1152 1365 1105 1375 C 1057 1385 1021 1390 995 1391 L 995 1399 L 1565 1399 L 1565 1391 C 1546 1391 1515 1385 1472 1375 C 1428 1365 1397 1354 1378 1343 C 1348 1326 1330 1291 1322 1237 C 1314 1183 1311 1128 1311 1073 L 1311 381 C 1311 267 1265 169 1175 88 C 1084 7 957 -33 793 -33 Z M 1146 1503 L 847 1777 L 542 1505 L 534 1511 C 588 1589 633 1658 670 1720 C 707 1781 738 1831 763 1869 C 776 1888 787 1900 797 1906 C 807 1911 823 1914 847 1914 C 869 1914 885 1911 895 1906 C 905 1900 915 1889 927 1873 C 952 1836 983 1786 1019 1724 C 1055 1661 1100 1590 1154 1511 L 1146 1503 Z" unicode="Û" />
<glyph horiz-adv-x="1579" d="M 793 -33 C 629 -33 504 4 417 79 C 330 154 287 236 287 326 L 287 1253 C 287 1275 282 1295 272 1312 C 262 1328 246 1343 223 1356 C 204 1364 180 1372 150 1379 C 120 1386 96 1390 80 1391 L 80 1399 L 666 1399 L 666 1391 C 647 1390 622 1387 592 1381 C 561 1375 536 1370 518 1364 C 492 1356 475 1343 467 1325 C 459 1307 455 1286 455 1264 L 455 377 C 455 281 486 201 549 135 C 612 69 708 37 838 37 C 979 37 1089 68 1169 130 C 1248 192 1288 277 1288 385 L 1288 1061 C 1288 1131 1282 1191 1271 1241 C 1259 1291 1242 1322 1219 1335 C 1190 1351 1152 1365 1105 1375 C 1057 1385 1021 1390 995 1391 L 995 1399 L 1565 1399 L 1565 1391 C 1546 1391 1515 1385 1472 1375 C 1428 1365 1397 1354 1378 1343 C 1348 1326 1330 1291 1322 1237 C 1314 1183 1311 1128 1311 1073 L 1311 381 C 1311 267 1265 169 1175 88 C 1084 7 957 -33 793 -33 Z M 610 1548 C 582 1548 558 1557 538 1577 C 517 1597 507 1620 507 1648 C 507 1676 517 1701 538 1722 C 558 1742 582 1753 610 1753 C 640 1753 666 1743 686 1724 C 706 1704 716 1682 716 1656 C 716 1626 706 1601 686 1580 C 666 1558 640 1548 610 1548 Z M 1044 1548 C 1015 1548 991 1557 971 1577 C 951 1597 942 1620 942 1648 C 942 1676 951 1701 971 1722 C 991 1742 1015 1753 1044 1753 C 1074 1753 1099 1743 1119 1724 C 1138 1704 1148 1682 1148 1656 C 1148 1626 1138 1601 1118 1580 C 1098 1558 1073 1548 1044 1548 Z" unicode="Ü" />
<glyph horiz-adv-x="1200" d="M 262 0 L 262 8 C 280 8 310 11 350 16 C 390 20 416 25 430 31 C 454 39 471 53 480 71 C 489 89 494 110 494 133 L 494 559 C 494 571 488 590 477 615 C 465 639 455 663 446 686 C 402 774 354 867 304 964 C 254 1060 208 1145 166 1219 C 148 1249 130 1276 110 1300 C 90 1324 67 1343 43 1358 C 24 1368 5 1376 -13 1382 C -31 1387 -50 1390 -70 1391 L -70 1399 L 528 1399 L 528 1391 C 492 1388 446 1382 389 1372 C 331 1362 303 1345 303 1321 C 303 1306 343 1221 425 1067 C 507 913 583 770 655 639 C 726 755 806 887 895 1035 C 983 1183 1028 1268 1028 1292 C 1028 1324 996 1347 932 1363 C 868 1378 812 1387 766 1391 L 766 1399 L 1274 1399 L 1274 1391 C 1264 1391 1249 1387 1229 1381 C 1209 1375 1194 1370 1184 1366 C 1164 1359 1145 1348 1126 1332 C 1106 1316 1085 1293 1063 1262 C 1015 1195 957 1104 890 990 C 823 875 765 772 717 682 C 696 644 682 606 674 569 C 666 531 662 499 662 473 L 662 143 C 662 118 666 97 676 81 C 685 64 701 51 725 41 C 737 36 764 29 804 21 C 844 13 874 8 893 8 L 893 0 L 262 0 Z M 456 1505 L 448 1511 C 500 1586 541 1647 571 1694 C 601 1741 627 1784 650 1822 C 668 1854 686 1876 704 1890 C 722 1903 744 1910 771 1910 C 794 1910 812 1902 824 1887 C 836 1872 843 1855 843 1836 C 843 1810 836 1791 824 1777 C 811 1763 792 1746 767 1726 C 736 1701 697 1674 649 1644 C 601 1614 537 1568 456 1505 Z" unicode="Ý" />
<glyph horiz-adv-x="1227" d="M 109 0 L 109 8 C 127 8 151 11 183 15 C 214 19 236 23 250 29 C 274 37 291 51 300 69 C 308 87 313 108 313 131 L 313 1257 C 313 1279 309 1299 301 1315 C 293 1331 276 1345 250 1356 C 231 1362 206 1370 175 1378 C 143 1386 118 1390 100 1391 L 100 1399 L 692 1399 L 692 1391 C 673 1390 648 1387 617 1382 C 586 1377 561 1372 543 1366 C 517 1358 500 1345 492 1328 C 483 1310 479 1290 479 1268 L 479 1096 L 754 1096 C 851 1096 942 1066 1026 1007 C 1110 948 1153 868 1153 768 C 1153 632 1101 532 999 467 C 896 401 784 369 664 369 L 479 369 L 479 129 C 479 106 483 85 492 67 C 501 49 518 35 543 27 C 557 21 581 17 615 14 C 649 10 680 8 709 8 L 709 0 L 109 0 Z M 479 383 L 604 383 C 764 383 861 429 897 523 C 932 616 950 681 950 717 C 950 789 932 867 897 953 C 861 1038 777 1081 643 1081 L 479 1081 L 479 383 Z" unicode="Þ" />
<glyph horiz-adv-x="1180" d="M 821 -29 C 734 -29 668 -7 623 34 C 577 76 555 126 555 182 C 555 218 562 248 577 270 C 592 292 615 303 647 303 C 672 303 690 294 702 276 C 713 258 719 237 719 213 C 719 187 712 166 698 148 C 684 130 678 111 678 92 C 678 72 691 50 717 24 C 743 -1 782 -14 834 -14 C 897 -14 945 8 977 53 C 1009 98 1026 145 1026 195 C 1026 239 1014 278 990 314 C 966 350 911 401 825 469 C 772 509 726 552 687 598 C 648 644 629 694 629 750 C 629 806 651 859 697 907 C 743 955 775 994 793 1024 C 807 1047 819 1074 829 1104 C 839 1134 844 1169 844 1210 C 844 1307 822 1382 780 1434 C 738 1486 683 1513 616 1513 C 531 1513 470 1477 432 1407 C 394 1336 373 1223 369 1067 L 369 0 L 82 0 L 82 8 C 100 8 116 9 130 11 C 143 12 157 15 172 20 C 191 26 205 38 214 55 C 222 72 227 92 227 115 L 227 891 L 16 891 L 16 920 L 227 920 L 227 985 C 227 1069 237 1148 258 1221 C 279 1293 313 1355 360 1405 C 402 1449 446 1481 494 1501 C 541 1520 591 1530 643 1530 C 725 1530 797 1506 857 1459 C 917 1412 948 1347 948 1264 C 948 1202 937 1152 916 1114 C 894 1076 870 1044 842 1020 C 821 1001 794 979 761 954 C 727 928 711 903 711 879 C 711 850 722 817 744 779 C 766 741 822 685 913 612 C 985 554 1038 503 1070 461 C 1102 419 1118 360 1118 285 C 1118 203 1090 131 1034 67 C 978 3 907 -29 821 -29 Z" unicode="ß" />
<glyph horiz-adv-x="948" d="M 309 -20 C 239 -20 182 -2 140 34 C 97 70 76 120 76 186 C 76 246 89 297 115 338 C 141 378 195 414 276 446 C 334 468 394 490 457 510 C 520 530 574 553 618 578 L 616 717 C 614 802 597 860 565 890 C 532 920 488 936 432 936 C 393 936 360 928 334 914 C 308 900 291 886 283 874 C 283 856 286 829 291 794 C 296 758 299 732 299 715 C 299 693 289 675 271 660 C 252 644 228 637 199 637 C 173 637 154 647 144 667 C 134 687 129 709 129 733 C 129 791 160 841 224 885 C 287 928 358 950 436 950 C 564 950 651 924 696 874 C 741 824 764 748 764 647 C 764 558 762 468 759 376 C 755 284 754 222 754 188 C 754 154 760 125 773 101 C 786 77 809 66 842 66 C 871 66 895 80 914 109 C 933 137 945 180 950 236 L 963 236 C 954 142 935 76 905 39 C 875 2 836 -16 786 -16 C 744 -16 708 -4 680 18 C 652 40 631 75 618 121 L 612 121 C 574 75 528 40 472 16 C 416 -8 362 -20 309 -20 Z M 383 31 C 433 31 477 40 514 60 C 550 79 582 105 610 139 L 618 557 C 593 547 569 537 547 529 C 525 520 503 512 483 504 C 401 472 339 433 296 389 C 252 344 231 285 231 211 C 231 155 243 111 269 79 C 295 47 333 31 383 31 Z M 646 1092 C 564 1154 500 1200 452 1230 C 404 1260 365 1288 335 1313 C 309 1333 290 1350 278 1364 C 265 1378 259 1397 259 1423 C 259 1442 265 1459 277 1474 C 289 1489 307 1497 331 1497 C 357 1497 379 1490 397 1477 C 415 1463 433 1441 451 1409 C 473 1371 500 1328 530 1281 C 560 1234 602 1173 654 1098 L 646 1092 Z" unicode="à" />
<glyph horiz-adv-x="948" d="M 309 -20 C 239 -20 182 -2 140 34 C 97 70 76 120 76 186 C 76 246 89 297 115 338 C 141 378 195 414 276 446 C 334 468 394 490 457 510 C 520 530 574 553 618 578 L 616 717 C 614 802 597 860 565 890 C 532 920 488 936 432 936 C 393 936 360 928 334 914 C 308 900 291 886 283 874 C 283 856 286 829 291 794 C 296 758 299 732 299 715 C 299 693 289 675 271 660 C 252 644 228 637 199 637 C 173 637 154 647 144 667 C 134 687 129 709 129 733 C 129 791 160 841 224 885 C 287 928 358 950 436 950 C 564 950 651 924 696 874 C 741 824 764 748 764 647 C 764 558 762 468 759 376 C 755 284 754 222 754 188 C 754 154 760 125 773 101 C 786 77 809 66 842 66 C 871 66 895 80 914 109 C 933 137 945 180 950 236 L 963 236 C 954 142 935 76 905 39 C 875 2 836 -16 786 -16 C 744 -16 708 -4 680 18 C 652 40 631 75 618 121 L 612 121 C 574 75 528 40 472 16 C 416 -8 362 -20 309 -20 Z M 383 31 C 433 31 477 40 514 60 C 550 79 582 105 610 139 L 618 557 C 593 547 569 537 547 529 C 525 520 503 512 483 504 C 401 472 339 433 296 389 C 252 344 231 285 231 211 C 231 155 243 111 269 79 C 295 47 333 31 383 31 Z M 300 1092 L 292 1098 C 344 1173 385 1234 415 1281 C 445 1328 471 1371 494 1409 C 512 1441 530 1463 548 1477 C 566 1490 588 1497 615 1497 C 638 1497 656 1489 668 1474 C 680 1459 687 1442 687 1423 C 687 1397 680 1378 668 1364 C 655 1350 636 1333 611 1313 C 580 1288 541 1261 493 1231 C 445 1201 381 1155 300 1092 Z" unicode="á" />
<glyph horiz-adv-x="948" d="M 309 -20 C 239 -20 182 -2 140 34 C 97 70 76 120 76 186 C 76 246 89 297 115 338 C 141 378 195 414 276 446 C 334 468 394 490 457 510 C 520 530 574 553 618 578 L 616 717 C 614 802 597 860 565 890 C 532 920 488 936 432 936 C 393 936 360 928 334 914 C 308 900 291 886 283 874 C 283 856 286 829 291 794 C 296 758 299 732 299 715 C 299 693 289 675 271 660 C 252 644 228 637 199 637 C 173 637 154 647 144 667 C 134 687 129 709 129 733 C 129 791 160 841 224 885 C 287 928 358 950 436 950 C 564 950 651 924 696 874 C 741 824 764 748 764 647 C 764 558 762 468 759 376 C 755 284 754 222 754 188 C 754 154 760 125 773 101 C 786 77 809 66 842 66 C 871 66 895 80 914 109 C 933 137 945 180 950 236 L 963 236 C 954 142 935 76 905 39 C 875 2 836 -16 786 -16 C 744 -16 708 -4 680 18 C 652 40 631 75 618 121 L 612 121 C 574 75 528 40 472 16 C 416 -8 362 -20 309 -20 Z M 383 31 C 433 31 477 40 514 60 C 550 79 582 105 610 139 L 618 557 C 593 547 569 537 547 529 C 525 520 503 512 483 504 C 401 472 339 433 296 389 C 252 344 231 285 231 211 C 231 155 243 111 269 79 C 295 47 333 31 383 31 Z M 775 1090 L 476 1364 L 171 1092 L 163 1098 C 217 1176 262 1245 299 1307 C 336 1368 367 1418 392 1456 C 405 1475 416 1487 426 1493 C 436 1498 452 1501 476 1501 C 498 1501 514 1498 524 1493 C 534 1487 544 1476 556 1460 C 581 1423 612 1373 648 1311 C 684 1248 729 1177 783 1098 L 775 1090 Z" unicode="â" />
<glyph horiz-adv-x="948" d="M 309 -20 C 239 -20 182 -2 140 34 C 97 70 76 120 76 186 C 76 246 89 297 115 338 C 141 378 195 414 276 446 C 334 468 394 490 457 510 C 520 530 574 553 618 578 L 616 717 C 614 802 597 860 565 890 C 532 920 488 936 432 936 C 393 936 360 928 334 914 C 308 900 291 886 283 874 C 283 856 286 829 291 794 C 296 758 299 732 299 715 C 299 693 289 675 271 660 C 252 644 228 637 199 637 C 173 637 154 647 144 667 C 134 687 129 709 129 733 C 129 791 160 841 224 885 C 287 928 358 950 436 950 C 564 950 651 924 696 874 C 741 824 764 748 764 647 C 764 558 762 468 759 376 C 755 284 754 222 754 188 C 754 154 760 125 773 101 C 786 77 809 66 842 66 C 871 66 895 80 914 109 C 933 137 945 180 950 236 L 963 236 C 954 142 935 76 905 39 C 875 2 836 -16 786 -16 C 744 -16 708 -4 680 18 C 652 40 631 75 618 121 L 612 121 C 574 75 528 40 472 16 C 416 -8 362 -20 309 -20 Z M 383 31 C 433 31 477 40 514 60 C 550 79 582 105 610 139 L 618 557 C 593 547 569 537 547 529 C 525 520 503 512 483 504 C 401 472 339 433 296 389 C 252 344 231 285 231 211 C 231 155 243 111 269 79 C 295 47 333 31 383 31 Z M 101 1125 L 93 1129 C 111 1185 141 1240 184 1292 C 227 1344 279 1370 339 1370 C 399 1370 456 1351 509 1315 C 562 1278 606 1260 640 1260 C 702 1260 746 1272 774 1297 C 801 1322 824 1356 843 1399 L 851 1397 C 835 1334 805 1278 761 1229 C 717 1179 663 1155 599 1155 C 534 1155 475 1173 421 1211 C 367 1249 322 1268 288 1268 C 245 1268 210 1255 182 1231 C 154 1206 127 1171 101 1125 Z" unicode="ã" />
<glyph horiz-adv-x="948" d="M 309 -20 C 239 -20 182 -2 140 34 C 97 70 76 120 76 186 C 76 246 89 297 115 338 C 141 378 195 414 276 446 C 334 468 394 490 457 510 C 520 530 574 553 618 578 L 616 717 C 614 802 597 860 565 890 C 532 920 488 936 432 936 C 393 936 360 928 334 914 C 308 900 291 886 283 874 C 283 856 286 829 291 794 C 296 758 299 732 299 715 C 299 693 289 675 271 660 C 252 644 228 637 199 637 C 173 637 154 647 144 667 C 134 687 129 709 129 733 C 129 791 160 841 224 885 C 287 928 358 950 436 950 C 564 950 651 924 696 874 C 741 824 764 748 764 647 C 764 558 762 468 759 376 C 755 284 754 222 754 188 C 754 154 760 125 773 101 C 786 77 809 66 842 66 C 871 66 895 80 914 109 C 933 137 945 180 950 236 L 963 236 C 954 142 935 76 905 39 C 875 2 836 -16 786 -16 C 744 -16 708 -4 680 18 C 652 40 631 75 618 121 L 612 121 C 574 75 528 40 472 16 C 416 -8 362 -20 309 -20 Z M 383 31 C 433 31 477 40 514 60 C 550 79 582 105 610 139 L 618 557 C 593 547 569 537 547 529 C 525 520 503 512 483 504 C 401 472 339 433 296 389 C 252 344 231 285 231 211 C 231 155 243 111 269 79 C 295 47 333 31 383 31 Z M 255 1123 C 227 1123 203 1132 183 1152 C 162 1172 152 1195 152 1223 C 152 1251 162 1276 183 1297 C 203 1317 227 1328 255 1328 C 285 1328 311 1318 331 1299 C 351 1279 361 1257 361 1231 C 361 1201 351 1176 331 1155 C 311 1133 285 1123 255 1123 Z M 689 1123 C 660 1123 636 1132 616 1152 C 596 1172 587 1195 587 1223 C 587 1251 596 1276 616 1297 C 636 1317 660 1328 689 1328 C 719 1328 744 1318 764 1299 C 783 1279 793 1257 793 1231 C 793 1201 783 1176 763 1155 C 743 1133 718 1123 689 1123 Z" unicode="ä" />
<glyph horiz-adv-x="948" d="M 309 -20 C 239 -20 182 -2 140 34 C 97 70 76 120 76 186 C 76 246 89 297 115 338 C 141 378 195 414 276 446 C 334 468 394 490 457 510 C 520 530 574 553 618 578 L 616 717 C 614 802 597 860 565 890 C 532 920 488 936 432 936 C 393 936 360 928 334 914 C 308 900 291 886 283 874 C 283 856 286 829 291 794 C 296 758 299 732 299 715 C 299 693 289 675 271 660 C 252 644 228 637 199 637 C 173 637 154 647 144 667 C 134 687 129 709 129 733 C 129 791 160 841 224 885 C 287 928 358 950 436 950 C 564 950 651 924 696 874 C 741 824 764 748 764 647 C 764 558 762 468 759 376 C 755 284 754 222 754 188 C 754 154 760 125 773 101 C 786 77 809 66 842 66 C 871 66 895 80 914 109 C 933 137 945 180 950 236 L 963 236 C 954 142 935 76 905 39 C 875 2 836 -16 786 -16 C 744 -16 708 -4 680 18 C 652 40 631 75 618 121 L 612 121 C 574 75 528 40 472 16 C 416 -8 362 -20 309 -20 Z M 383 31 C 433 31 477 40 514 60 C 550 79 582 105 610 139 L 618 557 C 593 547 569 537 547 529 C 525 520 503 512 483 504 C 401 472 339 433 296 389 C 252 344 231 285 231 211 C 231 155 243 111 269 79 C 295 47 333 31 383 31 Z M 474 1087 C 404 1087 349 1105 310 1142 C 270 1179 251 1228 251 1288 C 251 1347 272 1395 315 1433 C 357 1470 410 1489 474 1489 C 540 1489 593 1470 635 1433 C 676 1396 697 1348 697 1288 C 697 1230 677 1182 637 1144 C 597 1106 543 1087 474 1087 Z M 474 1098 C 520 1098 553 1117 573 1155 C 593 1193 603 1237 603 1288 C 603 1336 593 1380 573 1420 C 553 1459 520 1479 474 1479 C 429 1479 396 1460 376 1423 C 355 1386 345 1341 345 1288 C 345 1236 354 1191 374 1154 C 394 1116 427 1098 474 1098 Z" unicode="å" />
<glyph horiz-adv-x="1432" d="M 309 -20 C 239 -20 182 -2 140 34 C 97 70 76 120 76 186 C 76 269 96 328 138 364 C 179 400 225 427 276 446 C 334 468 394 490 456 510 C 518 530 572 553 616 578 L 616 731 C 616 785 602 832 576 874 C 550 915 501 936 430 936 C 391 936 359 928 333 914 C 307 900 291 886 283 874 C 283 856 286 829 291 794 C 296 758 299 732 299 715 C 299 693 289 675 271 660 C 252 644 228 637 199 637 C 173 637 154 647 144 667 C 134 687 129 709 129 733 C 129 793 161 844 225 886 C 289 928 358 950 432 950 C 498 950 557 942 610 927 C 663 911 703 877 731 823 C 751 846 785 873 832 904 C 878 934 939 950 1014 950 C 1146 950 1240 910 1295 832 C 1350 753 1378 657 1378 543 L 1378 524 L 764 524 L 764 504 C 764 371 789 259 840 169 C 890 78 971 33 1081 33 C 1161 33 1223 49 1265 82 C 1307 115 1348 163 1386 225 L 1397 219 C 1362 147 1313 89 1251 45 C 1189 1 1117 -20 1036 -20 C 922 -20 837 4 783 54 C 729 104 690 148 668 188 C 616 103 557 47 490 20 C 422 -6 362 -20 309 -20 Z M 383 16 C 433 16 477 28 514 53 C 550 78 582 107 610 141 L 618 549 C 504 516 411 475 339 425 C 267 375 231 303 231 211 C 231 155 243 108 269 71 C 295 34 333 16 383 16 Z M 764 541 L 1225 545 C 1225 649 1211 740 1185 819 C 1159 898 1103 938 1018 938 C 946 938 887 903 839 834 C 791 765 766 667 764 541 Z" unicode="æ" />
<glyph horiz-adv-x="862" d="M 289 -467 L 289 -453 C 352 -453 414 -444 475 -428 C 536 -411 567 -372 567 -311 C 567 -272 548 -248 510 -239 C 472 -229 433 -225 393 -225 L 393 -12 C 287 7 206 60 150 148 C 94 235 66 341 66 467 C 66 591 104 703 182 802 C 260 900 366 950 500 950 C 598 950 674 925 726 876 C 778 827 805 773 805 713 C 805 680 797 654 781 636 C 765 617 742 608 713 608 C 696 608 676 614 652 627 C 628 639 616 664 616 700 C 616 730 620 753 628 771 C 636 789 641 807 641 827 C 634 863 618 891 592 911 C 566 930 535 940 498 940 C 427 940 364 902 308 827 C 252 751 225 637 225 483 C 225 364 251 259 304 168 C 356 76 429 31 522 31 C 586 31 641 44 689 70 C 736 96 783 145 829 217 L 836 213 C 797 134 747 75 686 37 C 624 0 555 -20 479 -20 C 467 -20 455 -19 443 -18 C 431 -17 420 -16 410 -14 L 410 -119 C 487 -119 554 -129 610 -151 C 666 -172 694 -213 694 -274 C 694 -357 652 -410 570 -433 C 487 -455 393 -467 289 -467 Z" unicode="ç" />
<glyph horiz-adv-x="891" d="M 496 -20 C 358 -20 252 25 178 116 C 103 206 66 325 66 471 C 66 602 103 715 179 809 C 254 903 352 950 473 950 C 597 950 688 913 748 839 C 808 765 838 665 838 539 L 838 524 L 223 524 L 223 504 C 223 362 249 248 303 162 C 356 76 435 33 541 33 C 619 33 680 49 724 82 C 768 114 808 162 846 225 L 856 219 C 821 146 773 88 711 45 C 649 1 577 -20 496 -20 Z M 223 541 L 684 545 C 684 677 667 776 635 841 C 602 905 549 938 477 938 C 405 938 346 903 298 834 C 250 765 225 667 223 541 Z M 617 1092 C 535 1154 471 1200 423 1230 C 375 1260 336 1288 306 1313 C 280 1333 261 1350 249 1364 C 236 1378 230 1397 230 1423 C 230 1442 236 1459 248 1474 C 260 1489 278 1497 302 1497 C 328 1497 350 1490 368 1477 C 386 1463 404 1441 422 1409 C 444 1371 471 1328 501 1281 C 531 1234 573 1173 625 1098 L 617 1092 Z" unicode="è" />
<glyph horiz-adv-x="891" d="M 496 -20 C 358 -20 252 25 178 116 C 103 206 66 325 66 471 C 66 602 103 715 179 809 C 254 903 352 950 473 950 C 597 950 688 913 748 839 C 808 765 838 665 838 539 L 838 524 L 223 524 L 223 504 C 223 362 249 248 303 162 C 356 76 435 33 541 33 C 619 33 680 49 724 82 C 768 114 808 162 846 225 L 856 219 C 821 146 773 88 711 45 C 649 1 577 -20 496 -20 Z M 223 541 L 684 545 C 684 677 667 776 635 841 C 602 905 549 938 477 938 C 405 938 346 903 298 834 C 250 765 225 667 223 541 Z M 312 1092 L 304 1098 C 356 1173 397 1234 427 1281 C 457 1328 483 1371 506 1409 C 524 1441 542 1463 560 1477 C 578 1490 600 1497 627 1497 C 650 1497 668 1489 680 1474 C 692 1459 699 1442 699 1423 C 699 1397 692 1378 680 1364 C 667 1350 648 1333 623 1313 C 592 1288 553 1261 505 1231 C 457 1201 393 1155 312 1092 Z" unicode="é" />
<glyph horiz-adv-x="891" d="M 496 -20 C 358 -20 252 25 178 116 C 103 206 66 325 66 471 C 66 602 103 715 179 809 C 254 903 352 950 473 950 C 597 950 688 913 748 839 C 808 765 838 665 838 539 L 838 524 L 223 524 L 223 504 C 223 362 249 248 303 162 C 356 76 435 33 541 33 C 619 33 680 49 724 82 C 768 114 808 162 846 225 L 856 219 C 821 146 773 88 711 45 C 649 1 577 -20 496 -20 Z M 223 541 L 684 545 C 684 677 667 776 635 841 C 602 905 549 938 477 938 C 405 938 346 903 298 834 C 250 765 225 667 223 541 Z M 746 1090 L 447 1364 L 142 1092 L 134 1098 C 188 1176 233 1245 270 1307 C 307 1368 338 1418 363 1456 C 376 1475 387 1487 397 1493 C 407 1498 423 1501 447 1501 C 469 1501 485 1498 495 1493 C 505 1487 515 1476 527 1460 C 552 1423 583 1373 619 1311 C 655 1248 700 1177 754 1098 L 746 1090 Z" unicode="ê" />
<glyph horiz-adv-x="891" d="M 496 -20 C 358 -20 252 25 178 116 C 103 206 66 325 66 471 C 66 602 103 715 179 809 C 254 903 352 950 473 950 C 597 950 688 913 748 839 C 808 765 838 665 838 539 L 838 524 L 223 524 L 223 504 C 223 362 249 248 303 162 C 356 76 435 33 541 33 C 619 33 680 49 724 82 C 768 114 808 162 846 225 L 856 219 C 821 146 773 88 711 45 C 649 1 577 -20 496 -20 Z M 223 541 L 684 545 C 684 677 667 776 635 841 C 602 905 549 938 477 938 C 405 938 346 903 298 834 C 250 765 225 667 223 541 Z M 238 1123 C 210 1123 186 1132 166 1152 C 145 1172 135 1195 135 1223 C 135 1251 145 1276 166 1297 C 186 1317 210 1328 238 1328 C 268 1328 294 1318 314 1299 C 334 1279 344 1257 344 1231 C 344 1201 334 1176 314 1155 C 294 1133 268 1123 238 1123 Z M 672 1123 C 643 1123 619 1132 599 1152 C 579 1172 570 1195 570 1223 C 570 1251 579 1276 599 1297 C 619 1317 643 1328 672 1328 C 702 1328 727 1318 747 1299 C 766 1279 776 1257 776 1231 C 776 1201 766 1176 746 1155 C 726 1133 701 1123 672 1123 Z" unicode="ë" />
<glyph horiz-adv-x="553" d="M 74 0 L 74 8 C 92 8 108 9 122 11 C 135 12 149 15 164 20 C 183 26 197 39 206 57 C 214 75 219 94 219 115 L 219 764 C 219 785 213 805 203 823 C 192 841 178 855 162 866 C 149 874 131 883 107 891 C 83 899 61 904 43 905 L 43 913 L 350 936 L 360 926 L 360 127 C 360 104 364 84 374 68 C 383 52 397 39 416 31 C 433 24 449 19 464 15 C 479 11 493 8 506 8 L 506 0 L 74 0 Z M 371 1092 C 289 1154 225 1200 177 1230 C 129 1260 90 1288 60 1313 C 34 1333 15 1350 3 1364 C -9 1378 -16 1397 -16 1423 C -16 1442 -9 1459 2 1474 C 14 1489 32 1497 56 1497 C 82 1497 104 1490 122 1477 C 140 1463 158 1441 176 1409 C 198 1371 225 1328 255 1281 C 285 1234 327 1173 379 1098 L 371 1092 Z" unicode="ì" />
<glyph horiz-adv-x="553" d="M 74 0 L 74 8 C 92 8 108 9 122 11 C 135 12 149 15 164 20 C 183 26 197 39 206 57 C 214 75 219 94 219 115 L 219 764 C 219 785 213 805 203 823 C 192 841 178 855 162 866 C 149 874 131 883 107 891 C 83 899 61 904 43 905 L 43 913 L 350 936 L 360 926 L 360 127 C 360 104 364 84 374 68 C 383 52 397 39 416 31 C 433 24 449 19 464 15 C 479 11 493 8 506 8 L 506 0 L 74 0 Z M 146 1092 L 138 1098 C 190 1173 231 1234 261 1281 C 291 1328 317 1371 340 1409 C 358 1441 376 1463 394 1477 C 412 1490 434 1497 461 1497 C 484 1497 502 1489 514 1474 C 526 1459 533 1442 533 1423 C 533 1397 526 1378 514 1364 C 501 1350 482 1333 457 1313 C 426 1288 387 1261 339 1231 C 291 1201 227 1155 146 1092 Z" unicode="í" />
<glyph horiz-adv-x="553" d="M 0 1087 L -8 1094 L 174 1456 C 180 1470 190 1481 203 1489 C 216 1497 234 1501 258 1501 C 277 1501 293 1498 307 1492 C 321 1486 331 1475 338 1460 C 357 1418 382 1366 412 1305 C 442 1244 478 1174 518 1094 L 510 1087 L 256 1366 L 0 1087 Z M 74 0 L 74 8 C 92 8 108 9 122 11 C 135 12 149 15 164 20 C 183 26 197 39 206 57 C 214 75 219 94 219 115 L 219 764 C 219 785 213 805 203 823 C 192 841 178 855 162 866 C 149 874 131 883 107 891 C 83 899 61 904 43 905 L 43 913 L 350 936 L 360 926 L 360 127 C 360 104 364 84 374 68 C 383 52 397 39 416 31 C 433 24 449 19 464 15 C 479 11 493 8 506 8 L 506 0 L 74 0 Z" unicode="î" />
<glyph horiz-adv-x="553" d="M 63 1122 C 35 1122 11 1131 -8 1151 C -28 1171 -39 1195 -39 1223 C -39 1251 -28 1276 -8 1296 C 11 1316 35 1327 63 1327 C 93 1327 119 1317 139 1298 C 159 1278 170 1256 170 1231 C 170 1201 159 1175 139 1154 C 119 1132 93 1122 63 1122 Z M 444 1122 C 415 1122 391 1131 371 1151 C 351 1171 342 1195 342 1223 C 342 1251 351 1276 371 1296 C 391 1316 415 1327 444 1327 C 474 1327 499 1317 519 1298 C 539 1278 549 1256 549 1231 C 549 1201 539 1175 519 1154 C 499 1132 474 1122 444 1122 Z M 74 0 L 74 8 C 92 8 108 9 122 11 C 135 12 149 15 164 20 C 183 26 197 39 206 57 C 214 75 219 94 219 115 L 219 764 C 219 785 213 805 203 823 C 192 841 178 855 162 866 C 149 874 131 883 107 891 C 83 899 61 904 43 905 L 43 913 L 350 936 L 360 926 L 360 127 C 360 104 364 84 374 68 C 383 52 397 39 416 31 C 433 24 449 19 464 15 C 479 11 493 8 506 8 L 506 0 L 74 0 Z" unicode="ï" />
<glyph horiz-adv-x="1075" d="M 524 -29 C 392 -29 281 14 193 102 C 105 190 61 313 61 471 C 61 613 103 729 188 818 C 273 907 382 952 516 952 C 578 952 632 938 680 910 C 728 882 763 851 786 817 L 795 819 C 780 938 754 1039 718 1123 C 682 1206 642 1275 600 1329 L 373 1178 L 354 1208 L 575 1356 C 547 1389 520 1417 492 1440 C 464 1462 439 1481 416 1497 L 424 1526 C 450 1512 481 1494 516 1472 C 550 1450 587 1422 625 1389 L 807 1511 L 825 1481 L 651 1364 C 733 1292 804 1191 866 1061 C 927 931 958 774 958 592 C 958 410 920 261 845 145 C 770 29 663 -29 524 -29 Z M 512 2 C 602 2 672 47 722 138 C 772 229 797 348 797 494 C 797 620 771 724 721 804 C 671 884 602 924 516 924 C 420 924 347 883 295 803 C 243 722 217 615 217 481 C 217 333 243 216 296 130 C 348 44 420 2 512 2 Z" unicode="ð" />
<glyph horiz-adv-x="1163" d="M 70 0 L 70 8 C 88 8 103 9 117 11 C 131 12 145 15 160 20 C 179 26 193 38 203 55 C 212 72 217 92 217 115 L 217 764 C 217 785 212 806 202 826 C 192 846 178 861 162 872 C 149 880 134 888 116 894 C 98 900 79 904 61 905 L 61 913 L 350 936 L 358 928 L 358 762 L 362 762 C 380 780 398 799 418 819 C 437 839 458 859 482 877 C 508 897 538 915 572 929 C 606 943 647 950 694 950 C 789 950 859 920 904 861 C 948 801 971 723 971 627 L 971 123 C 971 100 975 81 984 65 C 993 49 1007 37 1026 29 C 1040 22 1054 17 1068 14 C 1081 10 1097 8 1116 8 L 1116 0 L 659 0 L 659 8 C 679 8 698 9 715 11 C 732 13 748 16 764 20 C 785 26 801 38 811 55 C 821 72 827 92 827 115 L 827 655 C 827 726 807 781 767 820 C 727 859 683 879 633 879 C 597 879 563 873 531 863 C 499 852 473 839 451 824 C 426 807 406 790 391 772 C 375 754 364 739 358 729 L 358 125 C 358 102 363 83 374 67 C 385 51 400 39 420 31 C 436 23 453 18 470 14 C 487 10 505 8 524 8 L 524 0 L 70 0 Z M 208 1125 L 200 1129 C 218 1185 248 1240 291 1292 C 334 1344 386 1370 446 1370 C 506 1370 563 1351 616 1315 C 669 1278 713 1260 747 1260 C 809 1260 853 1272 881 1297 C 908 1322 931 1356 950 1399 L 958 1397 C 942 1334 912 1278 868 1229 C 824 1179 770 1155 706 1155 C 641 1155 582 1173 528 1211 C 474 1249 429 1268 395 1268 C 352 1268 317 1255 289 1231 C 261 1206 234 1171 208 1125 Z" unicode="ñ" />
<glyph horiz-adv-x="1028" d="M 502 -27 C 382 -27 279 18 193 108 C 106 198 63 314 63 457 C 63 601 105 720 189 812 C 273 904 384 950 520 950 C 654 950 762 903 843 811 C 924 719 965 606 965 473 C 965 333 922 214 837 118 C 752 21 640 -27 502 -27 Z M 516 -14 C 608 -14 680 33 731 127 C 781 221 807 336 807 471 C 807 603 782 714 732 804 C 682 893 610 938 516 938 C 416 938 341 893 293 803 C 245 713 221 604 221 475 C 221 337 246 221 296 127 C 346 33 420 -14 516 -14 Z M 686 1092 C 604 1154 540 1200 492 1230 C 444 1260 405 1288 375 1313 C 349 1333 330 1350 318 1364 C 305 1378 299 1397 299 1423 C 299 1442 305 1459 317 1474 C 329 1489 347 1497 371 1497 C 397 1497 419 1490 437 1477 C 455 1463 473 1441 491 1409 C 513 1371 540 1328 570 1281 C 600 1234 642 1173 694 1098 L 686 1092 Z" unicode="ò" />
<glyph horiz-adv-x="1028" d="M 502 -27 C 382 -27 279 18 193 108 C 106 198 63 314 63 457 C 63 601 105 720 189 812 C 273 904 384 950 520 950 C 654 950 762 903 843 811 C 924 719 965 606 965 473 C 965 333 922 214 837 118 C 752 21 640 -27 502 -27 Z M 516 -14 C 608 -14 680 33 731 127 C 781 221 807 336 807 471 C 807 603 782 714 732 804 C 682 893 610 938 516 938 C 416 938 341 893 293 803 C 245 713 221 604 221 475 C 221 337 246 221 296 127 C 346 33 420 -14 516 -14 Z M 340 1092 L 332 1098 C 384 1173 425 1234 455 1281 C 485 1328 511 1371 534 1409 C 552 1441 570 1463 588 1477 C 606 1490 628 1497 655 1497 C 678 1497 696 1489 708 1474 C 720 1459 727 1442 727 1423 C 727 1397 720 1378 708 1364 C 695 1350 676 1333 651 1313 C 620 1288 581 1261 533 1231 C 485 1201 421 1155 340 1092 Z" unicode="ó" />
<glyph horiz-adv-x="1028" d="M 502 -27 C 382 -27 279 18 193 108 C 106 198 63 314 63 457 C 63 601 105 720 189 812 C 273 904 384 950 520 950 C 654 950 762 903 843 811 C 924 719 965 606 965 473 C 965 333 922 214 837 118 C 752 21 640 -27 502 -27 Z M 516 -14 C 608 -14 680 33 731 127 C 781 221 807 336 807 471 C 807 603 782 714 732 804 C 682 893 610 938 516 938 C 416 938 341 893 293 803 C 245 713 221 604 221 475 C 221 337 246 221 296 127 C 346 33 420 -14 516 -14 Z M 815 1090 L 516 1364 L 211 1092 L 203 1098 C 257 1176 302 1245 339 1307 C 376 1368 407 1418 432 1456 C 445 1475 456 1487 466 1493 C 476 1498 492 1501 516 1501 C 538 1501 554 1498 564 1493 C 574 1487 584 1476 596 1460 C 621 1423 652 1373 688 1311 C 724 1248 769 1177 823 1098 L 815 1090 Z" unicode="ô" />
<glyph horiz-adv-x="1028" d="M 502 -27 C 382 -27 279 18 193 108 C 106 198 63 314 63 457 C 63 601 105 720 189 812 C 273 904 384 950 520 950 C 654 950 762 903 843 811 C 924 719 965 606 965 473 C 965 333 922 214 837 118 C 752 21 640 -27 502 -27 Z M 516 -14 C 608 -14 680 33 731 127 C 781 221 807 336 807 471 C 807 603 782 714 732 804 C 682 893 610 938 516 938 C 416 938 341 893 293 803 C 245 713 221 604 221 475 C 221 337 246 221 296 127 C 346 33 420 -14 516 -14 Z M 141 1125 L 133 1129 C 151 1185 181 1240 224 1292 C 267 1344 319 1370 379 1370 C 439 1370 496 1351 549 1315 C 602 1278 646 1260 680 1260 C 742 1260 786 1272 814 1297 C 841 1322 864 1356 883 1399 L 891 1397 C 875 1334 845 1278 801 1229 C 757 1179 703 1155 639 1155 C 574 1155 515 1173 461 1211 C 407 1249 362 1268 328 1268 C 285 1268 250 1255 222 1231 C 194 1206 167 1171 141 1125 Z" unicode="õ" />
<glyph horiz-adv-x="1028" d="M 502 -27 C 382 -27 279 18 193 108 C 106 198 63 314 63 457 C 63 601 105 720 189 812 C 273 904 384 950 520 950 C 654 950 762 903 843 811 C 924 719 965 606 965 473 C 965 333 922 214 837 118 C 752 21 640 -27 502 -27 Z M 516 -14 C 608 -14 680 33 731 127 C 781 221 807 336 807 471 C 807 603 782 714 732 804 C 682 893 610 938 516 938 C 416 938 341 893 293 803 C 245 713 221 604 221 475 C 221 337 246 221 296 127 C 346 33 420 -14 516 -14 Z M 295 1123 C 267 1123 243 1132 223 1152 C 202 1172 192 1195 192 1223 C 192 1251 202 1276 223 1297 C 243 1317 267 1328 295 1328 C 325 1328 351 1318 371 1299 C 391 1279 401 1257 401 1231 C 401 1201 391 1176 371 1155 C 351 1133 325 1123 295 1123 Z M 729 1123 C 700 1123 676 1132 656 1152 C 636 1172 627 1195 627 1223 C 627 1251 636 1276 656 1297 C 676 1317 700 1328 729 1328 C 759 1328 784 1318 804 1299 C 823 1279 833 1257 833 1231 C 833 1201 823 1176 803 1155 C 783 1133 758 1123 729 1123 Z" unicode="ö" />
<glyph horiz-adv-x="1139" d="M 569 131 C 542 131 520 140 502 158 C 484 176 475 198 475 225 C 475 251 484 274 502 293 C 520 312 542 322 569 322 C 595 322 618 312 637 293 C 656 274 666 251 666 225 C 666 198 656 176 637 158 C 618 140 595 131 569 131 Z M 569 741 C 542 741 520 750 502 768 C 484 786 475 809 475 836 C 475 862 484 885 502 904 C 520 922 542 932 569 932 C 595 932 618 922 637 904 C 656 885 666 862 666 836 C 666 809 656 786 637 768 C 618 750 595 741 569 741 Z M 76 502 L 76 561 L 1063 561 L 1063 502 L 76 502 Z" unicode="÷" />
<glyph horiz-adv-x="1028" d="M 104 -51 L 86 -37 L 201 98 C 159 140 125 191 100 252 C 75 313 63 381 63 457 C 63 601 105 720 189 812 C 273 904 384 950 520 950 C 581 950 637 939 689 919 C 741 898 785 870 823 834 L 973 1010 L 989 995 L 838 817 C 878 774 909 723 931 664 C 953 604 965 541 965 473 C 965 339 924 223 843 123 C 761 23 648 -27 502 -27 C 450 -27 399 -17 349 1 C 299 20 255 47 217 82 L 104 -51 Z M 270 180 L 756 754 C 734 806 704 850 664 885 C 624 920 575 938 516 938 C 401 938 323 885 282 781 C 241 677 221 575 221 475 C 221 422 225 370 233 320 C 241 269 253 222 270 180 Z M 516 -14 C 614 -14 687 35 735 134 C 783 233 807 345 807 471 C 807 515 803 559 797 605 C 791 650 780 692 766 731 L 281 156 C 304 104 335 63 374 32 C 412 1 460 -14 516 -14 Z" unicode="ø" />
<glyph horiz-adv-x="1126" d="M 457 -23 C 361 -23 293 8 252 72 C 210 136 190 215 190 311 L 190 768 C 190 789 185 809 176 827 C 166 845 153 859 137 870 C 125 878 110 885 92 891 C 74 897 55 900 37 901 L 37 911 L 326 936 L 336 926 L 336 258 C 336 186 354 131 390 92 C 426 52 469 33 518 33 C 584 33 640 47 686 75 C 731 103 764 135 784 170 L 784 774 C 784 795 779 815 769 833 C 759 851 746 865 729 877 C 717 885 697 890 671 894 C 644 898 616 900 588 901 L 588 911 L 918 936 L 928 926 L 928 147 C 928 125 932 106 942 90 C 951 74 964 60 981 49 C 993 41 1008 35 1024 31 C 1040 27 1058 25 1077 25 L 1077 16 L 801 -2 L 786 12 L 786 137 L 780 137 C 741 91 696 52 646 22 C 596 -7 533 -23 457 -23 Z M 735 1092 C 653 1154 589 1200 541 1230 C 493 1260 454 1288 424 1313 C 398 1333 379 1350 367 1364 C 354 1378 348 1397 348 1423 C 348 1442 354 1459 366 1474 C 378 1489 396 1497 420 1497 C 446 1497 468 1490 486 1477 C 504 1463 522 1441 540 1409 C 562 1371 589 1328 619 1281 C 649 1234 691 1173 743 1098 L 735 1092 Z" unicode="ù" />
<glyph horiz-adv-x="1126" d="M 457 -23 C 361 -23 293 8 252 72 C 210 136 190 215 190 311 L 190 768 C 190 789 185 809 176 827 C 166 845 153 859 137 870 C 125 878 110 885 92 891 C 74 897 55 900 37 901 L 37 911 L 326 936 L 336 926 L 336 258 C 336 186 354 131 390 92 C 426 52 469 33 518 33 C 584 33 640 47 686 75 C 731 103 764 135 784 170 L 784 774 C 784 795 779 815 769 833 C 759 851 746 865 729 877 C 717 885 697 890 671 894 C 644 898 616 900 588 901 L 588 911 L 918 936 L 928 926 L 928 147 C 928 125 932 106 942 90 C 951 74 964 60 981 49 C 993 41 1008 35 1024 31 C 1040 27 1058 25 1077 25 L 1077 16 L 801 -2 L 786 12 L 786 137 L 780 137 C 741 91 696 52 646 22 C 596 -7 533 -23 457 -23 Z M 389 1092 L 381 1098 C 433 1173 474 1234 504 1281 C 534 1328 560 1371 583 1409 C 601 1441 619 1463 637 1477 C 655 1490 677 1497 704 1497 C 727 1497 745 1489 757 1474 C 769 1459 776 1442 776 1423 C 776 1397 769 1378 757 1364 C 744 1350 725 1333 700 1313 C 669 1288 630 1261 582 1231 C 534 1201 470 1155 389 1092 Z" unicode="ú" />
<glyph horiz-adv-x="1126" d="M 457 -23 C 361 -23 293 8 252 72 C 210 136 190 215 190 311 L 190 768 C 190 789 185 809 176 827 C 166 845 153 859 137 870 C 125 878 110 885 92 891 C 74 897 55 900 37 901 L 37 911 L 326 936 L 336 926 L 336 258 C 336 186 354 131 390 92 C 426 52 469 33 518 33 C 584 33 640 47 686 75 C 731 103 764 135 784 170 L 784 774 C 784 795 779 815 769 833 C 759 851 746 865 729 877 C 717 885 697 890 671 894 C 644 898 616 900 588 901 L 588 911 L 918 936 L 928 926 L 928 147 C 928 125 932 106 942 90 C 951 74 964 60 981 49 C 993 41 1008 35 1024 31 C 1040 27 1058 25 1077 25 L 1077 16 L 801 -2 L 786 12 L 786 137 L 780 137 C 741 91 696 52 646 22 C 596 -7 533 -23 457 -23 Z M 864 1090 L 565 1364 L 260 1092 L 252 1098 C 306 1176 351 1245 388 1307 C 425 1368 456 1418 481 1456 C 494 1475 505 1487 515 1493 C 525 1498 541 1501 565 1501 C 587 1501 603 1498 613 1493 C 623 1487 633 1476 645 1460 C 670 1423 701 1373 737 1311 C 773 1248 818 1177 872 1098 L 864 1090 Z" unicode="û" />
<glyph horiz-adv-x="1126" d="M 457 -23 C 361 -23 293 8 252 72 C 210 136 190 215 190 311 L 190 768 C 190 789 185 809 176 827 C 166 845 153 859 137 870 C 125 878 110 885 92 891 C 74 897 55 900 37 901 L 37 911 L 326 936 L 336 926 L 336 258 C 336 186 354 131 390 92 C 426 52 469 33 518 33 C 584 33 640 47 686 75 C 731 103 764 135 784 170 L 784 774 C 784 795 779 815 769 833 C 759 851 746 865 729 877 C 717 885 697 890 671 894 C 644 898 616 900 588 901 L 588 911 L 918 936 L 928 926 L 928 147 C 928 125 932 106 942 90 C 951 74 964 60 981 49 C 993 41 1008 35 1024 31 C 1040 27 1058 25 1077 25 L 1077 16 L 801 -2 L 786 12 L 786 137 L 780 137 C 741 91 696 52 646 22 C 596 -7 533 -23 457 -23 Z M 325 1123 C 297 1123 273 1132 253 1152 C 232 1172 222 1195 222 1223 C 222 1251 232 1276 253 1297 C 273 1317 297 1328 325 1328 C 355 1328 381 1318 401 1299 C 421 1279 431 1257 431 1231 C 431 1201 421 1176 401 1155 C 381 1133 355 1123 325 1123 Z M 759 1123 C 730 1123 706 1132 686 1152 C 666 1172 657 1195 657 1223 C 657 1251 666 1276 686 1297 C 706 1317 730 1328 759 1328 C 789 1328 814 1318 834 1299 C 853 1279 863 1257 863 1231 C 863 1201 853 1176 833 1155 C 813 1133 788 1123 759 1123 Z" unicode="ü" />
<glyph horiz-adv-x="918" d="M 117 -461 C 92 -461 63 -452 30 -434 C -3 -416 -20 -384 -20 -338 C -20 -314 -10 -291 8 -268 C 26 -244 52 -233 84 -233 C 103 -233 123 -239 144 -251 C 165 -263 176 -288 176 -324 L 176 -414 C 218 -407 263 -372 311 -308 C 359 -244 409 -146 461 -16 C 381 192 316 352 265 464 C 213 576 163 692 115 813 C 102 843 83 867 57 884 C 31 900 3 911 -27 915 L -27 924 L 375 924 L 375 913 C 351 912 326 908 298 900 C 270 892 256 881 256 866 C 256 862 257 856 261 848 C 264 840 267 832 270 823 C 289 769 328 676 387 544 C 446 412 497 292 539 182 L 541 182 C 583 282 623 380 663 478 C 703 576 743 678 784 784 C 787 792 790 802 794 813 C 797 823 799 833 799 842 C 799 861 772 877 719 891 C 665 905 630 913 614 915 L 614 924 L 965 924 L 965 915 C 948 913 923 901 889 881 C 855 860 832 834 819 803 L 565 197 C 543 145 525 99 509 58 C 493 17 481 -12 473 -31 C 397 -205 335 -320 285 -376 C 235 -432 179 -461 117 -461 Z M 340 1092 L 332 1098 C 384 1173 425 1234 455 1281 C 485 1328 511 1371 534 1409 C 552 1441 570 1463 588 1477 C 606 1490 628 1497 655 1497 C 678 1497 696 1489 708 1474 C 720 1459 727 1442 727 1423 C 727 1397 720 1378 708 1364 C 695 1350 676 1333 651 1313 C 620 1288 581 1261 533 1231 C 485 1201 421 1155 340 1092 Z" unicode="ý" />
<glyph horiz-adv-x="1120" d="M 35 -463 L 35 -455 C 53 -454 73 -452 93 -450 C 113 -447 131 -443 145 -438 C 164 -432 178 -418 186 -397 C 194 -376 199 -354 199 -332 L 199 1348 C 199 1370 193 1392 183 1413 C 173 1433 159 1449 143 1460 C 128 1470 111 1479 92 1485 C 73 1491 53 1495 33 1497 L 33 1505 L 332 1528 L 340 1520 L 340 799 L 346 797 C 381 836 423 871 471 903 C 519 934 570 950 625 950 C 747 950 850 903 932 811 C 1014 719 1055 600 1055 455 C 1055 319 1008 205 915 113 C 821 21 712 -25 586 -25 C 526 -25 477 -18 440 -6 C 403 6 373 21 350 39 L 342 39 L 342 -328 C 342 -349 346 -369 356 -388 C 366 -406 380 -419 399 -426 C 414 -432 436 -438 465 -444 C 494 -450 518 -454 537 -455 L 537 -463 L 35 -463 Z M 590 -12 C 675 -12 746 30 804 114 C 862 198 891 312 891 457 C 891 581 863 683 809 765 C 754 846 676 887 575 887 C 526 887 482 876 443 856 C 404 836 370 809 342 776 L 342 174 C 356 128 385 85 429 46 C 473 7 527 -12 590 -12 Z" unicode="þ" />
<glyph horiz-adv-x="918" d="M 117 -461 C 92 -461 63 -452 30 -434 C -3 -416 -20 -384 -20 -338 C -20 -314 -10 -291 8 -268 C 26 -244 52 -233 84 -233 C 103 -233 123 -239 144 -251 C 165 -263 176 -288 176 -324 L 176 -414 C 218 -407 263 -372 311 -308 C 359 -244 409 -146 461 -16 C 381 192 316 352 265 464 C 213 576 163 692 115 813 C 102 843 83 867 57 884 C 31 900 3 911 -27 915 L -27 924 L 375 924 L 375 913 C 351 912 326 908 298 900 C 270 892 256 881 256 866 C 256 862 257 856 261 848 C 264 840 267 832 270 823 C 289 769 328 676 387 544 C 446 412 497 292 539 182 L 541 182 C 583 282 623 380 663 478 C 703 576 743 678 784 784 C 787 792 790 802 794 813 C 797 823 799 833 799 842 C 799 861 772 877 719 891 C 665 905 630 913 614 915 L 614 924 L 965 924 L 965 915 C 948 913 923 901 889 881 C 855 860 832 834 819 803 L 565 197 C 543 145 525 99 509 58 C 493 17 481 -12 473 -31 C 397 -205 335 -320 285 -376 C 235 -432 179 -461 117 -461 Z M 281 1123 C 253 1123 229 1132 209 1152 C 188 1172 178 1195 178 1223 C 178 1251 188 1276 209 1297 C 229 1317 253 1328 281 1328 C 311 1328 337 1318 357 1299 C 377 1279 387 1257 387 1231 C 387 1201 377 1176 357 1155 C 337 1133 311 1123 281 1123 Z M 715 1123 C 686 1123 662 1132 642 1152 C 622 1172 613 1195 613 1223 C 613 1251 622 1276 642 1297 C 662 1317 686 1328 715 1328 C 745 1328 770 1318 790 1299 C 809 1279 819 1257 819 1231 C 819 1201 809 1176 789 1155 C 769 1133 744 1123 715 1123 Z" unicode="ÿ" />
<glyph horiz-adv-x="553" d="M 74 0 L 74 8 C 92 8 108 9 122 11 C 135 12 149 15 164 20 C 183 26 197 39 206 57 C 214 75 219 94 219 115 L 219 764 C 219 785 213 805 203 823 C 192 841 178 855 162 866 C 149 874 131 883 107 891 C 83 899 61 904 43 905 L 43 913 L 350 936 L 360 926 L 360 127 C 360 104 364 84 374 68 C 383 52 397 39 416 31 C 433 24 449 19 464 15 C 479 11 493 8 506 8 L 506 0 L 74 0 Z" unicode="ı" />
<glyph horiz-adv-x="1251" d="M 109 0 L 109 8 C 127 8 151 11 183 15 C 214 19 236 23 250 29 C 274 37 291 51 300 69 C 308 87 313 108 313 131 L 313 635 L 121 565 L 109 600 L 313 674 L 313 1249 C 313 1271 308 1291 300 1309 C 292 1326 275 1340 250 1352 C 231 1360 207 1368 179 1377 C 150 1385 127 1390 109 1391 L 109 1399 L 692 1399 L 692 1391 C 673 1390 648 1386 617 1380 C 586 1374 561 1368 543 1362 C 517 1354 500 1340 492 1322 C 483 1303 479 1282 479 1260 L 479 735 L 772 842 L 786 807 L 479 694 L 479 205 C 479 118 491 65 517 45 C 543 25 612 16 725 16 C 784 16 850 20 924 28 C 997 36 1043 50 1063 72 C 1087 99 1123 151 1169 228 C 1215 304 1242 357 1249 387 L 1257 387 L 1225 0 L 109 0 Z" unicode="Ł" />
<glyph horiz-adv-x="600" d="M 86 0 L 86 8 C 104 8 120 9 134 11 C 147 12 161 15 176 20 C 195 26 209 38 218 55 C 226 72 231 92 231 115 L 231 633 L 45 565 L 33 600 L 231 672 L 231 1343 C 231 1369 226 1392 216 1413 C 206 1433 192 1449 176 1460 C 160 1470 141 1479 119 1485 C 96 1491 68 1496 35 1499 L 35 1507 L 367 1528 L 375 1520 L 375 723 L 559 791 L 573 756 L 375 684 L 375 121 C 375 98 378 79 386 63 C 394 47 407 35 426 27 C 441 19 456 14 470 12 C 484 10 501 8 520 8 L 520 0 L 86 0 Z" unicode="ł" />
<glyph horiz-adv-x="2103" d="M 827 0 C 726 0 623 19 517 57 C 411 95 323 154 252 232 C 202 286 161 353 129 431 C 97 509 82 602 82 709 C 82 804 97 889 128 965 C 158 1040 199 1105 251 1160 C 327 1241 420 1301 531 1340 C 642 1379 754 1399 868 1399 L 1946 1399 L 1946 1090 L 1935 1090 C 1925 1134 1899 1190 1858 1260 C 1817 1330 1775 1368 1733 1374 C 1708 1376 1677 1378 1641 1380 C 1605 1381 1570 1382 1538 1382 L 1255 1382 L 1255 733 L 1479 733 C 1535 733 1575 741 1597 757 C 1619 773 1636 788 1649 801 C 1663 815 1676 846 1686 892 C 1696 938 1703 974 1706 1001 L 1716 1001 L 1716 438 L 1706 438 C 1704 468 1697 507 1685 556 C 1673 605 1661 636 1649 649 C 1635 663 1617 678 1595 694 C 1572 709 1533 717 1479 717 L 1255 717 L 1255 203 C 1255 119 1270 67 1301 47 C 1331 26 1398 16 1501 16 C 1573 16 1649 17 1729 19 C 1809 21 1861 35 1886 61 C 1916 93 1948 147 1981 223 C 2013 299 2035 352 2046 383 L 2056 383 L 2030 0 L 827 0 Z M 899 14 C 986 14 1040 26 1060 50 C 1080 74 1090 100 1090 129 L 1090 1198 C 1090 1255 1071 1300 1035 1333 C 999 1365 937 1382 850 1382 C 768 1382 696 1369 632 1345 C 568 1320 514 1286 469 1242 C 405 1181 358 1104 327 1012 C 296 919 281 818 281 709 C 281 601 299 501 336 409 C 372 316 424 238 490 175 C 542 125 602 85 672 57 C 741 28 817 14 899 14 Z" unicode="Œ" />
<glyph horiz-adv-x="1630" d="M 502 -27 C 387 -27 285 16 196 104 C 107 191 63 309 63 457 C 63 601 105 720 189 812 C 273 904 384 950 520 950 C 600 950 671 931 733 893 C 795 855 845 808 883 750 C 917 806 962 853 1018 892 C 1074 930 1138 950 1212 950 C 1344 950 1438 910 1494 831 C 1549 751 1577 655 1577 543 L 1577 524 L 963 524 L 963 504 C 963 371 988 259 1039 169 C 1089 78 1170 33 1280 33 C 1360 33 1422 49 1464 82 C 1506 115 1546 163 1585 225 L 1595 219 C 1561 147 1512 89 1450 45 C 1388 1 1316 -20 1235 -20 C 1149 -20 1077 0 1019 37 C 960 75 914 124 881 182 C 842 122 790 73 726 33 C 662 -7 587 -27 502 -27 Z M 516 -14 C 614 -14 687 35 735 134 C 783 233 807 345 807 471 C 807 581 785 686 741 787 C 697 887 622 938 516 938 C 401 938 323 885 282 781 C 241 677 221 575 221 475 C 221 350 244 237 290 137 C 336 36 412 -14 516 -14 Z M 963 541 L 1423 545 C 1423 649 1410 740 1384 819 C 1358 898 1302 938 1217 938 C 1145 938 1086 903 1038 834 C 990 765 965 667 963 541 Z" unicode="œ" />
<glyph horiz-adv-x="1069" d="M 582 -25 C 496 -25 423 -12 363 14 C 302 40 247 70 199 104 L 121 -20 L 115 -20 L 100 446 L 109 446 C 159 312 222 203 299 119 C 376 35 473 -6 590 -6 C 684 -6 757 24 808 84 C 859 144 885 214 885 295 C 885 358 866 413 829 460 C 791 507 742 544 680 571 C 616 599 566 620 531 634 C 495 648 445 671 379 702 C 303 736 245 781 204 836 C 163 890 143 965 143 1059 C 143 1165 177 1252 246 1320 C 315 1387 400 1421 500 1421 C 586 1421 657 1407 711 1381 C 765 1354 810 1326 846 1296 L 924 1421 L 930 1421 L 940 958 L 930 958 C 887 1086 831 1193 762 1277 C 692 1361 599 1403 483 1403 C 409 1403 350 1377 304 1326 C 258 1275 236 1221 236 1163 C 236 1099 251 1047 281 1008 C 311 968 356 933 416 901 C 470 872 517 849 559 832 C 601 815 647 795 698 772 C 809 721 886 668 929 614 C 971 560 993 487 993 395 C 993 263 951 160 867 86 C 783 12 688 -25 582 -25 Z M 530 1517 C 507 1517 491 1519 481 1525 C 471 1530 461 1541 450 1558 C 424 1594 394 1644 358 1707 C 322 1769 277 1840 223 1920 L 231 1929 L 530 1654 L 835 1926 L 843 1920 C 789 1842 743 1772 706 1711 C 669 1649 638 1600 614 1562 C 600 1542 589 1530 579 1525 C 569 1519 553 1517 530 1517 Z" unicode="Š" />
<glyph horiz-adv-x="784" d="M 389 -27 C 337 -27 287 -18 240 0 C 193 17 155 35 127 55 L 88 -8 L 80 -8 L 70 299 L 80 299 C 99 216 137 143 195 81 C 252 19 319 -12 397 -12 C 477 -12 536 9 573 53 C 610 97 629 147 629 205 C 629 259 607 299 564 325 C 520 351 457 377 375 403 C 283 431 213 466 165 509 C 117 551 94 612 94 690 C 94 764 119 826 170 876 C 221 925 290 950 377 950 C 421 950 464 944 505 932 C 546 920 579 905 604 889 L 643 952 L 651 952 L 666 680 L 655 680 C 640 745 605 804 551 857 C 496 909 435 936 367 936 C 303 936 256 917 224 880 C 192 842 176 800 176 754 C 176 692 197 650 241 627 C 284 603 348 579 432 555 C 516 530 584 494 635 447 C 685 399 711 336 711 256 C 711 170 679 102 616 50 C 553 -1 477 -27 389 -27 Z M 388 1104 C 365 1104 349 1106 339 1112 C 329 1117 319 1128 308 1145 C 282 1181 252 1231 216 1294 C 180 1356 135 1427 81 1507 L 89 1516 L 388 1241 L 693 1513 L 701 1507 C 647 1429 601 1359 564 1298 C 527 1236 496 1187 472 1149 C 458 1129 447 1117 437 1112 C 427 1106 411 1104 388 1104 Z" unicode="š" />
<glyph horiz-adv-x="1200" d="M 262 0 L 262 8 C 280 8 310 11 350 16 C 390 20 416 25 430 31 C 454 39 471 53 480 71 C 489 89 494 110 494 133 L 494 559 C 494 571 488 590 477 615 C 465 639 455 663 446 686 C 402 774 354 867 304 964 C 254 1060 208 1145 166 1219 C 148 1249 130 1276 110 1300 C 90 1324 67 1343 43 1358 C 24 1368 5 1376 -13 1382 C -31 1387 -50 1390 -70 1391 L -70 1399 L 528 1399 L 528 1391 C 492 1388 446 1382 389 1372 C 331 1362 303 1345 303 1321 C 303 1306 343 1221 425 1067 C 507 913 583 770 655 639 C 726 755 806 887 895 1035 C 983 1183 1028 1268 1028 1292 C 1028 1324 996 1347 932 1363 C 868 1378 812 1387 766 1391 L 766 1399 L 1274 1399 L 1274 1391 C 1264 1391 1249 1387 1229 1381 C 1209 1375 1194 1370 1184 1366 C 1164 1359 1145 1348 1126 1332 C 1106 1316 1085 1293 1063 1262 C 1015 1195 957 1104 890 990 C 823 875 765 772 717 682 C 696 644 682 606 674 569 C 666 531 662 499 662 473 L 662 143 C 662 118 666 97 676 81 C 685 64 701 51 725 41 C 737 36 764 29 804 21 C 844 13 874 8 893 8 L 893 0 L 262 0 Z M 409 1550 C 381 1550 357 1559 337 1579 C 316 1599 306 1622 306 1650 C 306 1678 316 1703 337 1724 C 357 1744 381 1755 409 1755 C 439 1755 465 1745 485 1726 C 505 1706 515 1684 515 1658 C 515 1628 505 1603 485 1582 C 465 1560 439 1550 409 1550 Z M 843 1550 C 814 1550 790 1559 770 1579 C 750 1599 741 1622 741 1650 C 741 1678 750 1703 770 1724 C 790 1744 814 1755 843 1755 C 873 1755 898 1745 918 1726 C 937 1706 947 1684 947 1658 C 947 1628 937 1603 917 1582 C 897 1560 872 1550 843 1550 Z" unicode="Ÿ" />
<glyph horiz-adv-x="1233" d="M 6 0 L 6 12 L 1001 1382 L 559 1382 C 533 1382 508 1381 483 1381 C 457 1381 434 1380 414 1378 C 348 1367 281 1318 215 1230 C 149 1142 111 1076 102 1032 L 90 1032 L 133 1399 L 1192 1399 L 1192 1386 L 197 16 L 686 16 C 726 16 779 20 845 28 C 910 36 954 49 977 68 C 1023 106 1068 158 1110 226 C 1152 293 1184 354 1206 410 L 1219 410 L 1171 0 L 6 0 Z M 612 1517 C 589 1517 573 1519 563 1525 C 553 1530 543 1541 532 1558 C 506 1594 476 1644 440 1707 C 404 1769 359 1840 305 1920 L 313 1929 L 612 1654 L 917 1926 L 925 1920 C 871 1842 825 1772 788 1711 C 751 1649 720 1600 696 1562 C 682 1542 671 1530 661 1525 C 651 1519 635 1517 612 1517 Z" unicode="Ž" />
<glyph horiz-adv-x="868" d="M 53 0 L 53 12 L 645 907 C 573 907 487 906 389 906 C 290 905 225 899 195 887 C 170 876 150 849 136 805 C 121 761 108 714 98 666 L 90 666 L 90 924 L 809 924 L 809 911 L 219 16 C 255 15 288 14 317 14 C 346 14 374 14 401 14 C 425 14 462 14 512 15 C 562 16 610 18 655 20 C 681 21 701 31 714 49 C 726 67 736 86 743 106 C 749 122 759 152 773 196 C 787 239 797 274 803 301 L 813 301 L 815 0 L 53 0 Z M 431 1104 C 408 1104 392 1106 382 1112 C 372 1117 362 1128 351 1145 C 325 1181 295 1231 259 1294 C 223 1356 178 1427 124 1507 L 132 1516 L 431 1241 L 736 1513 L 744 1507 C 690 1429 644 1359 607 1298 C 570 1236 539 1187 515 1149 C 501 1129 490 1117 480 1112 C 470 1106 454 1104 431 1104 Z" unicode="ž" />
<glyph horiz-adv-x="1016" d="M -70 -395 C -145 -395 -199 -380 -233 -350 C -266 -320 -283 -284 -283 -244 C -283 -216 -275 -191 -259 -170 C -243 -149 -221 -139 -193 -139 C -168 -139 -145 -149 -124 -169 C -102 -189 -92 -217 -92 -254 C -92 -271 -96 -291 -106 -315 C -116 -339 -125 -355 -133 -365 C -128 -371 -117 -375 -101 -378 C -84 -381 -72 -383 -66 -383 C 9 -383 71 -343 119 -264 C 167 -185 208 -70 240 80 C 266 205 286 312 299 400 C 311 488 325 576 340 662 L 123 662 L 129 690 L 344 690 C 362 800 388 892 421 966 C 453 1040 499 1107 557 1165 C 599 1207 645 1237 693 1253 C 741 1269 784 1278 823 1278 C 880 1278 931 1261 975 1229 C 1019 1197 1042 1160 1042 1118 C 1042 1094 1034 1071 1019 1048 C 1004 1025 982 1014 952 1014 C 926 1014 903 1022 883 1039 C 862 1055 852 1080 852 1114 C 852 1128 854 1148 859 1172 C 863 1196 869 1219 877 1241 C 871 1249 863 1255 852 1259 C 840 1263 829 1266 819 1266 C 759 1266 701 1226 645 1148 C 589 1069 548 957 524 811 L 504 690 L 762 690 L 754 662 L 500 662 C 480 547 464 450 451 370 C 437 290 422 212 406 137 C 388 59 363 -15 331 -89 C 298 -163 253 -225 195 -276 C 145 -320 100 -350 60 -368 C 20 -386 -22 -395 -70 -395 Z" unicode="ƒ" />
<glyph horiz-adv-x="340" d="M 170 975 C 114 975 76 991 56 1024 C 35 1056 25 1101 25 1159 C 25 1211 46 1267 88 1329 C 130 1390 190 1441 270 1481 L 274 1473 C 224 1443 181 1402 146 1351 C 111 1300 92 1246 88 1188 L 150 1188 C 191 1188 221 1176 240 1154 C 258 1132 268 1107 268 1079 C 268 1052 257 1028 237 1007 C 217 985 194 975 170 975 Z" unicode="ʻ" />
<glyph horiz-adv-x="1024" d="M 813 1090 L 514 1364 L 209 1092 L 201 1098 C 255 1176 300 1245 337 1307 C 374 1368 405 1418 430 1456 C 443 1475 454 1487 464 1493 C 474 1498 490 1501 514 1501 C 536 1501 552 1498 562 1493 C 572 1487 582 1476 594 1460 C 619 1423 650 1373 686 1311 C 722 1248 767 1177 821 1098 L 813 1090 Z" unicode="ˆ" />
<glyph horiz-adv-x="1024" d="M 508 1104 C 485 1104 469 1106 459 1112 C 449 1117 439 1128 428 1145 C 402 1181 372 1231 336 1294 C 300 1356 255 1427 201 1507 L 209 1516 L 508 1241 L 813 1513 L 821 1507 C 767 1429 721 1359 684 1298 C 647 1236 616 1187 592 1149 C 578 1129 567 1117 557 1112 C 547 1106 531 1104 508 1104 Z" unicode="ˇ" />
<glyph horiz-adv-x="1024" d="M 174 1233 L 174 1333 L 850 1333 L 850 1233 L 174 1233 Z" unicode="ˉ" />
<glyph horiz-adv-x="1024" d="M 512 1104 C 463 1104 409 1130 351 1184 C 293 1237 245 1334 207 1475 L 215 1479 C 249 1405 292 1345 343 1299 C 393 1252 450 1229 512 1229 C 574 1229 630 1252 680 1298 C 730 1344 773 1406 809 1483 L 817 1481 C 779 1340 730 1242 672 1187 C 614 1131 560 1104 512 1104 Z" unicode="˘" />
<glyph horiz-adv-x="1024" d="M 508 1225 C 476 1225 448 1236 425 1259 C 402 1282 391 1309 391 1341 C 391 1373 402 1402 425 1426 C 448 1450 476 1462 508 1462 C 544 1462 573 1450 596 1428 C 619 1405 631 1379 631 1350 C 631 1316 619 1286 595 1262 C 571 1237 542 1225 508 1225 Z" unicode="˙" />
<glyph horiz-adv-x="1024" d="M 512 1087 C 442 1087 387 1105 348 1142 C 308 1179 289 1228 289 1288 C 289 1347 310 1395 353 1433 C 395 1470 448 1489 512 1489 C 578 1489 631 1470 673 1433 C 714 1396 735 1348 735 1288 C 735 1230 715 1182 675 1144 C 635 1106 581 1087 512 1087 Z M 512 1098 C 558 1098 591 1117 611 1155 C 631 1193 641 1237 641 1288 C 641 1336 631 1380 611 1420 C 591 1459 558 1479 512 1479 C 467 1479 434 1460 414 1423 C 393 1386 383 1341 383 1288 C 383 1236 392 1191 412 1154 C 432 1116 465 1098 512 1098 Z" unicode="˚" />
<glyph horiz-adv-x="1024" d="M 694 -463 C 570 -462 474 -449 405 -425 C 335 -400 301 -356 301 -293 C 301 -235 324 -186 370 -144 C 416 -102 489 -54 590 0 L 602 0 C 547 -54 507 -104 483 -150 C 458 -196 446 -239 446 -279 C 446 -323 465 -360 504 -392 C 543 -424 606 -443 694 -451 L 694 -463 Z" unicode="˛" />
<glyph horiz-adv-x="1024" d="M 139 1133 L 131 1137 C 149 1193 179 1248 222 1300 C 265 1352 317 1378 377 1378 C 437 1378 494 1359 547 1323 C 600 1286 644 1268 678 1268 C 740 1268 784 1280 812 1305 C 839 1330 862 1364 881 1407 L 889 1405 C 873 1342 843 1286 799 1237 C 755 1187 701 1163 637 1163 C 572 1163 513 1181 459 1219 C 405 1257 360 1276 326 1276 C 283 1276 248 1263 220 1239 C 192 1214 165 1179 139 1133 Z" unicode="˜" />
<glyph horiz-adv-x="1024" d="M 119 1110 L 109 1118 C 161 1193 202 1254 232 1302 C 262 1349 288 1392 311 1430 C 329 1461 347 1483 363 1497 C 379 1511 401 1518 428 1518 C 448 1518 464 1510 476 1495 C 488 1480 494 1463 494 1444 C 494 1418 487 1399 475 1385 C 462 1371 443 1353 418 1333 C 387 1308 350 1281 306 1252 C 262 1222 200 1175 119 1110 Z M 496 1110 L 485 1118 C 537 1193 578 1254 608 1302 C 638 1349 665 1392 688 1430 C 706 1461 724 1483 740 1497 C 756 1511 778 1518 805 1518 C 825 1518 841 1510 853 1495 C 864 1480 870 1463 870 1444 C 870 1418 863 1399 851 1385 C 839 1371 820 1353 795 1333 C 764 1308 727 1281 683 1252 C 639 1222 577 1175 496 1110 Z" unicode="˝" />
<glyph horiz-adv-x="1133" d="M 207 -463 C 186 -463 167 -453 151 -435 C 135 -416 127 -392 127 -362 C 127 -308 133 -257 145 -211 C 157 -164 166 -124 170 -92 C 174 -59 176 -23 178 16 C 179 55 180 93 180 129 L 180 926 L 324 926 L 324 283 C 324 214 344 159 385 117 C 425 75 474 55 530 55 C 606 55 664 68 703 94 C 742 120 768 143 780 164 L 780 926 L 924 926 L 924 188 C 924 166 933 143 952 119 C 971 94 1000 82 1038 82 C 1074 82 1101 99 1120 134 C 1139 168 1150 205 1153 244 L 1159 244 C 1153 148 1135 80 1107 41 C 1078 1 1032 -18 969 -18 C 921 -18 882 -4 853 23 C 823 50 800 89 784 139 L 778 139 C 742 94 697 56 643 26 C 589 -4 531 -20 469 -20 C 413 -20 363 -7 319 18 C 275 44 238 79 209 123 L 205 123 L 205 -14 C 205 -78 219 -138 247 -195 C 275 -251 289 -305 289 -356 C 289 -390 280 -417 263 -435 C 246 -453 227 -463 207 -463 Z" unicode="μ" />
<glyph horiz-adv-x="811" d="M 72 463 L 72 573 L 739 573 L 739 463 L 72 463 Z" unicode="‐" />
<glyph horiz-adv-x="1114" d="M 102 473 L 102 563 L 1012 563 L 1012 473 L 102 473 Z" unicode="–" />
<glyph horiz-adv-x="1810" d="M 102 473 L 102 563 L 1708 563 L 1708 473 L 102 473 Z" unicode="—" />
<glyph horiz-adv-x="340" d="M 170 975 C 114 975 76 991 56 1024 C 35 1056 25 1101 25 1159 C 25 1211 46 1267 88 1329 C 130 1390 190 1441 270 1481 L 274 1473 C 224 1443 181 1402 146 1351 C 111 1300 92 1246 88 1188 L 150 1188 C 191 1188 221 1176 240 1154 C 258 1132 268 1107 268 1079 C 268 1052 257 1028 237 1007 C 217 985 194 975 170 975 Z" unicode="‘" />
<glyph horiz-adv-x="340" d="M 70 1004 L 66 1012 C 116 1041 158 1081 193 1132 C 228 1183 248 1238 252 1296 L 190 1296 C 148 1296 117 1307 99 1330 C 81 1352 72 1377 72 1405 C 72 1431 82 1455 102 1477 C 122 1498 145 1509 170 1509 C 225 1509 263 1492 284 1460 C 304 1427 315 1382 315 1325 C 315 1273 294 1216 252 1155 C 210 1093 149 1043 70 1004 Z" unicode="’" />
<glyph horiz-adv-x="346" d="M 45 -281 L 41 -272 C 91 -242 133 -202 168 -151 C 203 -100 223 -46 227 12 L 166 12 C 124 12 93 23 75 46 C 56 68 47 93 47 121 C 47 147 57 171 77 193 C 97 214 120 225 145 225 C 200 225 238 208 259 176 C 280 143 291 98 291 41 C 291 -11 269 -67 227 -129 C 185 -190 124 -241 45 -281 Z" unicode="‚" />
<glyph horiz-adv-x="688" d="M 170 975 C 114 975 76 991 56 1024 C 35 1056 25 1101 25 1159 C 25 1211 46 1267 88 1329 C 130 1390 190 1441 270 1481 L 274 1473 C 224 1443 181 1402 146 1351 C 111 1300 92 1246 88 1188 L 150 1188 C 191 1188 221 1176 240 1154 C 258 1132 268 1107 268 1079 C 268 1052 257 1028 237 1007 C 217 985 194 975 170 975 Z M 518 975 C 463 975 425 991 404 1024 C 383 1056 373 1101 373 1159 C 373 1211 394 1267 436 1329 C 478 1390 538 1441 618 1481 L 623 1473 C 573 1443 530 1402 495 1351 C 459 1300 440 1246 436 1188 L 498 1188 C 540 1188 570 1176 588 1154 C 606 1132 616 1107 616 1079 C 616 1052 605 1028 585 1007 C 565 985 542 975 518 975 Z" unicode="“" />
<glyph horiz-adv-x="688" d="M 70 1004 L 66 1012 C 116 1041 158 1081 193 1132 C 228 1183 248 1238 252 1296 L 190 1296 C 148 1296 117 1307 99 1330 C 81 1352 72 1377 72 1405 C 72 1431 82 1455 102 1477 C 122 1498 145 1509 170 1509 C 225 1509 263 1492 284 1460 C 304 1427 315 1382 315 1325 C 315 1273 294 1216 252 1155 C 210 1093 149 1043 70 1004 Z M 418 1004 L 414 1012 C 464 1041 506 1081 541 1132 C 576 1183 596 1238 600 1296 L 539 1296 C 497 1296 466 1307 448 1330 C 429 1352 420 1377 420 1405 C 420 1431 430 1455 450 1477 C 470 1498 493 1509 518 1509 C 573 1509 611 1492 632 1460 C 653 1427 664 1382 664 1325 C 664 1273 642 1216 600 1155 C 558 1093 497 1043 418 1004 Z" unicode="”" />
<glyph horiz-adv-x="694" d="M 45 -281 L 41 -272 C 91 -242 133 -202 168 -151 C 203 -100 223 -46 227 12 L 166 12 C 124 12 93 23 75 46 C 56 68 47 93 47 121 C 47 147 57 171 77 193 C 97 214 120 225 145 225 C 200 225 238 208 259 176 C 280 143 291 98 291 41 C 291 -11 269 -67 227 -129 C 185 -190 124 -241 45 -281 Z M 393 -281 L 389 -272 C 439 -242 481 -202 516 -151 C 551 -100 571 -46 575 12 L 514 12 C 472 12 441 23 423 46 C 404 68 395 93 395 121 C 395 147 405 171 426 193 C 446 214 469 225 494 225 C 548 225 586 208 607 176 C 628 143 639 98 639 41 C 639 -11 617 -67 575 -129 C 533 -190 472 -241 393 -281 Z" unicode="„" />
<glyph horiz-adv-x="836" d="M 412 205 C 409 319 402 451 391 603 C 380 755 371 886 365 997 C 363 1020 360 1037 354 1048 C 348 1059 338 1065 326 1065 C 314 1065 303 1060 293 1051 C 282 1042 271 1032 260 1020 C 246 1005 232 991 217 979 C 202 967 186 961 170 961 C 143 961 122 968 107 983 C 91 998 84 1018 84 1044 C 84 1059 88 1072 97 1083 C 106 1094 119 1100 137 1100 C 152 1100 165 1093 175 1081 C 185 1069 192 1051 197 1028 C 211 1030 231 1039 255 1056 C 279 1072 300 1081 319 1081 C 335 1081 352 1078 368 1072 C 384 1066 397 1059 408 1049 C 404 1097 394 1151 376 1211 C 358 1271 350 1316 350 1346 C 350 1366 354 1385 364 1403 C 374 1421 391 1430 416 1430 C 440 1430 457 1421 467 1403 C 476 1385 481 1366 481 1346 C 481 1316 472 1271 454 1211 C 436 1151 426 1097 422 1049 C 434 1059 447 1066 463 1072 C 479 1078 495 1081 512 1081 C 531 1081 552 1072 576 1056 C 600 1039 619 1030 635 1028 C 639 1051 647 1069 660 1081 C 673 1093 688 1100 705 1100 C 721 1100 733 1094 740 1083 C 746 1072 750 1059 750 1044 C 750 1018 742 998 726 983 C 710 968 688 961 662 961 C 645 961 629 967 614 979 C 598 991 584 1005 571 1020 C 560 1030 549 1040 538 1050 C 526 1060 516 1065 506 1065 C 492 1065 483 1059 477 1048 C 471 1037 467 1020 467 997 C 460 887 451 756 441 604 C 430 452 424 319 422 205 L 412 205 Z" unicode="†" />
<glyph horiz-adv-x="836" d="M 418 10 C 395 10 379 18 369 35 C 359 52 354 71 354 92 C 354 122 362 155 379 192 C 395 229 406 260 412 285 C 399 273 384 265 368 261 C 352 256 336 254 322 254 C 298 254 277 256 260 262 C 243 268 227 272 213 274 C 209 256 200 241 188 230 C 176 218 161 213 145 213 C 128 213 116 219 110 231 C 103 243 100 255 100 268 C 100 285 105 300 115 312 C 125 324 141 330 162 330 C 192 330 219 320 243 300 C 267 280 295 270 328 270 C 342 270 352 277 360 292 C 367 306 372 324 375 346 C 377 367 384 418 394 498 C 404 578 410 641 412 688 L 422 688 C 424 641 430 578 441 498 C 451 418 458 367 461 346 C 463 324 468 306 475 292 C 481 277 492 270 508 270 C 540 270 567 280 588 300 C 609 320 635 330 666 330 C 688 330 705 324 717 312 C 729 300 735 285 735 268 C 735 255 730 243 721 231 C 712 219 699 213 682 213 C 665 213 652 218 642 230 C 632 241 625 256 621 274 C 606 272 590 268 573 262 C 556 256 536 254 514 254 C 498 254 483 256 467 261 C 451 266 437 274 424 285 C 428 259 439 227 456 191 C 472 155 481 122 481 92 C 481 71 476 52 466 35 C 456 18 440 10 418 10 Z M 412 752 C 410 798 403 862 393 942 C 382 1022 375 1072 373 1094 C 370 1115 365 1133 358 1147 C 351 1161 340 1169 326 1169 C 293 1169 266 1159 245 1139 C 224 1119 198 1110 168 1110 C 145 1110 128 1116 116 1128 C 104 1140 98 1154 98 1171 C 98 1184 102 1197 112 1209 C 121 1221 134 1227 152 1227 C 168 1227 181 1221 191 1210 C 201 1198 209 1183 213 1165 C 227 1167 243 1171 260 1177 C 276 1183 296 1186 319 1186 C 334 1186 350 1183 366 1178 C 382 1173 396 1165 410 1155 C 404 1180 393 1211 377 1248 C 360 1284 352 1318 352 1348 C 352 1368 357 1387 367 1404 C 377 1421 393 1430 416 1430 C 438 1430 454 1421 464 1404 C 474 1387 479 1368 479 1348 C 479 1318 470 1284 454 1247 C 437 1210 426 1179 422 1155 C 434 1166 448 1174 464 1179 C 480 1183 496 1186 512 1186 C 535 1186 555 1183 573 1177 C 590 1171 606 1167 621 1165 C 625 1183 633 1198 645 1210 C 657 1221 671 1227 688 1227 C 705 1227 717 1221 723 1209 C 729 1197 733 1184 733 1171 C 733 1154 728 1140 718 1128 C 708 1116 692 1110 672 1110 C 641 1110 614 1119 590 1139 C 566 1159 538 1169 506 1169 C 491 1169 480 1161 473 1147 C 466 1133 461 1115 459 1094 C 456 1072 450 1022 440 942 C 430 862 424 798 422 752 L 412 752 Z" unicode="‡" />
<glyph horiz-adv-x="819" d="M 410 391 C 346 391 285 418 229 472 C 173 526 145 590 145 666 C 145 741 173 806 229 861 C 285 916 346 944 410 944 C 474 944 534 916 590 861 C 646 806 674 741 674 666 C 674 590 646 526 590 472 C 534 418 474 391 410 391 Z" unicode="•" />
<glyph horiz-adv-x="1595" d="M 236 -8 C 205 -8 179 2 157 24 C 135 45 125 71 125 102 C 125 132 135 159 157 181 C 179 203 205 215 236 215 C 266 215 293 203 315 181 C 337 159 348 132 348 102 C 348 71 337 45 315 24 C 293 2 266 -8 236 -8 Z M 797 -8 C 766 -8 740 2 718 24 C 696 45 686 71 686 102 C 686 132 696 159 718 181 C 740 203 766 215 797 215 C 827 215 854 203 876 181 C 898 159 909 132 909 102 C 909 71 898 45 876 24 C 854 2 827 -8 797 -8 Z M 1358 -8 C 1327 -8 1301 2 1279 24 C 1257 45 1247 71 1247 102 C 1247 132 1257 159 1279 181 C 1301 203 1327 215 1358 215 C 1388 215 1415 203 1437 181 C 1459 159 1470 132 1470 102 C 1470 71 1459 45 1437 24 C 1415 2 1388 -8 1358 -8 Z" unicode="…" />
<glyph horiz-adv-x="2474" d="M 446 635 C 370 635 301 660 237 712 C 173 764 141 841 141 944 C 141 1041 174 1120 242 1180 C 310 1240 378 1270 446 1270 C 522 1270 595 1244 664 1194 C 733 1144 768 1060 768 944 C 768 857 734 784 666 724 C 598 664 524 635 446 635 Z M 457 649 C 507 649 550 676 586 732 C 621 787 639 857 639 942 C 639 1032 623 1107 591 1166 C 559 1225 513 1255 453 1255 C 389 1255 343 1224 313 1163 C 283 1101 268 1031 268 952 C 268 872 283 801 313 740 C 343 679 391 649 457 649 Z M 1253 -29 C 1177 -29 1107 -2 1043 49 C 979 101 948 178 948 279 C 948 374 982 452 1050 514 C 1118 575 1185 606 1253 606 C 1329 606 1402 581 1471 531 C 1540 481 1575 397 1575 281 C 1575 191 1540 117 1472 59 C 1403 0 1330 -29 1253 -29 Z M 1264 -16 C 1312 -16 1355 12 1391 70 C 1427 127 1446 196 1446 276 C 1446 365 1430 440 1398 501 C 1366 561 1320 592 1260 592 C 1195 592 1148 560 1119 496 C 1089 432 1075 363 1075 287 C 1075 208 1090 138 1120 76 C 1150 14 1198 -16 1264 -16 Z M 2011 -29 C 1935 -29 1865 -2 1801 49 C 1737 101 1706 178 1706 279 C 1706 374 1740 452 1808 514 C 1876 575 1943 606 2011 606 C 2087 606 2160 581 2229 531 C 2298 481 2333 397 2333 281 C 2333 191 2298 117 2230 59 C 2161 0 2088 -29 2011 -29 Z M 2021 -16 C 2070 -16 2113 12 2149 70 C 2185 127 2204 196 2204 276 C 2204 365 2187 440 2155 501 C 2123 561 2077 592 2017 592 C 1953 592 1906 560 1877 496 C 1847 432 1833 363 1833 287 C 1833 208 1848 138 1878 76 C 1908 14 1955 -16 2021 -16 Z M 432 -197 L 403 -180 L 1282 1405 L 1313 1389 L 432 -197 Z" unicode="‰" />
<glyph horiz-adv-x="680" d="M 551 45 C 505 85 434 143 338 220 C 242 296 175 351 137 383 C 120 397 108 409 102 419 C 95 428 92 441 92 459 C 92 476 95 489 101 498 C 107 507 117 518 133 530 C 167 558 235 612 335 690 C 435 768 507 828 551 870 L 557 864 L 244 455 L 557 51 L 551 45 Z" unicode="‹" />
<glyph horiz-adv-x="680" d="M 129 45 L 123 51 L 436 455 L 123 864 L 129 870 C 173 828 245 768 345 690 C 445 612 512 558 547 530 C 562 518 573 507 579 498 C 585 489 588 476 588 459 C 588 441 584 428 577 419 C 570 409 559 397 543 383 C 505 351 438 296 342 220 C 246 143 175 85 129 45 Z" unicode="›" />
<glyph horiz-adv-x="659" d="M -215 -412 L -254 -391 L 791 1534 L 831 1513 L -215 -412 Z" unicode="⁄" />
<glyph horiz-adv-x="1141" d="M 684 -29 C 554 -29 448 16 364 106 C 280 196 230 326 215 496 L 63 496 L 63 518 L 213 518 C 212 550 212 582 212 614 C 212 645 213 674 215 702 L 63 702 L 63 725 L 219 725 C 238 873 292 1001 382 1109 C 472 1216 590 1270 737 1270 C 849 1270 934 1244 992 1194 C 1050 1144 1079 1089 1079 1030 C 1079 985 1069 951 1051 928 C 1033 904 1012 893 989 893 C 958 893 935 902 920 922 C 904 941 897 964 897 991 C 897 1021 904 1045 919 1063 C 934 1080 942 1104 942 1135 C 936 1170 912 1199 872 1222 C 832 1245 784 1257 729 1257 C 631 1257 552 1207 492 1109 C 432 1011 396 883 385 725 L 866 725 L 866 702 L 383 702 C 382 669 382 637 383 606 C 383 574 384 545 385 518 L 784 518 L 784 496 L 387 496 C 396 371 429 264 486 174 C 542 84 627 39 739 39 C 829 39 901 64 956 115 C 1011 165 1056 227 1090 299 L 1100 293 C 1060 203 1008 127 946 65 C 884 2 796 -29 684 -29 Z" unicode="€" />
<glyph horiz-adv-x="1288" d="M 600 887 L 600 891 C 606 891 617 893 635 896 C 653 898 666 903 676 909 C 684 914 690 925 694 942 C 698 959 700 982 700 1010 L 700 1309 C 700 1325 698 1338 695 1348 C 691 1358 686 1365 678 1370 C 667 1376 655 1381 641 1386 C 627 1390 615 1393 606 1393 L 606 1399 L 780 1399 L 938 1012 L 1053 1331 C 1057 1342 1061 1354 1065 1366 C 1069 1378 1072 1389 1073 1399 L 1245 1399 L 1245 1393 C 1239 1393 1228 1391 1214 1388 C 1199 1384 1188 1382 1182 1380 C 1174 1377 1169 1373 1166 1367 C 1162 1361 1161 1354 1161 1346 L 1161 940 C 1161 931 1162 924 1166 918 C 1169 912 1174 907 1182 905 C 1186 902 1197 899 1213 896 C 1229 893 1240 891 1247 891 L 1247 887 L 987 887 L 987 891 C 993 891 1006 893 1026 895 C 1046 897 1058 900 1063 903 C 1069 907 1074 912 1078 918 C 1081 924 1083 931 1083 940 L 1083 1337 L 1071 1337 L 911 893 L 903 893 L 864 999 L 727 1339 L 715 1339 L 715 1016 C 715 987 717 965 722 949 C 726 933 732 921 739 915 C 746 909 760 903 780 899 C 800 894 813 891 819 891 L 819 887 L 600 887 Z M 166 887 L 166 891 C 172 891 184 892 200 894 C 216 896 227 898 233 901 C 241 903 248 907 252 913 C 256 919 258 926 258 934 L 258 1389 L 227 1389 C 219 1389 206 1388 189 1388 C 171 1388 158 1387 150 1386 C 133 1384 117 1364 101 1326 C 85 1288 76 1262 72 1247 L 66 1247 L 66 1399 L 526 1399 L 526 1247 L 520 1247 C 515 1262 505 1288 491 1326 C 476 1364 460 1384 444 1386 C 435 1387 425 1388 414 1388 C 403 1388 393 1389 383 1389 L 338 1389 L 338 938 C 338 930 340 922 344 916 C 348 910 353 905 360 903 L 426 891 L 426 887 L 166 887 Z" unicode="™" />
<glyph horiz-adv-x="1139" d="M 76 504 L 76 559 L 1063 559 L 1063 504 L 76 504 Z" unicode="−" />
<glyph horiz-adv-x="659" d="M -215 -412 L -254 -391 L 791 1534 L 831 1513 L -215 -412 Z" unicode="∕" />
<glyph horiz-adv-x="467" d="M 236 440 C 203 440 175 451 153 474 C 130 496 119 524 119 557 C 119 589 130 617 153 641 C 175 664 203 676 236 676 C 268 676 296 664 319 641 C 342 617 354 589 354 557 C 354 524 342 496 319 474 C 296 451 268 440 236 440 Z" unicode="∙" />
<glyph horiz-adv-x="1139" d="M 1014 133 L 109 573 L 109 614 L 1014 1055 L 1014 995 L 184 594 L 1014 193 L 1014 133 Z M 117 0 L 117 53 L 1022 53 L 1022 0 L 117 0 Z" unicode="≤" />
<glyph horiz-adv-x="1139" d="M 125 133 L 125 193 L 954 594 L 125 995 L 125 1055 L 1030 614 L 1030 573 L 125 133 Z M 117 0 L 117 53 L 1022 53 L 1022 0 L 117 0 Z" unicode="≥" />
<glyph horiz-adv-x="1255" d="M 770 -4 C 729 -4 693 10 662 40 C 631 69 616 106 616 150 C 616 175 622 204 634 237 C 646 269 653 304 653 342 L 653 365 L 639 375 C 632 374 625 373 618 373 C 611 373 604 373 598 373 C 576 373 556 376 537 383 C 517 389 499 398 483 410 L 457 408 C 442 386 432 365 426 344 C 420 322 416 302 414 283 C 406 239 390 199 366 165 C 342 130 304 113 254 113 C 213 113 176 128 144 158 C 112 188 96 225 96 270 C 96 314 112 350 145 380 C 177 409 218 424 266 424 C 283 424 305 424 332 426 C 359 427 388 435 418 451 L 424 479 C 418 492 413 506 409 522 C 405 537 403 552 403 567 C 403 576 403 585 405 593 C 406 601 408 610 410 618 L 399 645 C 390 647 381 649 371 650 C 361 650 352 651 344 651 C 315 651 291 648 272 644 C 253 639 233 637 213 637 C 168 637 130 652 100 683 C 70 714 55 751 55 793 C 55 835 70 871 100 903 C 130 934 167 950 211 950 C 247 950 277 941 299 924 C 321 906 337 886 348 864 C 359 840 369 813 377 783 C 385 752 401 724 426 698 L 457 700 C 475 719 497 734 521 745 C 545 756 571 762 598 762 L 621 776 C 621 818 609 860 586 902 C 562 944 551 980 551 1010 C 551 1054 566 1090 597 1118 C 628 1145 665 1159 707 1159 C 751 1159 788 1143 816 1112 C 844 1081 858 1045 858 1004 C 858 949 835 907 789 879 C 743 850 706 812 678 766 L 686 741 C 709 729 729 713 747 693 C 765 673 777 649 784 623 L 809 610 C 849 625 888 653 925 693 C 961 733 1003 754 1051 754 C 1091 754 1126 738 1156 708 C 1185 677 1200 640 1200 596 C 1200 553 1185 517 1155 488 C 1125 458 1089 444 1047 444 C 1008 444 970 459 932 489 C 894 519 853 538 809 547 L 791 530 C 786 505 777 482 763 461 C 749 440 731 422 711 408 L 709 387 C 725 365 742 349 761 337 C 779 325 798 315 817 307 C 847 293 874 273 896 247 C 918 221 930 190 930 152 C 930 111 914 75 883 43 C 851 11 814 -4 770 -4 Z M 598 426 C 638 426 670 439 696 467 C 722 495 735 529 735 569 C 735 607 722 640 696 668 C 670 695 638 709 598 709 C 559 709 526 695 500 668 C 474 640 461 607 461 569 C 461 529 474 495 500 467 C 526 439 559 426 598 426 Z" unicode="" />
<glyph horiz-adv-x="1196" d="M 74 0 L 74 8 C 92 8 108 9 122 11 C 135 12 149 15 164 20 C 183 26 197 38 206 55 C 214 72 219 92 219 115 L 219 895 L 8 895 L 8 924 L 219 924 L 219 979 C 219 1063 231 1138 257 1204 C 282 1270 319 1330 367 1384 C 395 1416 439 1446 497 1474 C 555 1502 612 1516 668 1516 C 748 1516 808 1502 848 1474 C 888 1446 915 1414 930 1380 C 964 1433 1011 1471 1071 1495 C 1131 1518 1183 1530 1225 1530 C 1291 1530 1337 1512 1364 1476 C 1391 1440 1405 1404 1405 1366 C 1405 1349 1397 1330 1381 1310 C 1365 1290 1343 1280 1315 1280 C 1287 1280 1265 1288 1248 1306 C 1231 1324 1223 1346 1223 1374 C 1223 1383 1224 1399 1227 1421 C 1229 1443 1232 1463 1235 1481 C 1230 1489 1222 1495 1211 1501 C 1199 1506 1188 1509 1178 1509 C 1111 1509 1060 1475 1024 1407 C 988 1339 967 1222 961 1055 C 959 1039 958 1018 958 990 C 958 962 958 940 958 924 L 1217 924 L 1217 895 L 958 895 L 958 125 C 958 102 962 82 972 66 C 981 49 995 37 1014 31 C 1028 24 1049 19 1076 15 C 1103 11 1126 8 1145 8 L 1145 0 L 680 0 L 680 8 C 698 8 713 10 723 12 C 733 14 745 17 760 23 C 779 29 793 40 802 56 C 810 72 815 92 815 115 L 815 895 L 362 895 L 362 125 C 362 102 366 82 376 66 C 385 49 399 37 418 31 C 433 24 454 19 480 15 C 506 11 528 8 547 8 L 547 0 L 74 0 Z M 362 924 L 815 924 L 815 985 C 815 1023 817 1062 823 1102 C 829 1141 836 1177 846 1210 C 819 1210 798 1217 784 1231 C 769 1245 762 1264 762 1288 C 762 1322 769 1347 784 1364 C 799 1381 808 1394 811 1403 C 809 1418 797 1438 777 1463 C 756 1488 715 1501 653 1501 C 594 1501 531 1466 463 1396 C 395 1326 362 1206 362 1036 L 362 924 Z" unicode="ﬀ" />
<glyph horiz-adv-x="1139" d="M 74 0 L 74 8 C 92 8 106 9 116 10 C 126 11 138 14 154 18 C 178 25 195 37 205 54 C 214 70 219 90 219 113 L 219 895 L 8 895 L 8 924 L 219 924 L 219 989 C 219 1073 231 1149 257 1215 C 282 1281 319 1341 369 1395 C 397 1426 438 1456 490 1486 C 542 1515 600 1530 664 1530 C 760 1530 833 1508 883 1465 C 933 1421 958 1371 958 1313 C 958 1291 950 1266 936 1238 C 922 1210 896 1196 860 1196 C 839 1196 817 1202 794 1216 C 771 1230 760 1254 760 1288 C 760 1322 765 1347 777 1364 C 789 1381 797 1394 801 1403 C 800 1418 790 1441 772 1472 C 753 1502 713 1518 651 1518 C 579 1518 513 1480 453 1404 C 392 1328 362 1209 362 1047 L 362 924 L 725 924 L 936 940 L 946 930 L 946 127 C 946 104 950 84 960 68 C 969 51 983 39 1001 33 C 1016 26 1030 20 1044 16 C 1057 11 1073 8 1092 8 L 1092 0 L 659 0 L 659 8 C 677 8 693 9 705 11 C 717 12 731 15 745 20 C 764 26 779 38 789 54 C 799 70 805 90 805 113 L 805 793 C 803 813 800 832 796 848 C 792 864 785 880 776 895 L 362 895 L 362 125 C 362 102 366 82 376 66 C 385 49 399 37 418 31 C 433 24 454 19 480 15 C 506 11 528 8 547 8 L 547 0 L 74 0 Z" unicode="ﬁ" />
<glyph horiz-adv-x="1145" d="M 74 0 L 74 8 C 92 8 108 9 122 11 C 135 12 149 15 164 20 C 183 26 197 38 206 55 C 214 72 219 92 219 115 L 219 895 L 8 895 L 8 924 L 219 924 L 219 987 C 219 1072 229 1151 251 1223 C 272 1295 307 1358 356 1411 C 394 1451 438 1481 490 1501 C 541 1520 597 1530 657 1530 C 687 1530 716 1526 746 1518 C 776 1510 802 1501 825 1491 L 940 1528 L 950 1520 L 950 127 C 950 104 954 84 964 68 C 973 51 987 39 1006 31 C 1020 23 1034 18 1048 14 C 1061 10 1077 8 1096 8 L 1096 0 L 662 0 L 662 8 C 680 8 695 9 709 11 C 723 12 737 15 752 20 C 771 26 785 38 794 55 C 802 72 807 92 807 115 L 807 1395 C 778 1435 749 1464 721 1484 C 692 1503 659 1513 621 1513 C 540 1513 479 1479 437 1413 C 395 1346 371 1232 365 1071 C 363 1055 362 1031 362 998 C 362 965 362 940 362 924 L 618 924 L 618 895 L 362 895 L 362 125 C 362 102 366 82 375 66 C 383 49 397 37 416 31 C 430 24 451 19 478 15 C 505 11 528 8 547 8 L 547 0 L 74 0 Z" unicode="ﬂ" />
<glyph horiz-adv-x="1737" d="M 74 0 L 74 8 C 92 8 108 10 122 12 C 135 14 149 17 164 23 C 183 29 197 40 206 56 C 214 72 219 92 219 115 L 219 895 L 8 895 L 8 924 L 219 924 L 219 979 C 219 1063 231 1138 257 1204 C 282 1270 319 1330 367 1384 C 395 1416 439 1446 497 1474 C 555 1502 612 1516 668 1516 C 748 1516 808 1498 850 1462 C 891 1426 919 1392 934 1358 C 972 1408 1021 1449 1079 1481 C 1137 1513 1198 1530 1262 1530 C 1358 1530 1431 1508 1481 1465 C 1531 1421 1556 1371 1556 1313 C 1556 1291 1548 1266 1534 1238 C 1520 1210 1494 1196 1458 1196 C 1437 1196 1415 1202 1392 1216 C 1369 1230 1358 1254 1358 1288 C 1358 1322 1363 1349 1375 1369 C 1387 1389 1395 1403 1399 1411 C 1398 1426 1388 1447 1370 1475 C 1351 1502 1311 1516 1249 1516 C 1177 1516 1111 1478 1051 1404 C 991 1330 961 1211 961 1047 L 961 924 L 1321 924 L 1534 940 L 1544 930 L 1544 127 C 1544 104 1548 84 1558 68 C 1567 51 1581 39 1599 33 C 1614 26 1628 20 1642 16 C 1655 11 1671 8 1690 8 L 1690 0 L 1255 0 L 1255 8 C 1273 8 1289 9 1301 11 C 1313 12 1327 15 1341 20 C 1360 26 1375 38 1385 54 C 1395 70 1401 90 1401 113 L 1401 788 C 1401 808 1398 828 1393 846 C 1388 864 1381 880 1372 895 L 961 895 L 961 125 C 961 102 965 82 974 66 C 983 49 997 37 1016 31 C 1031 24 1052 19 1078 15 C 1104 11 1126 8 1145 8 L 1145 0 L 672 0 L 672 8 C 690 8 706 10 720 12 C 733 14 747 17 762 23 C 781 29 795 40 804 56 C 812 72 817 92 817 115 L 817 895 L 362 895 L 362 125 C 362 102 366 83 376 67 C 385 51 399 39 418 33 C 433 26 454 20 482 16 C 509 11 532 8 551 8 L 551 0 L 74 0 Z M 360 924 L 817 924 L 817 981 C 817 1019 820 1059 826 1101 C 832 1143 841 1179 854 1210 C 827 1210 805 1217 788 1231 C 770 1245 762 1264 762 1288 C 762 1322 769 1348 784 1367 C 799 1385 808 1399 811 1407 C 809 1422 796 1441 772 1465 C 748 1489 709 1501 653 1501 C 594 1501 530 1466 462 1396 C 394 1326 360 1206 360 1036 L 360 924 Z" unicode="ﬃ" />
</font>
</defs>
</svg>
