<?xml version="1.0" encoding="utf-8" ?><svg version="1.1" xmlns = 'http://www.w3.org/2000/svg'><defs><font id='web' horiz-adv-x="1000">
<font-face font-family="web" descent="-476" cap-height="1399" units-per-em="2048" bbox="-299,-471,2388,1920" x-height="926" ascent="1572" />
<missing-glyph horiz-adv-x="1024" d="M 906 16 L 906 1032 L 118 1032 L 118 16 L 906 16 Z M 102 1048 L 922 1048 L 922 0 L 102 0 L 102 1048 Z" /><glyph horiz-adv-x="483" d="" unicode=" " />
<glyph horiz-adv-x="659" d="M 322 434 C 307 612 284 789 252 963 C 220 1137 205 1249 205 1298 C 205 1334 216 1367 239 1395 C 261 1423 292 1438 330 1438 C 368 1438 398 1423 421 1395 C 443 1367 455 1334 455 1298 C 455 1250 439 1138 407 964 C 375 790 351 613 334 434 L 322 434 Z M 328 -16 C 291 -16 260 -3 234 22 C 208 47 195 79 195 117 C 195 153 208 184 234 211 C 260 238 291 252 328 252 C 365 252 397 238 423 211 C 449 184 463 153 463 117 C 463 79 449 47 423 22 C 397 -3 365 -16 328 -16 Z" unicode="!" />
<glyph horiz-adv-x="803" d="M 188 967 C 173 1067 153 1157 127 1236 C 101 1314 88 1368 88 1397 C 88 1427 97 1454 117 1476 C 136 1498 164 1509 201 1509 C 237 1509 264 1498 284 1476 C 303 1454 313 1427 313 1397 C 313 1370 300 1316 274 1236 C 248 1156 226 1066 209 967 L 188 967 Z M 590 967 C 574 1067 554 1157 528 1236 C 502 1314 489 1368 489 1397 C 489 1427 498 1454 518 1476 C 537 1498 565 1509 602 1509 C 638 1509 666 1498 686 1476 C 705 1454 715 1427 715 1397 C 715 1370 701 1316 675 1236 C 649 1156 627 1066 610 967 L 590 967 Z" unicode="&#x22;" />
<glyph horiz-adv-x="1053" d="M 375 -14 L 375 334 L 143 276 L 143 436 L 375 492 L 375 743 L 143 686 L 143 844 L 375 901 L 375 1284 L 395 1284 L 395 907 L 655 975 L 655 1284 L 678 1284 L 678 981 L 909 1038 L 909 881 L 678 823 L 678 571 L 909 629 L 909 473 L 678 416 L 678 -14 L 655 -14 L 655 408 L 395 342 L 395 -14 L 375 -14 Z M 395 498 L 655 565 L 655 817 L 395 750 L 395 498 Z" unicode="#" />
<glyph horiz-adv-x="1231" d="M 522 -291 L 522 -10 C 410 2 317 34 244 87 C 171 139 135 204 135 281 C 135 337 147 382 173 414 C 198 446 231 463 272 463 C 306 463 333 452 351 430 C 369 408 379 380 379 344 C 379 296 364 266 335 255 C 305 244 283 225 268 199 C 268 149 293 108 345 76 C 397 43 456 22 522 14 L 522 557 C 406 571 317 604 255 656 C 193 708 162 785 162 887 C 162 973 192 1052 252 1124 C 312 1195 402 1240 522 1260 L 522 1460 L 551 1460 L 551 1264 C 559 1264 573 1265 593 1267 C 612 1269 627 1270 639 1270 C 650 1270 664 1269 680 1269 C 696 1269 710 1268 723 1266 L 723 1460 L 752 1460 L 752 1264 C 854 1250 932 1220 985 1172 C 1038 1124 1065 1072 1065 1014 C 1065 966 1054 926 1033 896 C 1012 865 984 850 948 850 C 921 850 897 858 875 876 C 853 894 842 920 842 954 C 842 977 846 996 856 1011 C 866 1026 877 1040 889 1053 C 899 1063 910 1074 920 1086 C 930 1097 938 1110 942 1126 C 936 1147 916 1169 882 1193 C 848 1216 804 1232 752 1241 L 752 735 C 884 714 976 676 1029 622 C 1081 568 1108 489 1108 385 C 1108 311 1081 235 1028 156 C 974 77 882 24 752 -2 L 752 -291 L 723 -291 L 723 -6 C 705 -8 686 -9 665 -11 C 644 -13 624 -14 606 -14 C 598 -14 588 -13 577 -13 C 565 -13 557 -12 551 -12 L 551 -291 L 522 -291 Z M 551 10 C 557 10 566 9 578 9 C 590 8 599 8 606 8 C 626 8 647 9 669 11 C 690 13 708 16 723 18 L 723 532 C 700 536 673 540 641 544 C 609 548 579 551 551 553 L 551 10 Z M 723 739 L 723 1243 C 712 1245 700 1246 686 1246 C 672 1246 660 1247 649 1247 C 637 1247 621 1246 601 1244 C 581 1242 564 1241 551 1239 L 551 760 L 723 739 Z M 522 766 L 522 1233 C 462 1217 416 1187 383 1141 C 350 1095 334 1049 334 1001 C 334 929 351 875 386 837 C 420 799 466 776 522 766 Z M 752 27 C 820 46 868 82 898 135 C 927 187 942 237 942 285 C 942 350 925 404 892 447 C 859 489 812 516 752 526 L 752 27 Z" unicode="$" />
<glyph horiz-adv-x="1735" d="M 449 618 C 365 618 291 644 225 698 C 159 752 127 831 127 936 C 127 1035 161 1115 230 1177 C 299 1239 372 1270 449 1270 C 532 1270 609 1244 679 1192 C 749 1140 784 1055 784 938 C 784 848 749 773 679 711 C 609 649 533 618 449 618 Z M 457 635 C 507 635 548 663 581 719 C 614 775 631 847 631 934 C 631 1026 616 1103 586 1163 C 556 1223 511 1253 453 1253 C 391 1253 347 1221 320 1159 C 292 1097 279 1025 279 944 C 279 861 292 789 320 727 C 347 665 393 635 457 635 Z M 1272 -29 C 1188 -29 1114 -2 1048 52 C 982 106 950 185 950 289 C 950 385 984 465 1054 528 C 1124 591 1196 623 1272 623 C 1355 623 1432 597 1502 545 C 1572 493 1608 409 1608 291 C 1608 200 1573 124 1503 63 C 1433 1 1356 -29 1272 -29 Z M 1282 -14 C 1328 -14 1369 15 1403 74 C 1437 132 1454 203 1454 287 C 1454 376 1439 451 1409 513 C 1379 575 1336 606 1278 606 C 1216 606 1171 574 1143 510 C 1115 446 1102 375 1102 297 C 1102 215 1116 143 1144 80 C 1172 17 1218 -14 1282 -14 Z M 442 -197 L 410 -178 L 1286 1407 L 1323 1389 L 442 -197 Z" unicode="%" />
<glyph horiz-adv-x="1522" d="M 465 -33 C 369 -33 279 -5 197 48 C 115 102 74 188 74 305 C 74 402 103 480 162 539 C 220 597 311 663 434 735 C 379 816 338 886 311 946 C 283 1006 270 1061 270 1112 C 270 1204 305 1280 376 1339 C 447 1397 529 1427 623 1427 C 712 1427 777 1398 819 1342 C 860 1285 881 1222 881 1153 C 881 1093 859 1033 817 975 C 774 917 711 863 629 813 C 691 721 750 639 807 565 C 863 491 923 414 987 336 C 1031 398 1068 473 1098 562 C 1128 651 1143 719 1143 766 C 1143 790 1127 812 1097 830 C 1067 848 1017 861 948 870 L 948 883 L 1536 883 L 1536 870 C 1478 864 1426 856 1380 847 C 1334 837 1294 814 1262 778 C 1232 744 1196 679 1156 581 C 1116 483 1064 395 1001 319 C 1029 285 1065 241 1109 189 C 1153 137 1188 103 1214 88 C 1250 66 1293 49 1344 36 C 1394 23 1440 16 1481 14 L 1481 0 L 1001 0 L 858 176 C 809 126 752 78 687 34 C 622 -10 548 -33 465 -33 Z M 553 68 C 603 68 656 78 710 100 C 764 121 808 152 842 193 C 784 269 715 359 635 463 C 555 567 493 653 449 719 C 389 681 346 633 322 577 C 297 521 285 459 285 391 C 285 307 308 233 355 167 C 402 101 468 68 553 68 Z M 616 831 C 682 871 726 919 750 977 C 774 1034 786 1095 786 1159 C 786 1225 773 1282 749 1331 C 724 1380 683 1405 627 1405 C 563 1405 520 1381 499 1334 C 477 1286 467 1232 467 1171 C 467 1127 479 1076 503 1019 C 527 962 565 899 616 831 Z" unicode="&#x26;" />
<glyph horiz-adv-x="401" d="M 188 967 C 173 1067 153 1157 127 1236 C 101 1314 88 1368 88 1397 C 88 1427 97 1454 117 1476 C 136 1498 164 1509 201 1509 C 237 1509 264 1498 284 1476 C 303 1454 313 1427 313 1397 C 313 1370 300 1316 274 1236 C 248 1156 226 1066 209 967 L 188 967 Z" unicode="'" />
<glyph horiz-adv-x="686" d="M 594 -328 C 435 -212 312 -79 225 71 C 137 221 94 399 94 604 C 94 801 136 974 220 1124 C 304 1273 428 1409 592 1532 L 639 1501 C 477 1379 356 1248 278 1106 C 199 964 160 797 160 604 C 160 400 204 225 292 77 C 380 -70 497 -194 643 -295 L 594 -328 Z" unicode="(" />
<glyph horiz-adv-x="686" d="M 92 -328 L 43 -295 C 188 -194 305 -70 393 77 C 481 225 526 400 526 604 C 526 797 486 964 408 1106 C 329 1248 209 1379 47 1501 L 94 1532 C 258 1409 382 1273 466 1124 C 550 974 592 801 592 604 C 592 399 548 221 461 71 C 373 -79 250 -212 92 -328 Z" unicode=")" />
<glyph horiz-adv-x="782" d="M 393 811 C 375 811 362 815 354 824 C 346 833 342 845 342 860 C 342 868 343 881 347 901 C 351 921 355 943 360 967 C 365 991 370 1016 375 1042 C 379 1067 383 1090 385 1110 C 361 1094 338 1077 316 1057 C 294 1037 273 1019 254 1002 C 235 984 218 970 202 958 C 186 946 174 940 164 940 C 152 940 142 945 133 956 C 123 966 119 977 119 989 C 119 1003 126 1015 140 1025 C 154 1035 174 1044 198 1053 C 222 1061 250 1071 282 1081 C 314 1091 347 1104 383 1120 C 348 1135 315 1148 283 1158 C 251 1168 222 1177 198 1186 C 173 1195 153 1205 138 1215 C 123 1225 116 1238 116 1254 C 116 1268 121 1280 131 1289 C 141 1298 152 1303 163 1303 C 175 1303 188 1297 204 1285 C 220 1273 237 1258 256 1240 C 274 1222 294 1204 316 1184 C 338 1164 361 1146 385 1130 C 383 1150 379 1173 375 1199 C 370 1225 365 1250 360 1274 C 355 1298 351 1319 347 1339 C 343 1358 342 1372 342 1380 C 342 1395 346 1407 354 1416 C 362 1425 375 1430 393 1430 C 411 1430 424 1425 432 1415 C 440 1405 444 1393 444 1380 C 444 1373 442 1360 438 1341 C 434 1321 429 1299 424 1275 C 419 1250 414 1225 409 1199 C 404 1173 401 1150 399 1130 C 423 1148 447 1167 469 1187 C 491 1207 511 1225 530 1242 C 549 1259 566 1273 581 1285 C 596 1296 609 1302 619 1302 C 630 1302 640 1296 650 1285 C 659 1274 664 1263 664 1252 C 664 1236 656 1224 642 1214 C 628 1204 609 1194 585 1185 C 561 1176 533 1167 501 1157 C 469 1147 436 1134 401 1120 C 433 1106 464 1094 496 1084 C 527 1074 555 1065 580 1056 C 605 1046 625 1036 641 1026 C 656 1016 664 1003 664 989 C 664 981 662 974 659 968 C 655 962 651 956 647 952 C 642 947 637 943 632 941 C 626 939 621 938 617 938 C 605 938 592 944 576 956 C 560 968 543 982 524 1000 C 505 1018 485 1037 464 1057 C 442 1077 421 1094 399 1110 C 401 1090 404 1068 409 1042 C 414 1016 419 991 424 966 C 429 941 434 919 438 899 C 442 879 444 866 444 860 C 444 847 439 836 431 826 C 422 816 409 811 393 811 Z" unicode="*" />
<glyph horiz-adv-x="1145" d="M 537 39 L 537 496 L 78 496 L 78 567 L 537 567 L 537 1026 L 608 1026 L 608 567 L 1065 567 L 1065 496 L 608 496 L 608 39 L 537 39 Z" unicode="+" />
<glyph horiz-adv-x="512" d="M 117 -342 L 106 -322 C 163 -288 212 -242 252 -185 C 292 -128 315 -65 322 4 L 246 4 C 198 4 163 16 139 40 C 115 64 104 95 104 133 C 104 161 115 189 138 215 C 160 241 191 254 231 254 C 291 254 334 233 362 193 C 389 153 403 101 403 37 C 403 -33 378 -100 328 -165 C 278 -229 208 -288 117 -342 Z" unicode="," />
<glyph horiz-adv-x="764" d="M 61 449 L 61 590 L 702 590 L 702 449 L 61 449 Z" unicode="-" />
<glyph horiz-adv-x="512" d="M 258 -18 C 220 -18 187 -5 161 21 C 134 47 121 79 121 117 C 121 155 134 187 161 214 C 187 240 220 254 258 254 C 296 254 328 240 355 214 C 381 187 395 155 395 117 C 395 79 381 47 355 21 C 328 -5 296 -18 258 -18 Z" unicode="." />
<glyph horiz-adv-x="825" d="M 119 -426 L 63 -410 L 705 1540 L 760 1524 L 119 -426 Z" unicode="/" />
<glyph horiz-adv-x="1257" d="M 618 -29 C 458 -29 332 30 240 150 C 148 269 102 416 102 592 C 102 793 155 956 262 1082 C 368 1207 494 1270 639 1270 C 797 1270 923 1210 1016 1090 C 1108 970 1155 823 1155 649 C 1155 447 1102 283 996 158 C 890 33 764 -29 618 -29 Z M 625 -10 C 719 -10 794 49 850 169 C 906 288 934 439 934 623 C 934 812 909 964 860 1079 C 810 1193 735 1251 633 1251 C 537 1251 461 1191 406 1072 C 351 952 324 801 324 618 C 324 424 348 271 398 159 C 447 46 523 -10 625 -10 Z" unicode="0" />
<glyph horiz-adv-x="874" d="M 160 0 L 160 14 C 178 14 203 17 233 22 C 263 26 290 32 315 39 C 336 45 353 55 365 71 C 377 87 383 106 383 129 L 383 1139 L 117 1122 L 117 1139 C 169 1145 213 1152 247 1158 C 281 1164 316 1171 354 1180 C 408 1192 452 1204 486 1216 C 520 1228 552 1243 582 1262 L 598 1262 C 590 1216 585 1165 583 1111 C 581 1057 580 999 580 938 L 580 139 C 580 111 585 90 595 75 C 605 60 620 49 639 41 C 654 34 679 28 714 23 C 749 17 775 14 793 14 L 793 0 L 160 0 Z" unicode="1" />
<glyph horiz-adv-x="1141" d="M 109 0 L 109 51 C 231 145 328 223 399 287 C 470 351 540 419 610 492 C 701 586 763 672 795 750 C 827 828 844 910 844 997 C 844 1077 826 1139 790 1183 C 754 1227 702 1249 635 1249 C 535 1249 453 1205 389 1118 C 325 1030 293 937 293 838 C 293 791 301 753 318 724 C 335 694 364 680 406 680 C 453 680 493 693 525 719 C 557 745 583 773 604 803 L 616 793 C 584 741 544 699 495 666 C 446 632 389 616 324 616 C 270 616 225 633 187 667 C 149 701 131 751 131 817 C 131 926 185 1029 293 1125 C 401 1221 528 1270 674 1270 C 784 1270 872 1241 940 1185 C 1008 1129 1042 1050 1042 950 C 1042 808 985 682 871 572 C 757 462 585 343 356 217 L 297 166 L 848 166 C 900 166 943 187 978 229 C 1012 271 1040 313 1061 356 L 1079 350 L 958 0 L 109 0 Z" unicode="2" />
<glyph horiz-adv-x="1157" d="M 442 -53 C 339 -53 249 -27 173 24 C 97 75 59 143 59 227 C 59 278 74 319 105 349 C 135 379 171 395 211 395 C 240 395 265 386 285 370 C 305 353 315 328 315 295 C 315 273 309 256 297 244 C 285 231 273 220 259 210 C 245 199 232 188 220 177 C 208 166 203 151 203 133 C 203 89 223 50 264 16 C 304 -18 364 -35 442 -35 C 531 -35 616 11 697 103 C 778 195 819 298 819 412 C 819 483 807 541 783 585 C 759 629 720 651 666 651 C 627 651 587 635 547 605 C 506 574 470 544 438 516 L 410 549 C 518 619 611 688 689 758 C 767 828 807 914 807 1018 C 807 1089 791 1145 761 1187 C 730 1228 682 1249 616 1249 C 550 1249 487 1220 427 1163 C 366 1106 336 1036 336 954 C 336 916 343 886 359 864 C 375 842 400 831 436 831 C 461 831 487 838 515 854 C 542 870 562 884 575 897 L 584 887 C 561 861 527 833 482 801 C 436 769 398 754 367 754 C 303 754 256 769 225 800 C 193 830 178 867 178 909 C 178 1003 228 1086 328 1160 C 428 1233 542 1270 672 1270 C 778 1270 861 1241 923 1185 C 985 1129 1016 1066 1016 997 C 1016 934 987 875 931 819 C 875 763 784 722 659 698 L 623 668 C 629 668 646 670 676 672 C 706 674 724 676 731 676 C 817 676 889 652 946 605 C 1003 558 1032 489 1032 397 C 1032 259 976 149 864 68 C 752 -12 612 -53 442 -53 Z" unicode="3" />
<glyph horiz-adv-x="1165" d="M 393 0 L 393 14 C 411 14 436 16 467 19 C 497 21 519 25 532 31 C 551 37 565 48 575 65 C 585 82 590 102 590 125 L 590 432 L 49 432 L 49 449 L 745 1288 L 780 1288 L 780 475 L 836 475 C 870 475 899 476 924 480 C 948 483 968 490 983 502 C 1001 516 1016 539 1026 571 C 1036 603 1041 631 1042 657 L 1057 657 L 1057 240 L 1042 240 C 1041 269 1036 300 1026 334 C 1016 368 1001 393 981 410 C 967 420 949 426 925 428 C 901 430 872 432 840 432 L 780 432 L 780 137 C 780 114 784 94 794 77 C 803 59 817 47 836 39 C 852 32 874 26 902 22 C 930 17 954 14 973 14 L 973 0 L 393 0 Z M 117 475 L 590 475 L 590 1042 L 117 475 Z" unicode="4" />
<glyph horiz-adv-x="1069" d="M 451 -29 C 333 -29 241 -4 173 43 C 105 91 72 149 72 215 C 72 257 84 289 109 312 C 133 334 164 346 201 346 C 229 346 252 337 268 319 C 284 301 293 278 293 252 C 293 226 285 202 269 178 C 253 154 246 128 246 100 C 249 71 266 45 298 22 C 330 0 380 -12 449 -12 C 541 -12 612 33 662 125 C 712 216 737 332 737 473 C 737 567 714 638 670 688 C 626 737 569 762 500 762 C 450 762 395 746 337 715 C 279 684 236 637 209 573 L 182 580 L 338 1264 L 358 1264 C 372 1247 406 1229 459 1211 C 511 1193 577 1184 657 1184 C 729 1184 790 1191 840 1205 C 889 1219 936 1243 981 1278 L 989 1270 C 933 1170 853 1099 748 1058 C 642 1017 547 997 461 997 C 436 997 406 997 371 998 C 336 999 315 1000 309 1001 L 227 662 C 263 696 305 725 354 749 C 402 773 463 786 537 786 C 657 786 756 751 833 683 C 909 615 948 517 948 389 C 948 268 897 168 797 89 C 696 10 581 -29 451 -29 Z" unicode="5" />
<glyph horiz-adv-x="1159" d="M 557 -29 C 437 -29 334 22 248 124 C 162 226 119 369 119 555 C 119 799 192 1007 339 1178 C 486 1348 645 1434 817 1434 C 900 1434 965 1413 1012 1373 C 1059 1332 1083 1284 1083 1229 C 1083 1193 1075 1164 1060 1144 C 1044 1124 1017 1114 979 1114 C 955 1114 937 1119 925 1131 C 912 1142 902 1157 895 1176 C 887 1194 880 1214 875 1238 C 869 1261 862 1284 854 1307 C 839 1344 823 1369 805 1382 C 787 1394 763 1401 733 1401 C 643 1401 560 1332 483 1196 C 406 1060 354 888 328 682 L 340 678 C 378 740 425 787 481 819 C 537 851 603 868 678 868 C 773 868 858 828 932 748 C 1006 668 1044 567 1044 444 C 1044 312 1002 201 918 109 C 834 17 714 -29 557 -29 Z M 563 -10 C 651 -10 716 32 760 118 C 803 204 825 313 825 446 C 825 568 805 662 765 727 C 725 792 665 825 586 825 C 512 825 449 786 397 710 C 345 634 319 531 319 403 C 319 279 341 179 385 103 C 429 27 489 -10 563 -10 Z" unicode="6" />
<glyph horiz-adv-x="1036" d="M 434 -246 C 400 -246 375 -235 357 -214 C 339 -193 330 -156 330 -102 C 330 -53 356 29 409 146 C 461 263 518 374 578 479 C 636 583 690 674 738 754 C 786 833 848 927 926 1036 L 324 1036 C 255 1036 203 1007 168 950 C 133 892 111 843 102 801 L 82 807 L 205 1333 L 221 1333 L 238 1219 L 1061 1219 L 1061 1200 C 980 1084 916 982 868 894 C 820 806 771 698 721 569 C 682 468 649 370 622 276 C 595 182 577 66 569 -70 C 566 -116 554 -156 534 -192 C 513 -228 480 -246 434 -246 Z" unicode="7" />
<glyph horiz-adv-x="1102" d="M 510 -31 C 389 -31 291 0 215 59 C 139 119 102 193 102 279 C 102 348 131 412 189 470 C 247 528 317 573 397 604 C 310 642 246 684 206 730 C 165 776 145 838 145 918 C 145 1022 189 1109 278 1178 C 367 1247 463 1282 565 1282 C 684 1282 778 1254 846 1198 C 914 1142 948 1070 948 981 C 948 935 929 887 891 837 C 853 787 786 739 690 694 C 769 668 840 630 904 578 C 967 526 999 455 999 367 C 999 244 947 147 843 76 C 739 4 628 -31 510 -31 Z M 528 -8 C 609 -8 678 19 735 75 C 792 131 821 200 821 283 C 821 346 798 397 753 437 C 707 477 655 508 596 532 C 568 542 540 553 511 565 C 481 576 452 586 424 594 C 374 567 332 524 300 466 C 268 408 252 344 252 276 C 252 193 275 125 323 72 C 371 18 439 -8 528 -8 Z M 664 707 C 720 732 759 771 782 825 C 805 879 817 940 817 1008 C 817 1080 795 1141 751 1189 C 707 1237 646 1262 567 1262 C 488 1262 426 1236 382 1186 C 337 1135 315 1076 315 1010 C 315 958 328 912 355 874 C 381 836 420 803 471 776 C 496 762 525 749 557 738 C 589 727 625 717 664 707 Z" unicode="8" />
<glyph horiz-adv-x="1159" d="M 326 -209 C 241 -209 174 -187 125 -143 C 75 -99 51 -52 51 0 C 51 40 60 69 79 89 C 97 109 125 119 162 119 C 186 119 204 111 218 95 C 231 79 241 59 248 37 C 254 16 259 -5 263 -27 C 267 -49 272 -68 279 -84 C 295 -124 313 -150 335 -162 C 356 -174 381 -180 410 -180 C 516 -180 609 -109 687 32 C 765 173 814 347 834 553 L 819 555 C 787 509 744 468 690 430 C 635 392 567 373 487 373 C 384 373 297 411 226 489 C 154 567 119 669 119 797 C 119 921 160 1031 243 1127 C 326 1222 438 1270 578 1270 C 714 1270 824 1219 910 1118 C 995 1017 1038 866 1038 666 C 1038 422 971 216 838 46 C 704 -124 534 -209 326 -209 Z M 578 428 C 653 428 716 461 767 528 C 818 595 844 691 844 817 C 844 951 818 1056 766 1133 C 714 1210 652 1249 578 1249 C 493 1249 431 1211 392 1135 C 353 1059 334 959 334 836 C 334 710 353 611 392 538 C 430 464 492 428 578 428 Z" unicode="9" />
<glyph horiz-adv-x="571" d="M 285 -16 C 248 -16 217 -3 191 22 C 165 47 152 79 152 117 C 152 153 165 184 191 211 C 217 238 248 252 285 252 C 321 252 352 238 379 211 C 406 184 420 153 420 117 C 420 79 406 47 379 22 C 352 -3 321 -16 285 -16 Z M 285 662 C 248 662 217 675 191 701 C 165 727 152 758 152 795 C 152 832 165 864 191 890 C 217 916 248 930 285 930 C 321 930 352 916 379 890 C 406 864 420 832 420 795 C 420 758 406 727 379 701 C 352 675 321 662 285 662 Z" unicode=":" />
<glyph horiz-adv-x="571" d="M 150 -342 L 143 -330 C 201 -296 248 -249 285 -189 C 321 -129 342 -64 346 6 L 281 6 C 234 6 199 17 177 41 C 154 65 143 95 143 133 C 143 160 154 187 176 213 C 198 239 229 252 268 252 C 326 252 368 232 395 193 C 422 153 436 103 436 41 C 436 -30 411 -99 362 -165 C 312 -231 242 -290 150 -342 Z M 285 662 C 248 662 217 675 191 701 C 165 727 152 758 152 795 C 152 832 165 864 191 890 C 217 916 248 930 285 930 C 321 930 352 916 379 890 C 406 864 420 832 420 795 C 420 758 406 727 379 701 C 352 675 321 662 285 662 Z" unicode=";" />
<glyph horiz-adv-x="1145" d="M 1016 70 L 111 506 L 111 559 L 1016 995 L 1016 922 L 203 532 L 1016 143 L 1016 70 Z" unicode="&#x3C;" />
<glyph horiz-adv-x="1145" d="M 119 322 L 119 391 L 1024 391 L 1024 322 L 119 322 Z M 119 674 L 119 743 L 1024 743 L 1024 674 L 119 674 Z" unicode="=" />
<glyph horiz-adv-x="1145" d="M 127 70 L 127 143 L 940 532 L 127 922 L 127 995 L 1032 559 L 1032 506 L 127 70 Z" unicode="&#x3E;" />
<glyph horiz-adv-x="987" d="M 365 369 L 365 750 C 465 764 545 792 604 835 C 662 877 692 952 692 1059 C 692 1186 668 1276 620 1329 C 572 1382 514 1409 446 1409 C 418 1409 390 1403 362 1392 C 334 1381 313 1368 301 1354 C 303 1333 308 1314 316 1298 C 324 1281 328 1252 328 1212 C 328 1176 313 1150 285 1132 C 256 1114 232 1106 213 1106 C 177 1106 150 1117 134 1140 C 117 1162 109 1190 109 1223 C 109 1273 139 1321 200 1365 C 260 1409 344 1432 451 1432 C 594 1432 702 1392 775 1314 C 848 1235 885 1138 885 1022 C 885 907 840 809 752 728 C 664 646 545 600 397 588 L 385 369 L 365 369 Z M 379 -25 C 341 -25 308 -11 282 14 C 255 40 242 73 242 111 C 242 148 255 180 282 207 C 308 234 341 248 379 248 C 417 248 449 234 476 207 C 502 180 516 148 516 111 C 516 73 502 40 476 14 C 449 -11 417 -25 379 -25 Z" unicode="?" />
<glyph horiz-adv-x="2040" d="M 1042 -440 C 813 -440 612 -368 440 -225 C 268 -82 182 115 182 367 C 182 634 279 863 474 1055 C 669 1247 901 1343 1171 1343 C 1383 1343 1548 1277 1665 1147 C 1782 1016 1841 862 1841 684 C 1841 516 1789 372 1687 250 C 1585 128 1470 68 1343 68 C 1291 68 1246 82 1209 111 C 1171 140 1153 184 1153 244 L 1147 246 C 1120 200 1085 159 1041 124 C 997 89 951 72 905 72 C 845 72 795 94 754 140 C 712 185 692 253 692 344 C 692 448 735 562 821 686 C 907 810 1015 872 1145 872 C 1181 872 1215 861 1246 839 C 1277 817 1295 785 1300 743 L 1307 743 L 1352 860 L 1477 860 L 1286 315 C 1280 299 1274 279 1270 257 C 1266 234 1264 215 1264 201 C 1264 168 1271 141 1285 120 C 1299 98 1323 88 1358 88 C 1458 88 1558 143 1657 254 C 1756 364 1806 512 1806 696 C 1806 868 1748 1012 1633 1128 C 1518 1244 1364 1303 1171 1303 C 959 1303 772 1215 608 1041 C 444 867 362 645 362 377 C 362 140 428 -45 562 -181 C 696 -317 862 -385 1061 -385 C 1264 -385 1442 -331 1596 -223 C 1749 -115 1861 40 1931 244 L 1948 238 C 1884 20 1766 -146 1595 -264 C 1424 -381 1240 -440 1042 -440 Z M 926 111 C 980 111 1025 130 1063 169 C 1100 207 1133 254 1163 309 L 1294 698 C 1285 756 1266 795 1238 816 C 1209 837 1176 848 1139 848 C 1060 848 988 783 922 654 C 856 524 823 403 823 289 C 823 226 832 181 851 153 C 869 125 894 111 926 111 Z" unicode="@" />
<glyph horiz-adv-x="1393" d="M -49 0 L -49 14 C -29 14 -8 18 16 24 C 40 30 61 39 80 49 C 104 63 126 85 145 115 C 164 144 181 177 197 213 C 269 388 348 584 435 802 C 522 1020 604 1226 682 1421 L 719 1421 C 823 1158 925 904 1026 660 C 1127 416 1197 246 1235 152 C 1243 131 1252 111 1264 93 C 1276 74 1294 57 1319 43 C 1337 33 1358 25 1381 21 C 1403 17 1424 14 1444 14 L 1444 0 L 799 0 L 799 14 C 834 16 878 22 930 32 C 982 42 1011 59 1016 84 C 1018 92 1017 102 1015 113 C 1013 123 1010 133 1008 141 L 862 516 L 354 516 C 334 469 315 417 295 359 C 275 301 260 257 252 227 C 245 204 238 181 232 159 C 226 137 223 118 223 104 C 223 68 255 44 321 33 C 386 22 437 16 473 14 L 473 0 L -49 0 Z M 365 545 L 850 545 L 606 1161 L 365 545 Z" unicode="A" />
<glyph horiz-adv-x="1366" d="M 88 0 L 88 14 C 106 14 133 18 168 24 C 202 30 226 36 240 41 C 264 49 281 62 290 79 C 298 96 303 116 303 139 L 303 1247 C 303 1269 298 1290 290 1309 C 281 1328 264 1343 240 1354 C 218 1362 194 1369 166 1375 C 138 1380 114 1383 96 1384 L 96 1399 L 797 1399 C 905 1399 998 1374 1078 1326 C 1158 1278 1198 1208 1198 1118 C 1198 1014 1164 935 1098 879 C 1032 823 940 784 823 762 L 823 743 C 943 735 1048 699 1138 636 C 1227 572 1272 484 1272 371 C 1272 255 1223 165 1125 99 C 1027 33 919 0 801 0 L 88 0 Z M 713 25 C 819 25 897 63 946 139 C 995 215 1020 306 1020 412 C 1020 500 991 575 933 637 C 875 698 795 729 694 729 C 675 729 646 728 606 727 C 566 726 536 725 518 725 L 518 150 C 524 104 541 71 568 53 C 595 34 643 25 713 25 Z M 518 754 L 647 754 C 749 754 826 783 876 843 C 926 902 952 981 952 1079 C 952 1170 926 1242 874 1295 C 822 1347 760 1374 688 1374 C 670 1374 644 1373 608 1373 C 572 1373 542 1372 518 1372 L 518 754 Z" unicode="B" />
<glyph horiz-adv-x="1337" d="M 754 -31 C 553 -31 390 33 264 163 C 138 293 76 466 76 682 C 76 892 145 1068 283 1211 C 421 1353 592 1425 797 1425 C 883 1425 957 1412 1018 1388 C 1078 1364 1124 1337 1155 1309 L 1233 1419 L 1251 1419 L 1260 913 L 1241 913 C 1197 1053 1133 1169 1048 1260 C 962 1351 861 1397 745 1397 C 620 1397 518 1338 440 1221 C 361 1103 322 929 322 698 C 322 510 366 355 454 231 C 542 107 662 45 813 45 C 933 45 1032 75 1111 136 C 1190 196 1250 273 1290 367 L 1313 354 C 1263 239 1192 146 1099 75 C 1006 4 891 -31 754 -31 Z" unicode="C" />
<glyph horiz-adv-x="1595" d="M 88 0 L 88 14 C 108 14 135 16 169 21 C 203 25 226 30 240 35 C 264 43 281 56 290 74 C 298 92 303 112 303 135 L 303 1247 C 303 1269 298 1291 290 1311 C 281 1331 264 1347 240 1358 C 215 1368 189 1374 163 1378 C 137 1381 114 1383 96 1384 L 96 1399 L 756 1399 C 960 1399 1138 1338 1291 1218 C 1443 1098 1520 922 1520 690 C 1520 472 1442 303 1286 182 C 1130 60 940 0 715 0 L 88 0 Z M 743 25 C 917 25 1048 85 1136 206 C 1224 326 1268 488 1268 692 C 1268 887 1215 1050 1111 1180 C 1007 1310 869 1376 698 1376 C 674 1376 644 1375 608 1374 C 572 1373 542 1372 520 1372 L 520 182 C 526 132 545 93 577 66 C 609 38 665 25 743 25 Z" unicode="D" />
<glyph horiz-adv-x="1364" d="M 78 0 L 78 14 C 96 14 124 17 161 22 C 198 27 224 33 240 39 C 264 47 281 60 290 78 C 298 95 303 115 303 139 L 303 1247 C 303 1269 298 1290 290 1309 C 282 1328 265 1343 240 1354 C 220 1362 193 1368 158 1374 C 123 1380 96 1383 78 1384 L 78 1399 L 1206 1399 L 1206 1081 L 1188 1081 C 1176 1125 1146 1183 1097 1253 C 1048 1323 1002 1362 958 1368 C 933 1370 901 1372 861 1374 C 821 1375 784 1376 752 1376 L 520 1376 L 520 737 L 725 737 C 782 737 822 744 844 760 C 866 776 884 790 897 803 C 912 818 927 849 943 896 C 959 942 968 979 971 1006 L 989 1006 L 989 434 L 971 434 C 969 464 959 503 942 553 C 924 603 909 634 897 647 C 883 661 865 676 842 691 C 819 705 780 713 725 713 L 520 713 L 520 211 C 520 127 535 75 565 55 C 595 35 661 25 764 25 C 835 25 905 26 973 29 C 1041 31 1087 46 1112 72 C 1142 103 1178 157 1220 233 C 1262 309 1288 362 1298 393 L 1317 393 L 1290 0 L 78 0 Z" unicode="E" />
<glyph horiz-adv-x="1253" d="M 78 0 L 78 14 C 96 14 125 17 163 21 C 201 25 226 30 240 35 C 264 43 281 56 290 74 C 298 92 303 112 303 135 L 303 1247 C 303 1269 298 1290 290 1309 C 282 1328 265 1343 240 1354 C 220 1362 193 1368 158 1374 C 123 1380 96 1383 78 1384 L 78 1399 L 1221 1399 L 1221 1067 L 1202 1067 C 1188 1111 1154 1171 1101 1246 C 1048 1321 1000 1362 956 1368 C 931 1370 900 1372 862 1374 C 824 1375 788 1376 756 1376 L 520 1376 L 520 733 L 727 733 C 779 733 819 740 847 755 C 875 770 896 784 909 797 C 923 809 938 837 954 879 C 969 921 979 961 983 999 L 1004 999 L 1004 424 L 983 424 C 981 453 971 493 955 544 C 939 595 923 628 909 643 C 896 656 874 670 844 686 C 814 701 775 709 727 709 L 520 709 L 520 137 C 520 114 524 94 534 77 C 544 60 560 47 584 37 C 596 32 620 27 656 22 C 692 17 720 14 739 14 L 739 0 L 78 0 Z" unicode="F" />
<glyph horiz-adv-x="1528" d="M 1321 -45 L 1208 80 C 1128 49 1046 23 961 1 C 875 -20 790 -31 705 -31 C 542 -31 396 32 268 159 C 140 285 76 455 76 668 C 76 878 150 1057 298 1204 C 446 1351 629 1425 848 1425 C 929 1425 1005 1411 1076 1385 C 1147 1359 1199 1331 1231 1303 L 1303 1419 L 1321 1419 L 1331 928 L 1315 928 C 1271 1060 1203 1171 1109 1261 C 1015 1350 906 1395 780 1395 C 638 1395 526 1331 446 1205 C 366 1078 326 904 326 682 C 326 484 366 322 448 195 C 529 67 641 4 784 4 C 905 4 992 30 1045 84 C 1097 137 1127 196 1135 262 L 1135 449 C 1135 475 1130 499 1121 521 C 1111 543 1093 559 1067 569 C 1042 578 1007 586 961 592 C 915 598 882 601 864 602 L 864 618 L 1542 618 L 1542 602 C 1523 599 1499 596 1470 592 C 1440 588 1416 581 1397 573 C 1372 562 1355 547 1347 529 C 1339 510 1335 489 1335 467 L 1335 -39 L 1321 -45 Z" unicode="G" />
<glyph horiz-adv-x="1747" d="M 96 0 L 96 14 C 114 14 140 17 172 21 C 204 25 226 30 240 35 C 264 43 281 56 290 74 C 298 92 303 112 303 135 L 303 1247 C 303 1269 298 1290 290 1309 C 281 1328 264 1343 240 1354 C 222 1360 199 1367 169 1373 C 139 1379 114 1383 96 1384 L 96 1399 L 731 1399 L 731 1384 C 712 1383 687 1380 657 1375 C 627 1369 602 1364 584 1358 C 558 1349 540 1336 532 1318 C 524 1300 520 1279 520 1257 L 520 741 L 1227 741 L 1227 1247 C 1227 1269 1222 1290 1212 1309 C 1202 1328 1186 1343 1163 1354 C 1145 1360 1121 1367 1090 1373 C 1059 1379 1034 1383 1016 1384 L 1016 1399 L 1651 1399 L 1651 1384 C 1632 1383 1608 1380 1579 1375 C 1549 1369 1525 1364 1507 1358 C 1481 1349 1464 1336 1456 1318 C 1448 1300 1444 1279 1444 1257 L 1444 145 C 1444 122 1448 101 1458 83 C 1467 64 1483 49 1507 39 C 1519 33 1542 27 1574 22 C 1606 17 1632 14 1651 14 L 1651 0 L 1016 0 L 1016 14 C 1034 14 1060 17 1094 21 C 1127 25 1150 30 1163 35 C 1187 43 1204 56 1213 74 C 1222 92 1227 112 1227 135 L 1227 713 L 520 713 L 520 145 C 520 122 524 101 534 82 C 544 63 560 49 584 39 C 596 34 618 29 652 23 C 686 17 712 14 731 14 L 731 0 L 96 0 Z" unicode="H" />
<glyph horiz-adv-x="831" d="M 94 0 L 94 14 C 112 14 139 17 173 21 C 207 25 230 30 244 35 C 268 43 285 56 294 74 C 302 92 307 112 307 135 L 307 1247 C 307 1269 302 1290 294 1309 C 285 1328 268 1343 244 1354 C 226 1360 202 1367 170 1373 C 138 1379 112 1383 94 1384 L 94 1399 L 737 1399 L 737 1384 C 718 1383 693 1380 662 1375 C 631 1369 606 1364 588 1358 C 562 1349 545 1336 537 1318 C 528 1300 524 1279 524 1257 L 524 145 C 524 122 528 101 538 82 C 548 63 564 49 588 39 C 600 34 623 29 657 23 C 691 17 718 14 737 14 L 737 0 L 94 0 Z" unicode="I" />
<glyph horiz-adv-x="1012" d="M 283 -35 C 187 -35 115 -15 69 24 C 23 64 0 108 0 158 C 0 198 13 232 39 261 C 65 290 99 305 141 305 C 183 305 215 292 239 267 C 262 241 274 210 274 174 C 274 133 262 100 239 75 C 215 50 186 31 150 18 L 150 8 C 160 3 176 0 198 -4 C 220 -8 237 -10 248 -10 C 313 -10 364 0 401 20 C 438 40 466 69 484 105 C 502 143 513 188 517 242 C 520 296 522 354 522 418 L 522 1253 C 522 1275 517 1295 509 1312 C 500 1328 483 1342 459 1354 C 436 1364 408 1371 374 1376 C 340 1380 313 1383 293 1384 L 293 1399 L 958 1399 L 958 1384 C 940 1383 914 1380 881 1375 C 847 1369 821 1364 803 1358 C 777 1349 760 1336 752 1318 C 743 1300 739 1279 739 1257 L 739 381 C 739 287 696 195 610 103 C 524 11 415 -35 283 -35 Z" unicode="J" />
<glyph horiz-adv-x="1511" d="M 96 0 L 96 14 C 114 14 140 17 172 21 C 204 25 226 30 240 35 C 264 43 281 56 290 74 C 298 92 303 112 303 135 L 303 1247 C 303 1269 298 1290 290 1308 C 281 1326 264 1341 240 1352 C 222 1358 199 1365 169 1372 C 139 1379 114 1383 96 1384 L 96 1399 L 731 1399 L 731 1384 C 712 1383 687 1380 657 1375 C 627 1369 602 1364 584 1358 C 558 1349 540 1336 532 1318 C 524 1300 520 1279 520 1257 L 520 717 L 543 717 C 675 823 803 937 926 1057 C 1048 1177 1110 1261 1110 1311 C 1110 1341 1082 1361 1027 1370 C 972 1378 936 1383 918 1384 L 918 1399 L 1458 1399 L 1458 1384 C 1439 1383 1401 1379 1344 1371 C 1287 1363 1234 1334 1184 1284 C 1097 1194 1019 1114 949 1044 C 879 973 799 899 709 823 C 813 714 910 606 1000 500 C 1090 393 1177 286 1262 180 C 1280 156 1302 132 1330 107 C 1358 81 1392 60 1432 43 C 1450 35 1475 28 1505 23 C 1535 17 1560 14 1579 14 L 1579 0 L 829 0 L 829 14 C 871 16 914 22 959 32 C 1003 42 1026 66 1026 104 C 1026 142 963 235 837 381 C 711 527 616 632 553 696 L 520 696 L 520 145 C 520 122 524 102 534 86 C 544 69 560 55 584 45 C 596 40 618 34 652 26 C 686 18 712 14 731 14 L 731 0 L 96 0 Z" unicode="K" />
<glyph horiz-adv-x="1288" d="M 90 0 L 90 14 C 108 14 134 17 167 22 C 200 27 224 33 240 39 C 264 47 281 60 290 78 C 298 95 303 115 303 139 L 303 1251 C 303 1273 298 1293 290 1311 C 282 1328 265 1342 240 1354 C 221 1362 196 1368 166 1374 C 135 1380 110 1383 92 1384 L 92 1399 L 733 1399 L 733 1384 C 714 1383 689 1381 658 1378 C 627 1374 602 1370 584 1364 C 558 1356 540 1342 532 1324 C 524 1305 520 1284 520 1262 L 520 211 C 520 127 535 75 565 55 C 595 35 661 25 764 25 C 835 25 900 26 958 29 C 1016 31 1058 46 1083 72 C 1113 103 1149 157 1191 235 C 1233 312 1259 366 1270 397 L 1288 397 L 1262 0 L 90 0 Z" unicode="L" />
<glyph horiz-adv-x="1964" d="M 37 0 L 37 14 C 54 16 84 19 126 24 C 168 29 202 40 227 57 C 251 74 269 103 279 144 C 289 185 295 245 295 324 L 295 1159 C 295 1201 289 1236 278 1265 C 267 1293 251 1316 231 1333 C 206 1352 176 1365 141 1372 C 105 1379 74 1383 47 1384 L 47 1399 L 496 1399 L 1004 326 L 1382 1225 C 1398 1262 1410 1297 1417 1331 C 1424 1365 1428 1387 1430 1399 L 1876 1399 L 1876 1384 C 1857 1383 1832 1380 1800 1375 C 1768 1369 1742 1364 1724 1358 C 1698 1349 1681 1336 1673 1318 C 1665 1300 1661 1279 1661 1257 L 1661 145 C 1661 122 1665 102 1675 86 C 1684 70 1700 56 1724 45 C 1736 39 1760 32 1796 25 C 1832 18 1859 14 1878 14 L 1878 0 L 1202 0 L 1202 14 C 1220 14 1251 17 1294 23 C 1337 28 1366 34 1380 41 C 1403 53 1420 68 1430 85 C 1440 101 1446 121 1446 145 L 1446 1296 L 907 23 L 885 23 C 872 62 855 108 835 161 C 815 214 795 263 776 307 L 324 1274 L 324 324 C 324 246 329 187 341 147 C 353 107 370 77 393 59 C 410 45 445 34 497 26 C 549 18 585 14 604 14 L 604 0 L 37 0 Z" unicode="M" />
<glyph horiz-adv-x="1589" d="M 1309 -14 L 324 1198 L 324 360 C 324 272 329 207 341 165 C 353 122 370 92 393 76 C 414 59 450 45 500 33 C 550 21 585 14 604 14 L 604 0 L 37 0 L 37 14 C 55 14 88 21 135 34 C 182 46 213 58 227 70 C 251 89 269 121 279 165 C 289 209 295 270 295 350 L 295 1153 C 295 1182 287 1214 272 1250 C 257 1286 239 1312 219 1329 C 194 1348 160 1362 117 1370 C 73 1378 38 1383 10 1384 L 10 1399 L 432 1399 L 1315 315 L 1315 1028 C 1315 1101 1309 1165 1297 1221 C 1285 1277 1268 1314 1245 1333 C 1220 1352 1185 1365 1139 1372 C 1093 1379 1059 1383 1036 1384 L 1036 1399 L 1599 1399 L 1599 1384 C 1581 1383 1550 1378 1508 1370 C 1466 1362 1433 1350 1411 1335 C 1384 1316 1366 1277 1357 1218 C 1347 1158 1343 1095 1343 1028 L 1343 -14 L 1309 -14 Z" unicode="N" />
<glyph horiz-adv-x="1587" d="M 786 -33 C 693 -33 605 -16 521 17 C 437 50 363 98 297 160 C 229 223 176 298 137 386 C 97 474 78 573 78 684 C 78 794 94 894 127 984 C 160 1074 210 1152 276 1219 C 345 1289 424 1342 513 1378 C 601 1414 695 1432 795 1432 C 890 1432 981 1415 1069 1381 C 1156 1347 1238 1293 1315 1219 C 1375 1159 1422 1083 1457 993 C 1491 903 1509 808 1509 709 C 1509 603 1492 503 1459 410 C 1425 317 1371 235 1296 164 C 1230 102 1155 53 1070 19 C 985 -15 890 -33 786 -33 Z M 795 -8 C 953 -8 1070 60 1147 197 C 1223 334 1262 502 1262 702 C 1262 910 1221 1079 1141 1210 C 1060 1341 945 1407 795 1407 C 650 1407 536 1343 452 1216 C 368 1089 326 915 326 694 C 326 487 366 318 447 188 C 528 57 644 -8 795 -8 Z" unicode="O" />
<glyph horiz-adv-x="1272" d="M 92 0 L 92 14 C 110 14 136 17 170 22 C 203 27 226 32 240 37 C 264 45 281 59 290 77 C 298 95 303 116 303 139 L 303 1251 C 303 1273 298 1294 290 1314 C 282 1333 265 1347 240 1356 C 214 1364 186 1370 156 1375 C 126 1380 102 1383 84 1384 L 84 1399 L 770 1399 C 890 1399 993 1369 1079 1311 C 1165 1253 1208 1171 1208 1067 C 1208 935 1155 831 1050 755 C 944 679 821 641 680 641 L 520 641 L 520 139 C 520 116 524 95 533 77 C 542 59 559 45 584 37 C 596 32 620 27 655 22 C 689 17 719 14 745 14 L 745 0 L 92 0 Z M 520 666 L 621 666 C 733 666 817 700 872 769 C 926 837 954 920 954 1016 C 954 1117 929 1202 880 1270 C 831 1338 757 1372 659 1372 L 520 1372 L 520 666 Z" unicode="P" />
<glyph horiz-adv-x="1604" d="M 1329 -301 C 1243 -301 1165 -278 1097 -234 C 1028 -190 978 -113 946 -4 C 919 -12 892 -18 864 -22 C 836 -26 810 -29 786 -29 C 693 -29 605 -13 521 19 C 437 51 363 98 297 160 C 229 223 176 298 137 386 C 97 474 78 573 78 684 C 78 794 94 894 127 984 C 160 1074 210 1152 276 1219 C 345 1289 424 1342 513 1378 C 601 1414 695 1432 795 1432 C 890 1432 981 1415 1069 1381 C 1156 1347 1238 1293 1315 1219 C 1375 1159 1422 1083 1457 993 C 1491 903 1509 808 1509 709 C 1509 581 1480 465 1424 361 C 1368 256 1278 167 1155 94 C 1179 -2 1221 -71 1282 -112 C 1343 -153 1409 -174 1481 -174 C 1534 -174 1585 -157 1634 -124 C 1682 -90 1718 -57 1741 -23 L 1755 -33 C 1721 -89 1663 -147 1582 -209 C 1501 -270 1417 -301 1329 -301 Z M 1135 145 C 1183 203 1216 281 1234 381 C 1252 481 1262 588 1262 702 C 1262 908 1221 1077 1140 1209 C 1059 1341 944 1407 795 1407 C 650 1407 536 1342 452 1214 C 368 1086 326 912 326 694 C 326 595 336 500 356 409 C 376 317 409 241 455 180 C 490 273 539 339 603 377 C 666 415 729 434 791 434 C 865 434 934 407 999 355 C 1063 303 1109 233 1135 145 Z M 795 0 C 819 0 845 2 871 6 C 897 10 920 14 940 18 C 918 164 891 262 858 312 C 824 362 777 387 715 387 C 682 387 641 370 591 336 C 541 302 501 243 471 160 C 515 110 564 70 619 42 C 674 14 733 0 795 0 Z" unicode="Q" />
<glyph horiz-adv-x="1509" d="M 1243 -23 C 1161 -23 1100 6 1059 64 C 1017 122 989 208 975 324 C 969 366 962 411 952 458 C 942 505 925 547 902 585 C 881 617 853 644 818 666 C 782 687 737 698 682 698 L 520 698 L 520 139 C 520 115 524 95 533 77 C 542 59 559 45 584 37 C 596 32 620 27 654 22 C 688 17 714 14 733 14 L 733 0 L 92 0 L 92 14 C 110 14 136 17 170 22 C 203 27 226 32 240 37 C 264 45 281 59 290 77 C 298 95 303 115 303 139 L 303 1253 C 303 1275 298 1296 290 1315 C 282 1333 265 1347 240 1356 C 221 1362 196 1368 166 1374 C 135 1380 110 1383 92 1384 L 92 1399 L 807 1399 C 924 1399 1026 1372 1114 1318 C 1201 1264 1245 1185 1245 1083 C 1245 981 1201 900 1114 841 C 1027 782 938 744 846 727 L 846 707 C 919 700 988 679 1052 645 C 1116 611 1156 560 1174 494 C 1188 438 1201 381 1212 325 C 1222 269 1234 216 1247 166 C 1259 120 1276 92 1297 83 C 1318 74 1336 70 1352 70 C 1388 70 1418 88 1444 124 C 1470 160 1483 212 1483 281 L 1483 311 L 1509 311 L 1509 281 C 1509 185 1486 111 1441 57 C 1396 3 1330 -23 1243 -23 Z M 520 727 L 647 727 C 745 727 827 752 893 802 C 959 852 993 932 993 1042 C 993 1151 965 1233 911 1289 C 857 1344 786 1372 700 1372 L 520 1372 L 520 727 Z" unicode="R" />
<glyph horiz-adv-x="1120" d="M 582 -27 C 492 -27 412 -14 344 11 C 275 36 225 61 195 86 L 123 -20 L 104 -20 L 90 459 L 109 459 C 159 325 220 215 293 129 C 365 43 463 0 586 0 C 686 0 759 29 803 89 C 847 148 870 216 870 293 C 870 355 851 409 813 455 C 775 501 726 536 666 561 C 608 584 558 604 518 620 C 478 636 429 656 373 682 C 294 716 234 763 193 822 C 151 880 131 955 131 1047 C 131 1155 170 1245 248 1317 C 326 1389 424 1425 541 1425 C 613 1425 679 1413 741 1391 C 802 1369 851 1344 887 1317 L 958 1419 L 975 1419 L 985 954 L 967 954 C 932 1078 880 1183 810 1269 C 740 1355 647 1399 532 1399 C 476 1399 422 1378 370 1336 C 318 1294 293 1234 293 1155 C 293 1093 309 1042 343 1002 C 376 962 421 927 477 897 C 527 869 574 848 619 832 C 664 816 710 798 756 778 C 846 738 916 690 967 636 C 1018 581 1044 502 1044 399 C 1044 275 999 173 911 93 C 823 13 713 -27 582 -27 Z" unicode="S" />
<glyph horiz-adv-x="1315" d="M 317 0 L 317 14 C 335 14 365 17 405 23 C 445 29 472 34 485 39 C 509 47 526 61 535 79 C 544 97 549 118 549 141 L 549 1374 L 432 1374 C 409 1374 382 1373 350 1372 C 318 1370 290 1368 266 1366 C 222 1360 175 1315 125 1233 C 75 1151 45 1087 35 1042 L 16 1042 L 16 1399 L 1298 1399 L 1298 1042 L 1280 1042 C 1268 1087 1238 1151 1189 1233 C 1139 1315 1093 1360 1049 1366 C 1024 1368 997 1370 968 1372 C 938 1373 910 1374 883 1374 L 766 1374 L 766 145 C 766 122 770 102 780 84 C 789 66 805 53 829 43 C 841 38 868 32 909 25 C 949 18 979 14 997 14 L 997 0 L 317 0 Z" unicode="T" />
<glyph horiz-adv-x="1620" d="M 819 -33 C 645 -33 511 6 417 85 C 323 163 276 258 276 369 L 276 1255 C 276 1277 271 1297 262 1314 C 252 1330 236 1345 213 1358 C 194 1366 169 1373 139 1377 C 109 1381 86 1383 70 1384 L 70 1399 L 707 1399 L 707 1384 C 688 1383 663 1380 633 1375 C 602 1369 577 1364 559 1358 C 533 1349 516 1336 508 1318 C 500 1300 496 1279 496 1257 L 496 395 C 496 289 525 203 583 138 C 641 73 736 41 868 41 C 1015 41 1127 78 1204 152 C 1280 226 1319 314 1319 414 L 1319 1051 C 1319 1125 1313 1185 1301 1232 C 1289 1279 1271 1310 1249 1325 C 1215 1347 1177 1363 1136 1371 C 1095 1379 1063 1383 1040 1384 L 1040 1399 L 1604 1399 L 1604 1384 C 1585 1383 1554 1378 1511 1369 C 1468 1359 1436 1348 1415 1335 C 1387 1317 1369 1283 1361 1233 C 1352 1183 1348 1126 1348 1063 L 1348 406 C 1348 262 1293 152 1183 78 C 1073 4 951 -33 819 -33 Z" unicode="U" />
<glyph horiz-adv-x="1384" d="M 664 -16 C 568 248 470 501 369 744 C 268 986 200 1154 166 1247 C 158 1268 148 1287 136 1304 C 124 1321 106 1337 82 1352 C 63 1362 42 1369 20 1375 C -2 1380 -23 1383 -43 1384 L -43 1399 L 592 1399 L 592 1384 C 534 1381 485 1374 444 1363 C 403 1351 383 1333 383 1309 C 383 1301 384 1293 386 1284 C 388 1274 390 1265 393 1257 C 408 1214 456 1095 536 901 C 616 706 699 494 784 266 L 1130 1090 C 1152 1140 1165 1181 1171 1213 C 1177 1245 1180 1267 1180 1280 C 1180 1314 1157 1338 1113 1354 C 1069 1369 1008 1379 930 1384 L 930 1399 L 1440 1399 L 1440 1384 C 1420 1383 1400 1379 1380 1373 C 1359 1366 1339 1358 1321 1348 C 1294 1332 1272 1311 1256 1283 C 1240 1255 1224 1225 1210 1194 C 1168 1096 1092 918 982 659 C 872 400 777 175 698 -16 L 664 -16 Z" unicode="V" />
<glyph horiz-adv-x="1993" d="M 563 -16 C 482 248 402 502 324 744 C 246 986 193 1154 166 1247 C 160 1268 151 1287 140 1303 C 129 1319 112 1334 90 1348 C 71 1358 51 1367 29 1373 C 7 1379 -13 1383 -33 1384 L -33 1399 L 592 1399 L 592 1384 C 556 1382 511 1375 458 1363 C 405 1351 379 1333 379 1309 C 379 1302 379 1293 381 1283 C 383 1272 385 1263 387 1257 L 692 295 L 987 1098 C 979 1130 965 1175 946 1232 C 926 1289 902 1327 874 1346 C 858 1356 834 1364 803 1372 C 771 1379 746 1383 727 1384 L 727 1399 L 1343 1399 L 1343 1384 C 1307 1382 1264 1375 1213 1363 C 1162 1351 1137 1333 1137 1309 C 1137 1301 1137 1293 1139 1283 C 1141 1273 1143 1264 1145 1257 C 1157 1214 1194 1100 1256 916 C 1318 732 1386 526 1460 299 C 1517 457 1570 608 1619 751 C 1667 894 1704 1007 1729 1090 C 1743 1142 1754 1182 1760 1208 C 1766 1234 1769 1256 1769 1274 C 1769 1310 1740 1336 1684 1354 C 1628 1371 1576 1381 1530 1384 L 1530 1399 L 2040 1399 L 2040 1384 C 2020 1383 2000 1379 1978 1371 C 1956 1363 1935 1353 1917 1343 C 1890 1328 1869 1308 1853 1282 C 1837 1256 1822 1226 1810 1194 C 1763 1069 1698 889 1615 653 C 1531 417 1453 194 1380 -16 L 1333 -16 C 1269 194 1208 391 1149 573 C 1089 755 1039 911 997 1040 L 610 -16 L 563 -16 Z" unicode="W" />
<glyph horiz-adv-x="1561" d="M -8 0 L -8 14 C 10 14 34 17 62 23 C 90 28 113 35 133 43 C 173 60 206 81 233 107 C 259 133 282 157 301 180 C 362 253 423 327 485 403 C 547 479 614 562 686 653 C 614 753 541 854 469 955 C 397 1055 332 1143 274 1219 C 258 1241 237 1266 212 1293 C 187 1319 160 1340 131 1356 C 116 1362 94 1368 66 1374 C 38 1380 14 1383 -4 1384 L -4 1399 L 743 1399 L 743 1384 C 701 1382 652 1377 597 1369 C 541 1361 514 1338 514 1300 C 514 1282 529 1247 560 1197 C 590 1147 627 1091 670 1030 C 695 993 721 956 749 918 C 777 880 803 843 829 809 C 874 861 917 914 959 967 C 1001 1019 1037 1068 1069 1112 C 1101 1156 1126 1194 1145 1226 C 1164 1258 1174 1281 1174 1294 C 1174 1332 1147 1356 1095 1366 C 1043 1376 996 1382 954 1384 L 954 1399 L 1509 1399 L 1509 1384 C 1491 1383 1467 1380 1438 1375 C 1409 1370 1385 1364 1366 1356 C 1326 1338 1292 1317 1266 1291 C 1239 1265 1216 1241 1198 1219 C 1144 1155 1088 1086 1031 1012 C 973 938 914 862 852 784 C 942 660 1027 542 1107 432 C 1187 322 1249 238 1294 180 C 1311 157 1331 132 1355 106 C 1378 80 1406 57 1438 39 C 1450 32 1470 26 1499 22 C 1528 17 1552 14 1571 14 L 1571 0 L 823 0 L 823 14 C 865 16 914 22 970 32 C 1026 42 1055 66 1055 104 C 1055 121 1041 152 1014 196 C 986 240 953 290 915 344 C 881 392 846 441 809 491 C 771 541 738 586 709 627 C 668 577 623 522 575 463 C 526 404 482 349 444 297 C 410 252 381 212 359 177 C 337 141 326 117 326 104 C 326 66 352 42 405 32 C 457 22 505 16 547 14 L 547 0 L -8 0 Z" unicode="X" />
<glyph horiz-adv-x="1300" d="M 303 0 L 303 14 C 321 14 351 17 391 23 C 431 29 457 34 471 39 C 495 47 512 61 521 79 C 530 97 535 118 535 141 L 535 528 C 535 548 529 571 519 597 C 509 623 496 651 481 682 C 434 773 385 865 333 959 C 281 1052 234 1136 190 1210 C 173 1240 155 1268 135 1293 C 115 1317 92 1337 68 1352 C 49 1362 27 1369 1 1375 C -24 1380 -46 1383 -66 1384 L -66 1399 L 594 1399 L 594 1384 C 558 1382 514 1375 463 1365 C 412 1355 387 1337 387 1313 C 387 1305 396 1283 414 1247 C 432 1210 456 1164 487 1108 C 521 1046 560 974 605 892 C 650 810 697 727 745 643 C 795 725 843 806 890 885 C 937 964 977 1034 1010 1094 C 1036 1142 1057 1183 1073 1217 C 1088 1251 1096 1274 1096 1286 C 1096 1320 1068 1344 1012 1358 C 956 1372 904 1381 858 1384 L 858 1399 L 1352 1399 L 1352 1384 C 1339 1383 1323 1380 1304 1374 C 1285 1368 1270 1362 1260 1356 C 1233 1340 1212 1326 1197 1313 C 1181 1299 1164 1279 1145 1251 C 1099 1185 1045 1099 985 993 C 925 887 866 784 809 684 C 783 638 767 600 761 572 C 755 544 752 505 752 455 L 752 145 C 752 121 756 101 766 84 C 775 66 791 53 815 43 C 827 38 854 32 894 25 C 934 18 964 14 983 14 L 983 0 L 303 0 Z" unicode="Y" />
<glyph horiz-adv-x="1282" d="M 8 0 L 8 25 L 991 1374 L 571 1374 C 537 1374 506 1373 478 1372 C 450 1370 426 1368 406 1364 C 350 1352 292 1305 232 1223 C 172 1141 131 1074 111 1022 L 92 1022 L 135 1399 L 1239 1399 L 1239 1374 L 256 25 L 721 25 C 782 25 842 28 901 36 C 960 43 1000 57 1022 78 C 1066 118 1110 174 1154 246 C 1198 318 1229 376 1247 420 L 1266 420 L 1219 0 L 8 0 Z" unicode="Z" />
<glyph horiz-adv-x="1124" d="M 985 -408 L 975 -401 C 983 -393 991 -380 1000 -363 C 1009 -345 1014 -328 1014 -311 C 1014 -295 1006 -275 990 -251 C 974 -227 919 -215 825 -215 C 726 -215 630 -223 537 -240 C 444 -256 332 -279 201 -309 L 154 -326 L 154 1489 L 201 1473 C 331 1443 443 1419 537 1403 C 630 1386 726 1378 825 1378 C 919 1378 974 1388 990 1409 C 1006 1430 1014 1452 1014 1475 C 1014 1491 1010 1507 1003 1523 C 996 1538 989 1551 981 1563 L 991 1569 C 1002 1560 1014 1544 1026 1520 C 1038 1496 1044 1471 1044 1446 C 1044 1378 1022 1323 980 1281 C 937 1238 870 1217 778 1217 C 669 1217 574 1241 494 1289 C 414 1337 319 1390 211 1450 L 211 -287 C 319 -227 414 -173 494 -125 C 574 -77 669 -53 778 -53 C 870 -53 937 -74 980 -117 C 1022 -160 1044 -215 1044 -283 C 1044 -311 1036 -337 1021 -360 C 1006 -382 994 -398 985 -408 Z" unicode="[" />
<glyph horiz-adv-x="825" d="M 705 -426 L 63 1524 L 119 1540 L 760 -410 L 705 -426 Z" unicode="\" />
<glyph horiz-adv-x="1124" d="M 145 -408 C 136 -398 124 -382 109 -360 C 93 -337 86 -311 86 -283 C 86 -215 107 -160 150 -117 C 192 -74 259 -53 350 -53 C 458 -53 553 -77 634 -125 C 715 -173 810 -227 920 -287 L 920 1450 C 810 1390 715 1337 634 1289 C 553 1241 458 1217 350 1217 C 259 1217 192 1238 150 1281 C 107 1323 86 1378 86 1446 C 86 1471 92 1496 104 1520 C 116 1544 128 1560 139 1569 L 150 1563 C 141 1551 133 1538 127 1523 C 120 1507 117 1491 117 1475 C 117 1452 125 1430 141 1409 C 157 1388 211 1378 305 1378 C 404 1378 500 1386 593 1403 C 685 1419 797 1443 928 1473 L 975 1489 L 975 -326 L 928 -309 C 796 -279 684 -256 592 -240 C 500 -223 404 -215 305 -215 C 211 -215 157 -227 141 -251 C 125 -275 117 -295 117 -311 C 117 -328 121 -345 130 -363 C 138 -380 147 -393 156 -401 L 145 -408 Z" unicode="]" />
<glyph horiz-adv-x="909" d="M 455 1114 L 113 840 L 102 850 C 165 948 213 1020 245 1066 C 277 1112 311 1163 346 1219 C 358 1237 372 1250 388 1257 C 403 1264 425 1268 453 1268 C 480 1268 502 1264 519 1257 C 535 1250 550 1237 563 1219 C 599 1167 633 1117 665 1069 C 696 1021 743 948 807 850 L 797 840 L 455 1114 Z" unicode="^" />
<glyph horiz-adv-x="1223" d="M -14 -295 L -14 -223 L 1235 -223 L 1235 -295 L -14 -295 Z" unicode="_" />
<glyph horiz-adv-x="1024" d="M 705 1073 C 623 1138 560 1187 514 1220 C 468 1253 429 1282 399 1307 C 374 1326 356 1343 344 1358 C 332 1373 326 1393 326 1419 C 326 1438 334 1456 350 1472 C 366 1488 386 1497 410 1497 C 435 1497 457 1490 477 1478 C 496 1466 515 1443 535 1409 C 557 1371 583 1324 612 1268 C 640 1212 675 1149 715 1081 L 705 1073 Z" unicode="`" />
<glyph horiz-adv-x="1004" d="M 313 -25 C 243 -25 186 -5 142 34 C 98 74 76 127 76 193 C 76 257 90 309 120 349 C 149 389 201 423 276 451 C 324 469 385 489 458 512 C 530 535 585 556 621 575 L 621 721 C 621 781 606 832 577 872 C 547 912 503 932 444 932 C 414 932 389 927 369 918 C 349 909 331 895 315 877 C 315 858 318 831 326 795 C 334 759 338 733 338 717 C 338 695 327 675 306 657 C 284 638 255 629 219 629 C 185 629 162 640 148 662 C 134 684 127 708 127 735 C 127 763 135 789 151 813 C 167 837 189 859 216 878 C 248 901 286 919 329 932 C 371 945 414 952 457 952 C 522 952 574 948 612 940 C 650 932 684 919 713 900 C 743 879 767 848 784 808 C 800 767 809 714 809 649 C 809 559 807 467 804 371 C 800 275 799 210 799 176 C 799 154 807 131 825 107 C 843 83 866 72 895 72 C 925 72 949 88 967 122 C 985 156 995 196 999 244 L 1020 244 C 1013 148 991 80 954 40 C 917 0 867 -20 803 -20 C 755 -20 717 -8 689 13 C 661 35 639 70 623 117 L 616 117 C 580 74 535 40 483 14 C 431 -12 374 -25 313 -25 Z M 414 47 C 458 47 497 55 529 73 C 561 90 589 114 614 145 L 623 547 C 486 504 394 457 346 407 C 298 357 274 295 274 223 C 274 167 286 123 311 93 C 335 62 370 47 414 47 Z" unicode="a" />
<glyph horiz-adv-x="1128" d="M 176 -43 L 160 -39 C 162 1 164 56 166 126 C 167 195 168 266 168 340 L 168 1358 C 165 1390 159 1414 150 1428 C 141 1442 129 1455 113 1466 C 100 1474 81 1481 55 1485 C 29 1489 3 1492 -23 1493 L -23 1505 L 346 1528 L 354 1520 L 354 829 L 360 827 C 384 853 420 880 468 909 C 516 937 573 952 637 952 C 761 952 863 908 943 821 C 1023 733 1063 613 1063 459 C 1063 320 1016 204 922 111 C 828 17 720 -29 598 -29 C 541 -29 483 -18 425 2 C 366 22 316 46 274 74 L 176 -43 Z M 582 -8 C 659 -8 724 34 776 119 C 828 204 854 317 854 457 C 854 580 828 683 778 765 C 728 847 657 889 567 889 C 518 889 476 880 442 862 C 408 844 378 821 354 793 L 354 180 C 374 124 403 78 442 44 C 480 9 527 -8 582 -8 Z" unicode="b" />
<glyph horiz-adv-x="891" d="M 510 -25 C 370 -25 261 19 183 108 C 105 197 66 317 66 467 C 66 601 108 716 194 810 C 280 904 388 952 520 952 C 618 952 696 929 753 884 C 809 838 838 782 838 715 C 838 681 827 653 806 632 C 784 610 757 600 723 600 C 693 600 667 609 647 627 C 626 645 616 670 616 702 C 616 722 618 740 623 757 C 628 773 634 787 640 799 C 645 810 650 821 655 831 C 659 841 662 850 662 858 C 657 880 641 898 614 912 C 587 925 556 932 520 932 C 448 932 389 894 342 818 C 295 742 272 631 272 485 C 272 355 297 250 348 168 C 399 86 469 45 559 45 C 631 45 693 61 744 94 C 794 126 836 172 870 231 L 889 219 C 851 151 798 94 731 46 C 664 -1 590 -25 510 -25 Z" unicode="c" />
<glyph horiz-adv-x="1157" d="M 502 -25 C 382 -25 279 20 194 110 C 108 200 66 322 66 475 C 66 612 112 726 206 816 C 300 906 408 952 532 952 C 583 952 631 946 675 934 C 719 922 754 909 780 897 L 780 1358 C 777 1390 771 1413 763 1426 C 754 1439 741 1451 725 1462 C 712 1470 685 1477 645 1483 C 605 1489 572 1492 547 1493 L 547 1505 L 958 1528 L 967 1520 L 967 158 C 969 136 974 117 982 100 C 990 82 1003 68 1020 57 C 1032 49 1050 42 1075 38 C 1100 34 1122 31 1141 31 L 1141 18 L 797 -4 L 782 10 L 782 94 L 776 96 C 740 60 699 31 651 9 C 603 -13 554 -25 502 -25 Z M 571 35 C 620 35 660 43 692 60 C 724 76 753 99 780 129 L 780 758 C 762 808 734 849 695 881 C 655 913 607 930 549 930 C 463 930 396 885 347 796 C 298 706 274 592 274 453 C 274 330 299 230 349 152 C 399 74 473 35 571 35 Z" unicode="d" />
<glyph horiz-adv-x="934" d="M 518 -25 C 377 -25 266 19 186 109 C 106 199 66 319 66 471 C 66 604 106 717 186 811 C 266 905 369 952 496 952 C 620 952 714 917 780 849 C 846 780 879 687 879 571 L 879 553 L 268 553 L 268 518 C 268 368 292 250 341 166 C 390 81 467 39 573 39 C 652 39 714 55 758 89 C 802 123 844 171 883 233 L 899 223 C 863 151 811 91 745 45 C 679 -1 603 -25 518 -25 Z M 268 573 L 680 578 C 680 692 664 780 633 841 C 602 901 556 932 494 932 C 430 932 377 898 335 832 C 293 765 270 679 268 573 Z" unicode="e" />
<glyph horiz-adv-x="651" d="M 68 0 L 68 14 C 86 14 101 16 115 18 C 129 20 143 24 158 29 C 177 35 191 46 200 62 C 208 78 213 98 213 121 L 213 893 L 4 893 L 4 926 L 213 926 L 213 985 C 213 1069 223 1147 245 1218 C 266 1289 302 1351 352 1405 C 394 1449 441 1481 495 1501 C 548 1520 601 1530 653 1530 C 729 1530 785 1511 819 1473 C 853 1435 870 1394 870 1350 C 870 1326 859 1303 839 1279 C 819 1255 791 1243 756 1243 C 728 1243 701 1252 677 1270 C 653 1288 641 1315 641 1350 C 641 1383 644 1406 652 1419 C 660 1432 664 1450 664 1473 C 659 1485 651 1493 639 1498 C 627 1502 615 1505 604 1505 C 540 1505 491 1471 458 1404 C 425 1336 406 1225 401 1069 C 401 1053 400 1030 400 999 C 399 967 399 943 399 926 L 657 926 L 657 893 L 399 893 L 399 131 C 399 109 403 90 413 74 C 422 57 436 45 455 39 C 469 33 490 27 518 22 C 546 17 569 14 588 14 L 588 0 L 68 0 Z" unicode="f" />
<glyph horiz-adv-x="1040" d="M 483 -463 C 327 -463 214 -442 143 -400 C 72 -358 37 -295 37 -213 C 37 -155 67 -106 128 -66 C 188 -26 273 -4 381 -2 L 381 12 C 319 24 264 45 216 77 C 168 109 145 150 145 201 C 145 226 151 248 165 266 C 178 284 194 300 213 313 C 231 325 251 335 272 344 C 292 352 311 360 328 367 L 328 379 C 256 407 200 445 158 491 C 116 537 96 591 96 651 C 96 745 132 818 204 872 C 276 925 362 952 463 952 C 533 952 594 941 646 921 C 698 901 730 891 743 891 C 781 914 814 930 842 939 C 870 947 906 952 950 952 C 974 952 997 942 1017 923 C 1037 904 1047 881 1047 854 C 1047 824 1039 800 1024 782 C 1009 763 988 754 961 754 C 927 754 903 766 889 791 C 875 816 870 854 872 905 C 838 905 812 901 792 894 C 772 886 754 877 739 866 L 739 852 C 763 825 783 796 799 764 C 815 732 823 691 823 641 C 823 552 786 481 712 429 C 638 376 560 350 477 350 L 338 350 C 319 341 302 330 288 316 C 273 302 266 284 266 262 C 266 223 286 197 328 183 C 370 169 429 162 506 162 C 535 162 575 160 626 157 C 677 154 713 152 735 150 C 805 144 866 115 918 65 C 970 14 997 -50 997 -129 C 997 -229 953 -309 865 -371 C 777 -432 650 -463 483 -463 Z M 518 -442 C 617 -442 697 -418 758 -372 C 819 -326 850 -263 850 -184 C 850 -160 842 -132 828 -99 C 814 -65 783 -41 735 -27 C 712 -23 675 -20 625 -17 C 574 -13 503 -12 412 -12 C 339 -26 285 -50 250 -82 C 214 -114 197 -161 197 -225 C 197 -284 224 -335 278 -378 C 332 -420 412 -442 518 -442 Z M 459 369 C 519 369 563 397 591 454 C 619 511 633 575 633 647 C 633 729 617 797 586 851 C 555 905 512 932 457 932 C 399 932 357 906 330 856 C 302 805 289 737 289 653 C 289 581 302 515 329 457 C 355 398 399 369 459 369 Z" unicode="g" />
<glyph horiz-adv-x="1178" d="M 47 0 L 47 14 C 65 14 81 16 95 18 C 109 20 123 24 137 29 C 156 35 170 46 179 62 C 188 78 193 98 193 121 L 193 1358 C 190 1379 184 1400 175 1420 C 166 1440 153 1455 137 1466 C 125 1474 103 1481 73 1485 C 43 1489 18 1492 0 1493 L 0 1505 L 371 1528 L 379 1520 L 379 784 L 383 784 C 421 822 464 859 512 896 C 560 933 627 952 715 952 C 809 952 879 922 925 863 C 970 803 993 725 993 629 L 993 129 C 993 106 997 86 1006 69 C 1014 51 1028 39 1047 31 C 1061 24 1074 20 1088 18 C 1102 16 1118 14 1137 14 L 1137 0 L 653 0 L 653 14 C 671 14 688 16 704 18 C 720 20 735 24 750 29 C 768 35 782 46 791 62 C 800 78 805 98 805 121 L 805 653 C 805 723 787 777 753 815 C 718 853 679 872 635 872 C 560 872 501 855 459 822 C 416 788 389 760 379 737 L 379 131 C 379 108 383 88 392 71 C 401 53 415 41 434 33 C 449 25 465 20 481 18 C 497 16 513 14 530 14 L 530 0 L 47 0 Z" unicode="h" />
<glyph horiz-adv-x="586" d="M 68 0 L 68 14 C 86 14 101 16 115 18 C 129 20 143 24 158 29 C 177 35 191 46 200 62 C 208 78 213 98 213 121 L 213 768 C 211 789 205 810 196 830 C 186 850 174 865 158 877 C 145 885 126 891 102 895 C 77 899 55 902 37 903 L 37 915 L 391 938 L 399 930 L 399 131 C 399 108 403 88 413 71 C 422 53 436 41 455 33 C 469 25 485 20 501 18 C 517 16 533 14 551 14 L 551 0 L 68 0 Z M 289 1214 C 255 1214 225 1226 201 1251 C 176 1276 164 1305 164 1339 C 164 1373 176 1403 201 1429 C 225 1455 255 1468 289 1468 C 327 1468 358 1456 382 1432 C 406 1408 418 1380 418 1348 C 418 1312 405 1280 380 1254 C 355 1227 325 1214 289 1214 Z" unicode="i" />
<glyph horiz-adv-x="596" d="M 33 -463 C -34 -463 -84 -448 -118 -420 C -151 -392 -168 -357 -168 -315 C -168 -292 -158 -269 -138 -247 C -118 -224 -91 -213 -59 -213 C -32 -213 -7 -220 16 -235 C 39 -249 51 -273 51 -307 C 51 -325 47 -348 40 -374 C 32 -400 29 -421 29 -436 C 31 -436 39 -437 51 -438 C 63 -439 71 -440 74 -440 C 136 -440 179 -406 204 -338 C 229 -270 242 -158 242 -2 L 242 768 C 240 789 234 810 225 830 C 215 850 202 865 186 877 C 174 885 147 891 107 895 C 66 899 36 902 18 903 L 18 915 L 420 938 L 428 930 L 428 84 C 428 0 419 -78 401 -150 C 383 -222 349 -284 299 -336 C 257 -380 215 -412 174 -432 C 132 -452 85 -463 33 -463 Z M 313 1214 C 279 1214 250 1226 225 1251 C 200 1276 188 1305 188 1339 C 188 1373 200 1403 225 1429 C 250 1455 279 1468 313 1468 C 351 1468 382 1456 406 1432 C 430 1408 442 1380 442 1348 C 442 1312 429 1280 405 1254 C 380 1227 349 1214 313 1214 Z" unicode="j" />
<glyph horiz-adv-x="1094" d="M 47 0 L 47 14 C 65 14 81 16 95 18 C 109 20 123 24 137 29 C 156 35 170 46 179 62 C 188 78 193 98 193 121 L 193 1358 C 190 1379 184 1400 175 1420 C 166 1440 153 1455 137 1466 C 125 1474 103 1481 73 1485 C 43 1489 18 1492 0 1493 L 0 1505 L 371 1528 L 379 1520 L 379 461 C 425 503 486 561 562 633 C 638 705 698 765 741 811 C 746 815 752 822 758 832 C 764 842 768 850 768 856 C 768 873 747 886 706 894 C 664 902 630 908 604 911 L 604 926 L 1016 926 L 1016 913 C 967 903 922 887 880 866 C 838 844 792 812 743 770 C 715 746 688 721 661 695 C 633 668 603 638 569 604 C 650 566 720 510 778 438 C 836 366 901 250 975 92 C 981 77 989 65 999 55 C 1008 45 1021 37 1038 31 C 1055 23 1072 18 1088 16 C 1104 13 1114 12 1118 12 L 1118 0 L 793 0 C 751 124 698 232 634 326 C 570 420 511 467 457 467 C 439 467 424 463 411 457 C 397 450 387 443 379 436 L 379 131 C 379 108 383 88 392 71 C 401 53 415 41 434 33 C 449 25 465 20 481 18 C 497 16 513 14 530 14 L 530 0 L 47 0 Z" unicode="k" />
<glyph horiz-adv-x="571" d="M 49 0 L 49 14 C 67 14 83 16 97 18 C 111 20 125 24 139 29 C 158 35 172 46 181 62 C 190 78 195 98 195 121 L 195 1358 C 192 1379 186 1400 177 1420 C 168 1440 155 1455 139 1466 C 127 1474 105 1481 73 1485 C 41 1489 16 1492 -2 1493 L -2 1505 L 373 1528 L 381 1520 L 381 131 C 381 108 385 88 394 71 C 403 53 417 41 436 33 C 451 25 466 20 480 18 C 494 16 509 14 526 14 L 526 0 L 49 0 Z" unicode="l" />
<glyph horiz-adv-x="1790" d="M 66 0 L 66 14 C 84 14 99 16 113 18 C 127 20 141 24 156 29 C 175 35 189 46 198 62 C 206 78 211 98 211 121 L 211 768 C 209 789 203 810 194 830 C 184 850 172 865 156 877 C 143 885 128 891 110 895 C 92 899 73 902 55 903 L 55 915 L 389 938 L 397 930 L 397 784 L 401 784 C 437 826 481 864 533 899 C 585 934 651 952 731 952 C 794 952 848 936 893 904 C 937 872 971 829 995 776 L 999 776 C 1040 828 1088 871 1143 903 C 1197 935 1261 952 1335 952 C 1425 952 1492 922 1538 864 C 1583 805 1606 725 1606 625 L 1606 127 C 1606 104 1610 84 1618 68 C 1626 51 1640 39 1659 31 C 1673 24 1687 20 1701 18 C 1714 16 1730 14 1749 14 L 1749 0 L 1274 0 L 1274 14 C 1292 14 1308 16 1321 18 C 1333 20 1347 24 1362 29 C 1381 35 1395 46 1404 62 C 1412 78 1417 98 1417 121 L 1417 649 C 1417 719 1400 774 1367 813 C 1334 852 1293 872 1243 872 C 1188 872 1140 860 1098 836 C 1056 812 1023 781 1001 745 L 1001 127 C 1001 104 1005 85 1014 69 C 1022 53 1036 41 1055 33 C 1069 26 1082 21 1096 19 C 1110 16 1126 14 1145 14 L 1145 0 L 674 0 L 674 14 C 692 14 708 16 720 18 C 732 20 745 24 760 29 C 779 35 793 46 802 62 C 810 78 815 98 815 121 L 815 664 C 815 734 798 786 764 820 C 730 854 691 872 647 872 C 587 872 535 858 492 832 C 448 805 417 773 397 737 L 397 131 C 397 108 401 88 411 71 C 420 53 434 41 453 33 C 467 25 482 20 497 18 C 511 16 527 14 545 14 L 545 0 L 66 0 Z" unicode="m" />
<glyph horiz-adv-x="1196" d="M 66 0 L 66 14 C 84 14 99 16 113 18 C 127 20 141 24 156 29 C 175 35 189 46 198 62 C 206 78 211 98 211 121 L 211 768 C 209 789 203 810 194 830 C 184 850 172 865 156 877 C 143 885 128 891 110 895 C 92 899 73 902 55 903 L 55 915 L 389 938 L 397 930 L 397 784 L 401 784 C 439 822 482 859 530 896 C 578 933 645 952 733 952 C 828 952 898 922 944 863 C 989 803 1012 725 1012 629 L 1012 129 C 1012 106 1016 86 1024 69 C 1032 51 1046 39 1065 31 C 1079 24 1093 20 1107 18 C 1120 16 1136 14 1155 14 L 1155 0 L 672 0 L 672 14 C 690 14 707 16 723 18 C 738 20 753 24 768 29 C 787 35 801 46 810 62 C 818 78 823 98 823 121 L 823 653 C 823 723 805 777 771 815 C 736 853 697 872 653 872 C 579 872 520 855 478 822 C 435 788 408 760 397 737 L 397 131 C 397 108 401 88 411 71 C 420 53 434 41 453 33 C 467 25 483 20 499 18 C 515 16 531 14 549 14 L 549 0 L 66 0 Z" unicode="n" />
<glyph horiz-adv-x="1071" d="M 526 -29 C 400 -29 291 16 200 106 C 108 196 63 314 63 459 C 63 603 107 722 195 814 C 283 906 398 952 541 952 C 683 952 796 906 881 814 C 965 722 1008 608 1008 473 C 1008 325 963 205 874 111 C 784 17 668 -29 526 -29 Z M 539 -8 C 623 -8 688 35 733 123 C 778 210 801 326 801 471 C 801 609 779 721 736 805 C 692 889 627 932 539 932 C 446 932 378 889 335 805 C 291 720 270 610 270 475 C 270 331 292 215 336 126 C 380 36 448 -8 539 -8 Z" unicode="o" />
<glyph horiz-adv-x="1159" d="M 27 -463 L 27 -449 C 45 -447 64 -445 86 -441 C 107 -437 125 -434 139 -430 C 158 -424 172 -412 180 -394 C 188 -376 193 -356 193 -334 L 193 772 C 190 793 184 813 176 831 C 168 849 155 863 139 874 C 127 882 109 889 87 894 C 65 899 45 902 27 903 L 27 915 L 369 938 L 377 928 L 377 821 L 385 819 C 414 853 454 883 504 911 C 554 938 607 952 662 952 C 778 952 878 906 962 816 C 1045 725 1087 605 1087 455 C 1087 315 1039 200 945 110 C 850 20 743 -25 623 -25 C 563 -25 515 -18 478 -6 C 440 6 410 21 387 39 L 379 39 L 379 -322 C 379 -344 383 -364 393 -381 C 403 -398 417 -410 436 -418 C 451 -424 474 -430 504 -437 C 534 -443 559 -447 578 -449 L 578 -463 L 27 -463 Z M 606 -6 C 693 -6 760 36 808 120 C 855 204 879 317 879 457 C 879 588 853 692 803 768 C 753 844 682 883 592 883 C 543 883 501 874 467 856 C 433 838 403 814 379 786 L 379 156 C 394 111 421 73 461 41 C 500 9 548 -6 606 -6 Z" unicode="p" />
<glyph horiz-adv-x="1128" d="M 610 -463 L 610 -449 C 628 -447 648 -445 670 -441 C 692 -437 710 -434 725 -430 C 745 -424 760 -412 768 -394 C 776 -376 780 -356 780 -334 L 780 92 L 774 94 C 743 62 703 34 655 10 C 607 -13 556 -25 502 -25 C 379 -25 276 21 192 113 C 108 205 66 325 66 475 C 66 615 114 729 211 818 C 307 907 416 952 537 952 C 597 952 653 943 704 925 C 755 907 802 884 846 856 L 971 975 L 983 973 C 981 932 977 873 973 795 C 969 717 967 656 967 614 L 967 -332 C 967 -354 971 -374 980 -391 C 989 -407 1003 -420 1022 -428 C 1038 -434 1058 -439 1081 -441 C 1103 -443 1124 -446 1143 -449 L 1143 -463 L 610 -463 Z M 571 35 C 620 35 661 43 693 60 C 725 77 754 100 780 129 L 780 758 C 762 809 733 850 693 882 C 653 914 605 930 549 930 C 463 930 396 885 347 796 C 298 706 274 592 274 453 C 274 330 299 230 349 152 C 399 74 473 35 571 35 Z" unicode="q" />
<glyph horiz-adv-x="809" d="M 66 0 L 66 14 C 84 14 99 16 113 18 C 127 20 141 24 156 29 C 175 35 189 46 198 62 C 206 78 211 98 211 121 L 211 768 C 209 789 203 810 194 830 C 184 850 172 865 156 877 C 143 885 128 891 110 895 C 92 899 73 902 55 903 L 55 915 L 389 938 L 397 930 L 397 784 L 401 784 C 445 840 491 881 540 908 C 589 934 635 948 678 948 C 716 948 747 935 771 911 C 795 886 807 857 807 823 C 807 785 797 754 778 730 C 759 706 732 694 698 694 C 665 694 638 703 618 721 C 598 739 588 766 588 801 C 588 811 590 822 594 836 C 598 850 603 865 610 883 C 562 883 517 865 477 830 C 436 794 409 765 397 743 L 397 125 C 397 102 401 83 411 67 C 420 51 434 39 453 33 C 469 25 491 20 517 18 C 543 16 566 14 586 14 L 586 0 L 66 0 Z" unicode="r" />
<glyph horiz-adv-x="821" d="M 408 -29 C 349 -29 294 -19 242 -1 C 190 17 153 37 131 59 L 96 -10 L 76 -10 L 66 307 L 82 307 C 112 225 159 152 223 88 C 287 24 352 -8 418 -8 C 483 -8 533 10 569 47 C 605 83 623 129 623 184 C 623 237 605 278 569 307 C 533 336 467 365 371 393 C 283 418 215 454 166 502 C 116 550 92 610 92 684 C 92 759 119 822 174 874 C 229 926 304 952 399 952 C 453 952 500 947 540 937 C 580 927 613 914 639 897 L 674 954 L 692 954 L 707 672 L 690 672 C 660 749 619 812 567 860 C 515 908 459 932 399 932 C 343 932 300 915 269 881 C 238 847 223 807 223 762 C 223 704 244 662 286 638 C 328 613 391 588 473 563 C 574 531 646 491 688 442 C 730 393 752 334 752 264 C 752 174 718 103 652 50 C 585 -2 504 -29 408 -29 Z" unicode="s" />
<glyph horiz-adv-x="707" d="M 442 -20 C 358 -20 296 4 256 53 C 215 101 195 171 195 262 L 195 893 L -2 893 L -2 926 L 199 926 L 199 1239 L 377 1239 L 377 926 L 657 926 L 657 893 L 379 893 L 379 287 C 379 229 389 180 411 140 C 433 100 475 80 537 80 C 583 80 617 99 641 138 C 665 176 680 215 686 254 L 707 254 C 698 180 670 116 624 62 C 578 7 517 -20 442 -20 Z" unicode="t" />
<glyph horiz-adv-x="1161" d="M 451 -25 C 355 -25 287 6 246 70 C 204 134 184 213 184 309 L 184 766 C 182 787 176 807 168 825 C 160 843 147 857 131 868 C 118 876 102 884 84 890 C 66 896 47 900 29 901 L 29 913 L 358 938 L 373 924 L 373 252 C 373 182 389 129 421 94 C 453 58 491 41 535 41 C 609 41 665 58 704 94 C 743 130 769 158 782 180 L 782 772 C 780 793 774 813 766 831 C 758 849 745 863 729 874 C 717 882 698 889 673 893 C 648 897 622 900 596 901 L 596 913 L 954 938 L 969 924 L 969 156 C 971 134 975 115 981 98 C 987 80 999 66 1016 55 C 1028 47 1043 41 1063 37 C 1082 33 1101 31 1120 31 L 1120 18 L 799 -4 L 784 10 L 784 135 L 778 135 C 739 96 697 60 651 26 C 605 -8 538 -25 451 -25 Z" unicode="u" />
<glyph horiz-adv-x="956" d="M 481 -14 C 403 160 336 309 280 435 C 224 560 169 685 115 811 C 102 839 86 862 66 880 C 46 898 15 908 -27 911 L -27 926 L 428 926 L 428 907 C 396 906 367 903 341 897 C 314 891 301 880 301 864 C 301 863 302 859 304 851 C 306 843 310 833 315 821 C 338 766 375 679 426 559 C 477 439 526 329 573 229 C 613 322 652 413 691 501 C 729 589 768 683 807 782 C 809 789 812 798 814 810 C 816 821 817 831 817 840 C 815 862 796 879 760 890 C 724 901 689 909 655 913 L 655 926 L 997 926 L 997 915 C 971 911 946 901 920 886 C 894 871 871 843 852 801 C 809 707 766 611 723 513 C 680 415 636 313 592 207 C 577 172 563 138 551 104 C 538 70 525 30 512 -14 L 481 -14 Z" unicode="v" />
<glyph horiz-adv-x="1462" d="M 457 -14 C 384 168 324 315 278 428 C 232 541 180 668 123 809 C 109 841 92 865 70 881 C 48 897 20 907 -16 911 L -16 926 L 426 926 L 426 907 C 402 906 377 903 349 897 C 321 891 307 880 307 864 C 307 863 308 859 310 851 C 312 843 316 833 322 821 C 342 769 374 684 420 567 C 465 449 511 337 557 229 C 589 310 619 387 648 460 C 677 533 707 606 739 680 C 729 705 718 731 707 757 C 695 783 686 805 678 823 C 664 853 647 874 627 887 C 606 900 581 908 553 911 L 553 926 L 977 926 L 977 909 C 953 908 928 905 901 901 C 873 896 860 885 860 868 C 860 867 861 862 863 853 C 865 844 869 833 874 821 C 893 769 925 682 971 560 C 1016 438 1060 327 1102 227 C 1142 333 1181 432 1217 526 C 1253 619 1286 707 1315 791 C 1317 799 1320 809 1322 819 C 1324 829 1325 837 1325 844 C 1325 868 1302 886 1258 897 C 1214 907 1184 913 1169 913 L 1169 926 L 1511 926 L 1511 913 C 1482 910 1451 897 1419 875 C 1387 853 1364 825 1352 791 C 1307 678 1269 581 1237 499 C 1205 417 1166 319 1120 203 C 1106 167 1093 133 1081 101 C 1069 69 1056 30 1042 -14 L 1006 -14 C 960 108 917 225 876 335 C 834 445 794 549 754 649 C 724 583 694 511 664 433 C 634 355 605 278 575 203 C 562 168 549 134 537 102 C 525 69 512 30 498 -14 L 457 -14 Z" unicode="w" />
<glyph horiz-adv-x="965" d="M 0 0 L 0 10 C 42 21 74 36 98 56 C 121 76 146 103 174 137 C 193 161 227 202 276 259 C 324 316 370 372 412 428 C 375 482 331 547 279 624 C 227 701 183 766 147 819 C 120 859 97 884 77 895 C 57 905 36 911 14 911 L 14 926 L 436 926 L 436 911 C 407 911 381 908 358 903 C 335 897 324 891 324 883 C 324 876 325 869 329 862 C 333 854 337 846 342 838 L 535 547 C 567 591 601 635 635 680 C 669 724 701 770 733 817 C 735 821 738 826 742 834 C 745 841 746 848 745 854 C 743 867 730 878 708 886 C 685 894 652 903 610 913 L 610 926 L 940 926 L 940 915 C 889 903 852 887 829 867 C 805 847 783 824 762 799 C 740 773 712 737 676 691 C 640 645 597 590 549 526 C 597 454 647 381 699 305 C 750 229 791 167 823 121 C 841 92 860 67 880 47 C 900 27 928 16 965 16 L 965 0 L 520 0 L 520 16 C 546 18 574 22 603 30 C 632 37 647 47 647 59 C 647 64 645 70 642 78 C 638 86 630 100 618 121 C 604 144 577 183 539 239 C 500 294 462 350 426 406 C 395 369 358 324 315 270 C 272 216 235 167 205 125 C 199 115 194 107 190 99 C 186 91 184 84 184 78 C 184 57 197 42 225 34 C 252 25 288 18 332 14 L 332 0 L 0 0 Z" unicode="x" />
<glyph horiz-adv-x="946" d="M 127 -463 C 99 -463 67 -452 30 -431 C -6 -410 -25 -374 -25 -324 C -25 -297 -14 -270 6 -244 C 27 -218 56 -205 92 -205 C 118 -205 144 -213 169 -229 C 194 -245 207 -274 207 -315 L 190 -426 C 214 -426 242 -411 274 -381 C 306 -351 341 -305 377 -244 C 401 -202 422 -160 440 -120 C 458 -79 471 -46 481 -20 C 409 154 342 308 280 443 C 218 577 163 700 113 811 C 100 839 84 862 64 878 C 44 894 13 905 -27 911 L -27 926 L 422 926 L 422 907 C 398 906 372 903 343 897 C 313 891 299 880 299 864 C 299 863 300 859 302 851 C 304 843 308 833 313 821 C 336 759 376 669 432 549 C 488 429 538 321 582 223 C 620 316 657 407 693 497 C 729 586 766 681 805 782 C 807 790 810 800 813 811 C 815 821 817 831 817 840 C 817 860 800 876 766 888 C 732 900 698 908 662 913 L 662 926 L 989 926 L 989 915 C 957 910 929 897 904 876 C 879 855 860 830 848 801 C 814 725 762 601 692 427 C 622 253 560 101 506 -31 C 487 -76 469 -117 453 -154 C 436 -190 419 -223 403 -252 C 352 -340 307 -397 267 -423 C 227 -449 181 -463 127 -463 Z" unicode="y" />
<glyph horiz-adv-x="895" d="M 49 0 L 49 18 L 631 903 L 461 903 C 414 903 371 901 333 899 C 295 897 268 893 254 887 C 233 878 207 847 176 795 C 145 743 120 697 102 659 L 86 659 L 86 926 L 838 926 L 838 907 L 260 23 C 294 21 326 20 357 20 C 388 20 417 20 444 20 C 470 20 499 20 530 22 C 560 23 594 25 631 27 C 658 27 681 41 701 68 C 720 94 735 117 745 137 C 758 163 772 191 788 221 C 803 251 817 280 829 309 L 846 309 L 846 0 L 49 0 Z" unicode="z" />
<glyph horiz-adv-x="848" d="M 793 -346 C 637 -348 524 -325 455 -275 C 386 -225 352 -132 352 4 C 352 46 357 89 368 135 C 379 181 385 225 385 268 C 385 367 358 435 304 472 C 250 509 170 530 63 535 L 63 643 C 180 650 263 673 312 711 C 360 749 385 815 385 909 C 385 951 379 996 368 1042 C 357 1088 352 1132 352 1174 C 352 1320 390 1414 466 1458 C 542 1502 651 1524 793 1524 L 793 1509 C 735 1506 678 1490 623 1460 C 568 1430 541 1356 541 1239 C 541 1198 544 1158 550 1120 C 556 1081 559 1041 559 1001 C 559 882 529 796 470 743 C 411 689 318 655 190 639 L 190 539 C 304 525 394 493 460 443 C 526 393 559 304 559 176 C 559 135 556 95 550 57 C 544 18 541 -21 541 -61 C 541 -160 563 -230 608 -271 C 652 -311 714 -332 793 -332 L 793 -346 Z" unicode="{" />
<glyph horiz-adv-x="559" d="M 250 -424 L 250 1528 L 311 1528 L 311 -424 L 250 -424 Z" unicode="|" />
<glyph horiz-adv-x="848" d="M 55 -346 L 55 -332 C 132 -332 193 -311 239 -271 C 284 -231 307 -161 307 -61 C 307 -21 304 18 298 57 C 292 95 289 135 289 176 C 289 303 322 392 388 442 C 454 492 543 525 657 539 L 657 639 C 529 655 435 689 377 743 C 318 796 289 882 289 1001 C 289 1041 292 1081 298 1120 C 304 1158 307 1198 307 1239 C 307 1356 279 1430 224 1460 C 168 1490 112 1506 55 1509 L 55 1524 C 197 1524 306 1502 382 1458 C 458 1414 496 1320 496 1174 C 496 1132 490 1088 479 1042 C 468 996 463 951 463 909 C 463 815 487 749 535 711 C 583 673 666 650 784 643 L 784 535 C 676 530 596 509 543 472 C 489 435 463 367 463 268 C 463 225 468 181 479 135 C 490 89 496 46 496 4 C 496 -132 461 -225 391 -275 C 321 -325 209 -348 55 -346 Z" unicode="}" />
<glyph horiz-adv-x="1073" d="M 119 393 L 106 397 C 124 462 159 521 211 574 C 263 626 323 653 389 653 C 451 653 517 637 587 607 C 657 576 711 561 748 561 C 800 561 841 571 873 593 C 905 615 932 648 956 692 L 967 688 C 945 612 911 550 864 500 C 816 450 762 426 702 426 C 635 426 568 441 501 472 C 433 502 381 518 344 518 C 292 518 247 508 210 488 C 172 468 142 437 119 393 Z" unicode="~" />
<glyph horiz-adv-x="242" d="" unicode=" " />
<glyph horiz-adv-x="659" d="M 335 983 C 349 804 372 627 404 453 C 436 279 452 167 452 119 C 452 82 440 49 418 21 C 395 -6 365 -20 327 -20 C 289 -20 258 -6 236 21 C 213 49 202 82 202 119 C 202 167 217 278 249 452 C 281 626 305 803 323 983 L 335 983 Z M 329 1432 C 365 1432 397 1420 423 1395 C 449 1369 462 1338 462 1300 C 462 1264 449 1232 423 1205 C 397 1178 365 1165 329 1165 C 291 1165 259 1178 233 1205 C 207 1232 194 1264 194 1300 C 194 1338 207 1369 233 1395 C 259 1420 291 1432 329 1432 Z" unicode="¡" />
<glyph horiz-adv-x="958" d="M 322 -231 L 295 -225 L 383 152 C 293 182 224 239 174 322 C 124 404 100 504 100 621 C 100 745 140 857 221 957 C 302 1056 412 1106 551 1106 C 561 1106 570 1105 580 1104 C 589 1103 598 1102 606 1102 L 670 1372 L 698 1366 L 637 1098 C 708 1084 763 1056 803 1013 C 842 969 862 922 862 870 C 862 836 853 808 836 787 C 818 766 793 756 760 756 C 739 756 716 763 692 777 C 667 791 655 818 655 856 C 655 900 660 932 672 951 C 684 969 690 988 690 1008 C 686 1024 678 1038 668 1050 C 657 1061 645 1070 631 1077 L 436 256 C 455 239 477 226 503 217 C 529 207 556 203 584 203 C 649 203 706 215 754 239 C 802 263 847 309 889 377 L 903 369 C 866 290 815 230 751 190 C 686 149 614 129 535 129 C 513 129 492 130 471 133 C 450 135 430 139 412 143 L 322 -231 Z M 414 281 L 604 1085 C 596 1087 587 1089 579 1089 C 571 1089 563 1090 555 1090 C 489 1090 429 1052 376 978 C 323 903 297 789 297 637 C 297 563 307 495 327 432 C 347 368 376 318 414 281 Z" unicode="¢" />
<glyph horiz-adv-x="1495" d="M 133 -201 C 49 -201 -11 -183 -49 -148 C -87 -112 -106 -70 -106 -20 C -106 42 -69 92 4 130 C 77 167 160 186 254 186 C 292 186 337 181 388 172 C 439 162 489 151 539 139 C 545 175 548 214 548 256 C 548 298 547 340 545 383 L 199 383 L 199 408 L 545 408 C 543 439 541 472 539 506 C 537 540 537 571 537 598 L 211 598 L 211 625 L 537 625 C 543 866 598 1060 704 1208 C 810 1356 946 1430 1112 1430 C 1248 1430 1348 1391 1412 1314 C 1476 1236 1509 1159 1509 1083 C 1509 985 1478 906 1417 845 C 1356 784 1278 754 1184 754 C 1110 754 1053 777 1012 825 C 970 873 950 933 950 1006 C 950 1035 953 1063 960 1089 C 967 1115 976 1142 987 1169 L 999 1165 C 988 1138 980 1112 975 1086 C 969 1060 967 1037 967 1018 C 967 950 987 898 1028 860 C 1068 822 1118 803 1178 803 C 1245 803 1295 827 1329 876 C 1363 924 1380 990 1380 1073 C 1380 1163 1359 1243 1318 1312 C 1277 1380 1211 1415 1120 1415 C 1015 1415 931 1367 867 1272 C 803 1176 768 1019 762 799 C 761 767 760 735 758 705 C 756 675 754 648 752 625 L 1081 625 L 1081 598 L 750 598 C 745 568 739 534 731 496 C 723 458 715 428 709 408 L 1065 408 L 1065 383 L 700 383 C 686 338 669 290 649 240 C 629 189 609 149 590 121 C 673 92 754 59 833 21 C 912 -16 993 -35 1077 -35 C 1183 -35 1254 0 1290 71 C 1326 142 1350 212 1362 281 L 1376 276 C 1362 165 1321 64 1255 -28 C 1189 -120 1071 -166 901 -166 C 835 -166 768 -150 700 -119 C 631 -87 564 -55 498 -23 C 458 -71 404 -112 336 -148 C 268 -183 201 -201 133 -201 Z M 131 -180 C 194 -180 256 -164 318 -133 C 380 -102 432 -62 475 -12 C 403 21 338 46 278 62 C 218 78 159 86 100 86 C 47 86 4 74 -27 51 C -59 28 -76 -3 -76 -43 C -76 -77 -59 -108 -25 -137 C 9 -165 61 -180 131 -180 Z" unicode="£" />
<glyph horiz-adv-x="1161" d="M 252 0 L 252 14 C 270 14 298 17 334 21 C 370 25 395 30 410 35 C 428 41 443 52 455 70 C 467 88 473 108 473 131 L 473 322 L 156 322 L 156 348 L 473 348 L 473 516 L 156 516 L 156 543 L 471 543 C 436 613 390 703 334 814 C 278 924 233 1009 199 1069 C 181 1101 163 1128 144 1150 C 125 1171 105 1188 84 1200 C 68 1209 51 1216 32 1221 C 12 1225 -5 1228 -23 1229 L -23 1243 L 537 1243 L 537 1229 C 506 1227 470 1222 429 1214 C 387 1206 367 1192 367 1174 C 367 1157 397 1090 458 972 C 518 854 587 727 664 590 C 736 713 806 832 875 948 C 944 1064 979 1131 979 1151 C 979 1177 955 1196 909 1208 C 863 1219 820 1226 780 1229 L 780 1243 L 1190 1243 L 1190 1229 C 1161 1226 1132 1216 1102 1198 C 1072 1180 1049 1159 1032 1135 C 989 1073 931 983 859 864 C 787 745 724 638 670 543 L 999 543 L 999 516 L 668 516 L 668 348 L 999 348 L 999 322 L 668 322 L 668 141 C 668 119 673 100 683 82 C 693 64 708 51 727 43 C 742 36 766 30 799 24 C 832 18 858 14 877 14 L 877 0 L 252 0 Z" unicode="¥" />
<glyph horiz-adv-x="559" d="M 250 -424 L 250 379 L 311 379 L 311 -424 L 250 -424 Z M 250 743 L 250 1528 L 311 1528 L 311 743 L 250 743 Z" unicode="¦" />
<glyph horiz-adv-x="1077" d="M 469 -465 C 384 -465 320 -438 278 -385 C 236 -331 215 -286 215 -248 C 215 -202 226 -165 248 -138 C 270 -111 300 -98 338 -98 C 364 -98 388 -107 408 -127 C 428 -146 438 -172 438 -205 C 438 -243 425 -270 401 -285 C 377 -300 365 -321 365 -348 C 365 -375 376 -399 398 -420 C 420 -440 447 -451 481 -451 C 537 -451 581 -428 613 -382 C 645 -336 662 -278 662 -209 C 662 -160 651 -116 629 -77 C 607 -37 576 7 537 57 C 496 109 455 156 414 198 C 372 240 324 294 268 362 C 218 421 180 474 155 521 C 129 568 117 622 117 684 C 117 764 145 827 203 872 C 260 916 321 944 385 954 C 361 988 341 1026 325 1069 C 309 1111 301 1158 301 1208 C 301 1287 332 1357 395 1419 C 458 1480 535 1511 625 1511 C 706 1511 766 1484 804 1432 C 842 1379 862 1334 862 1296 C 862 1250 851 1213 830 1187 C 808 1160 779 1147 741 1147 C 714 1147 691 1156 671 1175 C 651 1193 641 1219 641 1253 C 641 1293 657 1320 690 1335 C 722 1350 739 1369 739 1393 C 739 1420 727 1444 704 1465 C 681 1486 648 1497 604 1497 C 555 1497 512 1475 475 1433 C 438 1390 420 1336 420 1270 C 420 1220 431 1175 454 1137 C 477 1098 509 1053 549 1001 C 589 949 629 902 667 860 C 705 818 753 763 811 696 C 863 634 902 580 929 532 C 955 484 969 431 969 371 C 969 288 940 227 882 188 C 824 148 761 123 694 111 C 719 75 741 34 759 -11 C 777 -57 786 -106 786 -160 C 786 -239 755 -310 694 -372 C 632 -434 557 -465 469 -465 Z M 684 125 C 734 138 773 160 801 191 C 828 222 842 263 842 313 C 842 347 832 382 813 419 C 793 455 771 489 745 520 C 677 600 612 677 548 751 C 484 824 433 888 393 942 C 351 932 314 911 283 880 C 251 848 236 803 236 743 C 236 713 246 679 268 640 C 289 600 312 565 338 535 C 403 456 467 382 530 313 C 592 243 644 181 684 125 Z" unicode="§" />
<glyph horiz-adv-x="1024" d="M 287 1204 C 255 1204 227 1215 204 1238 C 181 1261 170 1289 170 1321 C 170 1353 181 1382 204 1406 C 227 1430 255 1442 287 1442 C 322 1442 351 1430 375 1408 C 398 1385 410 1359 410 1329 C 410 1295 398 1266 374 1241 C 350 1216 321 1204 287 1204 Z M 733 1204 C 700 1204 672 1215 649 1238 C 625 1261 614 1289 614 1321 C 614 1353 625 1382 649 1406 C 672 1430 700 1442 733 1442 C 767 1442 796 1430 819 1408 C 842 1385 854 1359 854 1329 C 854 1295 842 1266 819 1241 C 795 1216 767 1204 733 1204 Z" unicode="¨" />
<glyph horiz-adv-x="1946" d="M 987 27 C 840 27 722 70 632 156 C 542 242 498 359 498 506 C 498 646 546 764 644 860 C 741 956 865 1004 1016 1004 C 1068 1004 1117 996 1165 982 C 1213 967 1249 951 1274 934 L 1323 1018 L 1339 1018 L 1348 647 L 1331 647 C 1294 764 1251 849 1201 902 C 1151 954 1087 981 1010 981 C 927 981 854 940 792 859 C 729 778 698 664 698 516 C 698 394 726 292 783 210 C 839 127 921 86 1028 86 C 1112 86 1180 110 1232 160 C 1283 209 1324 264 1354 324 L 1378 313 C 1346 243 1299 177 1237 117 C 1175 57 1091 27 987 27 Z M 975 -371 C 728 -371 517 -284 342 -110 C 167 64 80 272 80 514 C 80 754 167 960 341 1134 C 515 1308 727 1395 975 1395 C 1220 1395 1430 1308 1604 1134 C 1778 960 1866 754 1866 514 C 1866 272 1778 64 1604 -110 C 1430 -284 1220 -371 975 -371 Z M 975 -317 C 1202 -317 1395 -235 1555 -73 C 1714 88 1794 284 1794 514 C 1794 740 1714 934 1555 1096 C 1395 1258 1202 1339 975 1339 C 746 1339 552 1258 392 1096 C 232 934 152 740 152 514 C 152 284 232 88 392 -73 C 552 -235 746 -317 975 -317 Z" unicode="©" />
<glyph horiz-adv-x="713" d="M 248 688 C 202 688 165 700 139 724 C 113 748 100 781 100 821 C 100 870 112 905 137 927 C 162 949 189 966 219 979 C 251 992 288 1003 328 1013 C 368 1023 400 1034 424 1047 L 424 1118 C 424 1139 418 1166 407 1200 C 396 1234 370 1251 328 1251 C 308 1251 293 1247 282 1240 C 270 1233 262 1227 258 1221 C 258 1210 260 1195 264 1176 C 268 1157 270 1140 270 1126 C 270 1113 264 1100 254 1087 C 244 1073 226 1067 201 1067 C 176 1067 158 1074 148 1089 C 138 1103 133 1120 133 1139 C 133 1176 155 1207 200 1232 C 245 1257 290 1270 334 1270 C 390 1270 440 1260 484 1240 C 528 1220 551 1170 551 1090 C 551 1038 549 984 547 929 C 544 874 543 837 543 819 C 543 810 546 797 553 781 C 560 764 574 756 596 756 C 616 756 630 767 637 790 C 644 812 648 835 649 858 L 666 858 C 662 800 649 757 627 730 C 605 703 575 690 537 690 C 508 690 485 697 467 711 C 449 725 436 746 428 774 C 405 748 378 728 346 712 C 314 696 282 688 248 688 Z M 317 741 C 341 741 361 745 377 755 C 393 764 406 776 418 791 L 424 1026 C 372 1007 327 984 291 957 C 254 930 236 892 236 844 C 236 811 243 786 259 768 C 275 750 294 741 317 741 Z M 111 496 L 111 535 L 631 535 L 631 496 L 111 496 Z" unicode="ª" />
<glyph horiz-adv-x="1124" d="M 567 41 C 511 85 435 144 341 218 C 247 291 179 344 137 377 C 119 391 107 403 100 413 C 93 423 90 438 90 459 C 90 478 93 492 99 502 C 105 512 116 523 133 537 C 171 566 239 618 338 693 C 436 767 513 828 567 874 L 575 866 L 272 455 L 575 49 L 567 41 Z M 999 41 C 944 85 869 144 775 218 C 680 291 611 344 569 377 C 552 391 540 403 533 413 C 525 423 522 438 522 459 C 522 478 525 492 531 502 C 537 512 548 523 565 537 C 603 566 672 618 771 693 C 870 767 946 828 999 874 L 1008 866 L 705 455 L 1008 49 L 999 41 Z" unicode="«" />
<glyph horiz-adv-x="1145" d="M 942 80 L 942 522 L 86 522 L 86 592 L 1014 592 L 1014 80 L 942 80 Z" unicode="¬" />
<glyph horiz-adv-x="764" d="M 61 449 L 61 590 L 702 590 L 702 449 L 61 449 Z" unicode="­" />
<glyph horiz-adv-x="971" d="M 641 866 C 616 866 596 874 581 892 C 566 910 557 936 553 971 C 550 994 543 1017 533 1040 C 522 1063 499 1075 463 1075 L 428 1075 L 428 922 C 428 914 429 908 432 903 C 434 897 439 893 446 891 C 450 889 457 887 465 886 C 473 885 481 885 487 885 L 487 872 L 295 872 L 295 885 C 299 885 307 885 317 887 C 327 889 334 890 336 891 C 342 893 346 897 349 903 C 352 908 354 914 354 922 L 354 1241 C 354 1247 352 1254 350 1260 C 347 1266 342 1270 336 1272 C 330 1274 322 1275 314 1277 C 306 1279 299 1280 295 1280 L 295 1292 L 510 1292 C 540 1292 570 1284 600 1270 C 630 1256 645 1232 645 1198 C 645 1164 630 1139 602 1124 C 574 1108 548 1098 526 1092 L 526 1085 C 540 1083 558 1077 579 1068 C 600 1058 614 1042 621 1020 C 625 1003 628 987 631 972 C 633 956 637 942 641 928 C 643 916 647 909 653 906 C 659 902 664 901 670 901 C 678 901 685 904 693 910 C 701 916 705 930 705 952 L 717 952 C 717 922 711 901 699 887 C 687 873 668 866 641 866 Z M 485 694 C 380 694 292 730 220 802 C 148 874 113 962 113 1067 C 113 1171 148 1260 220 1332 C 292 1404 380 1440 485 1440 C 589 1440 678 1404 750 1332 C 822 1260 858 1171 858 1067 C 858 962 822 874 750 802 C 678 730 589 694 485 694 Z M 485 727 C 580 727 659 760 722 826 C 785 892 817 972 817 1067 C 817 1161 785 1242 722 1308 C 659 1374 580 1407 485 1407 C 390 1407 311 1374 248 1308 C 185 1242 154 1161 154 1067 C 154 972 185 892 248 826 C 311 760 390 727 485 727 Z M 428 1090 L 461 1090 C 488 1090 511 1097 531 1112 C 551 1126 561 1151 561 1186 C 561 1220 552 1243 536 1257 C 520 1271 500 1278 477 1278 L 428 1278 L 428 1090 Z" unicode="®" />
<glyph horiz-adv-x="1024" d="M 174 1221 L 174 1348 L 850 1348 L 850 1221 L 174 1221 Z" unicode="¯" />
<glyph horiz-adv-x="782" d="M 387 848 C 305 848 235 873 175 923 C 115 973 86 1047 86 1145 C 86 1234 117 1308 180 1366 C 242 1424 311 1454 387 1454 C 467 1454 539 1429 602 1379 C 664 1329 696 1251 696 1147 C 696 1063 664 993 602 935 C 539 877 467 848 387 848 Z M 393 864 C 442 864 483 891 516 947 C 548 1003 565 1068 565 1143 C 565 1221 550 1289 522 1349 C 493 1408 449 1438 389 1438 C 329 1438 285 1407 257 1347 C 229 1287 215 1222 215 1153 C 215 1081 229 1014 257 954 C 285 894 331 864 393 864 Z" unicode="°" />
<glyph horiz-adv-x="938" d="M 147 690 L 147 745 C 237 802 311 850 370 889 C 429 928 483 971 532 1018 C 591 1076 630 1128 650 1176 C 670 1224 680 1277 680 1335 C 680 1387 665 1429 635 1461 C 605 1493 564 1509 510 1509 C 433 1509 371 1482 324 1428 C 277 1374 254 1322 254 1272 C 254 1246 261 1223 276 1201 C 291 1179 318 1169 358 1169 C 398 1169 432 1182 462 1209 C 492 1236 513 1261 526 1284 L 539 1274 C 517 1238 486 1200 444 1162 C 402 1123 347 1104 279 1104 C 237 1104 203 1115 178 1138 C 153 1161 141 1194 141 1237 C 141 1301 178 1365 253 1430 C 328 1495 420 1528 528 1528 C 624 1528 701 1506 759 1464 C 817 1421 846 1369 846 1307 C 846 1219 811 1145 742 1085 C 673 1025 562 960 408 891 C 397 886 378 874 351 855 C 324 835 305 821 293 813 L 729 813 C 765 813 795 829 819 862 C 843 894 867 930 893 969 L 903 963 L 776 690 L 147 690 Z" unicode="²" />
<glyph horiz-adv-x="930" d="M 385 680 C 319 680 255 695 192 726 C 129 757 98 804 98 868 C 98 904 110 933 134 955 C 158 977 185 989 215 989 C 238 989 257 982 271 968 C 285 954 293 935 293 911 C 293 875 279 853 251 845 C 223 837 209 821 209 799 C 209 773 224 750 254 728 C 284 706 327 696 383 696 C 458 696 524 725 580 784 C 636 842 664 907 664 977 C 664 1019 655 1057 638 1091 C 621 1125 589 1143 543 1143 C 517 1143 490 1132 461 1111 C 431 1089 404 1068 379 1047 L 358 1077 C 441 1121 511 1162 569 1202 C 626 1241 655 1294 655 1360 C 655 1404 641 1439 615 1467 C 588 1495 552 1509 508 1509 C 471 1509 427 1492 375 1459 C 323 1425 297 1383 297 1331 C 297 1307 303 1287 317 1271 C 330 1255 351 1247 381 1247 C 409 1247 433 1254 451 1268 C 469 1282 484 1293 496 1303 L 502 1294 C 483 1270 456 1248 422 1226 C 387 1204 351 1194 313 1194 C 265 1194 230 1203 208 1223 C 186 1243 176 1268 176 1300 C 176 1356 214 1408 292 1456 C 369 1504 455 1528 551 1528 C 649 1528 717 1508 755 1470 C 793 1432 813 1394 813 1356 C 813 1318 791 1280 748 1244 C 704 1208 637 1180 547 1161 C 620 1163 685 1150 743 1124 C 800 1097 829 1049 829 979 C 829 890 785 818 697 763 C 609 707 505 680 385 680 Z" unicode="³" />
<glyph horiz-adv-x="1024" d="M 319 1073 L 309 1083 C 351 1156 385 1219 413 1272 C 441 1325 466 1371 489 1409 C 507 1441 526 1463 546 1477 C 566 1490 588 1497 614 1497 C 638 1497 657 1488 673 1472 C 688 1456 696 1438 696 1419 C 696 1393 690 1373 678 1358 C 666 1343 647 1326 623 1307 C 592 1282 554 1253 509 1220 C 463 1187 400 1138 319 1073 Z" unicode="´" />
<glyph horiz-adv-x="1169" d="M 203 -463 C 180 -463 160 -453 143 -434 C 125 -415 117 -390 117 -360 C 117 -309 123 -259 136 -210 C 149 -161 158 -120 162 -88 C 166 -55 168 -20 170 18 C 171 56 172 93 172 129 L 172 932 L 358 932 L 358 279 C 358 210 377 156 415 117 C 453 78 497 59 549 59 C 617 59 667 73 701 102 C 734 130 757 155 770 176 L 770 932 L 956 932 L 956 190 C 956 164 964 140 982 118 C 999 95 1025 84 1059 84 C 1095 84 1122 101 1139 135 C 1156 169 1166 205 1169 244 L 1186 244 C 1180 148 1160 80 1126 41 C 1092 1 1042 -18 977 -18 C 923 -18 880 -4 848 23 C 815 50 790 89 774 139 L 768 139 C 729 91 686 52 638 23 C 590 -5 535 -20 473 -20 C 415 -20 363 -7 318 18 C 273 43 235 79 205 125 L 201 125 L 201 -6 C 201 -70 215 -131 245 -189 C 274 -247 289 -302 289 -354 C 289 -390 280 -417 262 -435 C 244 -453 224 -463 203 -463 Z" unicode="µ" />
<glyph horiz-adv-x="1247" d="M 639 -256 L 639 688 L 578 688 C 423 688 308 719 233 783 C 158 846 121 930 121 1036 C 121 1136 155 1222 223 1293 C 291 1363 388 1399 514 1399 L 1214 1399 L 1214 1370 L 924 1370 L 924 -256 L 889 -256 L 889 1370 L 674 1370 L 674 -256 L 639 -256 Z" unicode="¶" />
<glyph horiz-adv-x="512" d="M 256 422 C 218 422 185 435 159 461 C 132 487 119 519 119 557 C 119 595 132 627 159 654 C 185 680 218 694 256 694 C 294 694 326 680 353 654 C 379 627 393 595 393 557 C 393 519 379 487 353 461 C 326 435 294 422 256 422 Z" unicode="·" />
<glyph horiz-adv-x="1024" d="M 289 -471 L 289 -446 C 352 -446 415 -439 477 -425 C 539 -411 571 -375 571 -317 C 571 -281 552 -258 514 -249 C 476 -240 437 -236 397 -236 L 397 0 L 424 0 L 424 -119 C 498 -119 565 -128 625 -147 C 685 -166 715 -208 715 -274 C 715 -363 670 -418 580 -439 C 490 -460 393 -471 289 -471 Z" unicode="¸" />
<glyph horiz-adv-x="696" d="M 90 694 L 90 709 C 105 709 130 711 164 714 C 198 717 221 720 233 723 C 247 727 259 734 269 746 C 278 758 283 772 283 788 L 283 1440 C 273 1438 264 1436 255 1435 C 245 1434 233 1434 219 1434 C 192 1434 163 1439 131 1449 C 99 1459 67 1475 37 1499 L 41 1507 C 60 1500 85 1493 115 1486 C 145 1478 174 1475 201 1475 C 255 1475 304 1481 347 1495 C 390 1508 424 1521 449 1534 L 459 1534 C 451 1504 446 1472 444 1437 C 441 1402 440 1365 440 1325 L 440 793 C 440 778 444 765 452 754 C 460 743 472 735 487 729 C 498 725 520 720 554 716 C 588 712 611 709 625 709 L 625 694 L 90 694 Z" unicode="¹" />
<glyph horiz-adv-x="741" d="M 367 682 C 296 682 231 707 173 758 C 115 809 86 881 86 975 C 86 1063 114 1135 170 1189 C 226 1243 293 1270 373 1270 C 454 1270 521 1243 575 1189 C 628 1135 655 1065 655 981 C 655 896 628 825 575 768 C 521 710 452 682 367 682 Z M 373 698 C 425 698 462 728 482 788 C 502 848 512 913 512 981 C 512 1042 502 1102 483 1162 C 463 1221 427 1251 373 1251 C 315 1251 277 1220 258 1158 C 238 1096 229 1038 229 983 C 229 915 239 851 259 790 C 279 728 317 698 373 698 Z M 111 496 L 111 535 L 631 535 L 631 496 L 111 496 Z" unicode="º" />
<glyph horiz-adv-x="1124" d="M 125 41 L 117 49 L 420 455 L 117 866 L 125 874 C 177 828 253 767 353 693 C 452 618 521 566 559 537 C 575 523 587 512 593 502 C 599 492 602 478 602 459 C 602 438 598 423 591 413 C 584 403 572 391 555 377 C 512 344 444 291 350 218 C 256 144 181 85 125 41 Z M 557 41 L 551 49 L 852 455 L 551 866 L 557 874 C 611 828 687 767 786 693 C 884 618 953 566 991 537 C 1007 523 1019 512 1025 502 C 1031 492 1034 478 1034 459 C 1034 438 1030 423 1023 413 C 1016 403 1004 391 987 377 C 945 344 876 291 782 218 C 688 144 613 85 557 41 Z" unicode="»" />
<glyph horiz-adv-x="1153" d="M 463 -465 L 463 -451 C 475 -450 493 -448 517 -446 C 540 -443 556 -440 565 -438 C 578 -434 588 -426 596 -415 C 604 -404 608 -391 608 -377 L 608 -190 L 174 -190 L 174 -147 L 702 377 L 756 377 L 756 -129 C 798 -129 833 -128 863 -127 C 892 -126 914 -121 930 -111 C 942 -101 951 -86 959 -66 C 967 -45 971 -26 971 -10 L 985 -10 L 985 -315 L 971 -315 C 970 -295 966 -275 958 -253 C 950 -231 940 -215 926 -205 C 914 -195 894 -190 865 -190 C 836 -190 800 -190 756 -190 L 756 -369 C 756 -383 759 -395 765 -407 C 771 -419 782 -427 797 -432 C 807 -436 822 -440 844 -444 C 866 -448 884 -450 899 -451 L 899 -465 L 463 -465 Z M 317 694 L 317 709 C 332 709 357 711 391 714 C 425 717 448 720 461 723 C 475 727 486 734 496 746 C 505 758 510 772 510 788 L 510 1440 C 501 1438 492 1436 482 1435 C 472 1434 460 1434 446 1434 C 419 1434 390 1439 358 1449 C 326 1459 294 1475 264 1499 L 268 1507 C 287 1500 312 1493 342 1486 C 372 1478 401 1475 428 1475 C 483 1475 532 1481 575 1495 C 617 1508 651 1521 676 1534 L 686 1534 C 679 1504 674 1472 672 1437 C 669 1402 668 1365 668 1325 L 668 793 C 668 778 672 765 680 754 C 688 743 699 735 715 729 C 725 725 747 720 781 716 C 815 712 838 709 852 709 L 852 694 L 317 694 Z M 90 504 L 90 555 L 1061 555 L 1061 504 L 90 504 Z M 227 -129 L 608 -129 L 608 250 L 227 -129 Z" unicode="¼" />
<glyph horiz-adv-x="1153" d="M 244 -465 L 244 -410 C 333 -352 407 -304 466 -265 C 525 -226 579 -183 629 -137 C 688 -79 727 -26 747 21 C 766 69 776 122 776 180 C 776 232 761 274 731 306 C 701 338 660 354 606 354 C 530 354 468 327 421 273 C 373 219 350 167 350 117 C 350 91 357 68 372 46 C 387 24 415 14 455 14 C 495 14 529 27 559 54 C 588 81 609 106 623 129 L 635 119 C 613 83 582 45 540 7 C 498 -31 443 -51 375 -51 C 333 -51 299 -39 275 -16 C 250 6 238 39 238 82 C 238 146 275 210 350 275 C 425 340 517 373 625 373 C 720 373 797 351 855 309 C 913 266 942 214 942 152 C 942 64 908 -10 841 -70 C 774 -130 664 -194 510 -264 C 499 -268 479 -280 451 -300 C 422 -319 401 -333 389 -342 L 825 -342 C 861 -342 891 -325 915 -293 C 939 -260 963 -224 989 -186 L 999 -193 L 872 -465 L 244 -465 Z M 317 694 L 317 709 C 332 709 357 711 391 714 C 425 717 448 720 461 723 C 475 727 486 734 496 746 C 505 758 510 772 510 788 L 510 1440 C 501 1438 492 1436 482 1435 C 472 1434 460 1434 446 1434 C 419 1434 390 1439 358 1449 C 326 1459 294 1475 264 1499 L 268 1507 C 287 1500 312 1493 342 1486 C 372 1478 401 1475 428 1475 C 483 1475 532 1481 575 1495 C 617 1508 651 1521 676 1534 L 686 1534 C 679 1504 674 1472 672 1437 C 669 1402 668 1365 668 1325 L 668 793 C 668 778 672 765 680 754 C 688 743 699 735 715 729 C 725 725 747 720 781 716 C 815 712 838 709 852 709 L 852 694 L 317 694 Z M 90 504 L 90 555 L 1061 555 L 1061 504 L 90 504 Z" unicode="½" />
<glyph horiz-adv-x="1153" d="M 479 680 C 413 680 349 695 287 726 C 224 757 193 804 193 868 C 193 904 205 933 229 955 C 253 977 279 989 309 989 C 332 989 351 982 365 968 C 379 954 387 935 387 911 C 387 875 373 853 345 845 C 317 837 303 821 303 799 C 303 773 318 750 348 728 C 378 706 421 696 477 696 C 552 696 618 725 674 784 C 730 842 758 907 758 977 C 758 1019 749 1057 732 1091 C 715 1125 683 1143 637 1143 C 611 1143 584 1132 555 1111 C 525 1089 498 1068 473 1047 L 453 1077 C 536 1121 606 1162 664 1202 C 721 1241 750 1294 750 1360 C 750 1404 736 1439 709 1467 C 682 1495 646 1509 602 1509 C 565 1509 521 1492 469 1459 C 417 1425 391 1383 391 1331 C 391 1307 397 1287 411 1271 C 424 1255 445 1247 475 1247 C 503 1247 527 1254 545 1268 C 563 1282 578 1293 590 1303 L 596 1294 C 577 1270 550 1248 516 1226 C 481 1204 445 1194 408 1194 C 360 1194 325 1203 303 1223 C 281 1243 270 1268 270 1300 C 270 1356 308 1408 386 1456 C 464 1504 550 1528 645 1528 C 743 1528 811 1508 849 1470 C 887 1432 907 1394 907 1356 C 907 1318 885 1280 842 1244 C 798 1208 731 1180 641 1161 C 714 1163 779 1150 837 1124 C 895 1097 924 1049 924 979 C 924 890 880 818 792 763 C 704 707 599 680 479 680 Z M 463 -465 L 463 -451 C 475 -450 493 -448 517 -446 C 540 -443 556 -440 565 -438 C 578 -434 588 -426 596 -415 C 604 -404 608 -391 608 -377 L 608 -190 L 174 -190 L 174 -147 L 702 377 L 756 377 L 756 -129 C 798 -129 833 -128 863 -127 C 892 -126 914 -121 930 -111 C 942 -101 951 -86 959 -66 C 967 -45 971 -26 971 -10 L 985 -10 L 985 -315 L 971 -315 C 970 -295 966 -275 958 -253 C 950 -231 940 -215 926 -205 C 914 -195 894 -190 865 -190 C 836 -190 800 -190 756 -190 L 756 -369 C 756 -383 759 -395 765 -407 C 771 -419 782 -427 797 -432 C 807 -436 822 -440 844 -444 C 866 -448 884 -450 899 -451 L 899 -465 L 463 -465 Z M 90 504 L 90 555 L 1061 555 L 1061 504 L 90 504 Z M 227 -129 L 608 -129 L 608 250 L 227 -129 Z" unicode="¾" />
<glyph horiz-adv-x="987" d="M 638 1044 L 638 663 C 537 649 457 620 399 578 C 340 535 311 460 311 354 C 311 226 334 136 382 83 C 430 30 488 4 557 4 C 584 4 612 9 640 20 C 668 31 689 44 702 59 C 699 79 694 98 686 115 C 678 131 675 160 675 201 C 675 236 689 262 718 280 C 746 298 770 307 790 307 C 826 307 852 295 869 273 C 885 250 894 222 894 190 C 894 139 863 91 803 47 C 742 3 658 -18 552 -18 C 408 -18 300 20 227 99 C 154 177 118 275 118 391 C 118 505 162 603 250 685 C 338 766 457 813 606 825 L 618 1044 L 638 1044 Z M 624 1437 C 662 1437 694 1424 721 1398 C 747 1372 761 1340 761 1302 C 761 1264 747 1232 721 1205 C 694 1178 662 1165 624 1165 C 586 1165 553 1178 527 1205 C 500 1232 487 1264 487 1302 C 487 1340 500 1372 527 1398 C 553 1424 586 1437 624 1437 Z" unicode="¿" />
<glyph horiz-adv-x="1393" d="M -49 0 L -49 14 C -29 14 -8 18 16 24 C 40 30 61 39 80 49 C 104 63 126 85 145 115 C 164 144 181 177 197 213 C 269 388 348 584 435 802 C 522 1020 604 1226 682 1421 L 719 1421 C 823 1158 925 904 1026 660 C 1127 416 1197 246 1235 152 C 1243 131 1252 111 1264 93 C 1276 74 1294 57 1319 43 C 1337 33 1358 25 1381 21 C 1403 17 1424 14 1444 14 L 1444 0 L 799 0 L 799 14 C 834 16 878 22 930 32 C 982 42 1011 59 1016 84 C 1018 92 1017 102 1015 113 C 1013 123 1010 133 1008 141 L 862 516 L 354 516 C 334 469 315 417 295 359 C 275 301 260 257 252 227 C 245 204 238 181 232 159 C 226 137 223 118 223 104 C 223 68 255 44 321 33 C 386 22 437 16 473 14 L 473 0 L -49 0 Z M 365 545 L 850 545 L 606 1161 L 365 545 Z M 848 1482 C 766 1547 703 1596 657 1629 C 611 1662 572 1691 542 1716 C 517 1735 499 1752 487 1767 C 475 1782 469 1802 469 1828 C 469 1847 477 1865 493 1881 C 509 1897 529 1906 553 1906 C 578 1906 600 1899 620 1887 C 639 1875 658 1852 678 1818 C 700 1780 726 1733 755 1677 C 783 1621 818 1558 858 1490 L 848 1482 Z" unicode="À" />
<glyph horiz-adv-x="1393" d="M -49 0 L -49 14 C -29 14 -8 18 16 24 C 40 30 61 39 80 49 C 104 63 126 85 145 115 C 164 144 181 177 197 213 C 269 388 348 584 435 802 C 522 1020 604 1226 682 1421 L 719 1421 C 823 1158 925 904 1026 660 C 1127 416 1197 246 1235 152 C 1243 131 1252 111 1264 93 C 1276 74 1294 57 1319 43 C 1337 33 1358 25 1381 21 C 1403 17 1424 14 1444 14 L 1444 0 L 799 0 L 799 14 C 834 16 878 22 930 32 C 982 42 1011 59 1016 84 C 1018 92 1017 102 1015 113 C 1013 123 1010 133 1008 141 L 862 516 L 354 516 C 334 469 315 417 295 359 C 275 301 260 257 252 227 C 245 204 238 181 232 159 C 226 137 223 118 223 104 C 223 68 255 44 321 33 C 386 22 437 16 473 14 L 473 0 L -49 0 Z M 365 545 L 850 545 L 606 1161 L 365 545 Z M 511 1482 L 501 1492 C 543 1565 577 1628 605 1681 C 633 1734 658 1780 681 1818 C 699 1850 718 1872 738 1886 C 758 1899 780 1906 806 1906 C 830 1906 849 1897 865 1881 C 880 1865 888 1847 888 1828 C 888 1802 882 1782 870 1767 C 858 1752 839 1735 815 1716 C 784 1691 746 1662 701 1629 C 655 1596 592 1547 511 1482 Z" unicode="Á" />
<glyph horiz-adv-x="1393" d="M -49 0 L -49 14 C -29 14 -8 18 16 24 C 40 30 61 39 80 49 C 104 63 126 85 145 115 C 164 144 181 177 197 213 C 269 388 348 584 435 802 C 522 1020 604 1226 682 1421 L 719 1421 C 823 1158 925 904 1026 660 C 1127 416 1197 246 1235 152 C 1243 131 1252 111 1264 93 C 1276 74 1294 57 1319 43 C 1337 33 1358 25 1381 21 C 1403 17 1424 14 1444 14 L 1444 0 L 799 0 L 799 14 C 834 16 878 22 930 32 C 982 42 1011 59 1016 84 C 1018 92 1017 102 1015 113 C 1013 123 1010 133 1008 141 L 862 516 L 354 516 C 334 469 315 417 295 359 C 275 301 260 257 252 227 C 245 204 238 181 232 159 C 226 137 223 118 223 104 C 223 68 255 44 321 33 C 386 22 437 16 473 14 L 473 0 L -49 0 Z M 365 545 L 850 545 L 606 1161 L 365 545 Z M 389 1503 L 374 1515 C 428 1593 474 1662 513 1720 C 551 1778 583 1827 608 1865 C 621 1884 632 1896 641 1902 C 649 1907 668 1910 698 1910 C 727 1910 745 1907 753 1902 C 761 1897 770 1886 782 1869 C 807 1832 839 1784 878 1724 C 917 1664 964 1594 1018 1515 L 1003 1503 L 694 1765 L 389 1503 Z" unicode="Â" />
<glyph horiz-adv-x="1393" d="M -49 0 L -49 14 C -29 14 -8 18 16 24 C 40 30 61 39 80 49 C 104 63 126 85 145 115 C 164 144 181 177 197 213 C 269 388 348 584 435 802 C 522 1020 604 1226 682 1421 L 719 1421 C 823 1158 925 904 1026 660 C 1127 416 1197 246 1235 152 C 1243 131 1252 111 1264 93 C 1276 74 1294 57 1319 43 C 1337 33 1358 25 1381 21 C 1403 17 1424 14 1444 14 L 1444 0 L 799 0 L 799 14 C 834 16 878 22 930 32 C 982 42 1011 59 1016 84 C 1018 92 1017 102 1015 113 C 1013 123 1010 133 1008 141 L 862 516 L 354 516 C 334 469 315 417 295 359 C 275 301 260 257 252 227 C 245 204 238 181 232 159 C 226 137 223 118 223 104 C 223 68 255 44 321 33 C 386 22 437 16 473 14 L 473 0 L -49 0 Z M 365 545 L 850 545 L 606 1161 L 365 545 Z M 315 1546 L 297 1554 C 311 1602 342 1656 390 1718 C 438 1779 492 1810 553 1810 C 615 1810 677 1790 741 1750 C 804 1710 853 1691 889 1691 C 935 1691 972 1703 1001 1727 C 1029 1751 1054 1785 1075 1828 L 1093 1822 C 1074 1757 1040 1698 991 1645 C 941 1592 888 1566 831 1566 C 767 1566 704 1585 642 1623 C 580 1661 529 1681 491 1681 C 452 1681 420 1670 394 1648 C 368 1626 341 1592 315 1546 Z" unicode="Ã" />
<glyph horiz-adv-x="1393" d="M -49 0 L -49 14 C -29 14 -8 18 16 24 C 40 30 61 39 80 49 C 104 63 126 85 145 115 C 164 144 181 177 197 213 C 269 388 348 584 435 802 C 522 1020 604 1226 682 1421 L 719 1421 C 823 1158 925 904 1026 660 C 1127 416 1197 246 1235 152 C 1243 131 1252 111 1264 93 C 1276 74 1294 57 1319 43 C 1337 33 1358 25 1381 21 C 1403 17 1424 14 1444 14 L 1444 0 L 799 0 L 799 14 C 834 16 878 22 930 32 C 982 42 1011 59 1016 84 C 1018 92 1017 102 1015 113 C 1013 123 1010 133 1008 141 L 862 516 L 354 516 C 334 469 315 417 295 359 C 275 301 260 257 252 227 C 245 204 238 181 232 159 C 226 137 223 118 223 104 C 223 68 255 44 321 33 C 386 22 437 16 473 14 L 473 0 L -49 0 Z M 365 545 L 850 545 L 606 1161 L 365 545 Z M 471 1562 C 439 1562 411 1573 388 1596 C 365 1619 354 1647 354 1679 C 354 1711 365 1740 388 1764 C 411 1788 439 1800 471 1800 C 506 1800 535 1788 559 1766 C 582 1743 594 1717 594 1687 C 594 1653 582 1624 558 1599 C 534 1574 505 1562 471 1562 Z M 917 1562 C 884 1562 856 1573 833 1596 C 809 1619 798 1647 798 1679 C 798 1711 809 1740 833 1764 C 856 1788 884 1800 917 1800 C 951 1800 980 1788 1003 1766 C 1026 1743 1038 1717 1038 1687 C 1038 1653 1026 1624 1003 1599 C 979 1574 951 1562 917 1562 Z" unicode="Ä" />
<glyph horiz-adv-x="1393" d="M -49 0 L -49 14 C -29 14 -8 18 16 24 C 40 30 61 39 80 49 C 104 63 126 85 145 115 C 164 144 181 177 197 213 C 269 388 348 584 435 802 C 522 1020 604 1226 682 1421 L 719 1421 C 823 1158 925 904 1026 660 C 1127 416 1197 246 1235 152 C 1243 131 1252 111 1264 93 C 1276 74 1294 57 1319 43 C 1337 33 1358 25 1381 21 C 1403 17 1424 14 1444 14 L 1444 0 L 799 0 L 799 14 C 834 16 878 22 930 32 C 982 42 1011 59 1016 84 C 1018 92 1017 102 1015 113 C 1013 123 1010 133 1008 141 L 862 516 L 354 516 C 334 469 315 417 295 359 C 275 301 260 257 252 227 C 245 204 238 181 232 159 C 226 137 223 118 223 104 C 223 68 255 44 321 33 C 386 22 437 16 473 14 L 473 0 L -49 0 Z M 365 545 L 850 545 L 606 1161 L 365 545 Z M 696 1496 C 626 1496 570 1514 529 1551 C 487 1588 467 1637 467 1697 C 467 1756 489 1804 534 1842 C 578 1879 632 1898 696 1898 C 762 1898 816 1879 860 1842 C 903 1805 925 1757 925 1697 C 925 1639 904 1591 862 1553 C 820 1515 765 1496 696 1496 Z M 696 1515 C 740 1515 771 1533 790 1571 C 809 1609 819 1651 819 1697 C 819 1741 809 1782 790 1821 C 771 1859 740 1879 696 1879 C 653 1879 622 1860 602 1823 C 582 1785 573 1743 573 1697 C 573 1652 582 1610 601 1572 C 620 1534 652 1515 696 1515 Z" unicode="Å" />
<glyph horiz-adv-x="2013" d="M -57 0 L -57 14 C -37 14 -13 18 14 26 C 42 33 66 42 86 53 C 111 67 137 92 165 127 C 193 161 219 199 244 240 C 276 292 375 459 539 743 C 703 1027 821 1233 891 1362 C 869 1368 834 1373 784 1376 C 734 1379 700 1381 684 1382 L 684 1399 L 1855 1399 L 1855 1081 L 1837 1081 C 1826 1125 1796 1183 1747 1253 C 1698 1323 1652 1362 1608 1368 C 1583 1370 1550 1372 1510 1374 C 1470 1375 1433 1376 1401 1376 L 1169 1376 L 1169 737 L 1374 737 C 1431 737 1471 744 1494 760 C 1516 776 1534 790 1546 803 C 1561 818 1576 849 1592 896 C 1608 942 1617 979 1620 1006 L 1638 1006 L 1638 434 L 1620 434 C 1618 464 1608 503 1591 553 C 1573 603 1558 634 1546 647 C 1533 661 1515 676 1492 691 C 1468 705 1429 713 1374 713 L 1169 713 L 1169 211 C 1169 127 1184 75 1214 55 C 1244 35 1310 25 1413 25 C 1484 25 1554 26 1622 29 C 1690 31 1736 46 1761 72 C 1791 103 1827 157 1869 233 C 1911 309 1937 362 1948 393 L 1966 393 L 1939 0 L 727 0 L 727 14 C 747 14 775 17 810 22 C 844 27 869 32 885 37 C 909 45 927 58 937 74 C 947 90 952 111 952 137 L 952 575 L 475 575 C 437 509 397 439 357 365 C 316 291 293 250 289 240 C 273 211 263 187 258 167 C 252 147 250 129 250 113 C 250 78 277 54 332 40 C 386 26 440 18 494 16 L 494 0 L -57 0 Z M 492 604 L 952 604 L 952 1360 L 924 1360 C 918 1351 867 1262 770 1093 C 673 924 580 761 492 604 Z" unicode="Æ" />
<glyph horiz-adv-x="1337" d="M 754 -31 C 744 -31 735 -30 727 -30 C 719 -29 710 -29 702 -29 L 702 -119 C 776 -119 843 -128 903 -147 C 963 -166 993 -208 993 -274 C 993 -363 948 -418 858 -439 C 768 -460 671 -471 567 -471 L 567 -446 C 630 -446 693 -439 756 -425 C 818 -411 850 -375 850 -317 C 850 -281 831 -258 793 -249 C 755 -240 716 -236 676 -236 L 676 -27 C 496 -10 351 61 241 188 C 131 315 76 480 76 682 C 76 892 145 1068 283 1211 C 421 1353 592 1425 797 1425 C 883 1425 957 1412 1018 1388 C 1078 1364 1124 1337 1155 1309 L 1233 1419 L 1251 1419 L 1260 913 L 1241 913 C 1204 1031 1145 1142 1064 1244 C 983 1346 877 1397 745 1397 C 620 1397 518 1338 440 1221 C 361 1103 322 929 322 698 C 322 514 365 359 453 233 C 540 107 660 45 813 45 C 937 45 1038 76 1115 139 C 1191 201 1250 277 1290 367 L 1313 354 C 1271 259 1206 171 1118 90 C 1030 9 908 -31 754 -31 Z" unicode="Ç" />
<glyph horiz-adv-x="1364" d="M 78 0 L 78 14 C 96 14 124 17 161 22 C 198 27 224 33 240 39 C 264 47 281 60 290 78 C 298 95 303 115 303 139 L 303 1247 C 303 1269 298 1290 290 1309 C 282 1328 265 1343 240 1354 C 220 1362 193 1368 158 1374 C 123 1380 96 1383 78 1384 L 78 1399 L 1206 1399 L 1206 1081 L 1188 1081 C 1176 1125 1146 1183 1097 1253 C 1048 1323 1002 1362 958 1368 C 933 1370 901 1372 861 1374 C 821 1375 784 1376 752 1376 L 520 1376 L 520 737 L 725 737 C 782 737 822 744 844 760 C 866 776 884 790 897 803 C 912 818 927 849 943 896 C 959 942 968 979 971 1006 L 989 1006 L 989 434 L 971 434 C 969 464 959 503 942 553 C 924 603 909 634 897 647 C 883 661 865 676 842 691 C 819 705 780 713 725 713 L 520 713 L 520 211 C 520 127 535 75 565 55 C 595 35 661 25 764 25 C 835 25 905 26 973 29 C 1041 31 1087 46 1112 72 C 1142 103 1178 157 1220 233 C 1262 309 1288 362 1298 393 L 1317 393 L 1290 0 L 78 0 Z M 866 1482 C 784 1547 721 1596 675 1629 C 629 1662 590 1691 560 1716 C 535 1735 517 1752 505 1767 C 493 1782 487 1802 487 1828 C 487 1847 495 1865 511 1881 C 527 1897 547 1906 571 1906 C 596 1906 618 1899 638 1887 C 657 1875 676 1852 696 1818 C 718 1780 744 1733 773 1677 C 801 1621 836 1558 876 1490 L 866 1482 Z" unicode="È" />
<glyph horiz-adv-x="1364" d="M 78 0 L 78 14 C 96 14 124 17 161 22 C 198 27 224 33 240 39 C 264 47 281 60 290 78 C 298 95 303 115 303 139 L 303 1247 C 303 1269 298 1290 290 1309 C 282 1328 265 1343 240 1354 C 220 1362 193 1368 158 1374 C 123 1380 96 1383 78 1384 L 78 1399 L 1206 1399 L 1206 1081 L 1188 1081 C 1176 1125 1146 1183 1097 1253 C 1048 1323 1002 1362 958 1368 C 933 1370 901 1372 861 1374 C 821 1375 784 1376 752 1376 L 520 1376 L 520 737 L 725 737 C 782 737 822 744 844 760 C 866 776 884 790 897 803 C 912 818 927 849 943 896 C 959 942 968 979 971 1006 L 989 1006 L 989 434 L 971 434 C 969 464 959 503 942 553 C 924 603 909 634 897 647 C 883 661 865 676 842 691 C 819 705 780 713 725 713 L 520 713 L 520 211 C 520 127 535 75 565 55 C 595 35 661 25 764 25 C 835 25 905 26 973 29 C 1041 31 1087 46 1112 72 C 1142 103 1178 157 1220 233 C 1262 309 1288 362 1298 393 L 1317 393 L 1290 0 L 78 0 Z M 648 1482 L 638 1492 C 680 1565 714 1628 742 1681 C 770 1734 795 1780 818 1818 C 836 1850 855 1872 875 1886 C 895 1899 917 1906 943 1906 C 967 1906 986 1897 1002 1881 C 1017 1865 1025 1847 1025 1828 C 1025 1802 1019 1782 1007 1767 C 995 1752 976 1735 952 1716 C 921 1691 883 1662 838 1629 C 792 1596 729 1547 648 1482 Z" unicode="É" />
<glyph horiz-adv-x="1364" d="M 78 0 L 78 14 C 96 14 124 17 161 22 C 198 27 224 33 240 39 C 264 47 281 60 290 78 C 298 95 303 115 303 139 L 303 1247 C 303 1269 298 1290 290 1309 C 282 1328 265 1343 240 1354 C 220 1362 193 1368 158 1374 C 123 1380 96 1383 78 1384 L 78 1399 L 1206 1399 L 1206 1081 L 1188 1081 C 1176 1125 1146 1183 1097 1253 C 1048 1323 1002 1362 958 1368 C 933 1370 901 1372 861 1374 C 821 1375 784 1376 752 1376 L 520 1376 L 520 737 L 725 737 C 782 737 822 744 844 760 C 866 776 884 790 897 803 C 912 818 927 849 943 896 C 959 942 968 979 971 1006 L 989 1006 L 989 434 L 971 434 C 969 464 959 503 942 553 C 924 603 909 634 897 647 C 883 661 865 676 842 691 C 819 705 780 713 725 713 L 520 713 L 520 211 C 520 127 535 75 565 55 C 595 35 661 25 764 25 C 835 25 905 26 973 29 C 1041 31 1087 46 1112 72 C 1142 103 1178 157 1220 233 C 1262 309 1288 362 1298 393 L 1317 393 L 1290 0 L 78 0 Z M 374 1503 L 359 1515 C 413 1593 459 1662 498 1720 C 536 1778 568 1827 593 1865 C 606 1884 617 1896 626 1902 C 634 1907 653 1910 683 1910 C 712 1910 730 1907 738 1902 C 746 1897 755 1886 767 1869 C 792 1832 824 1784 863 1724 C 902 1664 949 1594 1003 1515 L 988 1503 L 679 1765 L 374 1503 Z" unicode="Ê" />
<glyph horiz-adv-x="1364" d="M 78 0 L 78 14 C 96 14 124 17 161 22 C 198 27 224 33 240 39 C 264 47 281 60 290 78 C 298 95 303 115 303 139 L 303 1247 C 303 1269 298 1290 290 1309 C 282 1328 265 1343 240 1354 C 220 1362 193 1368 158 1374 C 123 1380 96 1383 78 1384 L 78 1399 L 1206 1399 L 1206 1081 L 1188 1081 C 1176 1125 1146 1183 1097 1253 C 1048 1323 1002 1362 958 1368 C 933 1370 901 1372 861 1374 C 821 1375 784 1376 752 1376 L 520 1376 L 520 737 L 725 737 C 782 737 822 744 844 760 C 866 776 884 790 897 803 C 912 818 927 849 943 896 C 959 942 968 979 971 1006 L 989 1006 L 989 434 L 971 434 C 969 464 959 503 942 553 C 924 603 909 634 897 647 C 883 661 865 676 842 691 C 819 705 780 713 725 713 L 520 713 L 520 211 C 520 127 535 75 565 55 C 595 35 661 25 764 25 C 835 25 905 26 973 29 C 1041 31 1087 46 1112 72 C 1142 103 1178 157 1220 233 C 1262 309 1288 362 1298 393 L 1317 393 L 1290 0 L 78 0 Z M 456 1564 C 424 1564 396 1575 373 1598 C 350 1621 339 1649 339 1681 C 339 1713 350 1742 373 1766 C 396 1790 424 1802 456 1802 C 491 1802 520 1790 544 1768 C 567 1745 579 1719 579 1689 C 579 1655 567 1626 543 1601 C 519 1576 490 1564 456 1564 Z M 902 1564 C 869 1564 841 1575 818 1598 C 794 1621 783 1649 783 1681 C 783 1713 794 1742 818 1766 C 841 1790 869 1802 902 1802 C 936 1802 965 1790 988 1768 C 1011 1745 1023 1719 1023 1689 C 1023 1655 1011 1626 988 1601 C 964 1576 936 1564 902 1564 Z" unicode="Ë" />
<glyph horiz-adv-x="831" d="M 94 0 L 94 14 C 112 14 139 17 173 21 C 207 25 230 30 244 35 C 268 43 285 56 294 74 C 302 92 307 112 307 135 L 307 1247 C 307 1269 302 1290 294 1309 C 285 1328 268 1343 244 1354 C 226 1360 202 1367 170 1373 C 138 1379 112 1383 94 1384 L 94 1399 L 737 1399 L 737 1384 C 718 1383 693 1380 662 1375 C 631 1369 606 1364 588 1358 C 562 1349 545 1336 537 1318 C 528 1300 524 1279 524 1257 L 524 145 C 524 122 528 101 538 82 C 548 63 564 49 588 39 C 600 34 623 29 657 23 C 691 17 718 14 737 14 L 737 0 L 94 0 Z M 570 1482 C 488 1547 425 1596 379 1629 C 333 1662 294 1691 264 1716 C 239 1735 221 1752 209 1767 C 197 1782 191 1802 191 1828 C 191 1847 199 1865 215 1881 C 231 1897 251 1906 275 1906 C 300 1906 322 1899 342 1887 C 361 1875 380 1852 400 1818 C 422 1780 448 1733 477 1677 C 505 1621 540 1558 580 1490 L 570 1482 Z" unicode="Ì" />
<glyph horiz-adv-x="831" d="M 94 0 L 94 14 C 112 14 139 17 173 21 C 207 25 230 30 244 35 C 268 43 285 56 294 74 C 302 92 307 112 307 135 L 307 1247 C 307 1269 302 1290 294 1309 C 285 1328 268 1343 244 1354 C 226 1360 202 1367 170 1373 C 138 1379 112 1383 94 1384 L 94 1399 L 737 1399 L 737 1384 C 718 1383 693 1380 662 1375 C 631 1369 606 1364 588 1358 C 562 1349 545 1336 537 1318 C 528 1300 524 1279 524 1257 L 524 145 C 524 122 528 101 538 82 C 548 63 564 49 588 39 C 600 34 623 29 657 23 C 691 17 718 14 737 14 L 737 0 L 94 0 Z M 264 1482 L 254 1492 C 296 1565 330 1628 358 1681 C 386 1734 411 1780 434 1818 C 452 1850 471 1872 491 1886 C 511 1899 533 1906 559 1906 C 583 1906 602 1897 618 1881 C 633 1865 641 1847 641 1828 C 641 1802 635 1782 623 1767 C 611 1752 592 1735 568 1716 C 537 1691 499 1662 454 1629 C 408 1596 345 1547 264 1482 Z" unicode="Í" />
<glyph horiz-adv-x="831" d="M 94 0 L 94 14 C 112 14 139 17 173 21 C 207 25 230 30 244 35 C 268 43 285 56 294 74 C 302 92 307 112 307 135 L 307 1247 C 307 1269 302 1290 294 1309 C 285 1328 268 1343 244 1354 C 226 1360 202 1367 170 1373 C 138 1379 112 1383 94 1384 L 94 1399 L 737 1399 L 737 1384 C 718 1383 693 1380 662 1375 C 631 1369 606 1364 588 1358 C 562 1349 545 1336 537 1318 C 528 1300 524 1279 524 1257 L 524 145 C 524 122 528 101 538 82 C 548 63 564 49 588 39 C 600 34 623 29 657 23 C 691 17 718 14 737 14 L 737 0 L 94 0 Z M 109 1503 L 94 1515 C 148 1593 194 1662 233 1720 C 271 1778 303 1827 328 1865 C 341 1884 352 1896 361 1902 C 369 1907 388 1910 418 1910 C 447 1910 465 1907 473 1902 C 481 1897 490 1886 502 1869 C 527 1832 559 1784 598 1724 C 637 1664 684 1594 738 1515 L 723 1503 L 414 1765 L 109 1503 Z" unicode="Î" />
<glyph horiz-adv-x="831" d="M 94 0 L 94 14 C 112 14 139 17 173 21 C 207 25 230 30 244 35 C 268 43 285 56 294 74 C 302 92 307 112 307 135 L 307 1247 C 307 1269 302 1290 294 1309 C 285 1328 268 1343 244 1354 C 226 1360 202 1367 170 1373 C 138 1379 112 1383 94 1384 L 94 1399 L 737 1399 L 737 1384 C 718 1383 693 1380 662 1375 C 631 1369 606 1364 588 1358 C 562 1349 545 1336 537 1318 C 528 1300 524 1279 524 1257 L 524 145 C 524 122 528 101 538 82 C 548 63 564 49 588 39 C 600 34 623 29 657 23 C 691 17 718 14 737 14 L 737 0 L 94 0 Z M 191 1564 C 159 1564 131 1575 108 1598 C 85 1621 74 1649 74 1681 C 74 1713 85 1742 108 1766 C 131 1790 159 1802 191 1802 C 226 1802 255 1790 279 1768 C 302 1745 314 1719 314 1689 C 314 1655 302 1626 278 1601 C 254 1576 225 1564 191 1564 Z M 637 1564 C 604 1564 576 1575 553 1598 C 529 1621 518 1649 518 1681 C 518 1713 529 1742 553 1766 C 576 1790 604 1802 637 1802 C 671 1802 700 1790 723 1768 C 746 1745 758 1719 758 1689 C 758 1655 746 1626 723 1601 C 699 1576 671 1564 637 1564 Z" unicode="Ï" />
<glyph horiz-adv-x="1595" d="M 88 0 L 88 14 C 108 14 135 16 169 21 C 203 25 226 30 240 35 C 264 43 281 56 290 74 C 298 92 303 112 303 135 L 303 719 L 98 719 L 98 762 L 303 762 L 303 1247 C 303 1269 298 1291 290 1311 C 281 1331 264 1347 240 1358 C 215 1368 189 1374 163 1378 C 137 1381 114 1383 96 1384 L 96 1399 L 756 1399 C 960 1399 1138 1338 1291 1218 C 1443 1098 1520 922 1520 690 C 1520 472 1442 303 1286 182 C 1130 60 940 0 715 0 L 88 0 Z M 743 25 C 917 25 1048 85 1136 206 C 1224 326 1268 488 1268 692 C 1268 887 1215 1050 1111 1180 C 1007 1310 869 1376 698 1376 C 674 1376 644 1375 608 1374 C 572 1373 542 1372 520 1372 L 520 762 L 821 762 L 821 719 L 520 719 L 520 182 C 526 132 545 93 577 66 C 609 38 665 25 743 25 Z" unicode="Ð" />
<glyph horiz-adv-x="1589" d="M 1309 -14 L 324 1198 L 324 360 C 324 272 329 207 341 165 C 353 122 370 92 393 76 C 414 59 450 45 500 33 C 550 21 585 14 604 14 L 604 0 L 37 0 L 37 14 C 55 14 88 21 135 34 C 182 46 213 58 227 70 C 251 89 269 121 279 165 C 289 209 295 270 295 350 L 295 1153 C 295 1182 287 1214 272 1250 C 257 1286 239 1312 219 1329 C 194 1348 160 1362 117 1370 C 73 1378 38 1383 10 1384 L 10 1399 L 432 1399 L 1315 315 L 1315 1028 C 1315 1101 1309 1165 1297 1221 C 1285 1277 1268 1314 1245 1333 C 1220 1352 1185 1365 1139 1372 C 1093 1379 1059 1383 1036 1384 L 1036 1399 L 1599 1399 L 1599 1384 C 1581 1383 1550 1378 1508 1370 C 1466 1362 1433 1350 1411 1335 C 1384 1316 1366 1277 1357 1218 C 1347 1158 1343 1095 1343 1028 L 1343 -14 L 1309 -14 Z M 468 1546 L 450 1554 C 464 1602 495 1656 543 1718 C 591 1779 645 1810 706 1810 C 768 1810 830 1790 894 1750 C 957 1710 1006 1691 1042 1691 C 1088 1691 1125 1703 1154 1727 C 1182 1751 1207 1785 1228 1828 L 1246 1822 C 1227 1757 1193 1698 1144 1645 C 1094 1592 1041 1566 984 1566 C 920 1566 857 1585 795 1623 C 733 1661 682 1681 644 1681 C 605 1681 573 1670 547 1648 C 521 1626 494 1592 468 1546 Z" unicode="Ñ" />
<glyph horiz-adv-x="1587" d="M 786 -33 C 693 -33 605 -16 521 17 C 437 50 363 98 297 160 C 229 223 176 298 137 386 C 97 474 78 573 78 684 C 78 794 94 894 127 984 C 160 1074 210 1152 276 1219 C 345 1289 424 1342 513 1378 C 601 1414 695 1432 795 1432 C 890 1432 981 1415 1069 1381 C 1156 1347 1238 1293 1315 1219 C 1375 1159 1422 1083 1457 993 C 1491 903 1509 808 1509 709 C 1509 603 1492 503 1459 410 C 1425 317 1371 235 1296 164 C 1230 102 1155 53 1070 19 C 985 -15 890 -33 786 -33 Z M 795 -8 C 953 -8 1070 60 1147 197 C 1223 334 1262 502 1262 702 C 1262 910 1221 1079 1141 1210 C 1060 1341 945 1407 795 1407 C 650 1407 536 1343 452 1216 C 368 1089 326 915 326 694 C 326 487 366 318 447 188 C 528 57 644 -8 795 -8 Z M 977 1482 C 895 1547 832 1596 786 1629 C 740 1662 701 1691 671 1716 C 646 1735 628 1752 616 1767 C 604 1782 598 1802 598 1828 C 598 1847 606 1865 622 1881 C 638 1897 658 1906 682 1906 C 707 1906 729 1899 749 1887 C 768 1875 787 1852 807 1818 C 829 1780 855 1733 884 1677 C 912 1621 947 1558 987 1490 L 977 1482 Z" unicode="Ò" />
<glyph horiz-adv-x="1587" d="M 786 -33 C 693 -33 605 -16 521 17 C 437 50 363 98 297 160 C 229 223 176 298 137 386 C 97 474 78 573 78 684 C 78 794 94 894 127 984 C 160 1074 210 1152 276 1219 C 345 1289 424 1342 513 1378 C 601 1414 695 1432 795 1432 C 890 1432 981 1415 1069 1381 C 1156 1347 1238 1293 1315 1219 C 1375 1159 1422 1083 1457 993 C 1491 903 1509 808 1509 709 C 1509 603 1492 503 1459 410 C 1425 317 1371 235 1296 164 C 1230 102 1155 53 1070 19 C 985 -15 890 -33 786 -33 Z M 795 -8 C 953 -8 1070 60 1147 197 C 1223 334 1262 502 1262 702 C 1262 910 1221 1079 1141 1210 C 1060 1341 945 1407 795 1407 C 650 1407 536 1343 452 1216 C 368 1089 326 915 326 694 C 326 487 366 318 447 188 C 528 57 644 -8 795 -8 Z M 609 1482 L 599 1492 C 641 1565 675 1628 703 1681 C 731 1734 756 1780 779 1818 C 797 1850 816 1872 836 1886 C 856 1899 878 1906 904 1906 C 928 1906 947 1897 963 1881 C 978 1865 986 1847 986 1828 C 986 1802 980 1782 968 1767 C 956 1752 937 1735 913 1716 C 882 1691 844 1662 799 1629 C 753 1596 690 1547 609 1482 Z" unicode="Ó" />
<glyph horiz-adv-x="1587" d="M 786 -33 C 693 -33 605 -16 521 17 C 437 50 363 98 297 160 C 229 223 176 298 137 386 C 97 474 78 573 78 684 C 78 794 94 894 127 984 C 160 1074 210 1152 276 1219 C 345 1289 424 1342 513 1378 C 601 1414 695 1432 795 1432 C 890 1432 981 1415 1069 1381 C 1156 1347 1238 1293 1315 1219 C 1375 1159 1422 1083 1457 993 C 1491 903 1509 808 1509 709 C 1509 603 1492 503 1459 410 C 1425 317 1371 235 1296 164 C 1230 102 1155 53 1070 19 C 985 -15 890 -33 786 -33 Z M 795 -8 C 953 -8 1070 60 1147 197 C 1223 334 1262 502 1262 702 C 1262 910 1221 1079 1141 1210 C 1060 1341 945 1407 795 1407 C 650 1407 536 1343 452 1216 C 368 1089 326 915 326 694 C 326 487 366 318 447 188 C 528 57 644 -8 795 -8 Z M 485 1503 L 470 1515 C 524 1593 570 1662 609 1720 C 647 1778 679 1827 704 1865 C 717 1884 728 1896 737 1902 C 745 1907 764 1910 794 1910 C 823 1910 841 1907 849 1902 C 857 1897 866 1886 878 1869 C 903 1832 935 1784 974 1724 C 1013 1664 1060 1594 1114 1515 L 1099 1503 L 790 1765 L 485 1503 Z" unicode="Ô" />
<glyph horiz-adv-x="1587" d="M 786 -33 C 693 -33 605 -16 521 17 C 437 50 363 98 297 160 C 229 223 176 298 137 386 C 97 474 78 573 78 684 C 78 794 94 894 127 984 C 160 1074 210 1152 276 1219 C 345 1289 424 1342 513 1378 C 601 1414 695 1432 795 1432 C 890 1432 981 1415 1069 1381 C 1156 1347 1238 1293 1315 1219 C 1375 1159 1422 1083 1457 993 C 1491 903 1509 808 1509 709 C 1509 603 1492 503 1459 410 C 1425 317 1371 235 1296 164 C 1230 102 1155 53 1070 19 C 985 -15 890 -33 786 -33 Z M 795 -8 C 953 -8 1070 60 1147 197 C 1223 334 1262 502 1262 702 C 1262 910 1221 1079 1141 1210 C 1060 1341 945 1407 795 1407 C 650 1407 536 1343 452 1216 C 368 1089 326 915 326 694 C 326 487 366 318 447 188 C 528 57 644 -8 795 -8 Z M 413 1546 L 395 1554 C 409 1602 440 1656 488 1718 C 536 1779 590 1810 651 1810 C 713 1810 775 1790 839 1750 C 902 1710 951 1691 987 1691 C 1033 1691 1070 1703 1099 1727 C 1127 1751 1152 1785 1173 1828 L 1191 1822 C 1172 1757 1138 1698 1089 1645 C 1039 1592 986 1566 929 1566 C 865 1566 802 1585 740 1623 C 678 1661 627 1681 589 1681 C 550 1681 518 1670 492 1648 C 466 1626 439 1592 413 1546 Z" unicode="Õ" />
<glyph horiz-adv-x="1587" d="M 786 -33 C 693 -33 605 -16 521 17 C 437 50 363 98 297 160 C 229 223 176 298 137 386 C 97 474 78 573 78 684 C 78 794 94 894 127 984 C 160 1074 210 1152 276 1219 C 345 1289 424 1342 513 1378 C 601 1414 695 1432 795 1432 C 890 1432 981 1415 1069 1381 C 1156 1347 1238 1293 1315 1219 C 1375 1159 1422 1083 1457 993 C 1491 903 1509 808 1509 709 C 1509 603 1492 503 1459 410 C 1425 317 1371 235 1296 164 C 1230 102 1155 53 1070 19 C 985 -15 890 -33 786 -33 Z M 795 -8 C 953 -8 1070 60 1147 197 C 1223 334 1262 502 1262 702 C 1262 910 1221 1079 1141 1210 C 1060 1341 945 1407 795 1407 C 650 1407 536 1343 452 1216 C 368 1089 326 915 326 694 C 326 487 366 318 447 188 C 528 57 644 -8 795 -8 Z M 567 1564 C 535 1564 507 1575 484 1598 C 461 1621 450 1649 450 1681 C 450 1713 461 1742 484 1766 C 507 1790 535 1802 567 1802 C 602 1802 631 1790 655 1768 C 678 1745 690 1719 690 1689 C 690 1655 678 1626 654 1601 C 630 1576 601 1564 567 1564 Z M 1013 1564 C 980 1564 952 1575 929 1598 C 905 1621 894 1649 894 1681 C 894 1713 905 1742 929 1766 C 952 1790 980 1802 1013 1802 C 1047 1802 1076 1790 1099 1768 C 1122 1745 1134 1719 1134 1689 C 1134 1655 1122 1626 1099 1601 C 1075 1576 1047 1564 1013 1564 Z" unicode="Ö" />
<glyph horiz-adv-x="1145" d="M 166 76 L 119 123 L 526 528 L 121 934 L 172 983 L 575 580 L 979 983 L 1024 936 L 621 535 L 1026 129 L 977 78 L 569 483 L 166 76 Z" unicode="×" />
<glyph horiz-adv-x="1587" d="M 115 -68 L 92 -49 L 289 166 C 223 228 172 302 134 390 C 96 477 78 575 78 684 C 78 794 94 894 127 984 C 160 1074 210 1152 276 1219 C 345 1289 424 1342 513 1378 C 601 1414 695 1432 795 1432 C 883 1432 969 1417 1051 1387 C 1133 1357 1210 1311 1282 1247 L 1470 1454 L 1493 1438 L 1303 1229 C 1369 1163 1419 1085 1455 994 C 1491 903 1509 808 1509 709 C 1509 603 1492 503 1459 410 C 1425 317 1371 235 1296 164 C 1230 102 1155 53 1070 19 C 985 -15 890 -33 786 -33 C 696 -33 611 -17 530 13 C 449 44 376 89 311 147 L 115 -68 Z M 397 283 L 1180 1137 C 1144 1216 1094 1281 1031 1331 C 968 1381 889 1407 795 1407 C 650 1407 536 1343 452 1216 C 368 1089 326 915 326 694 C 326 618 331 545 343 475 C 354 405 372 341 397 283 Z M 795 -8 C 953 -8 1070 60 1147 197 C 1223 334 1262 502 1262 702 C 1262 773 1256 844 1245 914 C 1234 984 1216 1050 1192 1110 L 410 256 C 447 175 498 111 562 63 C 626 15 703 -8 795 -8 Z" unicode="Ø" />
<glyph horiz-adv-x="1620" d="M 819 -33 C 645 -33 511 6 417 85 C 323 163 276 258 276 369 L 276 1255 C 276 1277 271 1297 262 1314 C 252 1330 236 1345 213 1358 C 194 1366 169 1373 139 1377 C 109 1381 86 1383 70 1384 L 70 1399 L 707 1399 L 707 1384 C 688 1383 663 1380 633 1375 C 602 1369 577 1364 559 1358 C 533 1349 516 1336 508 1318 C 500 1300 496 1279 496 1257 L 496 395 C 496 289 525 203 583 138 C 641 73 736 41 868 41 C 1015 41 1127 78 1204 152 C 1280 226 1319 314 1319 414 L 1319 1051 C 1319 1125 1313 1185 1301 1232 C 1289 1279 1271 1310 1249 1325 C 1215 1347 1177 1363 1136 1371 C 1095 1379 1063 1383 1040 1384 L 1040 1399 L 1604 1399 L 1604 1384 C 1585 1383 1554 1378 1511 1369 C 1468 1359 1436 1348 1415 1335 C 1387 1317 1369 1283 1361 1233 C 1352 1183 1348 1126 1348 1063 L 1348 406 C 1348 262 1293 152 1183 78 C 1073 4 951 -33 819 -33 Z M 1024 1482 C 942 1547 879 1596 833 1629 C 787 1662 748 1691 718 1716 C 693 1735 675 1752 663 1767 C 651 1782 645 1802 645 1828 C 645 1847 653 1865 669 1881 C 685 1897 705 1906 729 1906 C 754 1906 776 1899 796 1887 C 815 1875 834 1852 854 1818 C 876 1780 902 1733 931 1677 C 959 1621 994 1558 1034 1490 L 1024 1482 Z" unicode="Ù" />
<glyph horiz-adv-x="1620" d="M 819 -33 C 645 -33 511 6 417 85 C 323 163 276 258 276 369 L 276 1255 C 276 1277 271 1297 262 1314 C 252 1330 236 1345 213 1358 C 194 1366 169 1373 139 1377 C 109 1381 86 1383 70 1384 L 70 1399 L 707 1399 L 707 1384 C 688 1383 663 1380 633 1375 C 602 1369 577 1364 559 1358 C 533 1349 516 1336 508 1318 C 500 1300 496 1279 496 1257 L 496 395 C 496 289 525 203 583 138 C 641 73 736 41 868 41 C 1015 41 1127 78 1204 152 C 1280 226 1319 314 1319 414 L 1319 1051 C 1319 1125 1313 1185 1301 1232 C 1289 1279 1271 1310 1249 1325 C 1215 1347 1177 1363 1136 1371 C 1095 1379 1063 1383 1040 1384 L 1040 1399 L 1604 1399 L 1604 1384 C 1585 1383 1554 1378 1511 1369 C 1468 1359 1436 1348 1415 1335 C 1387 1317 1369 1283 1361 1233 C 1352 1183 1348 1126 1348 1063 L 1348 406 C 1348 262 1293 152 1183 78 C 1073 4 951 -33 819 -33 Z M 708 1482 L 698 1492 C 740 1565 774 1628 802 1681 C 830 1734 855 1780 878 1818 C 896 1850 915 1872 935 1886 C 955 1899 977 1906 1003 1906 C 1027 1906 1046 1897 1062 1881 C 1077 1865 1085 1847 1085 1828 C 1085 1802 1079 1782 1067 1767 C 1055 1752 1036 1735 1012 1716 C 981 1691 943 1662 898 1629 C 852 1596 789 1547 708 1482 Z" unicode="Ú" />
<glyph horiz-adv-x="1620" d="M 819 -33 C 645 -33 511 6 417 85 C 323 163 276 258 276 369 L 276 1255 C 276 1277 271 1297 262 1314 C 252 1330 236 1345 213 1358 C 194 1366 169 1373 139 1377 C 109 1381 86 1383 70 1384 L 70 1399 L 707 1399 L 707 1384 C 688 1383 663 1380 633 1375 C 602 1369 577 1364 559 1358 C 533 1349 516 1336 508 1318 C 500 1300 496 1279 496 1257 L 496 395 C 496 289 525 203 583 138 C 641 73 736 41 868 41 C 1015 41 1127 78 1204 152 C 1280 226 1319 314 1319 414 L 1319 1051 C 1319 1125 1313 1185 1301 1232 C 1289 1279 1271 1310 1249 1325 C 1215 1347 1177 1363 1136 1371 C 1095 1379 1063 1383 1040 1384 L 1040 1399 L 1604 1399 L 1604 1384 C 1585 1383 1554 1378 1511 1369 C 1468 1359 1436 1348 1415 1335 C 1387 1317 1369 1283 1361 1233 C 1352 1183 1348 1126 1348 1063 L 1348 406 C 1348 262 1293 152 1183 78 C 1073 4 951 -33 819 -33 Z M 569 1503 L 554 1515 C 608 1593 654 1662 693 1720 C 731 1778 763 1827 788 1865 C 801 1884 812 1896 821 1902 C 829 1907 848 1910 878 1910 C 907 1910 925 1907 933 1902 C 941 1897 950 1886 962 1869 C 987 1832 1019 1784 1058 1724 C 1097 1664 1144 1594 1198 1515 L 1183 1503 L 874 1765 L 569 1503 Z" unicode="Û" />
<glyph horiz-adv-x="1620" d="M 819 -33 C 645 -33 511 6 417 85 C 323 163 276 258 276 369 L 276 1255 C 276 1277 271 1297 262 1314 C 252 1330 236 1345 213 1358 C 194 1366 169 1373 139 1377 C 109 1381 86 1383 70 1384 L 70 1399 L 707 1399 L 707 1384 C 688 1383 663 1380 633 1375 C 602 1369 577 1364 559 1358 C 533 1349 516 1336 508 1318 C 500 1300 496 1279 496 1257 L 496 395 C 496 289 525 203 583 138 C 641 73 736 41 868 41 C 1015 41 1127 78 1204 152 C 1280 226 1319 314 1319 414 L 1319 1051 C 1319 1125 1313 1185 1301 1232 C 1289 1279 1271 1310 1249 1325 C 1215 1347 1177 1363 1136 1371 C 1095 1379 1063 1383 1040 1384 L 1040 1399 L 1604 1399 L 1604 1384 C 1585 1383 1554 1378 1511 1369 C 1468 1359 1436 1348 1415 1335 C 1387 1317 1369 1283 1361 1233 C 1352 1183 1348 1126 1348 1063 L 1348 406 C 1348 262 1293 152 1183 78 C 1073 4 951 -33 819 -33 Z M 653 1564 C 621 1564 593 1575 570 1598 C 547 1621 536 1649 536 1681 C 536 1713 547 1742 570 1766 C 593 1790 621 1802 653 1802 C 688 1802 717 1790 741 1768 C 764 1745 776 1719 776 1689 C 776 1655 764 1626 740 1601 C 716 1576 687 1564 653 1564 Z M 1099 1564 C 1066 1564 1038 1575 1015 1598 C 991 1621 980 1649 980 1681 C 980 1713 991 1742 1015 1766 C 1038 1790 1066 1802 1099 1802 C 1133 1802 1162 1790 1185 1768 C 1208 1745 1220 1719 1220 1689 C 1220 1655 1208 1626 1185 1601 C 1161 1576 1133 1564 1099 1564 Z" unicode="Ü" />
<glyph horiz-adv-x="1300" d="M 303 0 L 303 14 C 321 14 351 17 391 23 C 431 29 457 34 471 39 C 495 47 512 61 521 79 C 530 97 535 118 535 141 L 535 528 C 535 548 529 571 519 597 C 509 623 496 651 481 682 C 434 773 385 865 333 959 C 281 1052 234 1136 190 1210 C 173 1240 155 1268 135 1293 C 115 1317 92 1337 68 1352 C 49 1362 27 1369 1 1375 C -24 1380 -46 1383 -66 1384 L -66 1399 L 594 1399 L 594 1384 C 558 1382 514 1375 463 1365 C 412 1355 387 1337 387 1313 C 387 1305 396 1283 414 1247 C 432 1210 456 1164 487 1108 C 521 1046 560 974 605 892 C 650 810 697 727 745 643 C 795 725 843 806 890 885 C 937 964 977 1034 1010 1094 C 1036 1142 1057 1183 1073 1217 C 1088 1251 1096 1274 1096 1286 C 1096 1320 1068 1344 1012 1358 C 956 1372 904 1381 858 1384 L 858 1399 L 1352 1399 L 1352 1384 C 1339 1383 1323 1380 1304 1374 C 1285 1368 1270 1362 1260 1356 C 1233 1340 1212 1326 1197 1313 C 1181 1299 1164 1279 1145 1251 C 1099 1185 1045 1099 985 993 C 925 887 866 784 809 684 C 783 638 767 600 761 572 C 755 544 752 505 752 455 L 752 145 C 752 121 756 101 766 84 C 775 66 791 53 815 43 C 827 38 854 32 894 25 C 934 18 964 14 983 14 L 983 0 L 303 0 Z M 593 1482 L 583 1492 C 625 1565 659 1628 687 1681 C 715 1734 740 1780 763 1818 C 781 1850 800 1872 820 1886 C 840 1899 862 1906 888 1906 C 912 1906 931 1897 947 1881 C 962 1865 970 1847 970 1828 C 970 1802 964 1782 952 1767 C 940 1752 921 1735 897 1716 C 866 1691 828 1662 783 1629 C 737 1596 674 1547 593 1482 Z" unicode="Ý" />
<glyph horiz-adv-x="1272" d="M 92 0 L 92 14 C 110 14 136 17 170 22 C 203 27 226 32 240 37 C 264 45 281 59 290 77 C 298 95 303 116 303 139 L 303 1251 C 303 1273 298 1294 290 1314 C 282 1333 265 1347 240 1356 C 214 1364 186 1370 156 1375 C 126 1380 102 1383 84 1384 L 84 1399 L 733 1399 L 733 1384 C 714 1383 689 1381 658 1377 C 627 1373 602 1368 584 1362 C 559 1354 542 1341 533 1325 C 524 1308 520 1288 520 1266 L 520 1096 L 782 1096 C 901 1096 1002 1065 1084 1004 C 1166 943 1208 862 1208 760 C 1208 630 1155 528 1050 452 C 945 376 822 338 682 338 L 520 338 L 520 139 C 520 116 524 95 533 77 C 542 59 559 45 584 37 C 596 32 620 27 655 22 C 689 17 719 14 745 14 L 745 0 L 92 0 Z M 520 362 L 621 362 C 727 362 809 394 867 460 C 925 526 954 610 954 713 C 954 817 929 903 880 969 C 830 1035 757 1069 659 1069 L 520 1069 L 520 362 Z" unicode="Þ" />
<glyph horiz-adv-x="1212" d="M 838 -29 C 744 -29 674 -7 628 34 C 582 76 559 126 559 182 C 559 218 567 249 584 274 C 601 298 627 311 662 311 C 692 311 714 301 728 282 C 741 262 748 239 748 213 C 748 186 741 164 727 146 C 713 128 707 109 707 90 C 707 69 718 47 742 25 C 766 3 801 -8 848 -8 C 906 -8 950 12 982 53 C 1014 94 1030 139 1030 188 C 1030 232 1017 272 993 310 C 969 347 913 397 827 459 C 768 499 718 542 677 587 C 636 632 616 683 616 739 C 616 800 635 848 673 883 C 711 917 748 960 784 1010 C 800 1033 814 1061 824 1094 C 834 1127 840 1166 840 1210 C 840 1306 821 1379 783 1431 C 745 1483 694 1509 631 1509 C 552 1509 495 1474 459 1406 C 423 1337 403 1225 399 1069 L 399 0 L 68 0 L 68 14 C 86 14 101 16 115 18 C 129 20 143 23 158 29 C 177 35 191 46 200 62 C 208 78 213 98 213 121 L 213 889 L 4 889 L 4 922 L 213 922 L 213 985 C 213 1069 224 1147 246 1219 C 268 1290 303 1351 350 1401 C 392 1445 439 1478 491 1499 C 543 1519 599 1530 659 1530 C 746 1530 822 1506 886 1459 C 950 1412 983 1347 983 1264 C 983 1202 970 1151 946 1113 C 922 1074 894 1042 862 1018 C 826 990 794 967 765 949 C 735 931 721 908 721 881 C 721 852 735 819 764 783 C 792 747 852 694 944 625 C 1021 567 1076 516 1108 471 C 1140 426 1157 366 1157 291 C 1157 204 1127 129 1067 66 C 1007 2 930 -29 838 -29 Z" unicode="ß" />
<glyph horiz-adv-x="1004" d="M 313 -25 C 243 -25 186 -5 142 34 C 98 74 76 127 76 193 C 76 257 90 309 120 349 C 149 389 201 423 276 451 C 324 469 385 489 458 512 C 530 535 585 556 621 575 L 621 721 C 621 781 606 832 577 872 C 547 912 503 932 444 932 C 414 932 389 927 369 918 C 349 909 331 895 315 877 C 315 858 318 831 326 795 C 334 759 338 733 338 717 C 338 695 327 675 306 657 C 284 638 255 629 219 629 C 185 629 162 640 148 662 C 134 684 127 708 127 735 C 127 763 135 789 151 813 C 167 837 189 859 216 878 C 248 901 286 919 329 932 C 371 945 414 952 457 952 C 522 952 574 948 612 940 C 650 932 684 919 713 900 C 743 879 767 848 784 808 C 800 767 809 714 809 649 C 809 559 807 467 804 371 C 800 275 799 210 799 176 C 799 154 807 131 825 107 C 843 83 866 72 895 72 C 925 72 949 88 967 122 C 985 156 995 196 999 244 L 1020 244 C 1013 148 991 80 954 40 C 917 0 867 -20 803 -20 C 755 -20 717 -8 689 13 C 661 35 639 70 623 117 L 616 117 C 580 74 535 40 483 14 C 431 -12 374 -25 313 -25 Z M 414 47 C 458 47 497 55 529 73 C 561 90 589 114 614 145 L 623 547 C 486 504 394 457 346 407 C 298 357 274 295 274 223 C 274 167 286 123 311 93 C 335 62 370 47 414 47 Z M 687 1073 C 605 1138 542 1187 496 1220 C 450 1253 411 1282 381 1307 C 356 1326 338 1343 326 1358 C 314 1373 308 1393 308 1419 C 308 1438 316 1456 332 1472 C 348 1488 368 1497 392 1497 C 417 1497 439 1490 459 1478 C 478 1466 497 1443 517 1409 C 539 1371 565 1324 594 1268 C 622 1212 657 1149 697 1081 L 687 1073 Z" unicode="à" />
<glyph horiz-adv-x="1004" d="M 313 -25 C 243 -25 186 -5 142 34 C 98 74 76 127 76 193 C 76 257 90 309 120 349 C 149 389 201 423 276 451 C 324 469 385 489 458 512 C 530 535 585 556 621 575 L 621 721 C 621 781 606 832 577 872 C 547 912 503 932 444 932 C 414 932 389 927 369 918 C 349 909 331 895 315 877 C 315 858 318 831 326 795 C 334 759 338 733 338 717 C 338 695 327 675 306 657 C 284 638 255 629 219 629 C 185 629 162 640 148 662 C 134 684 127 708 127 735 C 127 763 135 789 151 813 C 167 837 189 859 216 878 C 248 901 286 919 329 932 C 371 945 414 952 457 952 C 522 952 574 948 612 940 C 650 932 684 919 713 900 C 743 879 767 848 784 808 C 800 767 809 714 809 649 C 809 559 807 467 804 371 C 800 275 799 210 799 176 C 799 154 807 131 825 107 C 843 83 866 72 895 72 C 925 72 949 88 967 122 C 985 156 995 196 999 244 L 1020 244 C 1013 148 991 80 954 40 C 917 0 867 -20 803 -20 C 755 -20 717 -8 689 13 C 661 35 639 70 623 117 L 616 117 C 580 74 535 40 483 14 C 431 -12 374 -25 313 -25 Z M 414 47 C 458 47 497 55 529 73 C 561 90 589 114 614 145 L 623 547 C 486 504 394 457 346 407 C 298 357 274 295 274 223 C 274 167 286 123 311 93 C 335 62 370 47 414 47 Z M 319 1073 L 309 1083 C 351 1156 385 1219 413 1272 C 441 1325 466 1371 489 1409 C 507 1441 526 1463 546 1477 C 566 1490 588 1497 614 1497 C 638 1497 657 1488 673 1472 C 688 1456 696 1438 696 1419 C 696 1393 690 1373 678 1358 C 666 1343 647 1326 623 1307 C 592 1282 554 1253 509 1220 C 463 1187 400 1138 319 1073 Z" unicode="á" />
<glyph horiz-adv-x="1004" d="M 313 -25 C 243 -25 186 -5 142 34 C 98 74 76 127 76 193 C 76 257 90 309 120 349 C 149 389 201 423 276 451 C 324 469 385 489 458 512 C 530 535 585 556 621 575 L 621 721 C 621 781 606 832 577 872 C 547 912 503 932 444 932 C 414 932 389 927 369 918 C 349 909 331 895 315 877 C 315 858 318 831 326 795 C 334 759 338 733 338 717 C 338 695 327 675 306 657 C 284 638 255 629 219 629 C 185 629 162 640 148 662 C 134 684 127 708 127 735 C 127 763 135 789 151 813 C 167 837 189 859 216 878 C 248 901 286 919 329 932 C 371 945 414 952 457 952 C 522 952 574 948 612 940 C 650 932 684 919 713 900 C 743 879 767 848 784 808 C 800 767 809 714 809 649 C 809 559 807 467 804 371 C 800 275 799 210 799 176 C 799 154 807 131 825 107 C 843 83 866 72 895 72 C 925 72 949 88 967 122 C 985 156 995 196 999 244 L 1020 244 C 1013 148 991 80 954 40 C 917 0 867 -20 803 -20 C 755 -20 717 -8 689 13 C 661 35 639 70 623 117 L 616 117 C 580 74 535 40 483 14 C 431 -12 374 -25 313 -25 Z M 414 47 C 458 47 497 55 529 73 C 561 90 589 114 614 145 L 623 547 C 486 504 394 457 346 407 C 298 357 274 295 274 223 C 274 167 286 123 311 93 C 335 62 370 47 414 47 Z M 195 1094 L 180 1106 C 234 1184 280 1253 319 1311 C 357 1369 389 1418 414 1456 C 427 1475 438 1487 447 1493 C 455 1498 474 1501 504 1501 C 533 1501 551 1498 559 1493 C 567 1488 576 1477 588 1460 C 613 1423 645 1375 684 1315 C 723 1255 770 1185 824 1106 L 809 1094 L 500 1356 L 195 1094 Z" unicode="â" />
<glyph horiz-adv-x="1004" d="M 313 -25 C 243 -25 186 -5 142 34 C 98 74 76 127 76 193 C 76 257 90 309 120 349 C 149 389 201 423 276 451 C 324 469 385 489 458 512 C 530 535 585 556 621 575 L 621 721 C 621 781 606 832 577 872 C 547 912 503 932 444 932 C 414 932 389 927 369 918 C 349 909 331 895 315 877 C 315 858 318 831 326 795 C 334 759 338 733 338 717 C 338 695 327 675 306 657 C 284 638 255 629 219 629 C 185 629 162 640 148 662 C 134 684 127 708 127 735 C 127 763 135 789 151 813 C 167 837 189 859 216 878 C 248 901 286 919 329 932 C 371 945 414 952 457 952 C 522 952 574 948 612 940 C 650 932 684 919 713 900 C 743 879 767 848 784 808 C 800 767 809 714 809 649 C 809 559 807 467 804 371 C 800 275 799 210 799 176 C 799 154 807 131 825 107 C 843 83 866 72 895 72 C 925 72 949 88 967 122 C 985 156 995 196 999 244 L 1020 244 C 1013 148 991 80 954 40 C 917 0 867 -20 803 -20 C 755 -20 717 -8 689 13 C 661 35 639 70 623 117 L 616 117 C 580 74 535 40 483 14 C 431 -12 374 -25 313 -25 Z M 414 47 C 458 47 497 55 529 73 C 561 90 589 114 614 145 L 623 547 C 486 504 394 457 346 407 C 298 357 274 295 274 223 C 274 167 286 123 311 93 C 335 62 370 47 414 47 Z M 123 1137 L 105 1145 C 119 1193 150 1247 198 1309 C 246 1370 300 1401 361 1401 C 423 1401 485 1381 549 1341 C 612 1301 661 1282 697 1282 C 743 1282 780 1294 809 1318 C 837 1342 862 1376 883 1419 L 901 1413 C 882 1348 848 1289 799 1236 C 749 1183 696 1157 639 1157 C 575 1157 512 1176 450 1214 C 388 1252 337 1272 299 1272 C 260 1272 228 1261 202 1239 C 176 1217 149 1183 123 1137 Z" unicode="ã" />
<glyph horiz-adv-x="1004" d="M 313 -25 C 243 -25 186 -5 142 34 C 98 74 76 127 76 193 C 76 257 90 309 120 349 C 149 389 201 423 276 451 C 324 469 385 489 458 512 C 530 535 585 556 621 575 L 621 721 C 621 781 606 832 577 872 C 547 912 503 932 444 932 C 414 932 389 927 369 918 C 349 909 331 895 315 877 C 315 858 318 831 326 795 C 334 759 338 733 338 717 C 338 695 327 675 306 657 C 284 638 255 629 219 629 C 185 629 162 640 148 662 C 134 684 127 708 127 735 C 127 763 135 789 151 813 C 167 837 189 859 216 878 C 248 901 286 919 329 932 C 371 945 414 952 457 952 C 522 952 574 948 612 940 C 650 932 684 919 713 900 C 743 879 767 848 784 808 C 800 767 809 714 809 649 C 809 559 807 467 804 371 C 800 275 799 210 799 176 C 799 154 807 131 825 107 C 843 83 866 72 895 72 C 925 72 949 88 967 122 C 985 156 995 196 999 244 L 1020 244 C 1013 148 991 80 954 40 C 917 0 867 -20 803 -20 C 755 -20 717 -8 689 13 C 661 35 639 70 623 117 L 616 117 C 580 74 535 40 483 14 C 431 -12 374 -25 313 -25 Z M 414 47 C 458 47 497 55 529 73 C 561 90 589 114 614 145 L 623 547 C 486 504 394 457 346 407 C 298 357 274 295 274 223 C 274 167 286 123 311 93 C 335 62 370 47 414 47 Z M 277 1137 C 245 1137 217 1148 194 1171 C 171 1194 160 1222 160 1254 C 160 1286 171 1315 194 1339 C 217 1363 245 1375 277 1375 C 312 1375 341 1363 365 1341 C 388 1318 400 1292 400 1262 C 400 1228 388 1199 364 1174 C 340 1149 311 1137 277 1137 Z M 723 1137 C 690 1137 662 1148 639 1171 C 615 1194 604 1222 604 1254 C 604 1286 615 1315 639 1339 C 662 1363 690 1375 723 1375 C 757 1375 786 1363 809 1341 C 832 1318 844 1292 844 1262 C 844 1228 832 1199 809 1174 C 785 1149 757 1137 723 1137 Z" unicode="ä" />
<glyph horiz-adv-x="1004" d="M 313 -25 C 243 -25 186 -5 142 34 C 98 74 76 127 76 193 C 76 257 90 309 120 349 C 149 389 201 423 276 451 C 324 469 385 489 458 512 C 530 535 585 556 621 575 L 621 721 C 621 781 606 832 577 872 C 547 912 503 932 444 932 C 414 932 389 927 369 918 C 349 909 331 895 315 877 C 315 858 318 831 326 795 C 334 759 338 733 338 717 C 338 695 327 675 306 657 C 284 638 255 629 219 629 C 185 629 162 640 148 662 C 134 684 127 708 127 735 C 127 763 135 789 151 813 C 167 837 189 859 216 878 C 248 901 286 919 329 932 C 371 945 414 952 457 952 C 522 952 574 948 612 940 C 650 932 684 919 713 900 C 743 879 767 848 784 808 C 800 767 809 714 809 649 C 809 559 807 467 804 371 C 800 275 799 210 799 176 C 799 154 807 131 825 107 C 843 83 866 72 895 72 C 925 72 949 88 967 122 C 985 156 995 196 999 244 L 1020 244 C 1013 148 991 80 954 40 C 917 0 867 -20 803 -20 C 755 -20 717 -8 689 13 C 661 35 639 70 623 117 L 616 117 C 580 74 535 40 483 14 C 431 -12 374 -25 313 -25 Z M 414 47 C 458 47 497 55 529 73 C 561 90 589 114 614 145 L 623 547 C 486 504 394 457 346 407 C 298 357 274 295 274 223 C 274 167 286 123 311 93 C 335 62 370 47 414 47 Z M 502 1087 C 432 1087 376 1105 335 1142 C 293 1179 273 1228 273 1288 C 273 1347 295 1395 340 1433 C 384 1470 438 1489 502 1489 C 568 1489 622 1470 666 1433 C 709 1396 731 1348 731 1288 C 731 1230 710 1182 668 1144 C 626 1106 571 1087 502 1087 Z M 502 1106 C 546 1106 577 1124 596 1162 C 615 1200 625 1242 625 1288 C 625 1332 615 1373 596 1412 C 577 1450 546 1470 502 1470 C 459 1470 428 1451 408 1414 C 388 1376 379 1334 379 1288 C 379 1243 388 1201 407 1163 C 426 1125 458 1106 502 1106 Z" unicode="å" />
<glyph horiz-adv-x="1477" d="M 313 -25 C 243 -25 186 -5 142 34 C 98 74 76 127 76 193 C 76 276 96 335 138 370 C 179 404 225 431 276 451 C 334 473 395 494 460 513 C 524 531 578 552 621 575 L 621 721 C 621 739 612 779 596 840 C 579 901 528 932 444 932 C 406 932 377 925 358 912 C 338 899 324 887 315 877 C 315 849 318 821 326 793 C 334 765 338 739 338 717 C 338 695 327 675 306 657 C 284 638 255 629 219 629 C 185 629 162 640 148 662 C 134 684 127 708 127 735 C 127 796 162 847 234 889 C 305 931 379 952 457 952 C 521 952 578 945 630 933 C 681 920 724 890 758 842 C 781 865 816 889 863 914 C 910 939 968 952 1038 952 C 1178 952 1276 913 1334 836 C 1392 758 1421 670 1421 571 L 1421 553 L 811 553 L 811 518 C 811 386 832 274 876 180 C 920 86 1000 39 1116 39 C 1195 39 1257 55 1301 89 C 1345 123 1387 171 1425 233 L 1442 223 C 1406 151 1354 91 1288 45 C 1222 -1 1146 -25 1061 -25 C 950 -25 865 -1 805 45 C 745 91 701 138 674 184 C 624 104 566 50 500 20 C 433 -10 371 -25 313 -25 Z M 414 47 C 458 47 497 54 529 70 C 561 85 589 108 614 139 L 623 547 C 521 515 437 475 372 429 C 306 383 274 314 274 223 C 274 167 286 123 311 93 C 335 62 370 47 414 47 Z M 811 573 L 1223 578 C 1223 659 1211 738 1187 816 C 1163 893 1113 932 1036 932 C 972 932 919 898 877 832 C 835 765 813 679 811 573 Z" unicode="æ" />
<glyph horiz-adv-x="891" d="M 281 -471 L 281 -446 C 344 -446 407 -439 469 -425 C 531 -411 563 -375 563 -317 C 563 -281 544 -258 506 -249 C 468 -240 429 -236 389 -236 L 389 -12 C 281 12 200 68 146 155 C 92 242 66 346 66 467 C 66 601 108 716 194 810 C 280 904 388 952 520 952 C 618 952 696 929 753 884 C 809 838 838 782 838 715 C 838 681 827 653 806 632 C 784 610 757 600 723 600 C 693 600 667 609 647 627 C 626 645 616 670 616 702 C 616 722 618 740 623 757 C 628 773 634 787 640 799 C 646 810 651 821 655 831 C 659 841 662 850 662 858 C 657 880 641 898 614 912 C 587 925 556 932 520 932 C 448 932 389 894 342 818 C 295 742 272 631 272 485 C 272 355 297 250 348 168 C 399 86 469 45 559 45 C 631 45 693 61 744 94 C 794 126 836 172 870 231 L 889 219 C 851 151 798 94 731 46 C 664 -1 590 -25 510 -25 C 493 -25 477 -24 461 -23 C 445 -21 430 -19 416 -16 L 416 -119 C 490 -119 557 -128 617 -147 C 677 -166 707 -208 707 -274 C 707 -363 662 -418 572 -439 C 482 -460 385 -471 281 -471 Z" unicode="ç" />
<glyph horiz-adv-x="934" d="M 518 -25 C 377 -25 266 19 186 109 C 106 199 66 319 66 471 C 66 604 106 717 186 811 C 266 905 369 952 496 952 C 620 952 714 917 780 849 C 846 780 879 687 879 571 L 879 553 L 268 553 L 268 518 C 268 368 292 250 341 166 C 390 81 467 39 573 39 C 652 39 714 55 758 89 C 802 123 844 171 883 233 L 899 223 C 863 151 811 91 745 45 C 679 -1 603 -25 518 -25 Z M 268 573 L 680 578 C 680 692 664 780 633 841 C 602 901 556 932 494 932 C 430 932 377 898 335 832 C 293 765 270 679 268 573 Z M 652 1073 C 570 1138 507 1187 461 1220 C 415 1253 376 1282 346 1307 C 321 1326 303 1343 291 1358 C 279 1373 273 1393 273 1419 C 273 1438 281 1456 297 1472 C 313 1488 333 1497 357 1497 C 382 1497 404 1490 424 1478 C 443 1466 462 1443 482 1409 C 504 1371 530 1324 559 1268 C 587 1212 622 1149 662 1081 L 652 1073 Z" unicode="è" />
<glyph horiz-adv-x="934" d="M 518 -25 C 377 -25 266 19 186 109 C 106 199 66 319 66 471 C 66 604 106 717 186 811 C 266 905 369 952 496 952 C 620 952 714 917 780 849 C 846 780 879 687 879 571 L 879 553 L 268 553 L 268 518 C 268 368 292 250 341 166 C 390 81 467 39 573 39 C 652 39 714 55 758 89 C 802 123 844 171 883 233 L 899 223 C 863 151 811 91 745 45 C 679 -1 603 -25 518 -25 Z M 268 573 L 680 578 C 680 692 664 780 633 841 C 602 901 556 932 494 932 C 430 932 377 898 335 832 C 293 765 270 679 268 573 Z M 341 1073 L 331 1083 C 373 1156 407 1219 435 1272 C 463 1325 488 1371 511 1409 C 529 1441 548 1463 568 1477 C 588 1490 610 1497 636 1497 C 660 1497 679 1488 695 1472 C 710 1456 718 1438 718 1419 C 718 1393 712 1373 700 1358 C 688 1343 669 1326 645 1307 C 614 1282 576 1253 531 1220 C 485 1187 422 1138 341 1073 Z" unicode="é" />
<glyph horiz-adv-x="934" d="M 518 -25 C 377 -25 266 19 186 109 C 106 199 66 319 66 471 C 66 604 106 717 186 811 C 266 905 369 952 496 952 C 620 952 714 917 780 849 C 846 780 879 687 879 571 L 879 553 L 268 553 L 268 518 C 268 368 292 250 341 166 C 390 81 467 39 573 39 C 652 39 714 55 758 89 C 802 123 844 171 883 233 L 899 223 C 863 151 811 91 745 45 C 679 -1 603 -25 518 -25 Z M 268 573 L 680 578 C 680 692 664 780 633 841 C 602 901 556 932 494 932 C 430 932 377 898 335 832 C 293 765 270 679 268 573 Z M 181 1094 L 166 1106 C 220 1184 266 1253 305 1311 C 343 1369 375 1418 400 1456 C 413 1475 424 1487 433 1493 C 441 1498 460 1501 490 1501 C 519 1501 537 1498 545 1493 C 553 1488 562 1477 574 1460 C 599 1423 631 1375 670 1315 C 709 1255 756 1185 810 1106 L 795 1094 L 486 1356 L 181 1094 Z" unicode="ê" />
<glyph horiz-adv-x="934" d="M 518 -25 C 377 -25 266 19 186 109 C 106 199 66 319 66 471 C 66 604 106 717 186 811 C 266 905 369 952 496 952 C 620 952 714 917 780 849 C 846 780 879 687 879 571 L 879 553 L 268 553 L 268 518 C 268 368 292 250 341 166 C 390 81 467 39 573 39 C 652 39 714 55 758 89 C 802 123 844 171 883 233 L 899 223 C 863 151 811 91 745 45 C 679 -1 603 -25 518 -25 Z M 268 573 L 680 578 C 680 692 664 780 633 841 C 602 901 556 932 494 932 C 430 932 377 898 335 832 C 293 765 270 679 268 573 Z M 263 1137 C 231 1137 203 1148 180 1171 C 157 1194 146 1222 146 1254 C 146 1286 157 1315 180 1339 C 203 1363 231 1375 263 1375 C 298 1375 327 1363 351 1341 C 374 1318 386 1292 386 1262 C 386 1228 374 1199 350 1174 C 326 1149 297 1137 263 1137 Z M 709 1137 C 676 1137 648 1148 625 1171 C 601 1194 590 1222 590 1254 C 590 1286 601 1315 625 1339 C 648 1363 676 1375 709 1375 C 743 1375 772 1363 795 1341 C 818 1318 830 1292 830 1262 C 830 1228 818 1199 795 1174 C 771 1149 743 1137 709 1137 Z" unicode="ë" />
<glyph horiz-adv-x="586" d="M 68 0 L 68 14 C 86 14 101 16 115 18 C 129 20 143 24 158 29 C 177 35 191 46 200 62 C 208 78 213 98 213 121 L 213 768 C 211 789 205 810 196 830 C 186 850 174 865 158 877 C 145 885 126 891 102 895 C 77 899 55 902 37 903 L 37 915 L 391 938 L 399 930 L 399 131 C 399 108 403 88 413 71 C 422 53 436 41 455 33 C 469 25 485 20 501 18 C 517 16 533 14 551 14 L 551 0 L 68 0 Z M 390 1073 C 308 1138 245 1187 199 1220 C 153 1253 114 1282 84 1307 C 59 1326 41 1343 29 1358 C 17 1373 11 1393 11 1419 C 11 1438 19 1456 35 1472 C 51 1488 71 1497 95 1497 C 120 1497 142 1490 162 1478 C 181 1466 200 1443 220 1409 C 242 1371 268 1324 297 1268 C 325 1212 360 1149 400 1081 L 390 1073 Z" unicode="ì" />
<glyph horiz-adv-x="575" d="M 68 0 L 68 14 C 86 14 101 16 115 18 C 129 20 143 24 158 29 C 177 35 191 46 200 62 C 208 78 213 98 213 121 L 213 768 C 211 789 205 810 196 830 C 186 850 174 865 158 877 C 145 885 126 891 102 895 C 77 899 55 902 37 903 L 37 915 L 391 938 L 399 930 L 399 131 C 399 108 403 88 413 71 C 422 53 436 41 455 33 C 469 25 485 20 501 18 C 517 16 533 14 551 14 L 551 0 L 68 0 Z M 160 1073 L 150 1083 C 192 1156 226 1219 254 1272 C 282 1325 307 1371 330 1409 C 348 1441 367 1463 387 1477 C 407 1490 429 1497 455 1497 C 479 1497 498 1488 514 1472 C 529 1456 537 1438 537 1419 C 537 1393 531 1373 519 1358 C 507 1343 488 1326 464 1307 C 433 1282 395 1253 350 1220 C 304 1187 241 1138 160 1073 Z" unicode="í" />
<glyph horiz-adv-x="586" d="M 4 1087 L -6 1096 C 32 1168 66 1236 97 1300 C 128 1364 155 1418 178 1462 C 186 1477 197 1488 211 1496 C 225 1503 244 1507 270 1507 C 292 1507 311 1504 326 1498 C 340 1492 351 1481 358 1466 C 378 1426 404 1374 435 1310 C 466 1246 502 1175 543 1096 L 530 1087 L 268 1354 L 4 1087 Z M 68 0 L 68 14 C 86 14 101 16 115 18 C 129 20 143 24 158 29 C 177 35 191 46 200 62 C 208 78 213 98 213 121 L 213 768 C 211 789 205 810 196 830 C 186 850 174 865 158 877 C 145 885 126 891 102 895 C 77 899 55 902 37 903 L 37 915 L 391 938 L 399 930 L 399 131 C 399 108 403 88 413 71 C 422 53 436 41 455 33 C 469 25 485 20 501 18 C 517 16 533 14 551 14 L 551 0 L 68 0 Z" unicode="î" />
<glyph horiz-adv-x="586" d="M 70 1137 C 38 1137 10 1148 -11 1170 C -33 1192 -45 1219 -45 1251 C -45 1283 -33 1311 -11 1335 C 10 1358 38 1370 70 1370 C 103 1370 131 1358 154 1336 C 176 1314 188 1287 188 1257 C 188 1224 176 1196 154 1172 C 131 1148 103 1137 70 1137 Z M 463 1137 C 430 1137 402 1148 380 1170 C 357 1192 346 1219 346 1251 C 346 1283 357 1311 380 1335 C 402 1358 430 1370 463 1370 C 495 1370 523 1358 546 1336 C 568 1314 580 1287 580 1257 C 580 1224 568 1196 546 1172 C 523 1148 495 1137 463 1137 Z M 68 0 L 68 14 C 86 14 101 16 115 18 C 129 20 143 24 158 29 C 177 35 191 46 200 62 C 208 78 213 98 213 121 L 213 768 C 211 789 205 810 196 830 C 186 850 174 865 158 877 C 145 885 126 891 102 895 C 77 899 55 902 37 903 L 37 915 L 391 938 L 399 930 L 399 131 C 399 108 403 88 413 71 C 422 53 436 41 455 33 C 469 25 485 20 501 18 C 517 16 533 14 551 14 L 551 0 L 68 0 Z" unicode="ï" />
<glyph horiz-adv-x="1071" d="M 541 -29 C 401 -29 287 15 197 105 C 107 194 63 315 63 467 C 63 615 109 732 203 820 C 296 908 410 952 545 952 C 603 952 653 940 695 918 C 737 896 769 869 791 838 L 799 840 C 785 946 762 1039 728 1117 C 694 1195 656 1261 616 1315 L 385 1165 L 365 1198 L 590 1346 C 562 1379 534 1411 504 1442 C 474 1472 446 1496 422 1513 L 430 1528 C 458 1513 493 1493 533 1469 C 573 1445 612 1416 651 1384 L 836 1507 L 856 1473 L 682 1358 C 773 1281 850 1178 914 1048 C 978 918 1010 767 1010 594 C 1010 415 968 266 884 148 C 800 30 685 -29 541 -29 Z M 539 -8 C 623 -8 687 35 733 123 C 778 210 801 326 801 471 C 801 607 779 718 736 804 C 693 889 627 932 539 932 C 445 932 377 889 334 804 C 291 718 270 609 270 475 C 270 328 292 211 338 123 C 383 35 450 -8 539 -8 Z" unicode="ð" />
<glyph horiz-adv-x="1196" d="M 66 0 L 66 14 C 84 14 99 16 113 18 C 127 20 141 24 156 29 C 175 35 189 46 198 62 C 206 78 211 98 211 121 L 211 768 C 209 789 203 810 194 830 C 184 850 172 865 156 877 C 143 885 128 891 110 895 C 92 899 73 902 55 903 L 55 915 L 389 938 L 397 930 L 397 784 L 401 784 C 439 822 482 859 530 896 C 578 933 645 952 733 952 C 828 952 898 922 944 863 C 989 803 1012 725 1012 629 L 1012 129 C 1012 106 1016 86 1024 69 C 1032 51 1046 39 1065 31 C 1079 24 1093 20 1107 18 C 1120 16 1136 14 1155 14 L 1155 0 L 672 0 L 672 14 C 690 14 707 16 723 18 C 738 20 753 24 768 29 C 787 35 801 46 810 62 C 818 78 823 98 823 121 L 823 653 C 823 723 805 777 771 815 C 736 853 697 872 653 872 C 579 872 520 855 478 822 C 435 788 408 760 397 737 L 397 131 C 397 108 401 88 411 71 C 420 53 434 41 453 33 C 467 25 483 20 499 18 C 515 16 531 14 549 14 L 549 0 L 66 0 Z M 217 1137 L 199 1145 C 213 1193 244 1247 292 1309 C 340 1370 394 1401 455 1401 C 517 1401 579 1381 643 1341 C 706 1301 755 1282 791 1282 C 837 1282 874 1294 903 1318 C 931 1342 956 1376 977 1419 L 995 1413 C 976 1348 942 1289 893 1236 C 843 1183 790 1157 733 1157 C 669 1157 606 1176 544 1214 C 482 1252 431 1272 393 1272 C 354 1272 322 1261 296 1239 C 270 1217 243 1183 217 1137 Z" unicode="ñ" />
<glyph horiz-adv-x="1071" d="M 526 -29 C 400 -29 291 16 200 106 C 108 196 63 314 63 459 C 63 603 107 722 195 814 C 283 906 398 952 541 952 C 683 952 796 906 881 814 C 965 722 1008 608 1008 473 C 1008 325 963 205 874 111 C 784 17 668 -29 526 -29 Z M 539 -8 C 623 -8 688 35 733 123 C 778 210 801 326 801 471 C 801 609 779 721 736 805 C 692 889 627 932 539 932 C 446 932 378 889 335 805 C 291 720 270 610 270 475 C 270 331 292 215 336 126 C 380 36 448 -8 539 -8 Z M 699 1073 C 617 1138 554 1187 508 1220 C 462 1253 423 1282 393 1307 C 368 1326 350 1343 338 1358 C 326 1373 320 1393 320 1419 C 320 1438 328 1456 344 1472 C 360 1488 380 1497 404 1497 C 429 1497 451 1490 471 1478 C 490 1466 509 1443 529 1409 C 551 1371 577 1324 606 1268 C 634 1212 669 1149 709 1081 L 699 1073 Z" unicode="ò" />
<glyph horiz-adv-x="1071" d="M 526 -29 C 400 -29 291 16 200 106 C 108 196 63 314 63 459 C 63 603 107 722 195 814 C 283 906 398 952 541 952 C 683 952 796 906 881 814 C 965 722 1008 608 1008 473 C 1008 325 963 205 874 111 C 784 17 668 -29 526 -29 Z M 539 -8 C 623 -8 688 35 733 123 C 778 210 801 326 801 471 C 801 609 779 721 736 805 C 692 889 627 932 539 932 C 446 932 378 889 335 805 C 291 720 270 610 270 475 C 270 331 292 215 336 126 C 380 36 448 -8 539 -8 Z M 372 1073 L 362 1083 C 404 1156 438 1219 466 1272 C 494 1325 519 1371 542 1409 C 560 1441 579 1463 599 1477 C 619 1490 641 1497 667 1497 C 691 1497 710 1488 726 1472 C 741 1456 749 1438 749 1419 C 749 1393 743 1373 731 1358 C 719 1343 700 1326 676 1307 C 645 1282 607 1253 562 1220 C 516 1187 453 1138 372 1073 Z" unicode="ó" />
<glyph horiz-adv-x="1071" d="M 526 -29 C 400 -29 291 16 200 106 C 108 196 63 314 63 459 C 63 603 107 722 195 814 C 283 906 398 952 541 952 C 683 952 796 906 881 814 C 965 722 1008 608 1008 473 C 1008 325 963 205 874 111 C 784 17 668 -29 526 -29 Z M 539 -8 C 623 -8 688 35 733 123 C 778 210 801 326 801 471 C 801 609 779 721 736 805 C 692 889 627 932 539 932 C 446 932 378 889 335 805 C 291 720 270 610 270 475 C 270 331 292 215 336 126 C 380 36 448 -8 539 -8 Z M 227 1094 L 212 1106 C 266 1184 312 1253 351 1311 C 389 1369 421 1418 446 1456 C 459 1475 470 1487 479 1493 C 487 1498 506 1501 536 1501 C 565 1501 583 1498 591 1493 C 599 1488 608 1477 620 1460 C 645 1423 677 1375 716 1315 C 755 1255 802 1185 856 1106 L 841 1094 L 532 1356 L 227 1094 Z" unicode="ô" />
<glyph horiz-adv-x="1071" d="M 526 -29 C 400 -29 291 16 200 106 C 108 196 63 314 63 459 C 63 603 107 722 195 814 C 283 906 398 952 541 952 C 683 952 796 906 881 814 C 965 722 1008 608 1008 473 C 1008 325 963 205 874 111 C 784 17 668 -29 526 -29 Z M 539 -8 C 623 -8 688 35 733 123 C 778 210 801 326 801 471 C 801 609 779 721 736 805 C 692 889 627 932 539 932 C 446 932 378 889 335 805 C 291 720 270 610 270 475 C 270 331 292 215 336 126 C 380 36 448 -8 539 -8 Z M 155 1137 L 137 1145 C 151 1193 182 1247 230 1309 C 278 1370 332 1401 393 1401 C 455 1401 517 1381 581 1341 C 644 1301 693 1282 729 1282 C 775 1282 812 1294 841 1318 C 869 1342 894 1376 915 1419 L 933 1413 C 914 1348 880 1289 831 1236 C 781 1183 728 1157 671 1157 C 607 1157 544 1176 482 1214 C 420 1252 369 1272 331 1272 C 292 1272 260 1261 234 1239 C 208 1217 181 1183 155 1137 Z" unicode="õ" />
<glyph horiz-adv-x="1071" d="M 526 -29 C 400 -29 291 16 200 106 C 108 196 63 314 63 459 C 63 603 107 722 195 814 C 283 906 398 952 541 952 C 683 952 796 906 881 814 C 965 722 1008 608 1008 473 C 1008 325 963 205 874 111 C 784 17 668 -29 526 -29 Z M 539 -8 C 623 -8 688 35 733 123 C 778 210 801 326 801 471 C 801 609 779 721 736 805 C 692 889 627 932 539 932 C 446 932 378 889 335 805 C 291 720 270 610 270 475 C 270 331 292 215 336 126 C 380 36 448 -8 539 -8 Z M 309 1137 C 277 1137 249 1148 226 1171 C 203 1194 192 1222 192 1254 C 192 1286 203 1315 226 1339 C 249 1363 277 1375 309 1375 C 344 1375 373 1363 397 1341 C 420 1318 432 1292 432 1262 C 432 1228 420 1199 396 1174 C 372 1149 343 1137 309 1137 Z M 755 1137 C 722 1137 694 1148 671 1171 C 647 1194 636 1222 636 1254 C 636 1286 647 1315 671 1339 C 694 1363 722 1375 755 1375 C 789 1375 818 1363 841 1341 C 864 1318 876 1292 876 1262 C 876 1228 864 1199 841 1174 C 817 1149 789 1137 755 1137 Z" unicode="ö" />
<glyph horiz-adv-x="1145" d="M 571 125 C 542 125 518 135 498 155 C 478 175 469 199 469 229 C 469 257 478 282 498 303 C 518 323 542 334 571 334 C 601 334 626 323 647 303 C 667 282 678 257 678 229 C 678 199 667 175 647 155 C 626 135 601 125 571 125 Z M 571 729 C 542 729 518 738 498 758 C 478 778 469 802 469 831 C 469 861 478 886 498 906 C 518 926 542 936 571 936 C 601 936 626 926 647 906 C 667 886 678 861 678 831 C 678 802 667 778 647 758 C 626 738 601 729 571 729 Z M 82 496 L 82 567 L 1063 567 L 1063 496 L 82 496 Z" unicode="÷" />
<glyph horiz-adv-x="1071" d="M 106 -51 L 86 -35 L 205 100 C 162 142 128 193 102 254 C 76 315 63 383 63 459 C 63 603 107 722 195 814 C 283 906 398 952 541 952 C 604 952 662 942 715 922 C 767 902 814 876 854 842 L 1001 1010 L 1020 993 L 872 823 C 914 780 948 728 972 668 C 996 608 1008 543 1008 473 C 1008 337 966 220 882 120 C 798 20 680 -29 526 -29 C 470 -29 416 -19 364 0 C 312 18 265 46 223 82 L 106 -51 Z M 301 211 L 764 739 C 745 795 717 841 681 877 C 644 913 597 932 539 932 C 433 932 361 882 325 783 C 288 684 270 581 270 475 C 270 427 272 380 277 335 C 282 290 290 249 301 211 Z M 539 -8 C 629 -8 696 38 738 132 C 780 225 801 338 801 471 C 801 513 798 554 794 595 C 790 636 782 675 772 711 L 311 182 C 331 125 360 79 398 44 C 436 9 483 -8 539 -8 Z" unicode="ø" />
<glyph horiz-adv-x="1161" d="M 451 -25 C 355 -25 287 6 246 70 C 204 134 184 213 184 309 L 184 766 C 182 787 176 807 168 825 C 160 843 147 857 131 868 C 118 876 102 884 84 890 C 66 896 47 900 29 901 L 29 913 L 358 938 L 373 924 L 373 252 C 373 182 389 129 421 94 C 453 58 491 41 535 41 C 609 41 665 58 704 94 C 743 130 769 158 782 180 L 782 772 C 780 793 774 813 766 831 C 758 849 745 863 729 874 C 717 882 698 889 673 893 C 648 897 622 900 596 901 L 596 913 L 954 938 L 969 924 L 969 156 C 971 134 975 115 981 98 C 987 80 999 66 1016 55 C 1028 47 1043 41 1063 37 C 1082 33 1101 31 1120 31 L 1120 18 L 799 -4 L 784 10 L 784 135 L 778 135 C 739 96 697 60 651 26 C 605 -8 538 -25 451 -25 Z M 723 1073 C 641 1138 578 1187 532 1220 C 486 1253 447 1282 417 1307 C 392 1326 374 1343 362 1358 C 350 1373 344 1393 344 1419 C 344 1438 352 1456 368 1472 C 384 1488 404 1497 428 1497 C 453 1497 475 1490 495 1478 C 514 1466 533 1443 553 1409 C 575 1371 601 1324 630 1268 C 658 1212 693 1149 733 1081 L 723 1073 Z" unicode="ù" />
<glyph horiz-adv-x="1161" d="M 451 -25 C 355 -25 287 6 246 70 C 204 134 184 213 184 309 L 184 766 C 182 787 176 807 168 825 C 160 843 147 857 131 868 C 118 876 102 884 84 890 C 66 896 47 900 29 901 L 29 913 L 358 938 L 373 924 L 373 252 C 373 182 389 129 421 94 C 453 58 491 41 535 41 C 609 41 665 58 704 94 C 743 130 769 158 782 180 L 782 772 C 780 793 774 813 766 831 C 758 849 745 863 729 874 C 717 882 698 889 673 893 C 648 897 622 900 596 901 L 596 913 L 954 938 L 969 924 L 969 156 C 971 134 975 115 981 98 C 987 80 999 66 1016 55 C 1028 47 1043 41 1063 37 C 1082 33 1101 31 1120 31 L 1120 18 L 799 -4 L 784 10 L 784 135 L 778 135 C 739 96 697 60 651 26 C 605 -8 538 -25 451 -25 Z M 417 1073 L 407 1083 C 449 1156 483 1219 511 1272 C 539 1325 564 1371 587 1409 C 605 1441 624 1463 644 1477 C 664 1490 686 1497 712 1497 C 736 1497 755 1488 771 1472 C 786 1456 794 1438 794 1419 C 794 1393 788 1373 776 1358 C 764 1343 745 1326 721 1307 C 690 1282 652 1253 607 1220 C 561 1187 498 1138 417 1073 Z" unicode="ú" />
<glyph horiz-adv-x="1161" d="M 451 -25 C 355 -25 287 6 246 70 C 204 134 184 213 184 309 L 184 766 C 182 787 176 807 168 825 C 160 843 147 857 131 868 C 118 876 102 884 84 890 C 66 896 47 900 29 901 L 29 913 L 358 938 L 373 924 L 373 252 C 373 182 389 129 421 94 C 453 58 491 41 535 41 C 609 41 665 58 704 94 C 743 130 769 158 782 180 L 782 772 C 780 793 774 813 766 831 C 758 849 745 863 729 874 C 717 882 698 889 673 893 C 648 897 622 900 596 901 L 596 913 L 954 938 L 969 924 L 969 156 C 971 134 975 115 981 98 C 987 80 999 66 1016 55 C 1028 47 1043 41 1063 37 C 1082 33 1101 31 1120 31 L 1120 18 L 799 -4 L 784 10 L 784 135 L 778 135 C 739 96 697 60 651 26 C 605 -8 538 -25 451 -25 Z M 252 1094 L 237 1106 C 291 1184 337 1253 376 1311 C 414 1369 446 1418 471 1456 C 484 1475 495 1487 504 1493 C 512 1498 531 1501 561 1501 C 590 1501 608 1498 616 1493 C 624 1488 633 1477 645 1460 C 670 1423 702 1375 741 1315 C 780 1255 827 1185 881 1106 L 866 1094 L 557 1356 L 252 1094 Z" unicode="û" />
<glyph horiz-adv-x="1161" d="M 451 -25 C 355 -25 287 6 246 70 C 204 134 184 213 184 309 L 184 766 C 182 787 176 807 168 825 C 160 843 147 857 131 868 C 118 876 102 884 84 890 C 66 896 47 900 29 901 L 29 913 L 358 938 L 373 924 L 373 252 C 373 182 389 129 421 94 C 453 58 491 41 535 41 C 609 41 665 58 704 94 C 743 130 769 158 782 180 L 782 772 C 780 793 774 813 766 831 C 758 849 745 863 729 874 C 717 882 698 889 673 893 C 648 897 622 900 596 901 L 596 913 L 954 938 L 969 924 L 969 156 C 971 134 975 115 981 98 C 987 80 999 66 1016 55 C 1028 47 1043 41 1063 37 C 1082 33 1101 31 1120 31 L 1120 18 L 799 -4 L 784 10 L 784 135 L 778 135 C 739 96 697 60 651 26 C 605 -8 538 -25 451 -25 Z M 334 1137 C 302 1137 274 1148 251 1171 C 228 1194 217 1222 217 1254 C 217 1286 228 1315 251 1339 C 274 1363 302 1375 334 1375 C 369 1375 398 1363 422 1341 C 445 1318 457 1292 457 1262 C 457 1228 445 1199 421 1174 C 397 1149 368 1137 334 1137 Z M 780 1137 C 747 1137 719 1148 696 1171 C 672 1194 661 1222 661 1254 C 661 1286 672 1315 696 1339 C 719 1363 747 1375 780 1375 C 814 1375 843 1363 866 1341 C 889 1318 901 1292 901 1262 C 901 1228 889 1199 866 1174 C 842 1149 814 1137 780 1137 Z" unicode="ü" />
<glyph horiz-adv-x="946" d="M 127 -463 C 99 -463 67 -452 30 -431 C -6 -410 -25 -374 -25 -324 C -25 -297 -14 -270 6 -244 C 27 -218 56 -205 92 -205 C 118 -205 144 -213 169 -229 C 194 -245 207 -274 207 -315 L 190 -426 C 214 -426 242 -411 274 -381 C 306 -351 341 -305 377 -244 C 401 -202 422 -160 440 -120 C 458 -79 471 -46 481 -20 C 409 154 342 308 280 443 C 218 577 163 700 113 811 C 100 839 84 862 64 878 C 44 894 13 905 -27 911 L -27 926 L 422 926 L 422 907 C 398 906 372 903 343 897 C 313 891 299 880 299 864 C 299 863 300 859 302 851 C 304 843 308 833 313 821 C 336 759 376 669 432 549 C 488 429 538 321 582 223 C 620 316 657 407 693 497 C 729 586 766 681 805 782 C 807 790 810 800 813 811 C 815 821 817 831 817 840 C 817 860 800 876 766 888 C 732 900 698 908 662 913 L 662 926 L 989 926 L 989 915 C 957 910 929 897 904 876 C 879 855 860 830 848 801 C 814 725 762 601 692 427 C 622 253 560 101 506 -31 C 487 -76 469 -117 453 -154 C 436 -190 419 -223 403 -252 C 352 -340 307 -397 267 -423 C 227 -449 181 -463 127 -463 Z M 437 1073 L 427 1083 C 469 1156 503 1219 531 1272 C 559 1325 584 1371 607 1409 C 625 1441 644 1463 664 1477 C 684 1490 706 1497 732 1497 C 756 1497 775 1488 791 1472 C 806 1456 814 1438 814 1419 C 814 1393 808 1373 796 1358 C 784 1343 765 1326 741 1307 C 710 1282 672 1253 627 1220 C 581 1187 518 1138 437 1073 Z" unicode="ý" />
<glyph horiz-adv-x="1159" d="M 23 -463 L 23 -449 C 41 -447 60 -445 81 -441 C 102 -437 120 -434 135 -430 C 154 -424 168 -412 176 -394 C 184 -376 188 -356 188 -334 L 188 1362 C 186 1383 180 1403 172 1421 C 164 1439 151 1453 135 1464 C 123 1472 105 1479 83 1484 C 61 1489 41 1492 23 1493 L 23 1505 L 365 1528 L 373 1518 L 373 821 L 381 819 C 404 844 440 872 488 904 C 536 936 593 952 657 952 C 774 952 874 906 958 816 C 1041 725 1083 605 1083 455 C 1083 315 1035 200 941 110 C 846 20 738 -25 618 -25 C 559 -25 511 -18 474 -6 C 436 6 406 21 383 39 L 375 39 L 375 -322 C 375 -344 379 -364 389 -381 C 399 -398 413 -410 432 -418 C 447 -424 470 -430 500 -437 C 530 -443 555 -447 573 -449 L 573 -463 L 23 -463 Z M 602 -6 C 689 -6 756 36 803 120 C 850 204 874 317 874 457 C 874 584 849 687 801 765 C 753 843 682 883 588 883 C 538 883 497 874 463 856 C 429 838 399 814 375 786 L 375 156 C 391 112 418 74 456 42 C 494 10 543 -6 602 -6 Z" unicode="þ" />
<glyph horiz-adv-x="946" d="M 127 -463 C 99 -463 67 -452 30 -431 C -6 -410 -25 -374 -25 -324 C -25 -297 -14 -270 6 -244 C 27 -218 56 -205 92 -205 C 118 -205 144 -213 169 -229 C 194 -245 207 -274 207 -315 L 190 -426 C 214 -426 242 -411 274 -381 C 306 -351 341 -305 377 -244 C 401 -202 422 -160 440 -120 C 458 -79 471 -46 481 -20 C 409 154 342 308 280 443 C 218 577 163 700 113 811 C 100 839 84 862 64 878 C 44 894 13 905 -27 911 L -27 926 L 422 926 L 422 907 C 398 906 372 903 343 897 C 313 891 299 880 299 864 C 299 863 300 859 302 851 C 304 843 308 833 313 821 C 336 759 376 669 432 549 C 488 429 538 321 582 223 C 620 316 657 407 693 497 C 729 586 766 681 805 782 C 807 790 810 800 813 811 C 815 821 817 831 817 840 C 817 860 800 876 766 888 C 732 900 698 908 662 913 L 662 926 L 989 926 L 989 915 C 957 910 929 897 904 876 C 879 855 860 830 848 801 C 814 725 762 601 692 427 C 622 253 560 101 506 -31 C 487 -76 469 -117 453 -154 C 436 -190 419 -223 403 -252 C 352 -340 307 -397 267 -423 C 227 -449 181 -463 127 -463 Z M 285 1137 C 253 1137 225 1148 202 1171 C 179 1194 168 1222 168 1254 C 168 1286 179 1315 202 1339 C 225 1363 253 1375 285 1375 C 320 1375 349 1363 373 1341 C 396 1318 408 1292 408 1262 C 408 1228 396 1199 372 1174 C 348 1149 319 1137 285 1137 Z M 731 1137 C 698 1137 670 1148 647 1171 C 623 1194 612 1222 612 1254 C 612 1286 623 1315 647 1339 C 670 1363 698 1375 731 1375 C 765 1375 794 1363 817 1341 C 840 1318 852 1292 852 1262 C 852 1228 840 1199 817 1174 C 793 1149 765 1137 731 1137 Z" unicode="ÿ" />
<glyph horiz-adv-x="586" d="M 68 0 L 68 14 C 86 14 101 16 115 18 C 129 20 143 24 158 29 C 177 35 191 46 200 62 C 208 78 213 98 213 121 L 213 768 C 211 789 205 810 196 830 C 186 850 174 865 158 877 C 145 885 126 891 102 895 C 77 899 55 902 37 903 L 37 915 L 391 938 L 399 930 L 399 131 C 399 108 403 88 413 71 C 422 53 436 41 455 33 C 469 25 485 20 501 18 C 517 16 533 14 551 14 L 551 0 L 68 0 Z" unicode="ı" />
<glyph horiz-adv-x="1288" d="M 90 0 L 90 14 C 108 14 134 17 167 22 C 200 27 224 33 240 39 C 264 47 281 60 290 78 C 298 95 303 115 303 139 L 303 629 L 115 561 L 100 600 L 303 674 L 303 1251 C 303 1273 298 1293 290 1311 C 282 1328 265 1342 240 1354 C 221 1362 196 1368 166 1374 C 135 1380 110 1383 92 1384 L 92 1399 L 733 1399 L 733 1384 C 714 1383 689 1381 658 1378 C 627 1374 602 1370 584 1364 C 558 1356 540 1342 532 1324 C 524 1305 520 1284 520 1262 L 520 748 L 805 852 L 821 813 L 520 702 L 520 211 C 520 127 535 75 565 55 C 595 35 661 25 764 25 C 835 25 900 26 958 29 C 1016 31 1058 46 1083 72 C 1113 103 1149 157 1191 235 C 1233 312 1259 366 1270 397 L 1288 397 L 1262 0 L 90 0 Z" unicode="Ł" />
<glyph horiz-adv-x="610" d="M 70 0 L 70 14 C 88 14 103 16 117 18 C 131 20 145 24 160 29 C 179 35 193 46 202 62 C 210 78 215 98 215 121 L 215 641 L 37 578 L 25 616 L 215 684 L 215 1358 C 213 1379 207 1400 198 1420 C 189 1440 176 1455 160 1466 C 147 1474 125 1481 93 1485 C 61 1489 36 1492 18 1493 L 18 1505 L 393 1528 L 401 1520 L 401 748 L 573 811 L 588 772 L 401 705 L 401 131 C 401 108 405 88 415 71 C 424 53 438 41 457 33 C 471 25 486 20 500 18 C 514 16 529 14 547 14 L 547 0 L 70 0 Z" unicode="ł" />
<glyph horiz-adv-x="2146" d="M 823 0 C 673 0 511 50 338 150 C 164 250 78 435 78 705 C 78 939 158 1113 320 1227 C 482 1341 661 1399 858 1399 L 1989 1399 L 1989 1081 L 1970 1081 C 1959 1125 1929 1183 1880 1253 C 1831 1323 1785 1362 1741 1368 C 1716 1370 1683 1372 1643 1374 C 1603 1375 1566 1376 1534 1376 L 1303 1376 L 1303 737 L 1507 737 C 1564 737 1604 744 1627 760 C 1649 776 1667 790 1679 803 C 1694 818 1709 849 1725 896 C 1741 942 1750 979 1753 1006 L 1772 1006 L 1772 434 L 1753 434 C 1751 464 1741 503 1724 553 C 1706 603 1691 634 1679 647 C 1666 661 1648 676 1625 691 C 1601 705 1562 713 1507 713 L 1303 713 L 1303 211 C 1303 127 1317 75 1347 55 C 1377 35 1443 25 1546 25 C 1617 25 1687 26 1755 29 C 1823 31 1869 46 1894 72 C 1924 103 1960 157 2002 233 C 2044 309 2070 362 2081 393 L 2099 393 L 2073 0 L 823 0 Z M 883 20 C 961 20 1011 31 1034 54 C 1056 76 1071 102 1077 131 C 1081 155 1084 253 1084 424 C 1084 595 1085 692 1085 715 C 1085 787 1085 885 1085 1011 C 1085 1136 1083 1211 1081 1237 C 1076 1283 1055 1318 1018 1341 C 981 1364 923 1376 844 1376 C 667 1376 536 1313 452 1188 C 368 1062 326 902 326 707 C 326 513 376 350 476 218 C 576 86 711 20 883 20 Z" unicode="Œ" />
<glyph horiz-adv-x="1669" d="M 526 -29 C 404 -29 296 14 203 102 C 109 190 63 309 63 459 C 63 603 107 722 195 814 C 283 906 398 952 541 952 C 618 952 687 937 749 909 C 811 880 862 841 903 791 C 939 839 985 877 1041 907 C 1096 937 1159 952 1231 952 C 1370 952 1469 913 1527 836 C 1585 758 1614 670 1614 571 L 1614 553 L 1004 553 L 1004 518 C 1004 386 1025 274 1069 180 C 1112 86 1192 39 1309 39 C 1388 39 1450 55 1494 89 C 1538 123 1579 171 1618 233 L 1634 223 C 1598 151 1547 91 1481 45 C 1414 -1 1338 -25 1253 -25 C 1171 -25 1101 -10 1042 19 C 983 49 935 88 897 137 C 857 86 805 46 742 16 C 679 -14 607 -29 526 -29 Z M 539 -8 C 629 -8 696 38 738 132 C 780 225 801 338 801 471 C 801 588 782 694 744 789 C 706 884 637 932 539 932 C 433 932 361 882 325 783 C 288 684 270 581 270 475 C 270 343 290 230 332 135 C 374 39 443 -8 539 -8 Z M 1004 573 L 1415 578 C 1415 659 1403 738 1380 816 C 1356 893 1306 932 1229 932 C 1165 932 1112 898 1070 832 C 1028 765 1006 679 1004 573 Z" unicode="œ" />
<glyph horiz-adv-x="1120" d="M 582 -27 C 492 -27 412 -14 344 11 C 275 36 225 61 195 86 L 123 -20 L 104 -20 L 90 459 L 109 459 C 159 325 220 215 293 129 C 365 43 463 0 586 0 C 686 0 759 29 803 89 C 847 148 870 216 870 293 C 870 355 851 409 813 455 C 775 501 726 536 666 561 C 608 584 558 604 518 620 C 478 636 429 656 373 682 C 294 716 234 763 193 822 C 151 880 131 955 131 1047 C 131 1155 170 1245 248 1317 C 326 1389 424 1425 541 1425 C 613 1425 679 1413 741 1391 C 802 1369 851 1344 887 1317 L 958 1419 L 975 1419 L 985 954 L 967 954 C 932 1078 880 1183 810 1269 C 740 1355 647 1399 532 1399 C 476 1399 422 1378 370 1336 C 318 1294 293 1234 293 1155 C 293 1093 309 1042 343 1002 C 376 962 421 927 477 897 C 527 869 574 848 619 832 C 664 816 710 798 756 778 C 846 738 916 690 967 636 C 1018 581 1044 502 1044 399 C 1044 275 999 173 911 93 C 823 13 713 -27 582 -27 Z M 557 1513 C 527 1513 509 1515 501 1520 C 493 1525 484 1536 473 1554 C 447 1590 415 1639 376 1699 C 337 1759 291 1828 237 1908 L 252 1920 L 561 1658 L 866 1920 L 881 1908 C 827 1829 780 1760 742 1702 C 703 1644 671 1596 647 1558 C 633 1538 622 1526 614 1521 C 605 1515 586 1513 557 1513 Z" unicode="Š" />
<glyph horiz-adv-x="821" d="M 408 -29 C 349 -29 294 -19 242 -1 C 190 17 153 37 131 59 L 96 -10 L 76 -10 L 66 307 L 82 307 C 112 225 159 152 223 88 C 287 24 352 -8 418 -8 C 483 -8 533 10 569 47 C 605 83 623 129 623 184 C 623 237 605 278 569 307 C 533 336 467 365 371 393 C 283 418 215 454 166 502 C 116 550 92 610 92 684 C 92 759 119 822 174 874 C 229 926 304 952 399 952 C 453 952 500 947 540 937 C 580 927 613 914 639 897 L 674 954 L 692 954 L 707 672 L 690 672 C 660 749 619 812 567 860 C 515 908 459 932 399 932 C 343 932 300 915 269 881 C 238 847 223 807 223 762 C 223 704 244 662 286 638 C 328 613 391 588 473 563 C 574 531 646 491 688 442 C 730 393 752 334 752 264 C 752 174 718 103 652 50 C 585 -2 504 -29 408 -29 Z M 410 1104 C 380 1104 362 1106 354 1111 C 346 1116 337 1127 326 1145 C 300 1181 268 1230 229 1290 C 190 1350 144 1419 90 1499 L 105 1511 L 414 1249 L 719 1511 L 734 1499 C 680 1420 633 1351 595 1293 C 556 1235 524 1187 500 1149 C 486 1129 475 1117 467 1112 C 458 1106 439 1104 410 1104 Z" unicode="š" />
<glyph horiz-adv-x="1300" d="M 303 0 L 303 14 C 321 14 351 17 391 23 C 431 29 457 34 471 39 C 495 47 512 61 521 79 C 530 97 535 118 535 141 L 535 528 C 535 548 529 571 519 597 C 509 623 496 651 481 682 C 434 773 385 865 333 959 C 281 1052 234 1136 190 1210 C 173 1240 155 1268 135 1293 C 115 1317 92 1337 68 1352 C 49 1362 27 1369 1 1375 C -24 1380 -46 1383 -66 1384 L -66 1399 L 594 1399 L 594 1384 C 558 1382 514 1375 463 1365 C 412 1355 387 1337 387 1313 C 387 1305 396 1283 414 1247 C 432 1210 456 1164 487 1108 C 521 1046 560 974 605 892 C 650 810 697 727 745 643 C 795 725 843 806 890 885 C 937 964 977 1034 1010 1094 C 1036 1142 1057 1183 1073 1217 C 1088 1251 1096 1274 1096 1286 C 1096 1320 1068 1344 1012 1358 C 956 1372 904 1381 858 1384 L 858 1399 L 1352 1399 L 1352 1384 C 1339 1383 1323 1380 1304 1374 C 1285 1368 1270 1362 1260 1356 C 1233 1340 1212 1326 1197 1313 C 1181 1299 1164 1279 1145 1251 C 1099 1185 1045 1099 985 993 C 925 887 866 784 809 684 C 783 638 767 600 761 572 C 755 544 752 505 752 455 L 752 145 C 752 121 756 101 766 84 C 775 66 791 53 815 43 C 827 38 854 32 894 25 C 934 18 964 14 983 14 L 983 0 L 303 0 Z M 465 1564 C 433 1564 405 1575 382 1598 C 359 1621 348 1649 348 1681 C 348 1713 359 1742 382 1766 C 405 1790 433 1802 465 1802 C 500 1802 529 1790 553 1768 C 576 1745 588 1719 588 1689 C 588 1655 576 1626 552 1601 C 528 1576 499 1564 465 1564 Z M 911 1564 C 878 1564 850 1575 827 1598 C 803 1621 792 1649 792 1681 C 792 1713 803 1742 827 1766 C 850 1790 878 1802 911 1802 C 945 1802 974 1790 997 1768 C 1020 1745 1032 1719 1032 1689 C 1032 1655 1020 1626 997 1601 C 973 1576 945 1564 911 1564 Z" unicode="Ÿ" />
<glyph horiz-adv-x="1282" d="M 8 0 L 8 25 L 991 1374 L 571 1374 C 537 1374 506 1373 478 1372 C 450 1370 426 1368 406 1364 C 350 1352 292 1305 232 1223 C 172 1141 131 1074 111 1022 L 92 1022 L 135 1399 L 1239 1399 L 1239 1374 L 256 25 L 721 25 C 782 25 842 28 901 36 C 960 43 1000 57 1022 78 C 1066 118 1110 174 1154 246 C 1198 318 1229 376 1247 420 L 1266 420 L 1219 0 L 8 0 Z M 669 1513 C 639 1513 621 1515 613 1520 C 605 1525 596 1536 585 1554 C 559 1590 527 1639 488 1699 C 449 1759 403 1828 349 1908 L 364 1920 L 673 1658 L 978 1920 L 993 1908 C 939 1829 892 1760 854 1702 C 815 1644 783 1596 759 1558 C 745 1538 734 1526 726 1521 C 717 1515 698 1513 669 1513 Z" unicode="Ž" />
<glyph horiz-adv-x="895" d="M 49 0 L 49 18 L 631 903 L 461 903 C 414 903 371 901 333 899 C 295 897 268 893 254 887 C 233 878 207 847 176 795 C 145 743 120 697 102 659 L 86 659 L 86 926 L 838 926 L 838 907 L 260 23 C 294 21 326 20 357 20 C 388 20 417 20 444 20 C 470 20 499 20 530 22 C 560 23 594 25 631 27 C 658 27 681 41 701 68 C 720 94 735 117 745 137 C 758 163 772 191 788 221 C 803 251 817 280 829 309 L 846 309 L 846 0 L 49 0 Z M 447 1104 C 417 1104 399 1106 391 1111 C 383 1116 374 1127 363 1145 C 337 1181 305 1230 266 1290 C 227 1350 181 1419 127 1499 L 142 1511 L 451 1249 L 756 1511 L 771 1499 C 717 1420 670 1351 632 1293 C 593 1235 561 1187 537 1149 C 523 1129 512 1117 504 1112 C 495 1106 476 1104 447 1104 Z" unicode="ž" />
<glyph horiz-adv-x="1049" d="M -76 -395 C -148 -395 -203 -380 -241 -350 C -279 -320 -299 -280 -299 -231 C -299 -200 -289 -173 -271 -151 C -252 -128 -227 -117 -197 -117 C -168 -117 -142 -127 -119 -148 C -95 -169 -84 -200 -84 -240 C -84 -261 -90 -283 -103 -306 C -116 -329 -129 -346 -141 -356 C -136 -363 -125 -368 -109 -372 C -93 -375 -80 -377 -72 -377 C 0 -377 61 -338 109 -261 C 157 -184 197 -70 229 80 C 255 205 275 311 288 399 C 301 487 315 573 330 659 L 113 659 L 119 690 L 334 690 C 352 800 378 891 411 965 C 443 1039 489 1104 547 1161 C 589 1203 637 1233 689 1251 C 741 1269 792 1278 842 1278 C 901 1278 955 1261 1003 1227 C 1051 1193 1075 1152 1075 1104 C 1075 1077 1066 1051 1050 1027 C 1033 1003 1008 991 975 991 C 946 991 920 1000 897 1018 C 873 1036 862 1063 862 1100 C 862 1118 866 1140 875 1164 C 884 1188 894 1211 905 1233 C 900 1241 891 1247 877 1252 C 863 1257 850 1260 838 1260 C 778 1260 722 1221 671 1145 C 619 1068 581 957 557 811 L 537 690 L 791 690 L 784 659 L 530 659 C 511 545 495 448 483 369 C 470 289 455 212 438 137 C 420 59 394 -15 360 -87 C 325 -159 278 -221 219 -272 C 168 -314 120 -345 74 -365 C 28 -385 -22 -395 -76 -395 Z" unicode="ƒ" />
<glyph horiz-adv-x="379" d="M 205 975 C 147 975 106 993 82 1031 C 57 1069 45 1118 45 1180 C 45 1245 68 1305 114 1359 C 160 1413 225 1462 309 1507 L 322 1487 C 262 1453 215 1412 179 1364 C 143 1316 125 1265 125 1210 L 190 1210 C 240 1210 274 1197 294 1172 C 314 1146 324 1119 324 1090 C 324 1062 313 1035 292 1011 C 270 987 241 975 205 975 Z" unicode="ʻ" />
<glyph horiz-adv-x="1024" d="M 205 1094 L 190 1106 C 244 1184 290 1253 329 1311 C 367 1369 399 1418 424 1456 C 437 1475 448 1487 457 1493 C 465 1498 484 1501 514 1501 C 543 1501 561 1498 569 1493 C 577 1488 586 1477 598 1460 C 623 1423 655 1375 694 1315 C 733 1255 780 1185 834 1106 L 819 1094 L 510 1356 L 205 1094 Z" unicode="ˆ" />
<glyph horiz-adv-x="1024" d="M 510 1104 C 480 1104 462 1106 454 1111 C 446 1116 437 1127 426 1145 C 400 1181 368 1230 329 1290 C 290 1350 244 1419 190 1499 L 205 1511 L 514 1249 L 819 1511 L 834 1499 C 780 1420 733 1351 695 1293 C 656 1235 624 1187 600 1149 C 586 1129 575 1117 567 1112 C 558 1106 539 1104 510 1104 Z" unicode="ˇ" />
<glyph horiz-adv-x="1024" d="M 174 1221 L 174 1348 L 850 1348 L 850 1221 L 174 1221 Z" unicode="ˉ" />
<glyph horiz-adv-x="1024" d="M 512 1104 C 456 1104 399 1130 341 1184 C 282 1237 234 1334 197 1475 L 219 1483 C 251 1415 292 1360 343 1320 C 393 1280 450 1260 512 1260 C 574 1260 630 1280 682 1320 C 733 1360 775 1415 807 1483 L 827 1475 C 789 1334 741 1237 683 1184 C 624 1130 567 1104 512 1104 Z" unicode="˘" />
<glyph horiz-adv-x="1024" d="M 512 1225 C 479 1225 451 1236 428 1259 C 404 1282 393 1309 393 1341 C 393 1373 404 1402 428 1426 C 451 1450 479 1462 512 1462 C 546 1462 575 1450 598 1428 C 621 1405 633 1379 633 1350 C 633 1316 621 1286 598 1262 C 574 1237 546 1225 512 1225 Z" unicode="˙" />
<glyph horiz-adv-x="1024" d="M 512 1087 C 442 1087 386 1105 345 1142 C 303 1179 283 1228 283 1288 C 283 1347 305 1395 350 1433 C 394 1470 448 1489 512 1489 C 578 1489 632 1470 676 1433 C 719 1396 741 1348 741 1288 C 741 1230 720 1182 678 1144 C 636 1106 581 1087 512 1087 Z M 512 1106 C 556 1106 587 1124 606 1162 C 625 1200 635 1242 635 1288 C 635 1332 625 1373 606 1412 C 587 1450 556 1470 512 1470 C 469 1470 438 1451 418 1414 C 398 1376 389 1334 389 1288 C 389 1243 398 1201 417 1163 C 436 1125 468 1106 512 1106 Z" unicode="˚" />
<glyph horiz-adv-x="1024" d="M 694 -463 C 570 -462 474 -449 405 -425 C 335 -400 301 -356 301 -293 C 301 -235 330 -183 388 -137 C 446 -90 516 -44 600 0 L 618 0 C 557 -48 516 -96 495 -145 C 473 -194 463 -239 463 -279 C 463 -323 477 -359 507 -389 C 536 -419 598 -437 694 -444 L 694 -463 Z" unicode="˛" />
<glyph horiz-adv-x="1024" d="M 131 1137 L 113 1145 C 127 1193 158 1247 206 1309 C 254 1370 308 1401 369 1401 C 431 1401 493 1381 557 1341 C 620 1301 669 1282 705 1282 C 751 1282 788 1294 817 1318 C 845 1342 870 1376 891 1419 L 909 1413 C 890 1348 856 1289 807 1236 C 757 1183 704 1157 647 1157 C 583 1157 520 1176 458 1214 C 396 1252 345 1272 307 1272 C 268 1272 236 1261 210 1239 C 184 1217 157 1183 131 1137 Z" unicode="˜" />
<glyph horiz-adv-x="1024" d="M 139 1094 L 127 1106 C 175 1187 212 1252 238 1300 C 264 1348 288 1392 311 1430 C 330 1463 348 1486 366 1499 C 384 1511 404 1518 428 1518 C 448 1518 465 1509 478 1493 C 491 1477 498 1459 498 1440 C 498 1414 491 1394 478 1379 C 465 1363 447 1346 424 1327 C 395 1302 360 1273 318 1241 C 276 1208 216 1159 139 1094 Z M 510 1094 L 498 1106 C 546 1188 583 1253 609 1301 C 635 1349 659 1392 682 1430 C 701 1463 719 1486 737 1499 C 755 1511 775 1518 799 1518 C 819 1518 836 1509 849 1493 C 861 1477 868 1459 868 1440 C 868 1414 861 1394 849 1379 C 836 1363 818 1346 795 1327 C 766 1302 731 1273 689 1241 C 647 1208 587 1159 510 1094 Z" unicode="˝" />
<glyph horiz-adv-x="1169" d="M 203 -463 C 180 -463 160 -453 143 -434 C 125 -415 117 -390 117 -360 C 117 -309 123 -259 136 -210 C 149 -161 158 -120 162 -88 C 166 -55 168 -20 170 18 C 171 56 172 93 172 129 L 172 932 L 358 932 L 358 279 C 358 210 377 156 415 117 C 453 78 497 59 549 59 C 617 59 667 73 701 102 C 734 130 757 155 770 176 L 770 932 L 956 932 L 956 190 C 956 164 964 140 982 118 C 999 95 1025 84 1059 84 C 1095 84 1122 101 1139 135 C 1156 169 1166 205 1169 244 L 1186 244 C 1180 148 1160 80 1126 41 C 1092 1 1042 -18 977 -18 C 923 -18 880 -4 848 23 C 815 50 790 89 774 139 L 768 139 C 729 91 686 52 638 23 C 590 -5 535 -20 473 -20 C 415 -20 363 -7 318 18 C 273 43 235 79 205 125 L 201 125 L 201 -6 C 201 -70 215 -131 245 -189 C 274 -247 289 -302 289 -354 C 289 -390 280 -417 262 -435 C 244 -453 224 -463 203 -463 Z" unicode="μ" />
<glyph horiz-adv-x="764" d="M 61 449 L 61 590 L 702 590 L 702 449 L 61 449 Z" unicode="‐" />
<glyph horiz-adv-x="1114" d="M 102 461 L 102 582 L 1012 582 L 1012 461 L 102 461 Z" unicode="–" />
<glyph horiz-adv-x="1810" d="M 102 461 L 102 582 L 1708 582 L 1708 461 L 102 461 Z" unicode="—" />
<glyph horiz-adv-x="379" d="M 205 975 C 147 975 106 993 82 1031 C 57 1069 45 1118 45 1180 C 45 1245 68 1305 114 1359 C 160 1413 225 1462 309 1507 L 322 1487 C 262 1453 215 1412 179 1364 C 143 1316 125 1265 125 1210 L 190 1210 C 240 1210 274 1197 294 1172 C 314 1146 324 1119 324 1090 C 324 1062 313 1035 292 1011 C 270 987 241 975 205 975 Z" unicode="‘" />
<glyph horiz-adv-x="379" d="M 92 977 L 80 997 C 139 1031 186 1071 222 1119 C 258 1167 276 1218 276 1274 L 211 1274 C 161 1274 126 1286 107 1312 C 87 1337 78 1365 78 1395 C 78 1422 88 1448 110 1472 C 131 1496 160 1509 197 1509 C 253 1509 294 1490 319 1452 C 343 1414 356 1365 356 1305 C 356 1239 333 1179 287 1125 C 241 1071 176 1021 92 977 Z" unicode="’" />
<glyph horiz-adv-x="379" d="M 49 -297 L 43 -285 C 95 -257 141 -216 183 -163 C 224 -109 247 -54 252 4 L 182 4 C 134 4 99 17 79 44 C 59 70 49 98 49 127 C 49 153 59 179 81 205 C 103 231 130 244 162 244 C 223 244 265 225 289 188 C 312 150 324 102 324 43 C 324 -20 298 -83 247 -145 C 195 -207 129 -258 49 -297 Z" unicode="‚" />
<glyph horiz-adv-x="723" d="M 205 975 C 147 975 106 993 82 1031 C 57 1069 45 1118 45 1180 C 45 1245 68 1305 114 1359 C 160 1413 225 1462 309 1507 L 322 1487 C 262 1453 215 1412 179 1364 C 143 1316 125 1265 125 1210 L 190 1210 C 240 1210 274 1197 294 1172 C 314 1146 324 1119 324 1090 C 324 1062 313 1035 292 1011 C 270 987 241 975 205 975 Z M 549 975 C 491 975 450 993 426 1031 C 401 1069 389 1118 389 1180 C 389 1245 412 1305 458 1359 C 504 1413 569 1462 653 1507 L 666 1487 C 606 1453 559 1412 523 1364 C 487 1316 469 1265 469 1210 L 535 1210 C 585 1210 619 1197 639 1172 C 658 1146 668 1119 668 1090 C 668 1062 657 1035 636 1011 C 614 987 585 975 549 975 Z" unicode="“" />
<glyph horiz-adv-x="723" d="M 92 977 L 80 997 C 139 1031 186 1071 222 1119 C 258 1167 276 1218 276 1274 L 211 1274 C 161 1274 126 1286 107 1312 C 87 1337 78 1365 78 1395 C 78 1422 88 1448 110 1472 C 131 1496 160 1509 197 1509 C 253 1509 294 1490 319 1452 C 343 1414 356 1365 356 1305 C 356 1239 333 1179 287 1125 C 241 1071 176 1021 92 977 Z M 436 977 L 424 997 C 483 1031 531 1071 567 1119 C 603 1167 621 1218 621 1274 L 555 1274 C 505 1274 470 1286 451 1312 C 431 1337 422 1365 422 1395 C 422 1422 432 1448 454 1472 C 475 1496 504 1509 541 1509 C 597 1509 638 1490 663 1452 C 687 1414 700 1365 700 1305 C 700 1239 677 1179 631 1125 C 585 1071 520 1021 436 977 Z" unicode="”" />
<glyph horiz-adv-x="752" d="M 49 -297 L 43 -285 C 95 -257 141 -216 183 -163 C 224 -109 247 -54 252 4 L 182 4 C 134 4 99 17 79 44 C 59 70 49 98 49 127 C 49 153 59 179 81 205 C 103 231 130 244 162 244 C 223 244 265 225 289 188 C 312 150 324 102 324 43 C 324 -20 298 -83 247 -145 C 195 -207 129 -258 49 -297 Z M 422 -297 L 416 -285 C 468 -257 514 -216 555 -163 C 596 -109 619 -54 625 4 L 555 4 C 507 4 472 17 452 44 C 432 70 422 98 422 127 C 422 153 432 179 454 205 C 476 231 503 244 535 244 C 595 244 637 225 661 188 C 684 150 696 102 696 43 C 696 -20 670 -83 619 -145 C 568 -207 502 -258 422 -297 Z" unicode="„" />
<glyph horiz-adv-x="846" d="M 416 203 C 412 317 404 451 392 603 C 380 755 370 887 362 999 C 361 1019 358 1035 352 1047 C 346 1059 338 1065 326 1065 C 316 1065 307 1060 298 1051 C 288 1042 278 1032 268 1020 C 255 1004 240 989 224 974 C 207 959 189 952 170 952 C 142 952 120 960 103 976 C 86 992 78 1014 78 1042 C 78 1059 83 1074 93 1087 C 103 1099 118 1106 137 1106 C 153 1106 167 1099 179 1086 C 190 1073 198 1055 203 1032 C 217 1034 236 1043 260 1059 C 283 1075 305 1083 326 1083 C 340 1083 356 1080 372 1075 C 388 1069 401 1061 412 1051 C 407 1099 395 1151 376 1207 C 357 1263 348 1308 348 1341 C 348 1363 353 1384 365 1403 C 376 1422 395 1432 422 1432 C 447 1432 465 1422 477 1403 C 488 1384 494 1363 494 1341 C 494 1308 484 1263 464 1207 C 444 1151 432 1099 428 1051 C 440 1061 454 1068 470 1074 C 485 1080 500 1083 516 1083 C 536 1083 558 1075 581 1059 C 604 1043 623 1034 639 1032 C 643 1055 653 1073 667 1086 C 681 1099 697 1106 715 1106 C 733 1106 747 1099 755 1087 C 763 1074 768 1059 768 1042 C 768 1014 758 992 740 976 C 722 960 699 952 672 952 C 652 952 635 959 619 974 C 603 989 588 1004 575 1020 C 565 1030 555 1040 545 1050 C 535 1060 525 1065 516 1065 C 504 1065 495 1060 490 1050 C 484 1040 481 1023 481 999 C 472 888 462 755 450 601 C 438 446 430 313 428 203 L 416 203 Z" unicode="†" />
<glyph horiz-adv-x="846" d="M 424 10 C 399 10 381 19 369 37 C 357 55 352 74 352 96 C 352 128 361 162 380 197 C 399 232 411 262 416 287 C 404 276 389 268 371 262 C 353 256 336 254 322 254 C 298 254 278 256 262 262 C 246 267 232 271 219 274 C 215 253 206 237 193 225 C 179 213 164 207 147 207 C 129 207 115 213 107 227 C 98 241 94 255 94 270 C 94 289 99 305 111 319 C 123 333 140 340 164 340 C 196 340 223 328 244 306 C 265 283 292 272 324 272 C 338 272 348 279 354 294 C 360 308 366 326 371 348 C 375 369 382 419 394 499 C 406 578 413 641 416 688 L 428 688 C 432 641 440 578 452 499 C 464 419 472 369 475 348 C 479 326 484 308 491 294 C 497 279 508 272 522 272 C 554 272 579 283 598 306 C 617 328 643 340 676 340 C 700 340 719 333 732 319 C 745 305 752 289 752 270 C 752 255 746 241 736 227 C 725 213 710 207 692 207 C 674 207 660 213 649 225 C 637 237 629 253 625 274 C 612 271 598 267 582 262 C 566 256 547 254 526 254 C 511 254 494 257 476 263 C 458 269 442 277 430 287 C 434 260 446 230 465 196 C 484 162 494 128 494 96 C 494 74 488 55 476 37 C 464 19 447 10 424 10 Z M 416 752 C 413 798 405 861 392 941 C 379 1020 371 1070 369 1092 C 364 1113 358 1131 352 1145 C 346 1159 336 1167 322 1167 C 290 1167 264 1155 245 1133 C 226 1111 200 1100 168 1100 C 143 1100 124 1106 111 1120 C 98 1133 92 1149 92 1169 C 92 1184 97 1198 108 1212 C 118 1226 133 1233 152 1233 C 168 1233 182 1226 194 1214 C 206 1202 214 1185 219 1165 C 232 1167 247 1171 263 1177 C 279 1183 297 1186 319 1186 C 334 1186 350 1182 368 1176 C 386 1169 401 1161 414 1153 C 408 1179 396 1209 378 1243 C 359 1277 350 1310 350 1343 C 350 1364 355 1384 367 1402 C 379 1420 397 1430 422 1430 C 445 1430 462 1420 474 1402 C 486 1384 492 1364 492 1343 C 492 1310 482 1276 463 1242 C 444 1207 432 1177 428 1153 C 439 1163 454 1171 473 1177 C 492 1183 509 1186 524 1186 C 547 1186 566 1183 582 1177 C 598 1171 612 1167 625 1165 C 629 1185 638 1202 651 1214 C 664 1226 680 1233 698 1233 C 716 1233 730 1226 738 1212 C 746 1198 750 1184 750 1169 C 750 1149 744 1133 732 1120 C 720 1106 703 1100 680 1100 C 647 1100 620 1111 599 1133 C 578 1155 552 1167 520 1167 C 507 1167 497 1159 490 1145 C 482 1131 477 1113 473 1092 C 470 1070 462 1020 450 941 C 438 861 430 798 428 752 L 416 752 Z" unicode="‡" />
<glyph horiz-adv-x="844" d="M 422 391 C 346 391 281 418 226 472 C 170 526 143 590 143 666 C 143 741 170 806 226 861 C 281 916 346 944 422 944 C 497 944 562 916 617 861 C 672 806 700 741 700 666 C 700 590 672 526 617 472 C 562 418 497 391 422 391 Z" unicode="•" />
<glyph horiz-adv-x="1683" d="M 281 -16 C 245 -16 214 -3 188 21 C 162 46 150 77 150 113 C 150 148 162 179 188 205 C 214 231 245 244 281 244 C 316 244 347 231 373 205 C 399 179 412 148 412 113 C 412 77 399 46 373 21 C 347 -3 316 -16 281 -16 Z M 842 -16 C 806 -16 775 -3 749 21 C 723 46 711 77 711 113 C 711 148 723 179 749 205 C 775 231 806 244 842 244 C 877 244 908 231 934 205 C 960 179 973 148 973 113 C 973 77 960 46 934 21 C 908 -3 877 -16 842 -16 Z M 1403 -16 C 1367 -16 1336 -3 1310 21 C 1284 46 1272 77 1272 113 C 1272 148 1284 179 1310 205 C 1336 231 1367 244 1403 244 C 1439 244 1469 231 1495 205 C 1521 179 1534 148 1534 113 C 1534 77 1521 46 1495 21 C 1469 -3 1439 -16 1403 -16 Z" unicode="…" />
<glyph horiz-adv-x="2515" d="M 449 618 C 365 618 291 644 225 698 C 159 752 127 831 127 936 C 127 1035 161 1115 230 1177 C 299 1239 372 1270 449 1270 C 532 1270 609 1244 679 1192 C 749 1140 784 1055 784 938 C 784 848 749 773 679 711 C 609 649 533 618 449 618 Z M 457 635 C 507 635 548 663 581 719 C 614 775 631 847 631 934 C 631 1026 616 1103 586 1163 C 556 1223 511 1253 453 1253 C 391 1253 347 1221 320 1159 C 292 1097 279 1025 279 944 C 279 861 292 789 320 727 C 347 665 393 635 457 635 Z M 1272 -29 C 1188 -29 1114 -2 1048 52 C 982 106 950 185 950 289 C 950 385 984 465 1054 528 C 1124 591 1196 623 1272 623 C 1355 623 1432 597 1502 545 C 1572 493 1608 409 1608 291 C 1608 200 1573 124 1503 63 C 1433 1 1356 -29 1272 -29 Z M 1282 -14 C 1328 -14 1369 15 1403 74 C 1437 132 1454 203 1454 287 C 1454 376 1439 451 1409 513 C 1379 575 1336 606 1278 606 C 1216 606 1171 574 1143 510 C 1115 446 1102 375 1102 297 C 1102 215 1116 143 1144 80 C 1172 17 1218 -14 1282 -14 Z M 2052 -29 C 1967 -29 1892 -2 1828 52 C 1763 106 1731 185 1731 289 C 1731 385 1765 465 1835 528 C 1904 591 1976 623 2052 623 C 2135 623 2212 597 2282 545 C 2352 493 2388 409 2388 291 C 2388 200 2353 124 2283 63 C 2213 1 2136 -29 2052 -29 Z M 2060 -14 C 2108 -14 2149 15 2183 74 C 2217 132 2234 203 2234 287 C 2234 376 2219 451 2189 513 C 2159 575 2115 606 2056 606 C 1994 606 1950 574 1923 510 C 1895 446 1882 375 1882 297 C 1882 215 1895 143 1923 80 C 1951 17 1996 -14 2060 -14 Z M 442 -197 L 410 -178 L 1286 1407 L 1323 1389 L 442 -197 Z" unicode="‰" />
<glyph horiz-adv-x="692" d="M 567 41 C 511 85 435 144 341 218 C 247 291 179 344 137 377 C 119 391 107 403 100 413 C 93 423 90 438 90 459 C 90 478 93 492 99 502 C 105 512 116 523 133 537 C 171 566 239 618 338 693 C 436 767 513 828 567 874 L 575 866 L 272 455 L 575 49 L 567 41 Z" unicode="‹" />
<glyph horiz-adv-x="692" d="M 125 41 L 117 49 L 420 455 L 117 866 L 125 874 C 177 828 253 767 353 693 C 452 618 521 566 559 537 C 575 523 587 512 593 502 C 599 492 602 478 602 459 C 602 438 598 423 591 413 C 584 403 572 391 555 377 C 512 344 444 291 350 218 C 256 144 181 85 125 41 Z" unicode="›" />
<glyph horiz-adv-x="662" d="M -211 -414 L -252 -391 L 788 1536 L 834 1513 L -211 -414 Z" unicode="⁄" />
<glyph horiz-adv-x="1169" d="M 705 -29 C 569 -29 456 15 368 105 C 280 195 227 324 211 494 L 59 494 L 59 520 L 209 520 C 208 550 208 581 208 611 C 208 641 209 669 211 696 L 59 696 L 59 723 L 215 723 C 234 873 291 1001 387 1109 C 482 1216 607 1270 762 1270 C 872 1270 958 1244 1020 1194 C 1081 1143 1112 1086 1112 1022 C 1112 972 1101 935 1081 912 C 1060 888 1037 877 1012 877 C 979 877 954 887 937 907 C 919 927 911 951 911 979 C 911 1011 920 1038 938 1058 C 956 1078 965 1104 965 1135 C 959 1168 937 1196 897 1218 C 857 1240 810 1251 756 1251 C 660 1251 583 1203 527 1107 C 471 1011 437 883 426 723 L 891 723 L 891 696 L 424 696 C 423 665 423 634 424 604 C 424 573 425 545 426 520 L 817 520 L 817 494 L 428 494 C 436 370 468 264 524 176 C 580 87 662 43 770 43 C 856 43 927 67 982 117 C 1037 166 1082 227 1116 301 L 1133 293 C 1093 204 1040 128 976 65 C 911 2 821 -29 705 -29 Z" unicode="€" />
<glyph horiz-adv-x="1335" d="M 600 887 L 600 897 C 606 897 617 899 635 902 C 653 904 666 909 676 915 C 684 921 690 933 694 950 C 698 966 700 988 700 1016 L 700 1309 C 700 1325 698 1337 694 1347 C 690 1356 684 1364 678 1370 C 667 1376 655 1380 641 1382 C 627 1384 615 1386 606 1386 L 606 1399 L 809 1399 L 954 1044 L 1067 1331 C 1071 1342 1074 1354 1077 1366 C 1080 1378 1082 1389 1083 1399 L 1290 1399 L 1290 1386 C 1284 1386 1273 1384 1259 1381 C 1244 1378 1233 1376 1227 1374 C 1219 1371 1214 1367 1211 1361 C 1207 1355 1206 1347 1206 1339 L 1206 946 C 1206 937 1207 930 1211 924 C 1214 918 1219 914 1227 911 C 1231 908 1242 905 1258 902 C 1274 899 1285 897 1292 897 L 1292 887 L 1016 887 L 1016 897 C 1022 897 1034 899 1054 901 C 1074 903 1086 906 1092 909 C 1098 913 1103 918 1107 924 C 1110 930 1112 937 1112 946 L 1112 1360 L 1100 1360 L 920 893 L 907 893 C 902 908 896 924 890 942 C 884 959 876 978 868 999 L 735 1350 L 723 1350 L 723 1022 C 723 993 725 971 730 955 C 734 939 740 928 748 922 C 754 915 768 909 788 905 C 808 900 821 897 827 897 L 827 887 L 600 887 Z M 166 887 L 166 897 C 172 897 184 898 200 900 C 216 902 227 904 233 907 C 241 909 248 913 252 919 C 256 925 258 932 258 940 L 258 1378 L 213 1378 C 205 1378 195 1377 184 1377 C 172 1377 162 1376 154 1376 C 137 1374 121 1355 105 1321 C 89 1287 80 1262 76 1247 L 66 1247 L 66 1399 L 543 1399 L 543 1247 L 532 1247 C 527 1262 517 1287 503 1321 C 488 1355 473 1374 457 1376 C 447 1376 438 1377 428 1377 C 418 1377 407 1378 397 1378 L 354 1378 L 354 944 C 354 936 356 928 360 922 C 364 916 369 911 377 909 L 442 897 L 442 887 L 166 887 Z" unicode="™" />
<glyph horiz-adv-x="1145" d="M 82 498 L 82 565 L 1063 565 L 1063 498 L 82 498 Z" unicode="−" />
<glyph horiz-adv-x="662" d="M -211 -414 L -252 -391 L 788 1536 L 834 1513 L -211 -414 Z" unicode="∕" />
<glyph horiz-adv-x="512" d="M 256 422 C 218 422 185 435 159 461 C 132 487 119 519 119 557 C 119 595 132 627 159 654 C 185 680 218 694 256 694 C 294 694 326 680 353 654 C 379 627 393 595 393 557 C 393 519 379 487 353 461 C 326 435 294 422 256 422 Z" unicode="∙" />
<glyph horiz-adv-x="1145" d="M 1018 147 L 113 580 L 113 633 L 1018 1065 L 1018 991 L 205 606 L 1018 221 L 1018 147 Z M 115 0 L 115 66 L 1030 66 L 1030 0 L 115 0 Z" unicode="≤" />
<glyph horiz-adv-x="1145" d="M 127 147 L 127 221 L 940 606 L 127 991 L 127 1065 L 1032 633 L 1032 580 L 127 147 Z M 115 0 L 115 66 L 1030 66 L 1030 0 L 115 0 Z" unicode="≥" />
<glyph horiz-adv-x="1257" d="M 770 -4 C 729 -4 693 10 662 40 C 631 69 616 106 616 150 C 616 181 622 210 634 238 C 646 265 653 300 653 342 L 653 365 L 639 375 C 632 374 625 373 618 373 C 611 373 604 373 598 373 C 576 373 556 376 537 383 C 517 389 499 398 483 410 L 457 408 C 442 386 432 365 426 344 C 420 322 416 302 414 283 C 406 239 390 199 366 165 C 342 130 304 113 254 113 C 213 113 176 128 144 158 C 112 188 96 225 96 270 C 96 314 112 350 145 380 C 177 409 218 424 266 424 C 283 424 305 424 332 426 C 359 427 388 435 418 451 L 424 479 C 418 492 413 506 409 522 C 405 537 403 552 403 567 C 403 576 403 585 405 593 C 406 601 408 610 410 618 L 399 645 C 390 647 381 649 371 650 C 361 650 352 651 344 651 C 315 651 291 648 272 644 C 253 639 233 637 213 637 C 168 637 130 652 100 683 C 70 714 55 751 55 793 C 55 835 70 871 100 903 C 130 934 167 950 211 950 C 247 950 277 941 299 924 C 321 906 337 886 348 864 C 359 840 369 813 377 783 C 385 752 401 724 426 698 L 457 700 C 475 719 497 734 521 745 C 545 756 571 762 598 762 L 621 776 C 621 830 609 872 586 902 C 562 932 551 968 551 1010 C 551 1054 566 1090 597 1118 C 628 1145 665 1159 707 1159 C 751 1159 788 1143 816 1112 C 844 1081 858 1045 858 1004 C 858 938 835 896 791 879 C 746 861 708 824 678 766 L 686 741 C 709 729 729 713 747 693 C 765 673 777 649 784 623 L 809 610 C 865 630 904 659 927 697 C 950 735 991 754 1051 754 C 1091 754 1126 738 1156 708 C 1185 677 1200 640 1200 596 C 1200 553 1185 517 1155 488 C 1125 458 1089 444 1047 444 C 999 444 961 458 934 488 C 906 518 865 537 809 547 L 791 530 C 786 505 777 482 763 461 C 749 440 731 422 711 408 L 709 387 C 725 365 742 349 761 337 C 779 325 798 315 817 307 C 847 293 874 273 896 247 C 918 221 930 190 930 152 C 930 111 914 75 883 43 C 851 11 814 -4 770 -4 Z M 598 426 C 638 426 670 439 696 467 C 722 495 735 529 735 569 C 735 607 722 640 696 668 C 670 695 638 709 598 709 C 559 709 526 695 500 668 C 474 640 461 607 461 569 C 461 529 474 495 500 467 C 526 439 559 426 598 426 Z" unicode="" />
<glyph horiz-adv-x="1251" d="M 68 0 L 68 14 C 86 14 101 16 115 18 C 129 20 143 24 158 29 C 177 35 191 46 200 62 C 208 78 213 98 213 121 L 213 893 L 4 893 L 4 926 L 213 926 L 213 979 C 213 1063 225 1138 250 1204 C 275 1270 312 1330 360 1384 C 390 1416 432 1446 488 1474 C 544 1502 602 1516 664 1516 C 744 1516 805 1502 847 1474 C 889 1446 917 1414 932 1380 C 970 1432 1019 1470 1079 1494 C 1139 1518 1197 1530 1253 1530 C 1329 1530 1385 1511 1419 1473 C 1453 1435 1470 1394 1470 1350 C 1470 1326 1459 1303 1439 1279 C 1419 1255 1391 1243 1356 1243 C 1328 1243 1301 1252 1277 1270 C 1253 1288 1241 1315 1241 1350 C 1241 1383 1244 1406 1252 1419 C 1260 1432 1264 1450 1264 1473 C 1259 1485 1251 1493 1239 1498 C 1227 1502 1215 1505 1204 1505 C 1140 1505 1091 1471 1058 1404 C 1025 1336 1006 1225 1001 1069 C 1001 1053 1000 1030 1000 999 C 999 967 999 943 999 926 L 1249 926 L 1249 893 L 999 893 L 999 125 C 999 102 1003 83 1013 67 C 1022 51 1036 39 1055 33 C 1069 26 1087 21 1108 19 C 1128 16 1148 14 1167 14 L 1167 0 L 678 0 L 678 14 C 696 14 711 16 721 18 C 731 20 743 24 758 29 C 777 35 791 46 800 62 C 808 78 813 98 813 121 L 813 893 L 399 893 L 399 125 C 399 102 403 83 413 67 C 422 51 436 39 455 33 C 469 26 484 21 498 19 C 512 16 528 14 547 14 L 547 0 L 68 0 Z M 399 926 L 813 926 L 813 985 C 813 1023 814 1060 818 1094 C 822 1128 828 1161 838 1194 C 806 1194 783 1203 769 1221 C 755 1239 748 1260 748 1284 C 748 1318 755 1345 771 1367 C 787 1388 796 1403 799 1411 C 797 1426 784 1443 762 1463 C 740 1483 702 1493 649 1493 C 589 1493 533 1460 479 1395 C 425 1329 399 1217 399 1057 L 399 926 Z" unicode="ﬀ" />
<glyph horiz-adv-x="1184" d="M 68 0 L 68 14 C 86 14 101 16 115 18 C 129 20 143 24 158 29 C 177 35 191 46 200 62 C 208 78 213 98 213 121 L 213 893 L 4 893 L 4 926 L 213 926 L 213 985 C 213 1069 226 1146 253 1215 C 279 1284 317 1345 367 1399 C 396 1430 437 1460 491 1488 C 545 1516 604 1530 668 1530 C 784 1530 867 1508 915 1465 C 963 1421 987 1371 987 1313 C 987 1289 977 1264 958 1237 C 939 1209 910 1196 870 1196 C 837 1196 810 1205 790 1225 C 770 1245 760 1271 760 1303 C 760 1336 766 1361 779 1379 C 791 1396 802 1411 811 1423 C 810 1438 799 1456 779 1477 C 758 1498 717 1509 655 1509 C 593 1509 534 1471 480 1395 C 426 1319 399 1203 399 1047 L 399 926 L 729 926 L 983 942 L 991 934 L 991 127 C 991 104 995 84 1005 68 C 1014 51 1028 39 1047 33 C 1061 26 1075 21 1089 19 C 1102 16 1118 14 1137 14 L 1137 0 L 666 0 L 666 14 C 684 14 698 16 710 18 C 722 20 735 24 750 29 C 768 35 782 46 791 62 C 800 78 805 98 805 121 L 805 791 C 803 811 800 829 796 846 C 792 862 785 878 776 893 L 399 893 L 399 131 C 399 108 403 89 413 73 C 422 57 436 45 455 39 C 469 33 485 27 503 22 C 520 17 538 14 557 14 L 557 0 L 68 0 Z" unicode="ﬁ" />
<glyph horiz-adv-x="1186" d="M 68 0 L 68 14 C 86 14 101 16 115 18 C 129 20 143 24 158 29 C 177 35 191 46 200 62 C 208 78 213 98 213 121 L 213 893 L 4 893 L 4 926 L 213 926 L 213 989 C 213 1073 226 1149 253 1217 C 279 1285 317 1345 367 1399 C 396 1430 437 1460 490 1488 C 543 1516 602 1530 666 1530 C 716 1530 758 1525 791 1515 C 823 1505 853 1495 879 1483 L 989 1528 L 997 1520 L 997 133 C 997 110 1001 91 1011 75 C 1020 59 1034 47 1053 39 C 1067 32 1081 26 1095 22 C 1108 17 1124 14 1143 14 L 1143 0 L 670 0 L 670 14 C 688 14 704 16 716 18 C 728 20 741 24 756 29 C 775 35 789 46 799 62 C 808 78 813 98 813 121 L 813 1214 C 798 1218 783 1228 767 1243 C 751 1258 743 1280 743 1309 C 743 1341 752 1366 770 1383 C 788 1399 799 1410 801 1415 C 799 1430 789 1449 772 1472 C 754 1495 715 1507 653 1507 C 591 1507 533 1469 479 1394 C 425 1319 399 1203 399 1047 L 399 926 L 657 926 L 657 893 L 399 893 L 399 131 C 399 108 403 89 413 73 C 422 57 436 45 455 39 C 469 33 485 27 503 22 C 520 17 538 14 557 14 L 557 0 L 68 0 Z" unicode="ﬂ" />
<glyph horiz-adv-x="1784" d="M 68 0 L 68 14 C 86 14 101 16 115 18 C 129 20 143 24 158 29 C 177 35 191 46 200 62 C 208 78 213 98 213 121 L 213 893 L 4 893 L 4 926 L 213 926 L 213 979 C 213 1063 225 1138 250 1204 C 275 1270 312 1330 360 1384 C 390 1416 432 1446 488 1474 C 544 1502 602 1516 664 1516 C 744 1516 806 1499 850 1466 C 894 1432 923 1398 938 1364 C 968 1406 1013 1445 1073 1479 C 1132 1513 1197 1530 1268 1530 C 1384 1530 1467 1508 1515 1465 C 1563 1421 1587 1371 1587 1313 C 1587 1289 1577 1264 1558 1237 C 1539 1209 1510 1196 1470 1196 C 1437 1196 1410 1205 1390 1225 C 1370 1245 1360 1271 1360 1303 C 1360 1336 1366 1361 1379 1379 C 1391 1396 1402 1411 1411 1423 C 1410 1438 1399 1456 1379 1477 C 1358 1498 1317 1509 1255 1509 C 1193 1509 1134 1471 1080 1395 C 1026 1319 999 1203 999 1047 L 999 926 L 1329 926 L 1583 942 L 1591 934 L 1591 127 C 1591 104 1595 84 1605 68 C 1614 51 1628 39 1647 33 C 1661 26 1675 21 1689 19 C 1702 16 1718 14 1737 14 L 1737 0 L 1266 0 L 1266 14 C 1284 14 1299 16 1311 18 C 1322 20 1335 24 1350 29 C 1369 35 1383 46 1392 62 C 1400 78 1405 98 1405 121 L 1405 791 C 1403 811 1400 829 1396 846 C 1392 862 1385 878 1376 893 L 999 893 L 999 125 C 999 102 1003 83 1013 67 C 1022 51 1036 39 1055 33 C 1069 26 1087 21 1108 19 C 1128 16 1148 14 1167 14 L 1167 0 L 678 0 L 678 14 C 696 14 711 16 721 18 C 731 20 743 24 758 29 C 777 35 791 46 800 62 C 808 78 813 98 813 121 L 813 893 L 399 893 L 399 125 C 399 102 403 83 413 67 C 422 51 436 39 455 33 C 469 26 484 21 498 19 C 512 16 528 14 547 14 L 547 0 L 68 0 Z M 399 926 L 813 926 L 813 981 C 813 1019 815 1056 821 1092 C 827 1127 834 1161 844 1194 C 812 1194 788 1203 772 1221 C 756 1239 748 1260 748 1284 C 748 1318 755 1345 771 1367 C 787 1388 796 1403 799 1411 C 797 1426 784 1443 762 1463 C 740 1483 702 1493 649 1493 C 589 1493 533 1460 479 1395 C 425 1329 399 1217 399 1057 L 399 926 Z" unicode="ﬃ" />
<glyph horiz-adv-x="1786" d="M 68 0 L 68 14 C 86 14 101 16 115 18 C 129 20 143 24 158 29 C 177 35 191 46 200 62 C 208 78 213 98 213 121 L 213 893 L 4 893 L 4 926 L 213 926 L 213 979 C 213 1063 225 1138 250 1204 C 275 1270 312 1330 360 1384 C 390 1416 432 1446 488 1474 C 544 1502 602 1516 664 1516 C 744 1516 805 1501 849 1472 C 892 1442 921 1406 936 1362 C 974 1414 1024 1455 1087 1485 C 1150 1515 1210 1530 1266 1530 C 1316 1530 1358 1525 1391 1515 C 1423 1505 1453 1495 1479 1483 L 1589 1528 L 1597 1520 L 1597 133 C 1597 110 1601 91 1611 75 C 1620 59 1634 47 1653 39 C 1667 32 1681 26 1695 22 C 1708 17 1724 14 1743 14 L 1743 0 L 1270 0 L 1270 14 C 1288 14 1304 16 1316 18 C 1328 20 1341 24 1356 29 C 1375 35 1389 46 1399 62 C 1408 78 1413 98 1413 121 L 1413 1214 C 1398 1218 1383 1228 1367 1243 C 1351 1258 1343 1280 1343 1309 C 1343 1341 1352 1366 1370 1383 C 1388 1399 1399 1410 1401 1415 C 1399 1430 1389 1449 1372 1472 C 1354 1495 1315 1507 1253 1507 C 1191 1507 1133 1469 1079 1394 C 1025 1319 999 1203 999 1047 L 999 926 L 1257 926 L 1257 893 L 999 893 L 999 125 C 999 102 1003 83 1013 67 C 1022 51 1036 39 1055 33 C 1069 26 1085 21 1102 19 C 1118 16 1136 14 1155 14 L 1155 0 L 678 0 L 678 14 C 696 14 711 16 721 18 C 731 20 743 24 758 29 C 777 35 791 46 800 62 C 808 78 813 98 813 121 L 813 893 L 399 893 L 399 125 C 399 102 403 83 413 67 C 422 51 436 39 455 33 C 469 26 484 21 498 19 C 512 16 528 14 547 14 L 547 0 L 68 0 Z M 399 926 L 813 926 L 813 985 C 813 1023 815 1061 821 1097 C 827 1133 834 1164 844 1192 C 812 1192 788 1201 772 1220 C 756 1239 748 1260 748 1284 C 748 1318 755 1345 771 1367 C 787 1388 796 1403 799 1411 C 797 1426 784 1443 762 1463 C 740 1483 702 1493 649 1493 C 589 1493 533 1460 479 1395 C 425 1329 399 1217 399 1057 L 399 926 Z" unicode="ﬄ" />
<glyph horiz-adv-x="0" d="" unicode="﻿" />
</font>
</defs>
</svg>
