<?xml version="1.0" encoding="utf-8" ?><svg version="1.1" xmlns = 'http://www.w3.org/2000/svg'><defs><font id='web' horiz-adv-x="1000">
<font-face font-family="web" descent="-438" cap-height="1530" units-per-em="2048" bbox="-600,-440,2963,2107" x-height="1090" ascent="1552" />
<missing-glyph horiz-adv-x="1024" d="M 129 0 L 129 1499 L 897 1499 L 897 0 L 129 0 Z M 256 129 L 768 129 L 768 1372 L 256 1372 L 256 129 Z" /><glyph horiz-adv-x="600" d="" unicode=" " />
<glyph horiz-adv-x="748" d="M 725 1530 L 469 545 L 281 545 L 418 1530 L 725 1530 Z M 483 330 L 418 0 L 119 0 L 184 330 L 483 330 Z" unicode="!" />
<glyph horiz-adv-x="1001" d="M 459 997 L 260 997 L 260 1272 L 315 1561 L 614 1561 L 559 1272 L 459 997 Z M 930 997 L 731 997 L 731 1272 L 786 1561 L 1085 1561 L 1030 1272 L 930 997 Z" unicode="&#x22;" />
<glyph horiz-adv-x="1364" d="M 1368 874 L 1147 874 L 1022 565 L 1255 565 L 1255 383 L 950 383 L 797 0 L 602 0 L 756 383 L 412 383 L 258 0 L 63 0 L 217 383 L 61 383 L 61 565 L 291 565 L 416 874 L 158 874 L 158 1057 L 487 1057 L 643 1444 L 836 1444 L 682 1057 L 1026 1057 L 1180 1444 L 1374 1444 L 1221 1057 L 1368 1057 L 1368 874 Z M 952 874 L 608 874 L 483 565 L 827 565 L 952 874 Z" unicode="#" />
<glyph horiz-adv-x="1282" d="M 920 1622 L 905 1550 C 1080 1516 1202 1409 1270 1229 L 1053 1130 C 1022 1224 958 1289 862 1327 L 778 903 C 926 851 1029 793 1085 729 C 1142 665 1171 582 1171 481 C 1171 331 1118 209 1014 117 C 961 71 900 36 831 12 C 761 -11 683 -25 596 -29 L 543 -301 L 395 -301 L 451 -20 C 259 10 123 124 43 324 L 315 424 C 350 334 412 272 502 238 L 584 659 C 518 683 461 710 413 738 C 365 766 326 797 296 831 C 265 865 242 901 228 941 C 214 980 207 1023 207 1071 C 207 1145 220 1211 246 1271 C 272 1331 309 1382 357 1424 C 405 1466 463 1498 531 1522 C 599 1546 675 1559 760 1561 L 772 1622 L 920 1622 Z M 641 958 L 717 1343 C 562 1329 485 1265 485 1153 C 485 1073 537 1008 641 958 Z M 721 612 L 645 221 C 801 231 879 294 879 412 C 879 504 826 570 721 612 Z" unicode="$" />
<glyph horiz-adv-x="2003" d="M 426 -365 L 1415 1339 C 1352 1309 1294 1286 1240 1271 C 1186 1256 1136 1249 1090 1249 C 1048 1249 1007 1254 965 1266 C 970 1247 974 1228 976 1209 C 978 1189 979 1169 979 1149 C 979 991 936 858 850 750 C 764 643 655 590 524 590 C 470 590 422 598 378 616 C 334 634 296 659 264 693 C 232 726 208 766 190 813 C 172 860 164 913 164 973 C 164 1125 206 1254 291 1358 C 376 1461 484 1513 616 1513 C 693 1513 768 1490 842 1446 C 884 1420 925 1401 965 1388 C 1005 1374 1045 1368 1085 1368 C 1148 1368 1224 1382 1313 1411 C 1405 1440 1491 1504 1571 1602 L 1733 1602 L 596 -365 L 426 -365 Z M 401 942 C 401 888 412 846 436 815 C 460 783 492 768 532 768 C 562 768 590 777 616 795 C 641 813 663 839 681 873 C 699 906 714 946 724 993 C 734 1040 739 1093 739 1151 C 739 1276 692 1339 598 1339 C 534 1339 485 1296 451 1210 C 417 1123 401 1034 401 942 Z M 2003 246 C 2003 94 1960 -33 1874 -137 C 1832 -189 1783 -228 1727 -254 C 1671 -280 1608 -293 1540 -293 C 1486 -293 1437 -283 1393 -265 C 1349 -247 1312 -221 1281 -187 C 1250 -153 1226 -113 1209 -65 C 1192 -17 1184 36 1184 96 C 1184 246 1226 372 1311 475 C 1394 579 1502 631 1636 631 C 1692 631 1742 622 1788 604 C 1833 586 1871 560 1903 526 C 1935 492 1959 452 1977 405 C 1994 357 2003 304 2003 246 Z M 1425 59 C 1425 33 1428 9 1434 -12 C 1440 -33 1450 -51 1462 -67 C 1474 -82 1488 -94 1504 -102 C 1520 -110 1539 -115 1559 -115 C 1617 -115 1665 -79 1704 -8 C 1743 61 1763 148 1763 254 C 1763 390 1714 459 1618 459 C 1559 459 1513 420 1479 342 C 1461 302 1448 259 1439 213 C 1429 166 1425 115 1425 59 Z" unicode="%" />
<glyph horiz-adv-x="1546" d="M 1430 698 C 1374 546 1290 412 1178 297 C 1193 275 1224 256 1272 240 C 1318 223 1358 215 1393 215 L 1403 215 L 1384 -18 C 1359 -20 1339 -22 1325 -23 C 1311 -24 1301 -25 1296 -25 C 1186 -25 1075 19 963 109 C 826 17 670 -29 496 -29 C 430 -29 370 -20 316 -4 C 262 12 217 36 180 68 C 142 100 113 138 93 183 C 73 228 63 279 63 336 C 63 557 198 736 469 874 C 449 918 435 963 425 1007 C 415 1051 410 1095 410 1141 C 410 1258 455 1358 545 1440 C 637 1522 744 1563 868 1563 C 924 1563 974 1556 1019 1542 C 1063 1528 1101 1509 1132 1483 C 1163 1457 1187 1426 1204 1389 C 1220 1351 1229 1309 1229 1262 C 1229 1162 1198 1073 1137 997 C 1107 959 1063 922 1007 887 C 950 852 879 818 795 784 C 853 675 927 566 1016 457 C 1093 527 1158 631 1212 770 L 1430 698 Z M 999 1239 C 999 1257 995 1274 989 1290 C 982 1306 973 1321 961 1333 C 949 1345 936 1355 920 1363 C 904 1370 888 1374 870 1374 C 811 1374 760 1352 717 1309 C 675 1265 655 1214 655 1155 C 655 1124 659 1093 669 1061 C 678 1029 691 997 709 963 C 902 1023 999 1115 999 1239 Z M 795 283 C 767 319 732 371 691 437 C 650 503 603 586 549 684 C 426 606 365 514 365 410 C 365 349 382 301 418 266 C 454 230 505 213 571 213 C 659 213 733 236 795 283 Z" unicode="&#x26;" />
<glyph horiz-adv-x="492" d="M 438 997 L 240 997 L 240 1272 L 295 1561 L 594 1561 L 539 1272 L 438 997 Z" unicode="'" />
<glyph horiz-adv-x="819" d="M 965 1407 C 753 1233 606 1070 524 920 C 484 844 453 766 433 686 C 413 605 403 520 403 432 C 403 166 480 -71 635 -281 L 504 -412 C 443 -359 389 -300 342 -236 C 294 -172 253 -101 217 -25 C 147 127 113 283 113 442 C 113 896 360 1264 856 1548 L 965 1407 Z" unicode="(" />
<glyph horiz-adv-x="819" d="M -135 -270 C -27 -180 62 -95 135 -14 C 208 66 265 144 305 219 C 345 294 375 372 395 452 C 415 532 426 617 426 705 C 426 839 406 964 368 1082 C 329 1200 271 1311 195 1417 L 326 1548 C 446 1443 541 1314 610 1161 C 646 1084 672 1007 690 929 C 708 851 717 773 717 694 C 717 241 469 -127 -27 -412 L -135 -270 Z" unicode=")" />
<glyph horiz-adv-x="961" d="M 1036 1010 L 651 1090 L 922 807 L 727 690 L 600 1065 L 479 690 L 279 807 L 551 1090 L 164 1010 L 164 1237 L 551 1153 L 279 1442 L 479 1552 L 600 1182 L 727 1552 L 922 1442 L 651 1153 L 1036 1237 L 1036 1010 Z" unicode="*" />
<glyph horiz-adv-x="1366" d="M 1284 659 L 834 659 L 834 211 L 618 211 L 618 659 L 170 659 L 170 874 L 618 874 L 618 1323 L 834 1323 L 834 874 L 1284 874 L 1284 659 Z" unicode="+" />
<glyph horiz-adv-x="559" d="M 25 0 L 88 334 L 389 334 L 326 0 L 78 -330 L -35 -330 L 193 0 L 25 0 Z" unicode="," />
<glyph horiz-adv-x="750" d="M 92 432 L 141 688 L 670 688 L 621 432 L 92 432 Z" unicode="-" />
<glyph horiz-adv-x="559" d="M 25 0 L 88 332 L 389 332 L 326 0 L 25 0 Z" unicode="." />
<glyph horiz-adv-x="1038" d="M -84 0 L 956 1530 L 1206 1530 L 166 0 L -84 0 Z" unicode="/" />
<glyph horiz-adv-x="1300" d="M 569 -31 C 256 -31 100 133 100 463 C 100 755 163 1011 291 1231 C 420 1451 594 1561 813 1561 C 1127 1561 1284 1395 1284 1063 C 1284 771 1220 515 1094 297 C 969 78 794 -31 569 -31 Z M 801 1313 C 674 1313 574 1225 502 1049 C 428 873 391 682 391 475 C 391 303 456 217 586 217 C 710 217 809 305 881 481 C 954 657 991 847 991 1051 C 991 1225 927 1313 801 1313 Z" unicode="0" />
<glyph horiz-adv-x="1300" d="M 1106 221 L 1063 0 L 90 0 L 133 221 L 496 221 L 694 1237 C 576 1188 443 1161 295 1155 L 338 1378 C 470 1380 624 1430 801 1530 L 1040 1530 L 784 221 L 1106 221 Z" unicode="1" />
<glyph horiz-adv-x="1300" d="M 422 250 L 1118 250 L 1069 0 L 6 0 L 16 49 C 47 193 145 333 309 471 L 688 758 C 738 795 781 831 817 865 C 852 899 881 932 903 964 C 925 996 940 1026 950 1056 C 960 1086 965 1115 965 1143 C 965 1267 900 1329 772 1329 C 738 1329 705 1322 673 1310 C 641 1297 611 1279 584 1256 C 556 1233 532 1205 510 1173 C 488 1140 469 1103 455 1063 L 217 1137 C 315 1419 520 1561 834 1561 C 898 1561 957 1552 1010 1534 C 1063 1516 1108 1490 1145 1456 C 1182 1422 1211 1381 1231 1333 C 1251 1285 1262 1231 1262 1171 C 1262 1078 1233 983 1176 887 C 1117 791 978 667 758 514 C 674 456 605 405 549 361 C 493 317 450 280 422 250 Z" unicode="2" />
<glyph horiz-adv-x="1300" d="M 850 793 C 1018 727 1102 617 1102 465 C 1102 385 1089 315 1064 254 C 1038 192 1001 141 952 99 C 903 57 843 25 772 3 C 701 -18 620 -29 528 -29 C 312 -29 138 68 4 264 L 238 395 C 256 366 276 340 300 317 C 324 293 349 273 375 257 C 401 240 429 227 458 218 C 486 209 515 205 543 205 C 583 205 620 211 654 223 C 687 235 716 252 740 274 C 764 296 782 322 795 353 C 808 383 815 417 815 455 C 815 489 809 520 799 546 C 789 572 771 593 746 610 C 721 627 687 640 645 649 C 603 657 550 662 487 662 L 354 662 L 406 905 L 557 905 C 665 905 754 928 825 975 C 899 1021 936 1086 936 1169 C 936 1192 931 1213 921 1233 C 911 1252 898 1269 880 1283 C 862 1297 840 1307 815 1315 C 790 1323 763 1327 733 1327 C 615 1327 521 1269 451 1155 L 244 1260 C 283 1314 322 1360 362 1399 C 402 1437 443 1468 485 1491 C 527 1514 574 1531 627 1543 C 680 1555 738 1561 801 1561 C 933 1561 1036 1527 1112 1460 C 1187 1393 1225 1310 1225 1210 C 1225 1119 1187 1033 1112 952 C 1038 872 950 819 850 793 Z" unicode="3" />
<glyph horiz-adv-x="1300" d="M 1253 553 L 1204 303 L 987 303 L 928 0 L 664 0 L 723 303 L 10 303 L 59 553 L 872 1530 L 1227 1530 L 1036 553 L 1253 553 Z M 903 1225 L 354 553 L 772 553 L 903 1225 Z" unicode="4" />
<glyph horiz-adv-x="1300" d="M 1257 1530 L 1210 1286 L 600 1286 L 494 915 C 585 982 689 1016 805 1016 C 907 1016 992 977 1061 901 C 1129 823 1163 733 1163 631 C 1163 443 1107 286 995 160 C 882 34 741 -29 571 -29 C 331 -29 162 58 66 233 L 301 373 C 313 347 328 324 347 304 C 365 283 386 265 408 251 C 430 236 454 225 480 217 C 506 209 532 205 559 205 C 649 205 723 242 780 317 C 837 392 866 482 866 586 C 866 725 798 795 664 795 C 572 795 488 751 414 664 L 195 711 L 418 1530 L 1257 1530 Z" unicode="5" />
<glyph horiz-adv-x="1300" d="M 1354 1364 L 1155 1165 C 1127 1213 1088 1249 1040 1273 C 991 1297 932 1309 864 1309 C 813 1309 765 1298 720 1277 C 675 1256 634 1226 597 1186 C 560 1146 528 1098 501 1040 C 473 982 452 917 438 844 C 478 880 532 909 602 932 C 638 944 672 953 705 959 C 737 965 769 969 799 969 C 867 969 927 958 981 938 C 1034 918 1079 889 1116 851 C 1153 813 1181 768 1201 714 C 1221 660 1231 599 1231 532 C 1231 377 1174 244 1061 133 C 1004 79 940 38 868 10 C 796 -17 716 -31 629 -31 C 547 -31 475 -18 411 5 C 347 29 294 65 250 113 C 206 160 173 218 151 288 C 128 357 117 437 117 528 C 117 810 190 1053 336 1255 C 482 1459 669 1561 897 1561 C 950 1561 998 1557 1042 1550 C 1085 1543 1125 1532 1162 1517 C 1198 1501 1232 1481 1264 1456 C 1295 1430 1325 1400 1354 1364 Z M 397 584 C 395 574 395 565 395 556 C 395 546 395 537 395 528 C 395 478 401 434 414 396 C 426 357 443 324 465 297 C 486 269 511 248 540 234 C 569 220 600 213 633 213 C 677 213 718 220 755 234 C 791 248 823 267 850 293 C 876 319 897 350 912 386 C 926 422 934 463 934 508 C 934 647 857 717 705 717 C 584 717 481 672 397 584 Z" unicode="6" />
<glyph horiz-adv-x="1300" d="M 1307 1530 L 1255 1270 L 430 0 L 102 0 L 969 1270 L 199 1270 L 250 1530 L 1307 1530 Z" unicode="7" />
<glyph horiz-adv-x="1300" d="M 942 793 C 983 775 1020 753 1053 728 C 1085 702 1113 674 1136 644 C 1158 614 1176 581 1188 546 C 1200 511 1206 475 1206 438 C 1206 290 1145 176 1024 94 C 963 52 896 21 822 1 C 748 -18 667 -29 578 -29 C 421 -29 292 7 190 80 C 89 154 39 251 39 371 C 39 543 178 684 457 793 C 382 848 326 903 290 958 C 254 1013 236 1068 236 1122 C 236 1254 289 1360 397 1440 C 507 1520 644 1561 809 1561 C 949 1561 1067 1526 1161 1456 C 1255 1385 1303 1297 1303 1192 C 1303 1016 1182 883 942 793 Z M 709 899 C 787 921 857 957 918 1006 C 978 1056 1008 1107 1008 1161 C 1008 1185 1002 1207 992 1228 C 981 1248 966 1266 947 1282 C 928 1297 906 1309 880 1318 C 854 1326 825 1331 795 1331 C 758 1331 724 1326 692 1316 C 660 1306 632 1293 608 1275 C 584 1257 565 1235 551 1210 C 537 1185 530 1158 530 1128 C 530 1039 589 963 709 899 Z M 678 694 C 452 628 340 531 340 401 C 340 371 346 345 359 322 C 371 298 389 278 412 261 C 435 244 462 231 494 222 C 526 213 561 209 600 209 C 648 209 691 214 730 224 C 768 234 801 248 829 267 C 856 285 877 308 892 336 C 907 363 915 394 915 428 C 915 538 836 626 678 694 Z" unicode="8" />
<glyph horiz-adv-x="1300" d="M 29 164 L 227 362 C 306 266 403 219 518 219 C 570 219 619 229 664 250 C 709 271 750 301 786 341 C 822 380 853 428 879 486 C 905 543 925 608 940 680 C 833 599 714 559 584 559 C 456 559 352 600 272 682 C 232 724 202 770 182 822 C 162 873 152 930 152 993 C 152 1151 205 1285 311 1395 C 365 1449 427 1489 497 1517 C 566 1545 644 1559 731 1559 C 893 1559 1022 1508 1120 1407 C 1217 1306 1266 1170 1266 999 C 1266 704 1195 458 1055 262 C 983 163 901 89 807 40 C 713 -8 605 -33 485 -33 C 391 -33 310 -20 242 6 C 172 33 101 86 29 164 Z M 977 934 C 978 941 979 950 979 960 C 979 970 979 981 979 995 C 979 1045 972 1090 959 1130 C 946 1170 928 1203 906 1231 C 883 1258 856 1279 826 1293 C 796 1307 763 1315 729 1315 C 685 1315 646 1308 612 1294 C 577 1280 548 1259 524 1233 C 500 1206 481 1174 468 1136 C 455 1098 449 1056 449 1010 C 449 877 524 811 676 811 C 790 811 891 852 977 934 Z" unicode="9" />
<glyph horiz-adv-x="748" d="M 262 762 L 326 1090 L 629 1090 L 565 762 L 262 762 Z M 117 0 L 180 334 L 483 334 L 420 0 L 117 0 Z" unicode=":" />
<glyph horiz-adv-x="748" d="M 260 762 L 324 1090 L 623 1090 L 559 762 L 260 762 Z M 115 0 L 178 330 L 477 330 L 414 0 L 158 -328 L 45 -328 L 272 0 L 115 0 Z" unicode=";" />
<glyph horiz-adv-x="1366" d="M 1239 205 L 127 670 L 127 864 L 1239 1327 L 1239 1096 L 420 766 L 1239 438 L 1239 205 Z" unicode="&#x3C;" />
<glyph horiz-adv-x="1366" d="M 1282 899 L 170 899 L 170 1114 L 1282 1114 L 1282 899 Z M 1282 422 L 170 422 L 170 637 L 1282 637 L 1282 422 Z" unicode="=" />
<glyph horiz-adv-x="1366" d="M 1317 670 L 205 205 L 205 438 L 1024 766 L 205 1096 L 205 1327 L 1317 864 L 1317 670 Z" unicode="&#x3E;" />
<glyph horiz-adv-x="961" d="M 512 535 L 276 535 C 286 589 299 637 313 679 C 327 721 344 759 362 791 C 380 823 403 854 429 884 C 455 914 486 943 520 973 C 597 1035 646 1080 668 1108 C 688 1134 698 1171 698 1219 C 698 1281 660 1313 586 1313 C 518 1313 455 1272 397 1192 L 242 1321 C 300 1401 365 1461 435 1501 C 505 1541 580 1561 662 1561 C 758 1561 837 1530 899 1470 C 960 1411 991 1339 991 1253 C 991 1111 905 974 733 844 C 697 816 666 789 640 765 C 614 741 593 719 578 700 C 562 680 549 657 539 630 C 528 602 519 571 512 535 Z M 506 328 L 442 0 L 145 0 L 209 328 L 506 328 Z" unicode="?" />
<glyph horiz-adv-x="2097" d="M 1608 -96 L 1731 -242 C 1693 -266 1651 -288 1605 -308 C 1559 -327 1508 -344 1452 -358 C 1342 -386 1234 -401 1130 -401 C 816 -401 569 -313 391 -139 C 212 35 123 275 123 580 C 123 859 218 1092 410 1278 C 602 1466 842 1561 1130 1561 C 1263 1561 1383 1540 1489 1500 C 1595 1459 1690 1398 1774 1317 C 1940 1154 2023 950 2023 705 C 2023 514 1972 362 1872 250 C 1772 136 1632 80 1454 80 C 1346 80 1269 123 1225 209 C 1208 189 1188 172 1164 156 C 1140 140 1115 126 1087 115 C 1059 103 1031 94 1001 88 C 971 81 943 78 915 78 C 824 78 750 114 694 186 C 638 259 610 351 610 463 C 610 615 652 753 737 877 C 821 1001 928 1063 1059 1063 C 1145 1063 1220 1031 1282 967 L 1294 1063 L 1559 1063 L 1481 504 C 1477 474 1473 449 1471 427 C 1469 405 1468 386 1468 371 C 1468 303 1491 270 1538 270 C 1576 270 1610 280 1642 300 C 1674 320 1703 351 1731 391 C 1785 469 1812 574 1812 705 C 1812 801 1796 889 1766 969 C 1735 1048 1688 1119 1626 1182 C 1501 1308 1336 1372 1130 1372 C 902 1372 713 1296 563 1145 C 414 995 340 807 340 580 C 340 459 357 351 393 256 C 429 161 482 77 553 4 C 695 -140 888 -213 1130 -213 C 1319 -213 1478 -174 1608 -96 Z M 1253 766 C 1210 816 1162 842 1110 842 C 1038 842 982 806 942 735 C 901 664 881 579 881 479 C 881 356 932 295 1034 295 C 1090 295 1145 326 1198 389 L 1253 766 Z" unicode="@" />
<glyph horiz-adv-x="1413" d="M 1276 0 L 967 0 L 920 358 L 430 358 L 244 0 L -72 0 L 756 1530 L 1061 1530 L 1276 0 Z M 893 582 L 821 1116 L 545 582 L 893 582 Z" unicode="A" />
<glyph horiz-adv-x="1477" d="M 1098 813 C 1268 757 1354 654 1354 502 C 1354 344 1297 220 1184 131 C 1072 43 923 0 739 0 L 80 0 L 379 1530 L 934 1530 C 1010 1530 1078 1522 1140 1508 C 1202 1494 1254 1473 1298 1446 C 1342 1418 1375 1385 1399 1345 C 1422 1305 1434 1259 1434 1208 C 1434 1158 1426 1113 1411 1071 C 1395 1029 1373 991 1345 957 C 1316 923 1281 894 1239 870 C 1197 846 1150 827 1098 813 Z M 633 1298 L 561 930 L 827 930 C 870 930 909 935 945 945 C 980 955 1010 970 1035 990 C 1060 1010 1079 1034 1093 1063 C 1107 1091 1114 1124 1114 1161 C 1114 1252 1032 1298 870 1298 L 633 1298 Z M 516 694 L 426 236 L 649 236 C 911 236 1042 326 1042 508 C 1042 537 1034 563 1020 586 C 1005 609 984 629 958 645 C 931 661 899 673 862 681 C 824 689 783 694 737 694 L 516 694 Z" unicode="B" />
<glyph horiz-adv-x="1397" d="M 684 -31 C 595 -31 516 -18 448 7 C 379 32 321 69 274 119 C 227 169 191 230 167 303 C 143 375 131 459 131 553 C 131 842 209 1082 365 1274 C 521 1465 727 1561 983 1561 C 1115 1561 1225 1521 1313 1442 C 1357 1402 1391 1357 1415 1307 C 1439 1257 1452 1201 1456 1141 L 1159 1063 C 1151 1229 1071 1313 920 1313 C 782 1313 668 1241 578 1098 C 488 953 444 790 444 608 C 444 365 537 244 725 244 C 859 244 973 334 1069 516 L 1333 438 C 1192 125 976 -31 684 -31 Z" unicode="C" />
<glyph horiz-adv-x="1516" d="M 80 0 L 379 1530 L 819 1530 C 1007 1530 1162 1476 1282 1368 C 1403 1260 1464 1116 1464 936 C 1464 653 1386 426 1231 256 C 1074 85 862 0 594 0 L 80 0 Z M 631 1272 L 434 268 L 633 268 C 787 268 912 326 1008 444 C 1103 562 1151 709 1151 887 C 1151 948 1142 1003 1125 1051 C 1107 1099 1082 1139 1050 1172 C 1017 1204 977 1229 929 1246 C 881 1263 826 1272 766 1272 L 631 1272 Z" unicode="D" />
<glyph horiz-adv-x="1253" d="M 1319 1530 L 1266 1264 L 627 1264 L 563 928 L 979 928 L 934 680 L 512 680 L 432 264 L 1133 264 L 1081 0 L 80 0 L 379 1530 L 1319 1530 Z" unicode="E" />
<glyph horiz-adv-x="1147" d="M 1296 1530 L 1245 1266 L 629 1266 L 549 866 L 918 866 L 866 602 L 498 602 L 381 0 L 80 0 L 379 1530 L 1296 1530 Z" unicode="F" />
<glyph horiz-adv-x="1604" d="M 666 -29 C 502 -29 371 24 274 131 C 178 237 131 379 131 557 C 131 859 210 1101 369 1284 C 528 1468 744 1561 1016 1561 C 1158 1561 1275 1520 1368 1440 C 1460 1360 1511 1250 1522 1112 L 1266 1030 C 1242 1213 1145 1305 975 1305 C 805 1305 674 1239 582 1108 C 535 1043 500 967 478 880 C 455 792 444 693 444 582 C 444 344 559 225 791 225 C 834 225 876 232 917 248 C 957 263 998 286 1038 317 C 1118 381 1171 459 1198 553 L 797 553 L 842 782 L 1485 782 L 1331 0 L 1090 0 L 1126 186 C 996 42 843 -29 666 -29 Z" unicode="G" />
<glyph horiz-adv-x="1532" d="M 1544 1530 L 1245 0 L 944 0 L 1073 662 L 508 662 L 379 0 L 78 0 L 377 1530 L 678 1530 L 559 926 L 1124 926 L 1243 1530 L 1544 1530 Z" unicode="H" />
<glyph horiz-adv-x="670" d="M 680 1530 L 381 0 L 80 0 L 379 1530 L 680 1530 Z" unicode="I" />
<glyph horiz-adv-x="1047" d="M 1065 1530 L 844 406 C 788 116 614 -29 322 -29 C 228 -29 145 -2 72 51 C -1 105 -49 180 -72 276 L 170 420 C 176 390 184 364 195 341 C 206 317 219 297 234 281 C 248 265 264 252 282 244 C 299 235 317 231 336 231 C 368 231 397 235 421 245 C 445 254 466 268 484 287 C 502 306 517 330 529 360 C 541 390 551 425 559 467 L 766 1530 L 1065 1530 Z" unicode="J" />
<glyph horiz-adv-x="1411" d="M 1307 0 L 993 0 L 707 721 L 479 508 L 379 0 L 78 0 L 377 1530 L 678 1530 L 557 905 L 1229 1530 L 1608 1530 L 920 907 L 1307 0 Z" unicode="K" />
<glyph horiz-adv-x="1155" d="M 1010 0 L 78 0 L 377 1530 L 678 1530 L 432 264 L 1061 264 L 1010 0 Z" unicode="L" />
<glyph horiz-adv-x="1831" d="M 1544 0 L 1257 0 L 1524 1362 L 889 0 L 729 0 L 629 1362 L 362 0 L 78 0 L 377 1530 L 846 1530 L 918 582 L 1358 1530 L 1843 1530 L 1544 0 Z" unicode="M" />
<glyph horiz-adv-x="1608" d="M 1321 0 L 1044 0 L 588 1075 L 377 0 L 78 0 L 377 1530 L 672 1530 L 1118 494 L 1321 1530 L 1620 1530 L 1321 0 Z" unicode="N" />
<glyph horiz-adv-x="1556" d="M 676 -29 C 508 -29 373 22 272 125 C 172 228 123 365 123 535 C 123 677 141 809 179 929 C 217 1049 273 1160 348 1260 C 500 1460 699 1561 944 1561 C 1034 1561 1115 1547 1187 1521 C 1258 1495 1318 1456 1367 1406 C 1416 1356 1453 1294 1479 1221 C 1505 1148 1518 1065 1518 971 C 1518 680 1441 441 1288 254 C 1136 65 932 -29 676 -29 Z M 920 1298 C 772 1298 654 1223 567 1075 C 479 927 436 752 436 551 C 436 342 529 238 715 238 C 865 238 983 311 1071 459 C 1159 607 1204 782 1204 985 C 1204 1193 1109 1298 920 1298 Z" unicode="O" />
<glyph horiz-adv-x="1413" d="M 1446 1122 C 1446 1041 1431 968 1403 904 C 1375 840 1332 785 1274 739 C 1160 646 1011 600 827 600 L 498 600 L 381 0 L 78 0 L 377 1530 L 924 1530 C 1272 1530 1446 1394 1446 1122 Z M 629 1266 L 547 850 L 815 850 C 1027 850 1133 936 1133 1110 C 1133 1214 1056 1266 903 1266 L 629 1266 Z" unicode="P" />
<glyph horiz-adv-x="1556" d="M 1161 -203 L 1116 -389 C 1083 -392 1052 -394 1024 -395 C 995 -396 968 -397 944 -397 C 866 -397 798 -391 740 -381 C 682 -370 635 -352 598 -328 C 560 -303 532 -271 514 -232 C 496 -192 487 -144 487 -86 C 487 -72 487 -59 488 -46 C 489 -32 490 -18 492 -4 C 434 12 382 37 336 70 C 290 103 252 143 220 189 C 188 235 164 287 148 345 C 131 403 123 467 123 535 C 123 677 141 809 179 929 C 217 1049 273 1160 348 1260 C 500 1460 699 1561 944 1561 C 1034 1561 1115 1547 1187 1521 C 1258 1495 1318 1456 1367 1406 C 1416 1356 1453 1294 1479 1221 C 1505 1148 1518 1065 1518 971 C 1518 703 1452 477 1321 295 C 1191 112 1015 6 791 -23 L 788 -57 C 784 -57 788 -82 799 -133 C 809 -185 891 -211 1047 -211 C 1066 -211 1085 -210 1104 -209 C 1122 -208 1141 -206 1161 -203 Z M 920 1298 C 772 1298 654 1223 567 1075 C 479 927 436 752 436 551 C 436 342 529 238 715 238 C 865 238 983 311 1071 459 C 1159 607 1204 782 1204 985 C 1204 1193 1109 1298 920 1298 Z" unicode="Q" />
<glyph horiz-adv-x="1419" d="M 1032 666 L 1251 0 L 932 0 L 750 614 L 500 614 L 379 0 L 78 0 L 377 1530 L 913 1530 C 991 1530 1060 1521 1122 1505 C 1183 1489 1235 1465 1277 1434 C 1319 1402 1351 1363 1373 1316 C 1395 1269 1407 1215 1407 1155 C 1407 905 1282 742 1032 666 Z M 625 1264 L 545 850 L 766 850 C 816 850 862 856 903 868 C 944 880 979 897 1008 919 C 1036 941 1058 969 1074 1001 C 1090 1033 1098 1069 1098 1110 C 1098 1138 1094 1161 1087 1181 C 1079 1201 1067 1217 1051 1229 C 1035 1241 1013 1250 986 1256 C 959 1261 926 1264 887 1264 L 625 1264 Z" unicode="R" />
<glyph horiz-adv-x="1272" d="M 578 -31 C 311 -31 133 87 43 324 L 319 426 C 375 288 476 219 621 219 C 681 219 736 238 786 276 C 812 295 831 317 843 341 C 855 365 862 392 862 420 C 862 452 856 480 844 505 C 832 529 813 551 789 571 C 764 591 733 609 695 625 C 657 641 613 656 561 672 C 325 739 207 872 207 1071 C 207 1220 261 1339 371 1427 C 481 1516 623 1561 797 1561 C 863 1561 924 1553 978 1537 C 1032 1521 1079 1498 1119 1468 C 1158 1438 1189 1402 1213 1359 C 1237 1316 1251 1268 1257 1214 L 985 1147 C 949 1276 875 1341 762 1341 C 694 1341 633 1321 578 1282 C 524 1243 498 1195 498 1139 C 498 1109 502 1083 511 1061 C 520 1039 535 1020 555 1003 C 575 986 602 970 635 956 C 667 942 707 927 754 913 C 912 861 1020 802 1079 735 C 1110 701 1133 662 1148 620 C 1163 578 1171 531 1171 481 C 1171 320 1117 194 1010 104 C 902 14 758 -31 578 -31 Z" unicode="S" />
<glyph horiz-adv-x="1241" d="M 1341 1268 L 911 1268 L 664 0 L 362 0 L 610 1268 L 182 1268 L 233 1530 L 1393 1530 L 1341 1268 Z" unicode="T" />
<glyph horiz-adv-x="1563" d="M 1585 1530 L 1395 569 C 1374 466 1344 377 1305 302 C 1265 226 1216 164 1156 115 C 1096 66 1025 30 945 6 C 864 -17 772 -29 670 -29 C 590 -29 520 -19 458 1 C 396 21 343 50 301 88 C 258 126 225 172 203 227 C 181 281 170 344 170 414 C 170 468 177 535 193 614 L 369 1530 L 670 1530 L 487 596 C 481 571 478 548 476 528 C 474 508 473 489 473 473 C 473 316 556 238 723 238 C 929 238 1059 379 1114 662 L 1284 1530 L 1585 1530 Z" unicode="U" />
<glyph horiz-adv-x="1303" d="M 1454 1530 L 680 0 L 393 0 L 213 1530 L 510 1530 L 621 440 L 1135 1530 L 1454 1530 Z" unicode="V" />
<glyph horiz-adv-x="1909" d="M 2032 1530 L 1364 0 L 1118 0 L 1057 1167 L 559 0 L 313 0 L 238 1530 L 532 1530 L 569 621 L 950 1530 L 1309 1530 L 1348 612 L 1726 1530 L 2032 1530 Z" unicode="W" />
<glyph horiz-adv-x="1350" d="M 561 807 L 256 1530 L 573 1530 L 762 1063 L 1122 1530 L 1473 1530 L 883 780 L 1212 0 L 895 0 L 682 526 L 279 0 L -72 0 L 561 807 Z" unicode="X" />
<glyph horiz-adv-x="1235" d="M 1378 1530 L 776 682 L 643 0 L 342 0 L 475 682 L 207 1530 L 508 1530 L 674 971 L 1053 1530 L 1378 1530 Z" unicode="Y" />
<glyph horiz-adv-x="1280" d="M 1114 0 L -27 0 L 14 205 L 930 1268 L 217 1268 L 268 1530 L 1354 1530 L 1307 1294 L 422 264 L 1165 264 L 1114 0 Z" unicode="Z" />
<glyph horiz-adv-x="799" d="M 948 1530 L 905 1298 L 641 1298 L 348 -172 L 612 -172 L 571 -406 L 16 -406 L 393 1530 L 948 1530 Z" unicode="[" />
<glyph horiz-adv-x="1036" d="M 696 0 L 209 1530 L 424 1530 L 911 0 L 696 0 Z" unicode="\" />
<glyph horiz-adv-x="799" d="M 788 1530 L 412 -403 L -143 -403 L -96 -170 L 168 -170 L 453 1298 L 188 1298 L 233 1530 L 788 1530 Z" unicode="]" />
<glyph horiz-adv-x="1194" d="M 401 731 L 176 731 L 553 1530 L 774 1530 L 1141 731 L 920 731 L 659 1337 L 401 731 Z" unicode="^" />
<glyph horiz-adv-x="1024" d="M 893 -256 L -156 -256 L -156 -154 L 893 -154 L 893 -256 Z" unicode="_" />
<glyph horiz-adv-x="682" d="M 596 1227 L 444 1227 L 199 1563 L 508 1563 L 596 1227 Z" unicode="`" />
<glyph horiz-adv-x="1161" d="M 938 0 L 659 0 C 657 17 656 35 656 54 C 655 72 655 92 655 113 C 563 25 456 -18 332 -18 C 289 -18 250 -11 215 1 C 180 13 150 31 125 54 C 99 77 80 105 66 138 C 52 170 45 207 45 248 C 45 368 98 463 205 532 C 258 568 330 598 422 622 C 514 646 626 664 758 678 L 766 719 C 769 736 771 750 773 762 C 775 773 776 782 776 788 C 776 876 723 920 618 920 C 523 920 429 873 336 780 L 203 940 C 338 1053 489 1110 657 1110 C 915 1110 1044 1015 1044 825 C 1044 795 1042 763 1038 729 C 1034 695 1029 659 1022 621 L 944 223 C 940 205 938 185 936 163 C 934 140 934 114 934 84 C 934 70 934 57 935 43 C 935 29 936 15 938 0 Z M 729 522 C 453 492 315 408 315 270 C 315 202 350 168 422 168 C 495 168 580 201 678 268 L 729 522 Z" unicode="a" />
<glyph horiz-adv-x="1245" d="M 358 127 L 334 0 L 57 0 L 360 1552 L 637 1552 L 520 958 C 632 1058 735 1108 829 1108 C 879 1108 925 1098 967 1080 C 1008 1061 1043 1034 1072 1000 C 1101 966 1123 924 1139 875 C 1155 826 1163 771 1163 711 C 1163 615 1150 525 1125 441 C 1099 357 1062 277 1012 203 C 911 55 781 -18 621 -18 C 506 -18 418 30 358 127 Z M 483 768 L 397 324 C 431 248 489 211 571 211 C 666 211 743 258 801 352 C 858 446 887 554 887 676 C 887 812 827 881 709 881 C 633 881 558 843 483 768 Z" unicode="b" />
<glyph horiz-adv-x="1044" d="M 485 -18 C 423 -18 368 -8 320 11 C 271 30 230 58 196 94 C 162 130 137 173 119 225 C 101 276 92 333 92 397 C 92 501 106 595 134 680 C 162 764 205 840 262 907 C 376 1041 518 1108 690 1108 C 781 1108 857 1084 918 1036 C 978 988 1017 919 1034 827 L 823 750 C 786 845 732 893 662 893 C 572 893 500 844 446 748 C 394 650 369 547 369 438 C 369 286 425 211 537 211 C 631 211 708 273 768 399 L 965 293 C 837 85 677 -18 485 -18 Z" unicode="c" />
<glyph horiz-adv-x="1245" d="M 1278 1552 L 975 0 L 698 0 L 723 125 C 679 77 631 41 579 17 C 527 -6 472 -18 414 -18 C 364 -18 320 -8 280 11 C 240 30 205 58 177 94 C 148 130 126 173 111 224 C 95 274 88 331 88 395 C 88 587 137 754 236 895 C 286 965 343 1018 408 1054 C 472 1090 545 1108 627 1108 C 733 1108 819 1060 887 965 L 1001 1552 L 1278 1552 Z M 848 772 C 796 842 738 877 674 877 C 580 877 505 832 449 743 C 393 655 365 552 365 434 C 365 284 425 209 547 209 C 616 209 686 237 758 293 L 848 772 Z" unicode="d" />
<glyph horiz-adv-x="1194" d="M 1081 498 L 375 498 C 371 474 369 454 369 436 C 369 400 374 367 385 339 C 396 310 412 286 432 266 C 452 246 477 230 506 220 C 534 210 566 205 602 205 C 716 205 798 255 848 356 L 1055 262 C 951 75 785 -18 557 -18 C 419 -18 307 24 223 109 C 138 193 96 308 96 453 C 96 635 152 790 264 918 C 377 1044 522 1108 700 1108 C 764 1108 821 1099 873 1081 C 924 1063 968 1037 1004 1003 C 1040 969 1067 927 1087 879 C 1106 830 1116 775 1116 715 C 1116 651 1104 579 1081 498 Z M 403 662 L 866 662 C 867 673 868 683 869 691 C 869 699 870 705 870 711 C 870 741 865 769 856 794 C 846 819 834 840 818 858 C 802 875 783 888 761 898 C 739 908 715 913 690 913 C 617 913 555 891 504 848 C 453 804 419 742 403 662 Z" unicode="e" />
<glyph horiz-adv-x="698" d="M 584 1090 L 760 1090 L 721 891 L 545 891 L 371 0 L 94 0 L 268 891 L 133 891 L 172 1090 L 307 1090 C 323 1172 343 1242 369 1301 C 394 1359 424 1407 460 1444 C 496 1481 537 1508 584 1526 C 631 1543 685 1552 745 1552 L 870 1552 L 831 1360 L 784 1360 C 690 1360 633 1315 614 1227 L 584 1090 Z" unicode="f" />
<glyph horiz-adv-x="1174" d="M 168 63 C 101 101 68 147 68 203 C 68 293 141 368 287 428 C 185 492 135 581 135 696 C 135 820 182 919 276 995 C 372 1070 493 1108 641 1108 C 766 1108 868 1080 948 1024 C 987 1059 1036 1087 1096 1108 C 1154 1130 1205 1141 1249 1141 L 1276 1141 L 1241 958 L 1188 958 C 1135 958 1084 948 1036 930 C 1051 904 1062 877 1070 849 C 1077 820 1081 790 1081 758 C 1081 634 1032 535 936 463 C 840 391 717 356 567 356 C 508 356 456 362 410 375 C 341 345 307 312 307 276 C 307 256 313 240 327 229 C 340 218 360 210 387 204 C 414 198 448 194 488 192 C 528 190 575 188 629 186 C 699 184 760 178 810 167 C 860 155 901 139 933 118 C 964 96 987 69 1002 37 C 1016 5 1024 -32 1024 -76 C 1024 -135 1011 -187 985 -232 C 959 -277 922 -315 873 -346 C 824 -376 764 -399 693 -415 C 622 -430 541 -438 451 -438 C 367 -438 293 -432 227 -420 C 161 -408 105 -392 60 -370 C 14 -348 -20 -321 -44 -290 C -68 -258 -80 -223 -80 -184 C -80 -62 2 20 168 63 Z M 629 936 C 593 936 561 930 533 920 C 504 909 479 894 459 875 C 439 855 423 832 412 805 C 400 778 395 748 395 715 C 395 591 460 530 590 530 C 623 530 654 534 682 544 C 710 554 734 568 754 587 C 774 606 790 629 802 657 C 813 685 819 716 819 752 C 819 778 814 803 805 826 C 795 848 782 868 766 884 C 749 900 729 913 706 922 C 682 931 657 936 629 936 Z M 279 18 C 194 -16 152 -66 152 -133 C 152 -217 251 -260 449 -260 C 664 -260 772 -208 772 -106 C 772 -52 713 -18 596 -4 C 496 1 420 5 368 8 C 316 11 286 14 279 18 Z" unicode="g" />
<glyph horiz-adv-x="1221" d="M 1116 770 L 965 0 L 688 0 L 825 698 C 829 718 831 740 831 762 C 831 844 793 885 717 885 C 702 885 685 881 665 874 C 645 866 625 856 603 843 C 581 830 560 815 538 798 C 516 781 497 763 479 745 L 334 0 L 57 0 L 358 1556 L 635 1556 L 512 918 C 640 1044 758 1108 868 1108 C 908 1108 945 1102 977 1090 C 1009 1078 1035 1060 1057 1038 C 1079 1016 1095 989 1107 957 C 1118 925 1124 890 1124 852 C 1124 838 1123 825 1122 812 C 1121 798 1119 784 1116 770 Z" unicode="h" />
<glyph horiz-adv-x="598" d="M 547 1090 L 334 0 L 57 0 L 270 1090 L 547 1090 Z M 637 1552 L 584 1278 L 307 1278 L 360 1552 L 637 1552 Z" unicode="i" />
<glyph horiz-adv-x="598" d="M 547 1090 L 311 -125 C 301 -175 284 -219 261 -258 C 237 -296 208 -329 172 -356 C 136 -382 94 -403 47 -417 C 0 -431 -52 -438 -109 -438 L -236 -438 L -195 -223 C -101 -223 -40 -210 -12 -184 C 1 -172 12 -157 21 -141 C 30 -125 37 -106 41 -86 L 270 1090 L 547 1090 Z M 635 1552 L 582 1278 L 305 1278 L 358 1552 L 635 1552 Z" unicode="j" />
<glyph horiz-adv-x="1124" d="M 1032 0 L 756 0 L 555 473 L 395 342 L 334 0 L 57 0 L 360 1552 L 637 1552 L 469 690 L 891 1090 L 1212 1090 L 733 637 L 1032 0 Z" unicode="k" />
<glyph horiz-adv-x="598" d="M 637 1552 L 334 0 L 57 0 L 360 1552 L 637 1552 Z" unicode="l" />
<glyph horiz-adv-x="1884" d="M 1628 0 L 1352 0 L 1485 682 C 1488 699 1490 714 1492 728 C 1494 742 1495 754 1495 766 C 1495 846 1456 887 1380 887 C 1314 887 1228 828 1120 711 L 1120 709 L 981 0 L 705 0 L 838 682 C 841 699 843 715 845 729 C 847 743 848 755 848 766 C 848 846 810 887 735 887 C 669 887 582 827 473 709 L 334 0 L 57 0 L 270 1090 L 547 1090 L 506 877 C 543 920 578 956 610 986 C 642 1016 674 1040 705 1058 C 735 1076 766 1088 796 1096 C 826 1104 858 1108 891 1108 C 1057 1108 1141 1028 1141 870 C 1278 1028 1410 1108 1536 1108 C 1702 1108 1786 1023 1786 854 C 1786 840 1784 821 1781 797 C 1777 773 1772 743 1765 709 L 1628 0 Z" unicode="m" />
<glyph horiz-adv-x="1221" d="M 1116 770 L 965 0 L 688 0 L 825 698 C 829 718 831 740 831 762 C 831 844 793 885 717 885 C 702 885 685 881 665 874 C 645 866 625 856 603 843 C 581 830 560 815 538 798 C 516 781 497 763 479 745 L 334 0 L 57 0 L 270 1090 L 547 1090 L 512 918 C 640 1044 758 1108 868 1108 C 908 1108 945 1102 977 1090 C 1009 1078 1035 1060 1057 1038 C 1079 1016 1095 989 1107 957 C 1118 925 1124 890 1124 852 C 1124 838 1123 825 1122 812 C 1121 798 1119 784 1116 770 Z" unicode="n" />
<glyph horiz-adv-x="1202" d="M 516 -18 C 448 -18 388 -8 335 10 C 281 29 236 56 199 92 C 162 127 134 170 114 222 C 94 273 84 331 84 397 C 84 597 139 766 250 903 C 362 1041 508 1110 688 1110 C 758 1110 820 1100 874 1082 C 928 1064 973 1037 1010 1003 C 1047 969 1075 927 1095 877 C 1114 827 1124 770 1124 707 C 1124 494 1069 320 961 184 C 906 116 841 65 767 32 C 693 -1 609 -18 516 -18 Z M 676 918 C 583 918 506 862 446 752 C 388 642 360 523 360 393 C 360 247 416 174 528 174 C 621 174 698 229 758 340 C 788 396 810 454 825 512 C 840 570 848 630 848 692 C 848 763 832 818 802 858 C 771 898 729 918 676 918 Z" unicode="o" />
<glyph horiz-adv-x="1245" d="M 360 145 L 250 -438 L -27 -438 L 270 1090 L 547 1090 L 520 956 C 625 1057 730 1108 836 1108 C 883 1108 927 1098 967 1079 C 1007 1060 1041 1033 1070 998 C 1098 962 1121 919 1137 869 C 1153 818 1161 761 1161 698 C 1161 512 1109 347 1006 201 C 902 55 774 -18 621 -18 C 521 -18 434 36 360 145 Z M 487 788 L 393 295 C 427 267 460 246 493 232 C 525 218 558 211 592 211 C 675 211 745 258 801 352 C 829 399 850 448 864 500 C 878 551 885 605 885 662 C 885 800 828 870 715 870 C 673 870 633 863 595 850 C 557 836 521 816 487 788 Z" unicode="p" />
<glyph horiz-adv-x="1245" d="M 1190 1090 L 893 -438 L 616 -438 L 725 127 C 624 30 521 -18 416 -18 C 365 -18 319 -8 279 11 C 238 30 203 58 175 94 C 147 130 125 175 110 227 C 95 279 88 337 88 403 C 88 499 100 587 125 669 C 149 751 187 827 238 897 C 338 1037 469 1108 631 1108 C 721 1108 807 1062 889 971 L 913 1090 L 1190 1090 Z M 854 786 C 816 816 781 838 750 852 C 719 866 691 874 666 874 C 622 874 581 862 545 839 C 509 815 477 780 449 733 C 393 639 365 536 365 424 C 365 280 422 209 537 209 C 571 209 607 215 644 227 C 680 239 718 259 756 285 L 854 786 Z" unicode="q" />
<glyph horiz-adv-x="840" d="M 905 1108 L 827 809 L 803 809 C 655 809 537 735 449 588 L 334 0 L 57 0 L 270 1090 L 530 1090 L 473 793 C 603 995 747 1100 905 1108 Z" unicode="r" />
<glyph horiz-adv-x="979" d="M 420 -18 C 338 -18 256 0 176 35 C 136 52 101 73 73 97 C 44 121 20 148 2 178 L 174 305 C 232 221 314 180 420 180 C 555 180 623 223 623 309 C 623 367 561 410 438 438 C 389 450 345 465 306 485 C 266 504 233 527 205 554 C 177 580 155 610 140 643 C 124 675 117 711 117 750 C 117 853 160 938 248 1006 C 337 1074 450 1108 588 1108 C 630 1108 670 1103 709 1094 C 747 1084 784 1070 819 1051 C 855 1032 885 1011 909 989 C 933 967 951 943 965 918 L 807 786 C 735 874 657 918 575 918 C 447 918 383 872 383 782 C 383 753 393 728 414 707 C 425 695 444 684 472 673 C 500 661 536 650 580 639 C 788 583 893 479 893 326 C 893 275 882 228 860 186 C 838 144 807 107 766 77 C 725 47 675 23 617 7 C 559 -9 493 -18 420 -18 Z" unicode="s" />
<glyph horiz-adv-x="723" d="M 764 1090 L 725 891 L 535 891 L 430 354 C 426 340 424 328 423 317 C 422 306 422 296 422 287 C 422 235 453 209 516 209 C 535 209 564 211 604 215 L 561 -10 C 547 -13 532 -15 515 -16 C 497 -17 478 -18 457 -18 C 242 -18 135 61 135 221 C 135 233 135 247 137 262 C 139 277 141 293 145 311 L 258 891 L 90 891 L 129 1090 L 297 1090 L 365 1442 L 641 1442 L 573 1090 L 764 1090 Z" unicode="t" />
<glyph horiz-adv-x="1221" d="M 1167 1090 L 954 0 L 678 0 L 711 164 C 589 42 477 -18 373 -18 C 203 -18 119 76 119 266 C 119 286 120 309 123 333 C 125 357 129 384 135 412 L 268 1090 L 545 1090 L 412 416 C 408 398 406 383 404 369 C 402 355 401 344 401 334 C 401 256 437 217 510 217 C 602 217 681 263 748 356 L 891 1090 L 1167 1090 Z" unicode="u" />
<glyph horiz-adv-x="981" d="M 1049 1090 L 532 0 L 240 0 L 121 1090 L 387 1090 L 449 340 L 774 1090 L 1049 1090 Z" unicode="v" />
<glyph horiz-adv-x="1536" d="M 1597 1090 L 1057 0 L 852 0 L 776 690 L 455 0 L 260 0 L 135 1090 L 381 1090 L 451 459 L 752 1090 L 956 1090 L 1024 440 L 1325 1090 L 1597 1090 Z" unicode="w" />
<glyph horiz-adv-x="973" d="M 354 563 L 147 1090 L 414 1090 L 526 784 L 745 1090 L 1038 1090 L 618 545 L 829 0 L 569 0 L 446 326 L 213 0 L -80 0 L 354 563 Z" unicode="x" />
<glyph horiz-adv-x="1038" d="M 1102 1090 L 559 -18 C 477 -184 392 -295 305 -352 C 219 -409 107 -438 -31 -438 L -150 -438 L -106 -233 L -12 -233 C 115 -233 210 -166 274 -33 L 129 1090 L 399 1090 L 477 332 L 823 1090 L 1102 1090 Z" unicode="y" />
<glyph horiz-adv-x="1012" d="M 831 0 L -41 0 L 2 223 L 692 868 L 154 868 L 197 1090 L 1044 1090 L 1001 868 L 315 223 L 874 223 L 831 0 Z" unicode="z" />
<glyph horiz-adv-x="831" d="M 815 -391 L 762 -391 C 703 -392 649 -389 601 -381 C 552 -373 510 -357 475 -335 C 439 -313 411 -282 390 -242 C 369 -202 357 -151 354 -88 C 348 130 340 261 330 305 C 320 349 299 383 267 408 C 234 433 189 447 131 451 L 131 690 C 161 691 187 695 209 702 C 231 709 250 719 266 731 C 282 744 296 759 306 776 C 316 792 324 811 330 831 C 340 873 348 1005 354 1227 C 356 1309 382 1381 434 1442 C 459 1472 499 1494 554 1508 C 609 1522 678 1530 762 1530 L 815 1530 L 815 1290 L 803 1290 C 694 1290 635 1272 625 1237 C 619 1219 615 1193 612 1157 C 609 1121 607 1078 606 1026 C 604 868 587 761 557 707 C 526 651 482 605 424 569 C 456 550 483 528 507 504 C 530 480 549 452 563 420 C 591 358 606 257 606 115 C 606 13 612 -56 625 -94 C 639 -132 698 -152 803 -152 L 815 -152 L 815 -391 Z" unicode="{" />
<glyph horiz-adv-x="1194" d="M 489 -438 L 489 1530 L 707 1530 L 707 -438 L 489 -438 Z" unicode="|" />
<glyph horiz-adv-x="831" d="M 829 690 L 829 451 C 800 449 774 445 752 437 C 729 429 709 419 692 406 C 674 392 660 376 650 357 C 640 338 632 316 627 291 C 622 265 618 221 615 159 C 612 96 609 14 606 -88 C 604 -130 597 -168 583 -204 C 569 -240 549 -273 524 -303 C 473 -361 365 -391 199 -391 L 145 -391 L 145 -152 L 160 -152 C 198 -152 229 -150 253 -146 C 277 -142 295 -136 305 -129 C 327 -115 340 -93 344 -63 C 348 -33 352 59 356 215 C 358 265 364 308 373 345 C 381 382 393 415 408 443 C 423 471 441 495 463 515 C 484 535 509 553 537 569 C 463 615 414 671 389 735 C 377 767 369 807 363 856 C 357 904 354 961 354 1026 C 354 1073 353 1112 351 1143 C 349 1173 347 1196 344 1210 C 338 1240 321 1260 291 1272 C 261 1284 217 1290 160 1290 L 145 1290 L 145 1530 L 199 1530 C 240 1530 278 1528 312 1525 C 346 1521 378 1516 406 1509 C 462 1497 509 1466 546 1418 C 582 1369 602 1305 606 1227 C 609 1115 612 1026 616 960 C 619 894 623 851 629 831 C 640 790 661 757 693 732 C 725 707 770 693 829 690 Z" unicode="}" />
<glyph horiz-adv-x="1343" d="M 1280 985 L 1280 762 C 1222 716 1168 681 1118 658 C 1068 634 1021 623 977 623 C 909 623 820 649 709 702 C 651 730 602 750 563 764 C 524 777 494 784 473 784 C 377 784 276 735 170 637 L 170 860 C 278 951 383 997 487 997 C 550 997 638 970 750 918 C 860 864 939 838 987 838 C 1029 838 1074 850 1122 874 C 1170 898 1223 935 1280 985 Z" unicode="~" />
<glyph horiz-adv-x="600" d="" unicode=" " />
<glyph horiz-adv-x="748" d="M 25 -420 L 281 565 L 469 565 L 332 -420 L 25 -420 Z M 266 780 L 332 1110 L 631 1110 L 565 780 L 266 780 Z" unicode="¡" />
<glyph horiz-adv-x="973" d="M 952 766 L 772 698 C 764 726 753 750 739 771 C 724 792 705 809 682 823 L 477 182 C 575 188 653 240 711 340 L 852 262 C 808 171 749 102 676 56 C 602 10 515 -14 414 -18 L 279 -440 L 190 -440 L 328 -10 C 164 32 82 163 82 383 C 82 476 94 561 120 639 C 146 716 185 785 238 846 C 342 968 476 1030 641 1030 L 659 1030 L 788 1436 L 877 1436 L 743 1016 C 866 980 936 897 952 766 Z M 600 844 C 509 842 437 799 385 715 C 333 629 307 524 307 399 C 307 290 335 223 393 197 L 600 844 Z" unicode="¢" />
<glyph horiz-adv-x="1280" d="M 1276 1176 L 1030 1157 C 1034 1183 1036 1207 1036 1229 C 1036 1319 998 1364 922 1364 C 782 1364 713 1233 713 973 C 713 965 713 956 714 946 C 714 935 715 922 717 907 L 1042 907 L 1004 709 L 721 709 C 721 564 680 431 598 311 C 714 252 792 223 831 223 C 921 223 967 272 967 371 L 1196 371 C 1190 262 1147 168 1067 88 C 987 10 886 -29 764 -29 C 647 -29 546 19 461 115 C 363 19 263 -29 162 -29 C 131 -29 103 -24 78 -14 C 53 -4 32 8 14 26 C -3 44 -16 65 -26 89 C -36 113 -41 140 -41 170 C -41 210 -34 247 -20 279 C -6 311 13 339 39 362 C 64 384 94 402 129 414 C 164 426 203 432 246 432 C 261 432 283 428 313 421 C 342 414 378 403 422 389 C 434 422 443 460 449 503 C 455 546 459 595 459 649 C 459 662 459 673 459 683 C 459 693 458 701 457 709 L 207 709 L 246 907 L 444 907 C 442 910 442 914 442 919 C 442 924 442 930 442 938 C 442 1036 453 1124 477 1202 C 500 1279 534 1344 580 1397 C 626 1450 682 1491 748 1519 C 814 1547 891 1561 977 1561 C 1023 1561 1065 1553 1103 1539 C 1141 1525 1173 1504 1199 1476 C 1225 1448 1245 1415 1259 1375 C 1273 1335 1280 1289 1280 1237 C 1280 1229 1279 1221 1279 1211 C 1278 1201 1277 1189 1276 1176 Z M 338 209 C 284 257 235 281 193 281 C 131 281 100 256 100 207 C 100 148 124 119 174 119 C 227 119 282 149 338 209 Z" unicode="£" />
<glyph horiz-adv-x="1430" d="M 356 1202 L 489 1069 C 573 1118 657 1143 741 1143 C 825 1143 910 1118 995 1069 L 1126 1202 L 1268 1059 L 1137 928 C 1185 848 1210 764 1210 676 C 1210 585 1185 501 1137 424 L 1268 295 L 1126 154 L 995 283 C 919 233 834 209 741 209 C 649 209 565 233 489 283 L 360 154 L 217 295 L 348 424 C 298 502 274 586 274 676 C 274 765 298 849 348 928 L 217 1059 L 356 1202 Z M 475 676 C 475 603 501 540 553 487 C 604 435 667 410 741 410 C 815 410 878 435 930 487 C 983 539 1010 602 1010 676 C 1010 750 983 812 930 864 C 878 916 815 942 741 942 C 667 942 605 916 553 864 C 501 812 475 749 475 676 Z" unicode="¤" />
<glyph horiz-adv-x="1300" d="M 1427 1530 L 1053 999 L 1323 999 L 1294 852 L 948 852 L 827 680 L 805 561 L 1239 561 L 1210 414 L 776 414 L 694 0 L 391 0 L 473 414 L 39 414 L 68 561 L 502 561 L 524 680 L 469 852 L 123 852 L 152 999 L 424 999 L 256 1530 L 561 1530 L 727 963 L 1106 1530 L 1427 1530 Z" unicode="¥" />
<glyph horiz-adv-x="1194" d="M 489 801 L 489 1530 L 707 1530 L 707 801 L 489 801 Z M 489 -438 L 489 293 L 707 293 L 707 -438 L 489 -438 Z" unicode="¦" />
<glyph horiz-adv-x="1130" d="M 1114 1235 L 852 1198 C 852 1307 809 1362 723 1362 C 705 1362 688 1359 672 1353 C 656 1347 641 1339 629 1329 C 616 1319 606 1307 598 1293 C 590 1279 586 1263 586 1247 C 586 1210 598 1175 623 1143 C 636 1126 656 1105 684 1081 C 712 1056 747 1027 791 993 C 837 957 876 925 908 895 C 939 865 964 835 984 807 C 1003 779 1017 751 1025 723 C 1033 695 1038 665 1038 635 C 1038 449 935 302 729 193 C 799 115 834 28 834 -68 C 834 -174 790 -262 702 -332 C 616 -402 513 -438 391 -438 C 333 -438 282 -430 237 -415 C 191 -400 153 -378 122 -350 C 90 -322 66 -287 50 -247 C 33 -206 25 -160 25 -109 L 287 -70 C 287 -180 328 -236 412 -236 C 508 -236 557 -198 557 -123 C 557 -97 553 -73 545 -53 C 537 -33 526 -13 510 5 C 494 23 475 42 451 62 C 427 81 399 103 367 127 C 190 255 102 377 102 492 C 102 679 206 828 414 940 C 340 1024 303 1103 303 1178 C 303 1292 346 1384 432 1454 C 517 1525 624 1561 752 1561 C 987 1561 1108 1452 1114 1235 Z M 530 831 C 420 747 365 663 365 578 C 365 548 375 517 395 487 C 405 471 428 448 464 417 C 500 385 549 347 612 301 C 720 384 774 468 774 553 C 774 568 771 583 766 599 C 760 614 752 630 741 647 C 719 681 648 743 530 831 Z" unicode="§" />
<glyph horiz-adv-x="682" d="M 864 1487 L 823 1272 L 606 1272 L 647 1487 L 864 1487 Z M 383 1487 L 342 1272 L 123 1272 L 164 1487 L 383 1487 Z" unicode="¨" />
<glyph horiz-adv-x="1737" d="M 1675 795 C 1675 583 1600 402 1450 252 C 1301 103 1121 29 909 29 C 803 29 704 47 614 84 C 524 120 441 176 367 252 C 217 400 143 581 143 795 C 143 1006 217 1186 367 1335 C 516 1485 697 1561 909 1561 C 1119 1561 1299 1485 1450 1335 C 1600 1185 1675 1005 1675 795 Z M 295 795 C 295 623 355 478 475 358 C 595 238 741 178 911 178 C 1079 178 1224 238 1346 358 C 1466 478 1526 624 1526 795 C 1526 964 1466 1109 1346 1231 C 1286 1291 1219 1336 1147 1366 C 1075 1396 996 1411 911 1411 C 740 1411 595 1351 475 1231 C 355 1111 295 965 295 795 Z M 1257 975 L 1094 938 C 1058 1030 999 1077 915 1077 C 883 1077 854 1070 829 1058 C 803 1045 782 1027 764 1004 C 746 980 733 952 724 919 C 715 885 711 848 711 807 C 711 609 776 510 907 510 C 999 510 1062 566 1096 680 L 1257 627 C 1204 453 1086 367 903 367 C 797 367 709 405 639 481 C 569 558 535 663 535 795 C 535 859 544 917 562 969 C 580 1021 605 1065 639 1102 C 672 1139 713 1168 761 1188 C 809 1208 862 1219 922 1219 C 1086 1219 1197 1137 1257 975 Z" unicode="©" />
<glyph horiz-adv-x="840" d="M 776 776 L 594 776 C 592 789 591 801 591 812 C 590 823 590 833 590 842 L 590 856 C 525 794 449 764 362 764 C 332 764 304 768 280 777 C 255 785 234 798 217 814 C 199 830 186 849 176 872 C 166 895 162 921 162 950 C 162 1125 329 1230 664 1266 L 672 1305 C 673 1312 674 1318 675 1323 C 675 1328 676 1333 676 1337 C 676 1394 638 1423 563 1423 C 484 1423 419 1389 369 1321 L 272 1417 C 308 1448 340 1473 369 1493 C 398 1512 425 1526 449 1534 C 497 1550 545 1559 592 1559 C 770 1559 860 1492 860 1360 C 860 1350 859 1340 858 1329 C 857 1317 855 1305 852 1292 L 780 934 C 776 919 774 903 773 887 C 772 871 772 854 772 836 C 772 826 772 817 773 807 C 773 797 774 787 776 776 Z M 643 1157 C 447 1129 350 1066 350 967 C 350 919 375 895 426 895 C 477 895 537 918 606 965 L 643 1157 Z" unicode="ª" />
<glyph horiz-adv-x="1143" d="M 559 543 L 889 1028 L 1176 1028 L 848 543 L 991 61 L 705 61 L 559 543 Z M 59 543 L 379 1028 L 680 1028 L 354 543 L 496 61 L 205 61 L 59 543 Z" unicode="«" />
<glyph horiz-adv-x="1366" d="M 166 897 L 166 1112 L 1280 1112 L 1280 410 L 1065 410 L 1065 897 L 166 897 Z" unicode="¬" />
<glyph horiz-adv-x="1737" d="M 1675 795 C 1675 583 1600 402 1450 252 C 1301 103 1121 29 909 29 C 803 29 704 47 614 84 C 524 120 441 176 367 252 C 217 400 143 581 143 795 C 143 1006 217 1186 367 1335 C 516 1485 697 1561 909 1561 C 1119 1561 1299 1485 1450 1335 C 1600 1185 1675 1005 1675 795 Z M 295 795 C 295 623 355 478 475 358 C 595 238 741 178 911 178 C 1079 178 1224 238 1346 358 C 1466 478 1526 624 1526 795 C 1526 964 1466 1109 1346 1231 C 1286 1291 1219 1336 1147 1366 C 1075 1396 996 1411 911 1411 C 740 1411 595 1351 475 1231 C 355 1111 295 965 295 795 Z M 760 385 L 594 385 L 594 1198 L 979 1198 C 1066 1198 1133 1177 1181 1137 C 1229 1096 1253 1039 1253 967 C 1253 937 1248 910 1238 884 C 1228 858 1213 836 1195 816 C 1176 796 1153 779 1126 766 C 1098 752 1068 743 1034 739 C 1049 733 1063 725 1076 717 C 1089 709 1100 699 1110 688 C 1131 664 1163 617 1206 547 L 1303 385 L 1098 385 L 1030 516 C 1011 552 994 583 978 609 C 962 635 946 656 929 672 C 912 688 893 700 873 708 C 853 715 829 719 803 719 L 760 719 L 760 385 Z M 760 1069 L 760 846 L 893 846 C 1015 846 1077 885 1077 965 C 1077 1034 1021 1069 909 1069 L 760 1069 Z" unicode="®" />
<glyph horiz-adv-x="682" d="M 838 1495 L 801 1311 L 156 1311 L 193 1495 L 838 1495 Z" unicode="¯" />
<glyph horiz-adv-x="811" d="M 541 1561 C 630 1561 705 1529 766 1466 C 828 1403 860 1328 860 1241 C 860 1153 828 1078 766 1016 C 735 984 701 960 663 945 C 625 929 585 922 541 922 C 451 922 375 953 313 1016 C 251 1079 221 1154 221 1241 C 221 1327 251 1402 313 1466 C 376 1529 452 1561 541 1561 Z M 541 1081 C 563 1081 583 1085 602 1093 C 621 1101 638 1113 652 1127 C 666 1141 678 1158 686 1178 C 694 1197 698 1218 698 1241 C 698 1263 694 1283 686 1303 C 678 1322 666 1339 652 1353 C 638 1367 621 1378 602 1386 C 583 1394 563 1399 541 1399 C 518 1399 497 1394 478 1386 C 458 1378 441 1367 427 1353 C 413 1339 401 1322 393 1303 C 385 1283 381 1263 381 1241 C 381 1219 385 1198 393 1179 C 401 1159 413 1142 428 1128 C 442 1113 459 1101 479 1093 C 498 1085 519 1081 541 1081 Z" unicode="°" />
<glyph horiz-adv-x="1366" d="M 1239 842 L 788 842 L 788 391 L 573 391 L 573 842 L 125 842 L 125 1055 L 573 1055 L 573 1505 L 788 1505 L 788 1055 L 1239 1055 L 1239 842 Z M 1239 33 L 125 33 L 125 248 L 1239 248 L 1239 33 Z" unicode="±" />
<glyph horiz-adv-x="641" d="M 322 911 L 659 911 L 631 768 L 127 768 C 141 837 162 897 190 948 C 205 973 221 996 238 1018 C 254 1039 271 1058 289 1075 C 306 1091 329 1111 359 1133 C 389 1155 425 1182 467 1212 C 529 1254 561 1294 561 1331 C 561 1360 554 1380 542 1392 C 530 1403 507 1409 473 1409 C 405 1409 349 1377 303 1313 L 199 1374 C 266 1487 372 1544 516 1544 C 655 1544 725 1486 725 1372 C 725 1319 708 1271 676 1229 C 660 1208 635 1183 601 1154 C 566 1124 522 1091 469 1053 C 394 999 345 951 322 911 Z" unicode="²" />
<glyph horiz-adv-x="641" d="M 543 1169 C 626 1137 668 1079 668 995 C 668 916 641 855 589 812 C 537 769 464 748 371 748 C 270 748 186 796 119 893 L 242 963 C 272 897 321 864 389 864 C 429 864 461 875 486 898 C 511 921 524 951 524 989 C 524 1057 469 1092 360 1092 L 295 1092 L 319 1225 L 395 1225 C 421 1225 446 1227 470 1233 C 493 1238 513 1246 530 1256 C 547 1266 561 1279 571 1295 C 581 1310 586 1328 586 1348 C 586 1399 551 1425 483 1425 C 429 1425 378 1397 332 1341 L 256 1432 C 296 1468 337 1496 381 1514 C 424 1532 470 1542 518 1542 C 550 1542 580 1537 606 1529 C 632 1520 654 1508 672 1492 C 690 1476 704 1458 714 1437 C 724 1415 729 1392 729 1368 C 729 1320 710 1277 674 1239 C 638 1199 595 1176 543 1169 Z" unicode="³" />
<glyph horiz-adv-x="682" d="M 952 1563 L 510 1227 L 324 1227 L 616 1563 L 952 1563 Z" unicode="´" />
<glyph horiz-adv-x="1260" d="M 1130 0 L 868 0 L 868 129 C 812 25 741 -27 655 -27 C 611 -27 571 -14 536 12 C 501 38 470 77 442 129 L 442 -408 L 164 -408 L 164 1061 L 442 1061 L 442 582 C 442 502 446 437 456 385 C 466 333 480 295 500 272 C 539 224 586 201 641 201 C 777 201 846 306 846 516 L 846 1061 L 1130 1061 L 1130 0 Z" unicode="µ" />
<glyph horiz-adv-x="1315" d="M 678 1270 L 678 -440 L 475 -440 L 475 709 C 345 719 241 760 162 834 C 81 907 41 1000 41 1114 C 41 1391 232 1530 616 1530 L 1274 1530 L 1274 1270 L 1100 1270 L 1100 -440 L 903 -440 L 903 1270 L 678 1270 Z" unicode="¶" />
<glyph horiz-adv-x="711" d="M 227 662 L 291 989 L 592 989 L 528 662 L 227 662 Z" unicode="·" />
<glyph horiz-adv-x="682" d="M -188 -369 L -92 -250 C -65 -265 -35 -276 -1 -284 C 33 -291 71 -295 113 -295 C 175 -295 207 -273 207 -229 C 207 -187 166 -166 86 -166 C 76 -166 68 -166 61 -166 C 54 -166 48 -166 43 -168 L 182 10 L 358 10 L 293 -80 C 384 -106 430 -154 430 -225 C 430 -288 400 -339 340 -379 C 280 -418 211 -438 131 -438 C 68 -438 10 -432 -42 -421 C -95 -409 -144 -392 -188 -369 Z" unicode="¸" />
<glyph horiz-adv-x="641" d="M 637 909 L 608 768 L 154 768 L 182 909 L 336 909 L 422 1352 C 355 1328 298 1317 252 1317 L 281 1458 C 309 1461 337 1468 365 1479 C 393 1490 423 1504 455 1522 L 604 1522 L 485 909 L 637 909 Z" unicode="¹" />
<glyph horiz-adv-x="844" d="M 473 764 C 429 764 390 770 355 784 C 319 798 289 817 264 843 C 239 868 220 899 206 935 C 192 971 186 1011 186 1057 C 186 1193 225 1311 303 1409 C 381 1507 480 1556 602 1556 C 802 1556 903 1462 903 1274 C 903 1194 893 1122 875 1059 C 856 996 828 943 792 899 C 755 855 710 821 657 798 C 603 775 542 764 473 764 Z M 596 1423 C 530 1423 477 1384 438 1307 C 398 1230 379 1145 379 1053 C 379 950 417 899 494 899 C 557 899 609 938 651 1016 C 692 1094 713 1178 713 1266 C 713 1370 674 1423 596 1423 Z" unicode="º" />
<glyph horiz-adv-x="1143" d="M 293 545 L 150 1028 L 440 1028 L 580 545 L 256 61 L -35 61 L 293 545 Z M 799 545 L 655 1028 L 942 1028 L 1085 545 L 758 61 L 471 61 L 799 545 Z" unicode="»" />
<glyph horiz-adv-x="1921" d="M 1739 1493 L 391 -252 L 281 -186 L 1632 1569 L 1739 1493 Z M 649 741 L 618 582 L 92 582 L 123 741 L 291 741 L 412 1368 C 384 1358 356 1351 330 1346 C 303 1341 276 1338 248 1337 L 279 1495 C 319 1498 356 1504 390 1514 C 424 1524 454 1536 481 1552 L 645 1552 L 487 741 L 649 741 Z M 1772 786 L 1642 117 L 1757 117 L 1724 -43 L 1610 -43 L 1571 -252 L 1376 -252 L 1415 -43 L 946 -43 L 977 106 L 1538 786 L 1772 786 Z M 1538 582 L 1155 117 L 1448 117 L 1538 582 Z" unicode="¼" />
<glyph horiz-adv-x="1921" d="M 1692 1493 L 344 -250 L 231 -184 L 1581 1561 L 1692 1493 Z M 670 743 L 639 584 L 111 584 L 141 743 L 313 743 L 436 1368 C 413 1360 388 1353 362 1348 C 336 1343 307 1340 276 1339 L 307 1503 C 344 1506 379 1513 412 1523 C 444 1533 476 1545 506 1561 L 670 1561 L 510 743 L 670 743 Z M 1300 -55 L 1731 -55 L 1692 -250 L 1022 -250 L 1049 -117 C 1062 -89 1089 -52 1130 -4 C 1152 19 1174 43 1198 67 C 1222 91 1247 115 1274 141 C 1302 167 1336 196 1377 230 C 1417 264 1465 302 1520 346 C 1589 406 1624 462 1624 516 C 1624 582 1590 616 1522 616 C 1436 616 1373 574 1335 492 L 1176 528 C 1257 698 1389 784 1571 784 C 1610 784 1646 778 1679 766 C 1711 754 1739 738 1763 718 C 1786 697 1804 672 1817 643 C 1830 614 1837 583 1837 549 C 1837 433 1750 308 1577 176 C 1516 130 1463 88 1417 50 C 1371 12 1332 -23 1300 -55 Z" unicode="½" />
<glyph horiz-adv-x="1921" d="M 1739 1489 L 393 -254 L 281 -190 L 1630 1561 L 1739 1489 Z M 641 1071 C 743 1031 795 971 795 891 C 797 803 760 728 684 668 C 608 608 518 578 414 578 C 270 578 171 633 119 743 L 268 842 C 322 776 378 743 438 743 C 458 743 477 746 495 754 C 513 762 529 772 543 785 C 557 798 568 813 576 830 C 584 847 588 865 588 883 C 588 956 516 993 373 993 L 334 993 L 365 1151 L 424 1151 C 467 1151 504 1154 535 1162 C 565 1170 590 1180 610 1192 C 629 1204 643 1219 652 1235 C 661 1251 666 1267 666 1284 C 666 1296 663 1308 657 1319 C 651 1330 643 1340 633 1348 C 623 1356 611 1362 598 1367 C 584 1371 571 1374 557 1374 C 499 1374 439 1346 379 1290 L 274 1399 C 390 1501 511 1552 637 1552 C 709 1552 766 1533 807 1497 C 847 1460 868 1410 868 1348 C 870 1227 794 1135 641 1071 Z M 1784 780 L 1655 113 L 1765 113 L 1735 -45 L 1624 -45 L 1583 -254 L 1389 -254 L 1430 -45 L 961 -45 L 989 102 L 1544 780 L 1784 780 Z M 1550 584 L 1167 113 L 1460 113 L 1550 584 Z" unicode="¾" />
<glyph horiz-adv-x="961" d="M 821 1110 L 760 782 L 463 782 L 524 1110 L 821 1110 Z M 723 -190 C 603 -350 463 -430 301 -430 C 253 -430 209 -422 170 -407 C 130 -392 95 -370 63 -340 C 1 -280 -29 -207 -27 -123 C -27 19 58 155 229 287 C 266 315 297 341 323 365 C 349 389 369 410 385 430 C 415 468 437 523 453 596 L 688 596 C 668 488 639 402 602 338 C 566 275 512 215 442 158 L 344 74 C 320 54 301 30 287 2 C 273 -25 266 -56 266 -88 C 266 -149 303 -180 377 -180 C 447 -180 510 -140 565 -61 L 723 -190 Z" unicode="¿" />
<glyph horiz-adv-x="1413" d="M 1276 0 L 967 0 L 920 358 L 430 358 L 244 0 L -72 0 L 756 1530 L 1061 1530 L 1276 0 Z M 893 582 L 821 1116 L 545 582 L 893 582 Z M 1100 1641 L 948 1641 L 703 1977 L 1012 1977 L 1100 1641 Z" unicode="À" />
<glyph horiz-adv-x="1413" d="M 1276 0 L 967 0 L 920 358 L 430 358 L 244 0 L -72 0 L 756 1530 L 1061 1530 L 1276 0 Z M 893 582 L 821 1116 L 545 582 L 893 582 Z M 1345 1977 L 903 1641 L 717 1641 L 1009 1977 L 1345 1977 Z" unicode="Á" />
<glyph horiz-adv-x="1413" d="M 1276 0 L 967 0 L 920 358 L 430 358 L 244 0 L -72 0 L 756 1530 L 1061 1530 L 1276 0 Z M 893 582 L 821 1116 L 545 582 L 893 582 Z M 1288 1639 L 1120 1639 L 995 1778 L 754 1639 L 561 1639 L 940 1956 L 1096 1956 L 1288 1639 Z" unicode="Â" />
<glyph horiz-adv-x="1413" d="M 1276 0 L 967 0 L 920 358 L 430 358 L 244 0 L -72 0 L 756 1530 L 1061 1530 L 1276 0 Z M 893 582 L 821 1116 L 545 582 L 893 582 Z M 1348 1923 C 1300 1741 1207 1651 1071 1651 C 1038 1651 996 1669 946 1706 C 894 1743 857 1762 833 1762 C 823 1762 812 1759 801 1753 C 790 1747 780 1738 770 1728 C 760 1718 751 1706 744 1693 C 736 1679 731 1665 729 1651 L 573 1651 C 625 1835 720 1927 858 1927 C 896 1927 938 1908 985 1872 C 1032 1836 1068 1819 1094 1819 C 1136 1819 1170 1853 1198 1923 L 1348 1923 Z" unicode="Ã" />
<glyph horiz-adv-x="1413" d="M 1276 0 L 967 0 L 920 358 L 430 358 L 244 0 L -72 0 L 756 1530 L 1061 1530 L 1276 0 Z M 893 582 L 821 1116 L 545 582 L 893 582 Z M 1321 1901 L 1280 1686 L 1063 1686 L 1104 1901 L 1321 1901 Z M 840 1901 L 799 1686 L 580 1686 L 621 1901 L 840 1901 Z" unicode="Ä" />
<glyph horiz-adv-x="1413" d="M 1276 0 L 967 0 L 920 358 L 430 358 L 244 0 L -72 0 L 756 1530 L 1061 1530 L 1276 0 Z M 893 582 L 821 1116 L 545 582 L 893 582 Z M 1172 1803 C 1172 1773 1166 1746 1156 1721 C 1145 1695 1130 1673 1111 1654 C 1092 1635 1070 1620 1045 1610 C 1019 1599 992 1594 963 1594 C 934 1594 907 1599 882 1610 C 856 1620 834 1635 815 1654 C 796 1672 781 1694 770 1719 C 759 1744 754 1771 754 1800 C 754 1829 759 1856 771 1882 C 783 1908 798 1930 818 1949 C 837 1968 859 1983 884 1994 C 909 2005 935 2011 963 2011 C 992 2011 1019 2005 1045 1994 C 1070 1983 1092 1968 1111 1949 C 1130 1930 1145 1908 1156 1883 C 1166 1858 1172 1831 1172 1803 Z M 836 1800 C 836 1782 839 1765 845 1750 C 851 1734 860 1721 872 1710 C 884 1698 897 1689 913 1683 C 928 1676 945 1673 963 1673 C 981 1673 997 1676 1013 1683 C 1029 1689 1042 1698 1054 1710 C 1066 1721 1075 1734 1082 1750 C 1088 1765 1092 1782 1092 1800 C 1092 1818 1088 1834 1081 1850 C 1074 1866 1065 1879 1053 1891 C 1041 1903 1027 1912 1012 1919 C 996 1925 981 1929 965 1929 C 946 1929 929 1925 913 1918 C 897 1911 884 1902 872 1890 C 860 1878 851 1864 845 1848 C 839 1832 836 1816 836 1800 Z" unicode="Å" />
<glyph horiz-adv-x="1933" d="M 1761 0 L 799 0 L 864 356 L 453 356 L 244 0 L -72 0 L 838 1530 L 1999 1530 L 1948 1268 L 1343 1268 L 1284 928 L 1667 928 L 1618 682 L 1229 682 L 1149 264 L 1815 264 L 1761 0 Z M 909 582 L 1047 1268 L 979 1268 L 584 582 L 909 582 Z" unicode="Æ" />
<glyph horiz-adv-x="1397" d="M 457 -168 L 569 -23 C 277 19 131 211 131 553 C 131 842 209 1082 365 1274 C 521 1465 727 1561 983 1561 C 1115 1561 1225 1521 1313 1442 C 1357 1402 1391 1357 1415 1307 C 1439 1257 1452 1201 1456 1141 L 1159 1063 C 1151 1229 1071 1313 920 1313 C 782 1313 668 1241 578 1098 C 488 953 444 790 444 608 C 444 365 537 244 725 244 C 859 244 973 334 1069 516 L 1333 438 C 1202 147 1005 -8 743 -29 L 707 -80 C 798 -106 844 -154 844 -225 C 844 -289 814 -341 754 -381 C 695 -419 625 -438 545 -438 C 482 -438 424 -432 371 -421 C 317 -409 269 -392 225 -369 L 322 -250 C 348 -265 378 -276 412 -284 C 446 -291 484 -295 526 -295 C 589 -295 621 -273 621 -229 C 621 -187 580 -166 500 -166 C 490 -166 482 -166 475 -166 C 468 -166 462 -166 457 -168 Z" unicode="Ç" />
<glyph horiz-adv-x="1253" d="M 1319 1530 L 1266 1264 L 627 1264 L 563 928 L 979 928 L 934 680 L 512 680 L 432 264 L 1133 264 L 1081 0 L 80 0 L 379 1530 L 1319 1530 Z M 987 1641 L 835 1641 L 590 1977 L 899 1977 L 987 1641 Z" unicode="È" />
<glyph horiz-adv-x="1253" d="M 1319 1530 L 1266 1264 L 627 1264 L 563 928 L 979 928 L 934 680 L 512 680 L 432 264 L 1133 264 L 1081 0 L 80 0 L 379 1530 L 1319 1530 Z M 1302 1977 L 860 1641 L 674 1641 L 966 1977 L 1302 1977 Z" unicode="É" />
<glyph horiz-adv-x="1253" d="M 1319 1530 L 1266 1264 L 627 1264 L 563 928 L 979 928 L 934 680 L 512 680 L 432 264 L 1133 264 L 1081 0 L 80 0 L 379 1530 L 1319 1530 Z M 1231 1639 L 1063 1639 L 938 1778 L 697 1639 L 504 1639 L 883 1956 L 1039 1956 L 1231 1639 Z" unicode="Ê" />
<glyph horiz-adv-x="1253" d="M 1319 1530 L 1266 1264 L 627 1264 L 563 928 L 979 928 L 934 680 L 512 680 L 432 264 L 1133 264 L 1081 0 L 80 0 L 379 1530 L 1319 1530 Z M 1274 1901 L 1233 1686 L 1016 1686 L 1057 1901 L 1274 1901 Z M 793 1901 L 752 1686 L 533 1686 L 574 1901 L 793 1901 Z" unicode="Ë" />
<glyph horiz-adv-x="670" d="M 680 1530 L 381 0 L 80 0 L 379 1530 L 680 1530 Z M 731 1641 L 579 1641 L 334 1977 L 643 1977 L 731 1641 Z" unicode="Ì" />
<glyph horiz-adv-x="670" d="M 680 1530 L 381 0 L 80 0 L 379 1530 L 680 1530 Z M 964 1977 L 522 1641 L 336 1641 L 628 1977 L 964 1977 Z" unicode="Í" />
<glyph horiz-adv-x="670" d="M 680 1530 L 381 0 L 80 0 L 379 1530 L 680 1530 Z M 895 1639 L 727 1639 L 602 1778 L 361 1639 L 168 1639 L 547 1956 L 703 1956 L 895 1639 Z" unicode="Î" />
<glyph horiz-adv-x="670" d="M 680 1530 L 381 0 L 80 0 L 379 1530 L 680 1530 Z M 944 1901 L 903 1686 L 686 1686 L 727 1901 L 944 1901 Z M 463 1901 L 422 1686 L 203 1686 L 244 1901 L 463 1901 Z" unicode="Ï" />
<glyph horiz-adv-x="1516" d="M 80 0 L 207 645 L 96 645 L 131 831 L 242 831 L 379 1530 L 819 1530 C 1007 1530 1162 1478 1282 1374 C 1403 1270 1464 1130 1464 956 C 1464 671 1384 440 1225 264 C 1065 88 854 0 594 0 L 80 0 Z M 633 1272 L 547 831 L 813 831 L 793 645 L 512 645 L 438 268 L 633 268 C 778 268 901 329 1001 453 C 1051 514 1089 581 1114 653 C 1138 725 1151 803 1151 887 C 1151 948 1142 1003 1125 1051 C 1107 1099 1082 1139 1050 1172 C 1017 1204 977 1229 929 1246 C 881 1263 826 1272 766 1272 L 633 1272 Z" unicode="Ð" />
<glyph horiz-adv-x="1608" d="M 1321 0 L 1044 0 L 588 1075 L 377 0 L 78 0 L 377 1530 L 672 1530 L 1118 494 L 1321 1530 L 1620 1530 L 1321 0 Z M 1422 1923 C 1374 1741 1281 1651 1145 1651 C 1112 1651 1070 1669 1020 1706 C 968 1743 931 1762 907 1762 C 897 1762 886 1759 875 1753 C 864 1747 854 1738 844 1728 C 834 1718 825 1706 818 1693 C 810 1679 805 1665 803 1651 L 647 1651 C 699 1835 794 1927 932 1927 C 970 1927 1012 1908 1059 1872 C 1106 1836 1142 1819 1168 1819 C 1210 1819 1244 1853 1272 1923 L 1422 1923 Z" unicode="Ñ" />
<glyph horiz-adv-x="1556" d="M 676 -29 C 508 -29 373 22 272 125 C 172 228 123 365 123 535 C 123 677 141 809 179 929 C 217 1049 273 1160 348 1260 C 500 1460 699 1561 944 1561 C 1034 1561 1115 1547 1187 1521 C 1258 1495 1318 1456 1367 1406 C 1416 1356 1453 1294 1479 1221 C 1505 1148 1518 1065 1518 971 C 1518 680 1441 441 1288 254 C 1136 65 932 -29 676 -29 Z M 920 1298 C 772 1298 654 1223 567 1075 C 479 927 436 752 436 551 C 436 342 529 238 715 238 C 865 238 983 311 1071 459 C 1159 607 1204 782 1204 985 C 1204 1193 1109 1298 920 1298 Z M 1188 1641 L 1036 1641 L 791 1977 L 1100 1977 L 1188 1641 Z" unicode="Ò" />
<glyph horiz-adv-x="1556" d="M 676 -29 C 508 -29 373 22 272 125 C 172 228 123 365 123 535 C 123 677 141 809 179 929 C 217 1049 273 1160 348 1260 C 500 1460 699 1561 944 1561 C 1034 1561 1115 1547 1187 1521 C 1258 1495 1318 1456 1367 1406 C 1416 1356 1453 1294 1479 1221 C 1505 1148 1518 1065 1518 971 C 1518 680 1441 441 1288 254 C 1136 65 932 -29 676 -29 Z M 920 1298 C 772 1298 654 1223 567 1075 C 479 927 436 752 436 551 C 436 342 529 238 715 238 C 865 238 983 311 1071 459 C 1159 607 1204 782 1204 985 C 1204 1193 1109 1298 920 1298 Z M 1421 1977 L 979 1641 L 793 1641 L 1085 1977 L 1421 1977 Z" unicode="Ó" />
<glyph horiz-adv-x="1556" d="M 676 -29 C 508 -29 373 22 272 125 C 172 228 123 365 123 535 C 123 677 141 809 179 929 C 217 1049 273 1160 348 1260 C 500 1460 699 1561 944 1561 C 1034 1561 1115 1547 1187 1521 C 1258 1495 1318 1456 1367 1406 C 1416 1356 1453 1294 1479 1221 C 1505 1148 1518 1065 1518 971 C 1518 680 1441 441 1288 254 C 1136 65 932 -29 676 -29 Z M 920 1298 C 772 1298 654 1223 567 1075 C 479 927 436 752 436 551 C 436 342 529 238 715 238 C 865 238 983 311 1071 459 C 1159 607 1204 782 1204 985 C 1204 1193 1109 1298 920 1298 Z M 1370 1639 L 1202 1639 L 1077 1778 L 836 1639 L 643 1639 L 1022 1956 L 1178 1956 L 1370 1639 Z" unicode="Ô" />
<glyph horiz-adv-x="1556" d="M 676 -29 C 508 -29 373 22 272 125 C 172 228 123 365 123 535 C 123 677 141 809 179 929 C 217 1049 273 1160 348 1260 C 500 1460 699 1561 944 1561 C 1034 1561 1115 1547 1187 1521 C 1258 1495 1318 1456 1367 1406 C 1416 1356 1453 1294 1479 1221 C 1505 1148 1518 1065 1518 971 C 1518 680 1441 441 1288 254 C 1136 65 932 -29 676 -29 Z M 920 1298 C 772 1298 654 1223 567 1075 C 479 927 436 752 436 551 C 436 342 529 238 715 238 C 865 238 983 311 1071 459 C 1159 607 1204 782 1204 985 C 1204 1193 1109 1298 920 1298 Z M 1428 1923 C 1380 1741 1287 1651 1151 1651 C 1118 1651 1076 1669 1026 1706 C 974 1743 937 1762 913 1762 C 903 1762 892 1759 881 1753 C 870 1747 860 1738 850 1728 C 840 1718 831 1706 824 1693 C 816 1679 811 1665 809 1651 L 653 1651 C 705 1835 800 1927 938 1927 C 976 1927 1018 1908 1065 1872 C 1112 1836 1148 1819 1174 1819 C 1216 1819 1250 1853 1278 1923 L 1428 1923 Z" unicode="Õ" />
<glyph horiz-adv-x="1556" d="M 676 -29 C 508 -29 373 22 272 125 C 172 228 123 365 123 535 C 123 677 141 809 179 929 C 217 1049 273 1160 348 1260 C 500 1460 699 1561 944 1561 C 1034 1561 1115 1547 1187 1521 C 1258 1495 1318 1456 1367 1406 C 1416 1356 1453 1294 1479 1221 C 1505 1148 1518 1065 1518 971 C 1518 680 1441 441 1288 254 C 1136 65 932 -29 676 -29 Z M 920 1298 C 772 1298 654 1223 567 1075 C 479 927 436 752 436 551 C 436 342 529 238 715 238 C 865 238 983 311 1071 459 C 1159 607 1204 782 1204 985 C 1204 1193 1109 1298 920 1298 Z M 1415 1901 L 1374 1686 L 1157 1686 L 1198 1901 L 1415 1901 Z M 934 1901 L 893 1686 L 674 1686 L 715 1901 L 934 1901 Z" unicode="Ö" />
<glyph horiz-adv-x="1366" d="M 573 764 L 199 1139 L 350 1290 L 725 915 L 1100 1290 L 1251 1139 L 877 764 L 1247 393 L 1098 242 L 725 612 L 354 242 L 203 393 L 573 764 Z" unicode="×" />
<glyph horiz-adv-x="1556" d="M 1565 1460 L 1430 1315 C 1488 1219 1518 1105 1518 971 C 1518 680 1441 441 1288 254 C 1136 65 932 -29 676 -29 C 529 -29 405 17 303 109 L 174 -29 L 74 72 L 211 219 C 152 310 123 415 123 535 C 123 677 141 809 179 929 C 217 1049 273 1160 348 1260 C 500 1460 699 1561 944 1561 C 1106 1561 1237 1515 1337 1425 L 1464 1561 L 1565 1460 Z M 1137 1210 C 1111 1240 1081 1262 1045 1276 C 1009 1290 968 1298 920 1298 C 772 1298 654 1223 567 1075 C 479 927 436 752 436 551 C 436 521 438 493 442 467 L 1137 1210 Z M 502 324 C 548 266 619 238 715 238 C 865 238 983 311 1071 459 C 1159 607 1204 782 1204 985 C 1204 1014 1202 1041 1198 1067 L 502 324 Z" unicode="Ø" />
<glyph horiz-adv-x="1563" d="M 1585 1530 L 1395 569 C 1374 466 1344 377 1305 302 C 1265 226 1216 164 1156 115 C 1096 66 1025 30 945 6 C 864 -17 772 -29 670 -29 C 590 -29 520 -19 458 1 C 396 21 343 50 301 88 C 258 126 225 172 203 227 C 181 281 170 344 170 414 C 170 468 177 535 193 614 L 369 1530 L 670 1530 L 487 596 C 481 571 478 548 476 528 C 474 508 473 489 473 473 C 473 316 556 238 723 238 C 929 238 1059 379 1114 662 L 1284 1530 L 1585 1530 Z M 1116 1641 L 964 1641 L 719 1977 L 1028 1977 L 1116 1641 Z" unicode="Ù" />
<glyph horiz-adv-x="1563" d="M 1585 1530 L 1395 569 C 1374 466 1344 377 1305 302 C 1265 226 1216 164 1156 115 C 1096 66 1025 30 945 6 C 864 -17 772 -29 670 -29 C 590 -29 520 -19 458 1 C 396 21 343 50 301 88 C 258 126 225 172 203 227 C 181 281 170 344 170 414 C 170 468 177 535 193 614 L 369 1530 L 670 1530 L 487 596 C 481 571 478 548 476 528 C 474 508 473 489 473 473 C 473 316 556 238 723 238 C 929 238 1059 379 1114 662 L 1284 1530 L 1585 1530 Z M 1441 1977 L 999 1641 L 813 1641 L 1105 1977 L 1441 1977 Z" unicode="Ú" />
<glyph horiz-adv-x="1563" d="M 1585 1530 L 1395 569 C 1374 466 1344 377 1305 302 C 1265 226 1216 164 1156 115 C 1096 66 1025 30 945 6 C 864 -17 772 -29 670 -29 C 590 -29 520 -19 458 1 C 396 21 343 50 301 88 C 258 126 225 172 203 227 C 181 281 170 344 170 414 C 170 468 177 535 193 614 L 369 1530 L 670 1530 L 487 596 C 481 571 478 548 476 528 C 474 508 473 489 473 473 C 473 316 556 238 723 238 C 929 238 1059 379 1114 662 L 1284 1530 L 1585 1530 Z M 1349 1639 L 1181 1639 L 1056 1778 L 815 1639 L 622 1639 L 1001 1956 L 1157 1956 L 1349 1639 Z" unicode="Û" />
<glyph horiz-adv-x="1563" d="M 1585 1530 L 1395 569 C 1374 466 1344 377 1305 302 C 1265 226 1216 164 1156 115 C 1096 66 1025 30 945 6 C 864 -17 772 -29 670 -29 C 590 -29 520 -19 458 1 C 396 21 343 50 301 88 C 258 126 225 172 203 227 C 181 281 170 344 170 414 C 170 468 177 535 193 614 L 369 1530 L 670 1530 L 487 596 C 481 571 478 548 476 528 C 474 508 473 489 473 473 C 473 316 556 238 723 238 C 929 238 1059 379 1114 662 L 1284 1530 L 1585 1530 Z M 1384 1901 L 1343 1686 L 1126 1686 L 1167 1901 L 1384 1901 Z M 903 1901 L 862 1686 L 643 1686 L 684 1901 L 903 1901 Z" unicode="Ü" />
<glyph horiz-adv-x="1235" d="M 1378 1530 L 776 682 L 643 0 L 342 0 L 475 682 L 207 1530 L 508 1530 L 674 971 L 1053 1530 L 1378 1530 Z M 1259 1975 L 817 1639 L 631 1639 L 923 1975 L 1259 1975 Z" unicode="Ý" />
<glyph horiz-adv-x="1413" d="M 434 301 L 379 0 L 78 0 L 375 1530 L 676 1530 L 614 1231 L 860 1231 C 1208 1231 1382 1095 1382 823 C 1382 742 1367 669 1339 605 C 1311 541 1268 486 1210 440 C 1095 347 946 301 764 301 L 434 301 Z M 565 967 L 483 551 L 752 551 C 963 551 1069 637 1069 811 C 1069 915 992 967 840 967 L 565 967 Z" unicode="Þ" />
<glyph horiz-adv-x="1251" d="M 911 877 C 1071 823 1151 696 1151 496 C 1151 350 1104 225 1012 123 C 966 73 913 35 854 9 C 794 -16 727 -29 653 -29 C 561 -29 484 -3 422 47 L 555 225 C 587 196 617 182 647 182 C 798 182 874 307 874 559 C 874 590 868 619 858 646 C 848 673 834 697 816 717 C 798 737 778 752 754 764 C 730 775 704 780 678 780 L 715 971 C 749 974 781 983 809 997 C 837 1011 862 1029 882 1052 C 902 1074 918 1101 929 1131 C 940 1161 946 1193 946 1229 C 946 1316 899 1360 805 1360 C 667 1360 578 1260 539 1061 L 334 0 L 57 0 L 254 1018 C 322 1374 508 1552 813 1552 C 1080 1552 1214 1448 1214 1241 C 1214 1159 1189 1088 1139 1028 C 1089 967 1013 917 911 877 Z" unicode="ß" />
<glyph horiz-adv-x="1161" d="M 938 0 L 659 0 C 657 17 656 35 656 54 C 655 72 655 92 655 113 C 563 25 456 -18 332 -18 C 289 -18 250 -11 215 1 C 180 13 150 31 125 54 C 99 77 80 105 66 138 C 52 170 45 207 45 248 C 45 368 98 463 205 532 C 258 568 330 598 422 622 C 514 646 626 664 758 678 L 766 719 C 769 736 771 750 773 762 C 775 773 776 782 776 788 C 776 876 723 920 618 920 C 523 920 429 873 336 780 L 203 940 C 338 1053 489 1110 657 1110 C 915 1110 1044 1015 1044 825 C 1044 795 1042 763 1038 729 C 1034 695 1029 659 1022 621 L 944 223 C 940 205 938 185 936 163 C 934 140 934 114 934 84 C 934 70 934 57 935 43 C 935 29 936 15 938 0 Z M 729 522 C 453 492 315 408 315 270 C 315 202 350 168 422 168 C 495 168 580 201 678 268 L 729 522 Z M 870 1227 L 718 1227 L 473 1563 L 782 1563 L 870 1227 Z" unicode="à" />
<glyph horiz-adv-x="1161" d="M 938 0 L 659 0 C 657 17 656 35 656 54 C 655 72 655 92 655 113 C 563 25 456 -18 332 -18 C 289 -18 250 -11 215 1 C 180 13 150 31 125 54 C 99 77 80 105 66 138 C 52 170 45 207 45 248 C 45 368 98 463 205 532 C 258 568 330 598 422 622 C 514 646 626 664 758 678 L 766 719 C 769 736 771 750 773 762 C 775 773 776 782 776 788 C 776 876 723 920 618 920 C 523 920 429 873 336 780 L 203 940 C 338 1053 489 1110 657 1110 C 915 1110 1044 1015 1044 825 C 1044 795 1042 763 1038 729 C 1034 695 1029 659 1022 621 L 944 223 C 940 205 938 185 936 163 C 934 140 934 114 934 84 C 934 70 934 57 935 43 C 935 29 936 15 938 0 Z M 729 522 C 453 492 315 408 315 270 C 315 202 350 168 422 168 C 495 168 580 201 678 268 L 729 522 Z M 1149 1563 L 707 1227 L 521 1227 L 813 1563 L 1149 1563 Z" unicode="á" />
<glyph horiz-adv-x="1161" d="M 938 0 L 659 0 C 657 17 656 35 656 54 C 655 72 655 92 655 113 C 563 25 456 -18 332 -18 C 289 -18 250 -11 215 1 C 180 13 150 31 125 54 C 99 77 80 105 66 138 C 52 170 45 207 45 248 C 45 368 98 463 205 532 C 258 568 330 598 422 622 C 514 646 626 664 758 678 L 766 719 C 769 736 771 750 773 762 C 775 773 776 782 776 788 C 776 876 723 920 618 920 C 523 920 429 873 336 780 L 203 940 C 338 1053 489 1110 657 1110 C 915 1110 1044 1015 1044 825 C 1044 795 1042 763 1038 729 C 1034 695 1029 659 1022 621 L 944 223 C 940 205 938 185 936 163 C 934 140 934 114 934 84 C 934 70 934 57 935 43 C 935 29 936 15 938 0 Z M 729 522 C 453 492 315 408 315 270 C 315 202 350 168 422 168 C 495 168 580 201 678 268 L 729 522 Z M 1052 1225 L 884 1225 L 759 1364 L 518 1225 L 325 1225 L 704 1542 L 860 1542 L 1052 1225 Z" unicode="â" />
<glyph horiz-adv-x="1161" d="M 938 0 L 659 0 C 657 17 656 35 656 54 C 655 72 655 92 655 113 C 563 25 456 -18 332 -18 C 289 -18 250 -11 215 1 C 180 13 150 31 125 54 C 99 77 80 105 66 138 C 52 170 45 207 45 248 C 45 368 98 463 205 532 C 258 568 330 598 422 622 C 514 646 626 664 758 678 L 766 719 C 769 736 771 750 773 762 C 775 773 776 782 776 788 C 776 876 723 920 618 920 C 523 920 429 873 336 780 L 203 940 C 338 1053 489 1110 657 1110 C 915 1110 1044 1015 1044 825 C 1044 795 1042 763 1038 729 C 1034 695 1029 659 1022 621 L 944 223 C 940 205 938 185 936 163 C 934 140 934 114 934 84 C 934 70 934 57 935 43 C 935 29 936 15 938 0 Z M 729 522 C 453 492 315 408 315 270 C 315 202 350 168 422 168 C 495 168 580 201 678 268 L 729 522 Z M 1113 1509 C 1065 1327 972 1237 836 1237 C 803 1237 761 1255 711 1292 C 659 1329 622 1348 598 1348 C 588 1348 577 1345 566 1339 C 555 1333 545 1324 535 1314 C 525 1304 516 1292 509 1279 C 501 1265 496 1251 494 1237 L 338 1237 C 390 1421 485 1513 623 1513 C 661 1513 703 1494 750 1458 C 797 1422 833 1405 859 1405 C 901 1405 935 1439 963 1509 L 1113 1509 Z" unicode="ã" />
<glyph horiz-adv-x="1161" d="M 938 0 L 659 0 C 657 17 656 35 656 54 C 655 72 655 92 655 113 C 563 25 456 -18 332 -18 C 289 -18 250 -11 215 1 C 180 13 150 31 125 54 C 99 77 80 105 66 138 C 52 170 45 207 45 248 C 45 368 98 463 205 532 C 258 568 330 598 422 622 C 514 646 626 664 758 678 L 766 719 C 769 736 771 750 773 762 C 775 773 776 782 776 788 C 776 876 723 920 618 920 C 523 920 429 873 336 780 L 203 940 C 338 1053 489 1110 657 1110 C 915 1110 1044 1015 1044 825 C 1044 795 1042 763 1038 729 C 1034 695 1029 659 1022 621 L 944 223 C 940 205 938 185 936 163 C 934 140 934 114 934 84 C 934 70 934 57 935 43 C 935 29 936 15 938 0 Z M 729 522 C 453 492 315 408 315 270 C 315 202 350 168 422 168 C 495 168 580 201 678 268 L 729 522 Z M 1097 1487 L 1056 1272 L 839 1272 L 880 1487 L 1097 1487 Z M 616 1487 L 575 1272 L 356 1272 L 397 1487 L 616 1487 Z" unicode="ä" />
<glyph horiz-adv-x="1161" d="M 938 0 L 659 0 C 657 17 656 35 656 54 C 655 72 655 92 655 113 C 563 25 456 -18 332 -18 C 289 -18 250 -11 215 1 C 180 13 150 31 125 54 C 99 77 80 105 66 138 C 52 170 45 207 45 248 C 45 368 98 463 205 532 C 258 568 330 598 422 622 C 514 646 626 664 758 678 L 766 719 C 769 736 771 750 773 762 C 775 773 776 782 776 788 C 776 876 723 920 618 920 C 523 920 429 873 336 780 L 203 940 C 338 1053 489 1110 657 1110 C 915 1110 1044 1015 1044 825 C 1044 795 1042 763 1038 729 C 1034 695 1029 659 1022 621 L 944 223 C 940 205 938 185 936 163 C 934 140 934 114 934 84 C 934 70 934 57 935 43 C 935 29 936 15 938 0 Z M 729 522 C 453 492 315 408 315 270 C 315 202 350 168 422 168 C 495 168 580 201 678 268 L 729 522 Z M 957 1430 C 957 1400 951 1373 941 1348 C 930 1322 915 1300 896 1281 C 877 1262 855 1247 830 1237 C 804 1226 777 1221 748 1221 C 719 1221 692 1226 667 1237 C 641 1247 619 1262 600 1281 C 581 1299 566 1321 555 1346 C 544 1371 539 1398 539 1427 C 539 1456 544 1483 556 1509 C 568 1535 583 1557 603 1576 C 622 1595 644 1610 669 1621 C 694 1632 720 1638 748 1638 C 777 1638 804 1632 830 1621 C 855 1610 877 1595 896 1576 C 915 1557 930 1535 941 1510 C 951 1485 957 1458 957 1430 Z M 621 1427 C 621 1409 624 1392 630 1377 C 636 1361 645 1348 657 1337 C 669 1325 682 1316 698 1310 C 713 1303 730 1300 748 1300 C 766 1300 782 1303 798 1310 C 814 1316 827 1325 839 1337 C 851 1348 860 1361 867 1377 C 873 1392 877 1409 877 1427 C 877 1445 873 1461 866 1477 C 859 1493 850 1506 838 1518 C 826 1530 812 1539 797 1546 C 781 1552 766 1556 750 1556 C 731 1556 714 1552 698 1545 C 682 1538 669 1529 657 1517 C 645 1505 636 1491 630 1475 C 624 1459 621 1443 621 1427 Z" unicode="å" />
<glyph horiz-adv-x="1812" d="M 1700 498 L 993 498 C 989 474 987 454 987 436 C 987 400 992 367 1003 339 C 1014 310 1030 286 1050 266 C 1070 246 1095 230 1124 220 C 1153 210 1185 205 1221 205 C 1335 205 1416 255 1466 356 L 1673 262 C 1572 75 1406 -18 1176 -18 C 994 -18 864 48 784 182 C 734 140 688 106 648 80 C 607 53 571 33 539 20 C 476 -5 407 -18 332 -18 C 289 -18 250 -11 215 1 C 180 13 150 31 125 54 C 99 77 80 105 66 138 C 52 170 45 207 45 248 C 45 368 98 463 205 532 C 258 568 330 598 422 622 C 514 646 626 664 758 678 L 766 719 C 769 736 771 750 773 762 C 775 773 776 782 776 788 C 776 876 723 920 618 920 C 523 920 429 873 336 780 L 203 940 C 338 1053 489 1110 657 1110 C 692 1110 724 1107 754 1103 C 783 1099 810 1091 836 1081 C 861 1070 885 1056 908 1038 C 930 1020 953 997 977 971 C 1074 1062 1188 1108 1319 1108 C 1382 1108 1439 1099 1491 1081 C 1542 1063 1586 1037 1622 1003 C 1658 969 1685 927 1705 879 C 1725 830 1735 775 1735 715 C 1735 683 1732 648 1726 612 C 1720 576 1711 538 1700 498 Z M 1022 662 L 1485 662 C 1486 673 1487 683 1488 691 C 1488 699 1489 705 1489 711 C 1489 741 1484 769 1474 794 C 1464 819 1451 840 1435 858 C 1419 875 1400 888 1378 898 C 1356 908 1333 913 1309 913 C 1235 913 1173 891 1123 848 C 1072 804 1038 742 1022 662 Z M 729 522 C 453 492 315 408 315 270 C 315 202 350 168 422 168 C 495 168 580 201 678 268 L 729 522 Z" unicode="æ" />
<glyph horiz-adv-x="1044" d="M 408 -12 C 358 -4 313 10 274 32 C 235 54 202 83 175 118 C 148 153 127 194 113 241 C 99 288 92 340 92 397 C 92 501 106 595 134 680 C 162 764 205 840 262 907 C 376 1041 518 1108 690 1108 C 781 1108 857 1084 918 1036 C 978 988 1017 919 1034 827 L 823 750 C 786 845 732 893 662 893 C 572 893 500 844 446 748 C 394 650 369 547 369 438 C 369 286 425 211 537 211 C 631 211 708 273 768 399 L 965 293 C 911 205 852 136 790 86 C 728 35 660 3 588 -10 L 537 -80 C 628 -106 674 -154 674 -225 C 674 -289 644 -341 584 -381 C 525 -419 455 -438 375 -438 C 312 -438 254 -432 201 -421 C 147 -409 99 -392 55 -369 L 152 -250 C 178 -265 208 -276 242 -284 C 276 -291 314 -295 356 -295 C 419 -295 451 -273 451 -229 C 451 -187 410 -166 330 -166 C 320 -166 312 -166 305 -166 C 298 -166 292 -166 287 -168 L 408 -12 Z" unicode="ç" />
<glyph horiz-adv-x="1194" d="M 1081 498 L 375 498 C 371 474 369 454 369 436 C 369 400 374 367 385 339 C 396 310 412 286 432 266 C 452 246 477 230 506 220 C 534 210 566 205 602 205 C 716 205 798 255 848 356 L 1055 262 C 951 75 785 -18 557 -18 C 419 -18 307 24 223 109 C 138 193 96 308 96 453 C 96 635 152 790 264 918 C 377 1044 522 1108 700 1108 C 764 1108 821 1099 873 1081 C 924 1063 968 1037 1004 1003 C 1040 969 1067 927 1087 879 C 1106 830 1116 775 1116 715 C 1116 651 1104 579 1081 498 Z M 403 662 L 866 662 C 867 673 868 683 869 691 C 869 699 870 705 870 711 C 870 741 865 769 856 794 C 846 819 834 840 818 858 C 802 875 783 888 761 898 C 739 908 715 913 690 913 C 617 913 555 891 504 848 C 453 804 419 742 403 662 Z M 862 1227 L 710 1227 L 465 1563 L 774 1563 L 862 1227 Z" unicode="è" />
<glyph horiz-adv-x="1194" d="M 1081 498 L 375 498 C 371 474 369 454 369 436 C 369 400 374 367 385 339 C 396 310 412 286 432 266 C 452 246 477 230 506 220 C 534 210 566 205 602 205 C 716 205 798 255 848 356 L 1055 262 C 951 75 785 -18 557 -18 C 419 -18 307 24 223 109 C 138 193 96 308 96 453 C 96 635 152 790 264 918 C 377 1044 522 1108 700 1108 C 764 1108 821 1099 873 1081 C 924 1063 968 1037 1004 1003 C 1040 969 1067 927 1087 879 C 1106 830 1116 775 1116 715 C 1116 651 1104 579 1081 498 Z M 403 662 L 866 662 C 867 673 868 683 869 691 C 869 699 870 705 870 711 C 870 741 865 769 856 794 C 846 819 834 840 818 858 C 802 875 783 888 761 898 C 739 908 715 913 690 913 C 617 913 555 891 504 848 C 453 804 419 742 403 662 Z M 1136 1563 L 694 1227 L 508 1227 L 800 1563 L 1136 1563 Z" unicode="é" />
<glyph horiz-adv-x="1194" d="M 1081 498 L 375 498 C 371 474 369 454 369 436 C 369 400 374 367 385 339 C 396 310 412 286 432 266 C 452 246 477 230 506 220 C 534 210 566 205 602 205 C 716 205 798 255 848 356 L 1055 262 C 951 75 785 -18 557 -18 C 419 -18 307 24 223 109 C 138 193 96 308 96 453 C 96 635 152 790 264 918 C 377 1044 522 1108 700 1108 C 764 1108 821 1099 873 1081 C 924 1063 968 1037 1004 1003 C 1040 969 1067 927 1087 879 C 1106 830 1116 775 1116 715 C 1116 651 1104 579 1081 498 Z M 403 662 L 866 662 C 867 673 868 683 869 691 C 869 699 870 705 870 711 C 870 741 865 769 856 794 C 846 819 834 840 818 858 C 802 875 783 888 761 898 C 739 908 715 913 690 913 C 617 913 555 891 504 848 C 453 804 419 742 403 662 Z M 1093 1225 L 925 1225 L 800 1364 L 559 1225 L 366 1225 L 745 1542 L 901 1542 L 1093 1225 Z" unicode="ê" />
<glyph horiz-adv-x="1194" d="M 1081 498 L 375 498 C 371 474 369 454 369 436 C 369 400 374 367 385 339 C 396 310 412 286 432 266 C 452 246 477 230 506 220 C 534 210 566 205 602 205 C 716 205 798 255 848 356 L 1055 262 C 951 75 785 -18 557 -18 C 419 -18 307 24 223 109 C 138 193 96 308 96 453 C 96 635 152 790 264 918 C 377 1044 522 1108 700 1108 C 764 1108 821 1099 873 1081 C 924 1063 968 1037 1004 1003 C 1040 969 1067 927 1087 879 C 1106 830 1116 775 1116 715 C 1116 651 1104 579 1081 498 Z M 403 662 L 866 662 C 867 673 868 683 869 691 C 869 699 870 705 870 711 C 870 741 865 769 856 794 C 846 819 834 840 818 858 C 802 875 783 888 761 898 C 739 908 715 913 690 913 C 617 913 555 891 504 848 C 453 804 419 742 403 662 Z M 1136 1487 L 1095 1272 L 878 1272 L 919 1487 L 1136 1487 Z M 655 1487 L 614 1272 L 395 1272 L 436 1487 L 655 1487 Z" unicode="ë" />
<glyph horiz-adv-x="598" d="M 545 1090 L 332 0 L 57 0 L 270 1090 L 545 1090 Z M 639 1227 L 487 1227 L 242 1563 L 551 1563 L 639 1227 Z" unicode="ì" />
<glyph horiz-adv-x="598" d="M 545 1090 L 332 0 L 57 0 L 270 1090 L 545 1090 Z M 857 1563 L 415 1227 L 229 1227 L 521 1563 L 857 1563 Z" unicode="í" />
<glyph horiz-adv-x="598" d="M 545 1090 L 332 0 L 57 0 L 270 1090 L 545 1090 Z M 783 1225 L 615 1225 L 490 1364 L 249 1225 L 56 1225 L 435 1542 L 591 1542 L 783 1225 Z" unicode="î" />
<glyph horiz-adv-x="598" d="M 545 1090 L 332 0 L 57 0 L 270 1090 L 545 1090 Z M 828 1487 L 787 1272 L 570 1272 L 611 1487 L 828 1487 Z M 347 1487 L 306 1272 L 87 1272 L 128 1487 L 347 1487 Z" unicode="ï" />
<glyph horiz-adv-x="1174" d="M 788 1100 C 774 1141 758 1180 739 1218 C 720 1256 699 1293 676 1329 L 416 1212 L 373 1311 L 612 1419 C 592 1442 570 1466 544 1491 C 518 1516 489 1542 457 1569 L 694 1569 C 701 1565 712 1556 727 1543 C 742 1529 761 1512 784 1491 L 954 1569 L 997 1475 L 854 1409 C 1018 1185 1100 961 1100 735 C 1100 631 1085 535 1057 447 C 1029 359 986 277 930 203 C 817 55 666 -18 477 -18 C 415 -18 360 -8 310 10 C 260 29 218 56 184 92 C 149 127 122 170 104 222 C 85 273 76 331 76 397 C 76 578 128 742 233 889 C 340 1036 486 1110 672 1110 C 689 1110 707 1109 727 1107 C 746 1105 766 1103 788 1100 Z M 827 694 C 827 844 772 920 662 920 C 558 920 481 858 430 735 C 404 674 385 615 372 558 C 358 501 352 445 352 391 C 352 246 405 174 512 174 C 614 174 693 234 748 356 C 800 476 827 588 827 694 Z" unicode="ð" />
<glyph horiz-adv-x="1221" d="M 1116 770 L 965 0 L 688 0 L 825 698 C 829 718 831 740 831 762 C 831 844 793 885 717 885 C 702 885 685 881 665 874 C 645 866 625 856 603 843 C 581 830 560 815 538 798 C 516 781 497 763 479 745 L 334 0 L 57 0 L 270 1090 L 547 1090 L 512 918 C 640 1044 758 1108 868 1108 C 908 1108 945 1102 977 1090 C 1009 1078 1035 1060 1057 1038 C 1079 1016 1095 989 1107 957 C 1118 925 1124 890 1124 852 C 1124 838 1123 825 1122 812 C 1121 798 1119 784 1116 770 Z M 1182 1509 C 1134 1327 1041 1237 905 1237 C 872 1237 830 1255 780 1292 C 728 1329 691 1348 667 1348 C 657 1348 646 1345 635 1339 C 624 1333 614 1324 604 1314 C 594 1304 585 1292 578 1279 C 570 1265 565 1251 563 1237 L 407 1237 C 459 1421 554 1513 692 1513 C 730 1513 772 1494 819 1458 C 866 1422 902 1405 928 1405 C 970 1405 1004 1439 1032 1509 L 1182 1509 Z" unicode="ñ" />
<glyph horiz-adv-x="1202" d="M 516 -18 C 448 -18 388 -8 335 10 C 281 29 236 56 199 92 C 162 127 134 170 114 222 C 94 273 84 331 84 397 C 84 597 139 766 250 903 C 362 1041 508 1110 688 1110 C 758 1110 820 1100 874 1082 C 928 1064 973 1037 1010 1003 C 1047 969 1075 927 1095 877 C 1114 827 1124 770 1124 707 C 1124 494 1069 320 961 184 C 906 116 841 65 767 32 C 693 -1 609 -18 516 -18 Z M 676 918 C 583 918 506 862 446 752 C 388 642 360 523 360 393 C 360 247 416 174 528 174 C 621 174 698 229 758 340 C 788 396 810 454 825 512 C 840 570 848 630 848 692 C 848 763 832 818 802 858 C 771 898 729 918 676 918 Z M 903 1227 L 751 1227 L 506 1563 L 815 1563 L 903 1227 Z" unicode="ò" />
<glyph horiz-adv-x="1202" d="M 516 -18 C 448 -18 388 -8 335 10 C 281 29 236 56 199 92 C 162 127 134 170 114 222 C 94 273 84 331 84 397 C 84 597 139 766 250 903 C 362 1041 508 1110 688 1110 C 758 1110 820 1100 874 1082 C 928 1064 973 1037 1010 1003 C 1047 969 1075 927 1095 877 C 1114 827 1124 770 1124 707 C 1124 494 1069 320 961 184 C 906 116 841 65 767 32 C 693 -1 609 -18 516 -18 Z M 676 918 C 583 918 506 862 446 752 C 388 642 360 523 360 393 C 360 247 416 174 528 174 C 621 174 698 229 758 340 C 788 396 810 454 825 512 C 840 570 848 630 848 692 C 848 763 832 818 802 858 C 771 898 729 918 676 918 Z M 1155 1563 L 713 1227 L 527 1227 L 819 1563 L 1155 1563 Z" unicode="ó" />
<glyph horiz-adv-x="1202" d="M 516 -18 C 448 -18 388 -8 335 10 C 281 29 236 56 199 92 C 162 127 134 170 114 222 C 94 273 84 331 84 397 C 84 597 139 766 250 903 C 362 1041 508 1110 688 1110 C 758 1110 820 1100 874 1082 C 928 1064 973 1037 1010 1003 C 1047 969 1075 927 1095 877 C 1114 827 1124 770 1124 707 C 1124 494 1069 320 961 184 C 906 116 841 65 767 32 C 693 -1 609 -18 516 -18 Z M 676 918 C 583 918 506 862 446 752 C 388 642 360 523 360 393 C 360 247 416 174 528 174 C 621 174 698 229 758 340 C 788 396 810 454 825 512 C 840 570 848 630 848 692 C 848 763 832 818 802 858 C 771 898 729 918 676 918 Z M 1093 1225 L 925 1225 L 800 1364 L 559 1225 L 366 1225 L 745 1542 L 901 1542 L 1093 1225 Z" unicode="ô" />
<glyph horiz-adv-x="1202" d="M 516 -18 C 448 -18 388 -8 335 10 C 281 29 236 56 199 92 C 162 127 134 170 114 222 C 94 273 84 331 84 397 C 84 597 139 766 250 903 C 362 1041 508 1110 688 1110 C 758 1110 820 1100 874 1082 C 928 1064 973 1037 1010 1003 C 1047 969 1075 927 1095 877 C 1114 827 1124 770 1124 707 C 1124 494 1069 320 961 184 C 906 116 841 65 767 32 C 693 -1 609 -18 516 -18 Z M 676 918 C 583 918 506 862 446 752 C 388 642 360 523 360 393 C 360 247 416 174 528 174 C 621 174 698 229 758 340 C 788 396 810 454 825 512 C 840 570 848 630 848 692 C 848 763 832 818 802 858 C 771 898 729 918 676 918 Z M 1164 1509 C 1116 1327 1023 1237 887 1237 C 854 1237 812 1255 762 1292 C 710 1329 673 1348 649 1348 C 639 1348 628 1345 617 1339 C 606 1333 596 1324 586 1314 C 576 1304 567 1292 560 1279 C 552 1265 547 1251 545 1237 L 389 1237 C 441 1421 536 1513 674 1513 C 712 1513 754 1494 801 1458 C 848 1422 884 1405 910 1405 C 952 1405 986 1439 1014 1509 L 1164 1509 Z" unicode="õ" />
<glyph horiz-adv-x="1202" d="M 516 -18 C 448 -18 388 -8 335 10 C 281 29 236 56 199 92 C 162 127 134 170 114 222 C 94 273 84 331 84 397 C 84 597 139 766 250 903 C 362 1041 508 1110 688 1110 C 758 1110 820 1100 874 1082 C 928 1064 973 1037 1010 1003 C 1047 969 1075 927 1095 877 C 1114 827 1124 770 1124 707 C 1124 494 1069 320 961 184 C 906 116 841 65 767 32 C 693 -1 609 -18 516 -18 Z M 676 918 C 583 918 506 862 446 752 C 388 642 360 523 360 393 C 360 247 416 174 528 174 C 621 174 698 229 758 340 C 788 396 810 454 825 512 C 840 570 848 630 848 692 C 848 763 832 818 802 858 C 771 898 729 918 676 918 Z M 1134 1487 L 1093 1272 L 876 1272 L 917 1487 L 1134 1487 Z M 653 1487 L 612 1272 L 393 1272 L 434 1487 L 653 1487 Z" unicode="ö" />
<glyph horiz-adv-x="1366" d="M 612 1040 L 612 1311 L 856 1311 L 856 1040 L 612 1040 Z M 168 664 L 168 868 L 1282 868 L 1282 664 L 168 664 Z M 612 221 L 612 492 L 856 492 L 856 221 L 612 221 Z" unicode="÷" />
<glyph horiz-adv-x="1202" d="M 1184 1008 L 1073 901 C 1090 871 1103 839 1111 807 C 1119 775 1124 741 1124 707 C 1124 494 1069 320 961 184 C 906 116 841 65 767 32 C 693 -1 609 -18 516 -18 C 458 -18 404 -9 356 6 C 307 22 263 48 223 82 L 119 -20 L 23 86 L 133 190 C 100 249 84 318 84 397 C 84 597 139 766 250 903 C 362 1041 508 1110 688 1110 C 802 1110 899 1076 981 1010 L 1087 1112 L 1184 1008 Z M 811 844 C 779 893 734 918 676 918 C 586 918 511 866 453 762 C 423 710 401 655 386 597 C 371 539 362 476 360 410 L 811 844 Z M 393 246 C 422 198 467 174 528 174 C 617 174 692 227 752 334 C 782 387 804 443 820 501 C 836 559 844 619 846 682 L 393 246 Z" unicode="ø" />
<glyph horiz-adv-x="1221" d="M 1167 1090 L 954 0 L 678 0 L 711 164 C 589 42 477 -18 373 -18 C 203 -18 119 76 119 266 C 119 286 120 309 123 333 C 125 357 129 384 135 412 L 268 1090 L 545 1090 L 412 416 C 408 398 406 383 404 369 C 402 355 401 344 401 334 C 401 256 437 217 510 217 C 602 217 681 263 748 356 L 891 1090 L 1167 1090 Z M 870 1227 L 718 1227 L 473 1563 L 782 1563 L 870 1227 Z" unicode="ù" />
<glyph horiz-adv-x="1221" d="M 1167 1090 L 954 0 L 678 0 L 711 164 C 589 42 477 -18 373 -18 C 203 -18 119 76 119 266 C 119 286 120 309 123 333 C 125 357 129 384 135 412 L 268 1090 L 545 1090 L 412 416 C 408 398 406 383 404 369 C 402 355 401 344 401 334 C 401 256 437 217 510 217 C 602 217 681 263 748 356 L 891 1090 L 1167 1090 Z M 1200 1563 L 758 1227 L 572 1227 L 864 1563 L 1200 1563 Z" unicode="ú" />
<glyph horiz-adv-x="1221" d="M 1167 1090 L 954 0 L 678 0 L 711 164 C 589 42 477 -18 373 -18 C 203 -18 119 76 119 266 C 119 286 120 309 123 333 C 125 357 129 384 135 412 L 268 1090 L 545 1090 L 412 416 C 408 398 406 383 404 369 C 402 355 401 344 401 334 C 401 256 437 217 510 217 C 602 217 681 263 748 356 L 891 1090 L 1167 1090 Z M 1093 1225 L 925 1225 L 800 1364 L 559 1225 L 366 1225 L 745 1542 L 901 1542 L 1093 1225 Z" unicode="û" />
<glyph horiz-adv-x="1221" d="M 1167 1090 L 954 0 L 678 0 L 711 164 C 589 42 477 -18 373 -18 C 203 -18 119 76 119 266 C 119 286 120 309 123 333 C 125 357 129 384 135 412 L 268 1090 L 545 1090 L 412 416 C 408 398 406 383 404 369 C 402 355 401 344 401 334 C 401 256 437 217 510 217 C 602 217 681 263 748 356 L 891 1090 L 1167 1090 Z M 1138 1487 L 1097 1272 L 880 1272 L 921 1487 L 1138 1487 Z M 657 1487 L 616 1272 L 397 1272 L 438 1487 L 657 1487 Z" unicode="ü" />
<glyph horiz-adv-x="1038" d="M 1102 1090 L 559 -18 C 477 -184 392 -295 305 -352 C 219 -409 107 -438 -31 -438 L -150 -438 L -106 -233 L -12 -233 C 115 -233 210 -166 274 -33 L 129 1090 L 399 1090 L 477 332 L 823 1090 L 1102 1090 Z M 1095 1565 L 653 1229 L 467 1229 L 759 1565 L 1095 1565 Z" unicode="ý" />
<glyph horiz-adv-x="1245" d="M 362 145 L 252 -438 L -27 -438 L 356 1556 L 635 1556 L 522 956 C 627 1057 732 1108 838 1108 C 885 1108 929 1098 969 1079 C 1009 1060 1043 1033 1072 998 C 1100 962 1123 919 1139 869 C 1155 818 1163 761 1163 698 C 1163 606 1150 519 1124 437 C 1098 355 1060 277 1008 203 C 905 55 777 -18 623 -18 C 523 -18 436 36 362 145 Z M 489 788 L 395 295 C 429 267 462 246 495 232 C 527 218 560 211 594 211 C 678 211 747 258 803 352 C 831 399 852 448 866 500 C 880 551 887 605 887 662 C 887 800 830 870 717 870 C 675 870 635 863 597 850 C 559 836 523 816 489 788 Z" unicode="þ" />
<glyph horiz-adv-x="1038" d="M 1102 1090 L 559 -18 C 477 -184 392 -295 305 -352 C 219 -409 107 -438 -31 -438 L -150 -438 L -106 -233 L -12 -233 C 115 -233 210 -166 274 -33 L 129 1090 L 399 1090 L 477 332 L 823 1090 L 1102 1090 Z M 1026 1487 L 985 1272 L 768 1272 L 809 1487 L 1026 1487 Z M 545 1487 L 504 1272 L 285 1272 L 326 1487 L 545 1487 Z" unicode="ÿ" />
<glyph horiz-adv-x="1413" d="M 1276 0 L 967 0 L 920 358 L 430 358 L 244 0 L -72 0 L 756 1530 L 1061 1530 L 1276 0 Z M 893 582 L 821 1116 L 545 582 L 893 582 Z M 1327 1987 C 1236 1767 1098 1657 913 1657 C 734 1657 639 1767 628 1987 L 766 1987 C 776 1884 829 1833 927 1833 C 1035 1833 1123 1884 1190 1987 L 1327 1987 Z" unicode="Ă" />
<glyph horiz-adv-x="1161" d="M 938 0 L 659 0 C 657 17 656 35 656 54 C 655 72 655 92 655 113 C 563 25 456 -18 332 -18 C 289 -18 250 -11 215 1 C 180 13 150 31 125 54 C 99 77 80 105 66 138 C 52 170 45 207 45 248 C 45 368 98 463 205 532 C 258 568 330 598 422 622 C 514 646 626 664 758 678 L 766 719 C 769 736 771 750 773 762 C 775 773 776 782 776 788 C 776 876 723 920 618 920 C 523 920 429 873 336 780 L 203 940 C 338 1053 489 1110 657 1110 C 915 1110 1044 1015 1044 825 C 1044 795 1042 763 1038 729 C 1034 695 1029 659 1022 621 L 944 223 C 940 205 938 185 936 163 C 934 140 934 114 934 84 C 934 70 934 57 935 43 C 935 29 936 15 938 0 Z M 729 522 C 453 492 315 408 315 270 C 315 202 350 168 422 168 C 495 168 580 201 678 268 L 729 522 Z M 1084 1577 C 993 1357 855 1247 670 1247 C 491 1247 396 1357 385 1577 L 523 1577 C 533 1474 586 1423 684 1423 C 792 1423 880 1474 947 1577 L 1084 1577 Z" unicode="ă" />
<glyph horiz-adv-x="1413" d="M 1120 0 C 1102 -41 1094 -79 1094 -113 C 1094 -187 1132 -225 1210 -225 C 1275 -225 1328 -213 1370 -190 L 1343 -328 C 1311 -341 1276 -351 1240 -358 C 1204 -365 1166 -369 1126 -369 C 1091 -369 1060 -363 1034 -352 C 1008 -341 986 -327 968 -309 C 950 -291 937 -270 928 -247 C 919 -224 915 -200 915 -176 C 915 -138 932 -79 967 0 L 920 358 L 430 358 L 244 0 L -72 0 L 756 1530 L 1061 1530 L 1276 0 L 1120 0 Z M 545 582 L 893 582 L 821 1116 L 545 582 Z" unicode="Ą" />
<glyph horiz-adv-x="1161" d="M 811 0 C 793 -43 784 -81 784 -113 C 784 -187 823 -225 903 -225 C 968 -225 1021 -213 1063 -190 L 1034 -328 C 1002 -341 968 -351 932 -358 C 896 -365 859 -369 819 -369 C 784 -369 753 -363 727 -353 C 700 -343 678 -329 660 -311 C 642 -293 628 -271 619 -247 C 610 -222 606 -196 606 -168 C 606 -145 610 -119 619 -91 C 628 -63 641 -32 659 2 C 657 14 656 30 656 48 C 655 66 655 87 655 113 C 561 25 454 -18 332 -18 C 288 -18 249 -11 214 1 C 178 14 148 32 123 56 C 98 79 79 107 65 140 C 51 172 45 208 45 248 C 45 372 99 467 207 535 C 313 603 497 650 758 678 C 770 736 776 775 776 795 C 776 831 763 861 737 884 C 711 906 674 918 625 918 C 528 918 432 872 336 780 L 203 940 C 342 1053 493 1110 657 1110 C 781 1110 877 1085 944 1037 C 1010 988 1044 917 1044 823 C 1044 793 1042 761 1038 728 C 1034 694 1029 659 1022 621 L 944 223 C 940 205 938 185 936 163 C 934 140 934 114 934 84 C 934 69 934 55 935 41 C 935 27 936 13 938 0 L 811 0 Z M 678 268 L 729 522 C 453 492 315 409 315 274 C 315 203 352 168 426 168 C 496 168 580 201 678 268 Z" unicode="ą" />
<glyph horiz-adv-x="1397" d="M 684 -31 C 595 -31 516 -18 448 7 C 379 32 321 69 274 119 C 227 169 191 230 167 303 C 143 375 131 459 131 553 C 131 842 209 1082 365 1274 C 521 1465 727 1561 983 1561 C 1115 1561 1225 1521 1313 1442 C 1357 1402 1391 1357 1415 1307 C 1439 1257 1452 1201 1456 1141 L 1159 1063 C 1151 1229 1071 1313 920 1313 C 782 1313 668 1241 578 1098 C 488 953 444 790 444 608 C 444 365 537 244 725 244 C 859 244 973 334 1069 516 L 1333 438 C 1192 125 976 -31 684 -31 Z M 1441 1977 L 999 1641 L 813 1641 L 1105 1977 L 1441 1977 Z" unicode="Ć" />
<glyph horiz-adv-x="1044" d="M 485 -18 C 423 -18 368 -8 320 11 C 271 30 230 58 196 94 C 162 130 137 173 119 225 C 101 276 92 333 92 397 C 92 501 106 595 134 680 C 162 764 205 840 262 907 C 376 1041 518 1108 690 1108 C 781 1108 857 1084 918 1036 C 978 988 1017 919 1034 827 L 823 750 C 786 845 732 893 662 893 C 572 893 500 844 446 748 C 394 650 369 547 369 438 C 369 286 425 211 537 211 C 631 211 708 273 768 399 L 965 293 C 837 85 677 -18 485 -18 Z M 1192 1563 L 750 1227 L 564 1227 L 856 1563 L 1192 1563 Z" unicode="ć" />
<glyph horiz-adv-x="1397" d="M 684 -31 C 595 -31 516 -18 448 7 C 379 32 321 69 274 119 C 227 169 191 230 167 303 C 143 375 131 459 131 553 C 131 842 209 1082 365 1274 C 521 1465 727 1561 983 1561 C 1115 1561 1225 1521 1313 1442 C 1357 1402 1391 1357 1415 1307 C 1439 1257 1452 1201 1456 1141 L 1159 1063 C 1151 1229 1071 1313 920 1313 C 782 1313 668 1241 578 1098 C 488 953 444 790 444 608 C 444 365 537 244 725 244 C 859 244 973 334 1069 516 L 1333 438 C 1192 125 976 -31 684 -31 Z M 1479 1960 L 1100 1643 L 945 1643 L 752 1960 L 920 1960 L 1045 1821 L 1287 1960 L 1479 1960 Z" unicode="Č" />
<glyph horiz-adv-x="1044" d="M 485 -18 C 423 -18 368 -8 320 11 C 271 30 230 58 196 94 C 162 130 137 173 119 225 C 101 276 92 333 92 397 C 92 501 106 595 134 680 C 162 764 205 840 262 907 C 376 1041 518 1108 690 1108 C 781 1108 857 1084 918 1036 C 978 988 1017 919 1034 827 L 823 750 C 786 845 732 893 662 893 C 572 893 500 844 446 748 C 394 650 369 547 369 438 C 369 286 425 211 537 211 C 631 211 708 273 768 399 L 965 293 C 837 85 677 -18 485 -18 Z M 1180 1546 L 801 1229 L 646 1229 L 453 1546 L 621 1546 L 746 1407 L 988 1546 L 1180 1546 Z" unicode="č" />
<glyph horiz-adv-x="1516" d="M 80 0 L 379 1530 L 819 1530 C 1007 1530 1162 1476 1282 1368 C 1403 1260 1464 1116 1464 936 C 1464 653 1386 426 1231 256 C 1074 85 862 0 594 0 L 80 0 Z M 631 1272 L 434 268 L 633 268 C 787 268 912 326 1008 444 C 1103 562 1151 709 1151 887 C 1151 948 1142 1003 1125 1051 C 1107 1099 1082 1139 1050 1172 C 1017 1204 977 1229 929 1246 C 881 1263 826 1272 766 1272 L 631 1272 Z M 1266 1956 L 887 1639 L 732 1639 L 539 1956 L 707 1956 L 832 1817 L 1074 1956 L 1266 1956 Z" unicode="Ď" />
<glyph horiz-adv-x="1407" d="M 1278 1552 L 975 0 L 698 0 L 723 125 C 679 77 631 41 579 17 C 527 -6 472 -18 414 -18 C 364 -18 320 -8 280 11 C 240 30 205 58 177 94 C 148 130 126 173 111 224 C 95 274 88 331 88 395 C 88 587 137 754 236 895 C 286 965 343 1018 408 1054 C 472 1090 545 1108 627 1108 C 733 1108 819 1060 887 965 L 1001 1552 L 1278 1552 Z M 848 772 C 796 842 738 877 674 877 C 580 877 505 832 449 743 C 393 655 365 552 365 434 C 365 284 425 209 547 209 C 616 209 686 237 758 293 L 848 772 Z M 1489 1325 L 1360 1325 L 1405 1552 L 1634 1552 L 1583 1309 L 1427 1118 L 1333 1118 L 1489 1325 Z" unicode="ď" />
<glyph horiz-adv-x="1516" d="M 80 0 L 207 645 L 96 645 L 131 831 L 242 831 L 379 1530 L 819 1530 C 1007 1530 1162 1478 1282 1374 C 1403 1270 1464 1130 1464 956 C 1464 671 1384 440 1225 264 C 1065 88 854 0 594 0 L 80 0 Z M 633 1272 L 547 831 L 813 831 L 793 645 L 512 645 L 438 268 L 633 268 C 778 268 901 329 1001 453 C 1051 514 1089 581 1114 653 C 1138 725 1151 803 1151 887 C 1151 948 1142 1003 1125 1051 C 1107 1099 1082 1139 1050 1172 C 1017 1204 977 1229 929 1246 C 881 1263 826 1272 766 1272 L 633 1272 Z" unicode="Đ" />
<glyph horiz-adv-x="1245" d="M 1221 1260 L 975 0 L 698 0 L 723 125 C 679 77 631 41 579 17 C 527 -6 472 -18 414 -18 C 364 -18 320 -8 280 11 C 240 30 205 58 177 94 C 148 130 126 173 111 224 C 95 274 88 331 88 395 C 88 587 137 754 236 895 C 286 965 343 1018 408 1054 C 472 1090 545 1108 627 1108 C 733 1108 819 1060 887 965 L 944 1260 L 745 1260 L 778 1427 L 977 1427 L 1001 1552 L 1278 1552 L 1253 1427 L 1366 1427 L 1331 1260 L 1221 1260 Z M 848 772 C 796 842 738 877 674 877 C 580 877 505 832 449 743 C 393 655 365 552 365 434 C 365 284 425 209 547 209 C 616 209 686 237 758 293 L 848 772 Z" unicode="đ" />
<glyph horiz-adv-x="1253" d="M 795 0 C 785 -20 778 -40 774 -59 C 770 -77 768 -95 768 -113 C 768 -187 807 -225 887 -225 C 951 -225 1003 -213 1044 -190 L 1020 -328 C 986 -341 952 -351 916 -358 C 880 -365 843 -369 803 -369 C 767 -369 736 -363 710 -352 C 684 -341 662 -327 644 -309 C 626 -291 613 -271 605 -248 C 596 -225 592 -202 592 -178 C 592 -156 596 -131 604 -101 C 612 -71 625 -38 643 0 L 80 0 L 379 1530 L 1319 1530 L 1266 1266 L 627 1266 L 563 930 L 979 930 L 934 680 L 512 680 L 432 264 L 1133 264 L 1081 0 L 795 0 Z" unicode="Ę" />
<glyph horiz-adv-x="1194" d="M 608 -16 C 596 -51 590 -83 590 -113 C 590 -187 629 -225 707 -225 C 772 -225 824 -213 864 -190 L 840 -328 C 806 -341 772 -351 736 -358 C 700 -365 663 -369 623 -369 C 586 -369 554 -363 528 -352 C 502 -340 480 -326 463 -308 C 445 -290 432 -269 424 -247 C 416 -224 412 -201 412 -178 C 412 -156 416 -132 424 -104 C 432 -76 443 -44 459 -8 C 383 8 319 32 268 66 C 243 82 220 103 199 129 C 178 154 160 183 144 216 C 128 249 116 286 107 326 C 98 366 94 409 94 455 C 94 546 108 630 136 707 C 164 783 207 854 264 918 C 378 1046 523 1110 700 1110 C 764 1110 821 1100 873 1081 C 924 1062 968 1036 1004 1002 C 1040 968 1067 927 1087 880 C 1106 832 1116 780 1116 723 C 1116 658 1104 583 1081 498 L 375 498 C 373 490 372 482 372 473 C 371 464 371 454 371 444 C 371 404 376 370 387 340 C 398 310 414 286 434 266 C 454 246 479 230 507 220 C 535 210 567 205 602 205 C 714 205 796 255 848 356 L 1055 262 C 1033 222 1009 186 983 155 C 956 124 927 97 895 74 C 832 28 736 -2 608 -16 Z M 403 662 L 866 662 C 867 673 868 683 869 692 C 869 700 870 708 870 715 C 870 743 865 770 856 795 C 847 820 834 842 818 860 C 802 878 782 892 759 902 C 735 912 710 918 682 918 C 542 918 449 832 403 662 Z" unicode="ę" />
<glyph horiz-adv-x="1253" d="M 1319 1530 L 1266 1264 L 627 1264 L 563 928 L 979 928 L 934 680 L 512 680 L 432 264 L 1133 264 L 1081 0 L 80 0 L 379 1530 L 1319 1530 Z M 1323 1956 L 944 1639 L 789 1639 L 596 1956 L 764 1956 L 889 1817 L 1131 1956 L 1323 1956 Z" unicode="Ě" />
<glyph horiz-adv-x="1194" d="M 1081 498 L 375 498 C 371 474 369 454 369 436 C 369 400 374 367 385 339 C 396 310 412 286 432 266 C 452 246 477 230 506 220 C 534 210 566 205 602 205 C 716 205 798 255 848 356 L 1055 262 C 951 75 785 -18 557 -18 C 419 -18 307 24 223 109 C 138 193 96 308 96 453 C 96 635 152 790 264 918 C 377 1044 522 1108 700 1108 C 764 1108 821 1099 873 1081 C 924 1063 968 1037 1004 1003 C 1040 969 1067 927 1087 879 C 1106 830 1116 775 1116 715 C 1116 651 1104 579 1081 498 Z M 403 662 L 866 662 C 867 673 868 683 869 691 C 869 699 870 705 870 711 C 870 741 865 769 856 794 C 846 819 834 840 818 858 C 802 875 783 888 761 898 C 739 908 715 913 690 913 C 617 913 555 891 504 848 C 453 804 419 742 403 662 Z M 1155 1546 L 776 1229 L 621 1229 L 428 1546 L 596 1546 L 721 1407 L 963 1546 L 1155 1546 Z" unicode="ě" />
<glyph horiz-adv-x="1604" d="M 666 -29 C 502 -29 371 24 274 131 C 178 237 131 379 131 557 C 131 859 210 1101 369 1284 C 528 1468 744 1561 1016 1561 C 1158 1561 1275 1520 1368 1440 C 1460 1360 1511 1250 1522 1112 L 1266 1030 C 1242 1213 1145 1305 975 1305 C 805 1305 674 1239 582 1108 C 535 1043 500 967 478 880 C 455 792 444 693 444 582 C 444 344 559 225 791 225 C 834 225 876 232 917 248 C 957 263 998 286 1038 317 C 1118 381 1171 459 1198 553 L 797 553 L 842 782 L 1485 782 L 1331 0 L 1090 0 L 1126 186 C 996 42 843 -29 666 -29 Z M 1446 1991 C 1355 1771 1217 1661 1032 1661 C 853 1661 758 1771 747 1991 L 885 1991 C 895 1888 948 1837 1046 1837 C 1154 1837 1242 1888 1309 1991 L 1446 1991 Z" unicode="Ğ" />
<glyph horiz-adv-x="1174" d="M 168 63 C 101 101 68 147 68 203 C 68 293 141 368 287 428 C 185 492 135 581 135 696 C 135 820 182 919 276 995 C 372 1070 493 1108 641 1108 C 766 1108 868 1080 948 1024 C 987 1059 1036 1087 1096 1108 C 1154 1130 1205 1141 1249 1141 L 1276 1141 L 1241 958 L 1188 958 C 1135 958 1084 948 1036 930 C 1051 904 1062 877 1070 849 C 1077 820 1081 790 1081 758 C 1081 634 1032 535 936 463 C 840 391 717 356 567 356 C 508 356 456 362 410 375 C 341 345 307 312 307 276 C 307 256 313 240 327 229 C 340 218 360 210 387 204 C 414 198 448 194 488 192 C 528 190 575 188 629 186 C 699 184 760 178 810 167 C 860 155 901 139 933 118 C 964 96 987 69 1002 37 C 1016 5 1024 -32 1024 -76 C 1024 -135 1011 -187 985 -232 C 959 -277 922 -315 873 -346 C 824 -376 764 -399 693 -415 C 622 -430 541 -438 451 -438 C 367 -438 293 -432 227 -420 C 161 -408 105 -392 60 -370 C 14 -348 -20 -321 -44 -290 C -68 -258 -80 -223 -80 -184 C -80 -62 2 20 168 63 Z M 629 936 C 593 936 561 930 533 920 C 504 909 479 894 459 875 C 439 855 423 832 412 805 C 400 778 395 748 395 715 C 395 591 460 530 590 530 C 623 530 654 534 682 544 C 710 554 734 568 754 587 C 774 606 790 629 802 657 C 813 685 819 716 819 752 C 819 778 814 803 805 826 C 795 848 782 868 766 884 C 749 900 729 913 706 922 C 682 931 657 936 629 936 Z M 279 18 C 194 -16 152 -66 152 -133 C 152 -217 251 -260 449 -260 C 664 -260 772 -208 772 -106 C 772 -52 713 -18 596 -4 C 496 1 420 5 368 8 C 316 11 286 14 279 18 Z M 1178 1577 C 1087 1357 949 1247 764 1247 C 585 1247 490 1357 479 1577 L 617 1577 C 627 1474 680 1423 778 1423 C 886 1423 974 1474 1041 1577 L 1178 1577 Z" unicode="ğ" />
<glyph horiz-adv-x="670" d="M 680 1530 L 381 0 L 80 0 L 379 1530 L 680 1530 Z M 750 2003 L 696 1733 L 420 1733 L 473 2003 L 750 2003 Z" unicode="İ" />
<glyph horiz-adv-x="598" d="M 545 1090 L 332 0 L 57 0 L 270 1090 L 545 1090 Z" unicode="ı" />
<glyph horiz-adv-x="1155" d="M 1010 0 L 78 0 L 377 1530 L 678 1530 L 432 264 L 1061 264 L 1010 0 Z M 1077 1973 L 635 1637 L 449 1637 L 741 1973 L 1077 1973 Z" unicode="Ĺ" />
<glyph horiz-adv-x="598" d="M 637 1552 L 334 0 L 57 0 L 360 1552 L 637 1552 Z M 977 1973 L 535 1637 L 349 1637 L 641 1973 L 977 1973 Z" unicode="ĺ" />
<glyph horiz-adv-x="1155" d="M 1010 0 L 78 0 L 377 1530 L 678 1530 L 432 264 L 1061 264 L 1010 0 Z M 932 1325 L 803 1325 L 848 1552 L 1077 1552 L 1026 1309 L 870 1118 L 776 1118 L 932 1325 Z" unicode="Ľ" />
<glyph horiz-adv-x="766" d="M 637 1552 L 334 0 L 57 0 L 360 1552 L 637 1552 Z M 848 1325 L 719 1325 L 764 1552 L 993 1552 L 942 1309 L 786 1118 L 692 1118 L 848 1325 Z" unicode="ľ" />
<glyph horiz-adv-x="1155" d="M 1061 264 L 1010 0 L 78 0 L 193 588 L 6 438 L 45 625 L 227 764 L 377 1530 L 678 1530 L 580 1028 L 848 1239 L 811 1055 L 547 852 L 432 264 L 1061 264 Z" unicode="Ł" />
<glyph horiz-adv-x="598" d="M 692 1090 L 664 922 L 489 801 L 334 0 L 57 0 L 172 586 L 2 461 L 29 625 L 203 748 L 360 1552 L 637 1552 L 522 963 L 692 1090 Z" unicode="ł" />
<glyph horiz-adv-x="1608" d="M 1321 0 L 1044 0 L 588 1075 L 377 0 L 78 0 L 377 1530 L 672 1530 L 1118 494 L 1321 1530 L 1620 1530 L 1321 0 Z M 1417 1973 L 975 1637 L 789 1637 L 1081 1973 L 1417 1973 Z" unicode="Ń" />
<glyph horiz-adv-x="1221" d="M 1116 770 L 965 0 L 688 0 L 825 698 C 829 718 831 740 831 762 C 831 844 793 885 717 885 C 702 885 685 881 665 874 C 645 866 625 856 603 843 C 581 830 560 815 538 798 C 516 781 497 763 479 745 L 334 0 L 57 0 L 270 1090 L 547 1090 L 512 918 C 640 1044 758 1108 868 1108 C 908 1108 945 1102 977 1090 C 1009 1078 1035 1060 1057 1038 C 1079 1016 1095 989 1107 957 C 1118 925 1124 890 1124 852 C 1124 838 1123 825 1122 812 C 1121 798 1119 784 1116 770 Z M 1222 1563 L 780 1227 L 594 1227 L 886 1563 L 1222 1563 Z" unicode="ń" />
<glyph horiz-adv-x="1608" d="M 1321 0 L 1044 0 L 588 1075 L 377 0 L 78 0 L 377 1530 L 672 1530 L 1118 494 L 1321 1530 L 1620 1530 L 1321 0 Z M 1444 1956 L 1065 1639 L 910 1639 L 717 1956 L 885 1956 L 1010 1817 L 1252 1956 L 1444 1956 Z" unicode="Ň" />
<glyph horiz-adv-x="1221" d="M 1116 770 L 965 0 L 688 0 L 825 698 C 829 718 831 740 831 762 C 831 844 793 885 717 885 C 702 885 685 881 665 874 C 645 866 625 856 603 843 C 581 830 560 815 538 798 C 516 781 497 763 479 745 L 334 0 L 57 0 L 270 1090 L 547 1090 L 512 918 C 640 1044 758 1108 868 1108 C 908 1108 945 1102 977 1090 C 1009 1078 1035 1060 1057 1038 C 1079 1016 1095 989 1107 957 C 1118 925 1124 890 1124 852 C 1124 838 1123 825 1122 812 C 1121 798 1119 784 1116 770 Z M 1198 1546 L 819 1229 L 664 1229 L 471 1546 L 639 1546 L 764 1407 L 1006 1546 L 1198 1546 Z" unicode="ň" />
<glyph horiz-adv-x="1556" d="M 676 -29 C 508 -29 373 22 272 125 C 172 228 123 365 123 535 C 123 677 141 809 179 929 C 217 1049 273 1160 348 1260 C 500 1460 699 1561 944 1561 C 1034 1561 1115 1547 1187 1521 C 1258 1495 1318 1456 1367 1406 C 1416 1356 1453 1294 1479 1221 C 1505 1148 1518 1065 1518 971 C 1518 680 1441 441 1288 254 C 1136 65 932 -29 676 -29 Z M 920 1298 C 772 1298 654 1223 567 1075 C 479 927 436 752 436 551 C 436 342 529 238 715 238 C 865 238 983 311 1071 459 C 1159 607 1204 782 1204 985 C 1204 1193 1109 1298 920 1298 Z M 985 1637 L 1272 1973 L 1538 1973 L 1171 1637 L 985 1637 Z M 612 1637 L 899 1973 L 1165 1973 L 798 1637 L 612 1637 Z" unicode="Ő" />
<glyph horiz-adv-x="1202" d="M 516 -18 C 448 -18 388 -8 335 10 C 281 29 236 56 199 92 C 162 127 134 170 114 222 C 94 273 84 331 84 397 C 84 597 139 766 250 903 C 362 1041 508 1110 688 1110 C 758 1110 820 1100 874 1082 C 928 1064 973 1037 1010 1003 C 1047 969 1075 927 1095 877 C 1114 827 1124 770 1124 707 C 1124 494 1069 320 961 184 C 906 116 841 65 767 32 C 693 -1 609 -18 516 -18 Z M 676 918 C 583 918 506 862 446 752 C 388 642 360 523 360 393 C 360 247 416 174 528 174 C 621 174 698 229 758 340 C 788 396 810 454 825 512 C 840 570 848 630 848 692 C 848 763 832 818 802 858 C 771 898 729 918 676 918 Z M 807 1227 L 1094 1563 L 1360 1563 L 993 1227 L 807 1227 Z M 434 1227 L 721 1563 L 987 1563 L 620 1227 L 434 1227 Z" unicode="ő" />
<glyph horiz-adv-x="2167" d="M 2232 1530 L 2179 1264 L 1540 1264 L 1477 928 L 1892 928 L 1847 680 L 1425 680 L 1346 264 L 2046 264 L 1995 0 L 993 0 L 1014 102 C 988 78 964 57 940 41 C 916 24 890 10 864 0 C 838 -9 809 -17 779 -22 C 748 -26 714 -29 676 -29 C 508 -29 373 22 272 125 C 172 228 123 365 123 535 C 123 677 141 809 179 929 C 217 1049 273 1160 348 1260 C 500 1460 699 1561 944 1561 C 1083 1561 1191 1508 1268 1403 L 1292 1530 L 2232 1530 Z M 920 1298 C 772 1298 654 1223 567 1075 C 479 927 436 752 436 551 C 436 342 529 238 715 238 C 853 238 962 311 1042 457 C 1122 603 1163 779 1163 985 C 1163 1193 1082 1298 920 1298 Z" unicode="Œ" />
<glyph horiz-adv-x="1913" d="M 1800 498 L 1094 498 C 1092 486 1090 475 1089 465 C 1087 455 1087 445 1087 436 C 1087 400 1092 367 1103 339 C 1114 310 1130 286 1151 266 C 1171 246 1196 230 1225 220 C 1253 210 1285 205 1321 205 C 1435 205 1517 255 1567 356 L 1774 262 C 1672 75 1506 -18 1276 -18 C 1129 -18 1012 47 924 178 C 799 47 663 -18 516 -18 C 448 -18 388 -8 335 10 C 281 29 236 56 199 92 C 162 127 134 170 114 222 C 94 273 84 331 84 397 C 84 597 139 766 250 903 C 362 1041 508 1110 688 1110 C 726 1110 762 1106 794 1100 C 826 1094 855 1084 883 1070 C 910 1056 936 1037 960 1015 C 984 992 1009 964 1034 932 C 1066 964 1098 991 1128 1013 C 1158 1035 1189 1054 1220 1068 C 1250 1082 1282 1092 1314 1098 C 1346 1104 1381 1108 1419 1108 C 1482 1108 1539 1099 1591 1081 C 1642 1063 1686 1037 1722 1003 C 1758 969 1785 927 1805 879 C 1825 830 1835 775 1835 715 C 1835 651 1823 579 1800 498 Z M 676 918 C 583 918 506 862 446 752 C 388 642 360 523 360 393 C 360 247 416 174 528 174 C 621 174 698 229 758 340 C 788 396 810 454 825 512 C 840 570 848 630 848 692 C 848 763 832 818 802 858 C 771 898 729 918 676 918 Z M 1122 662 L 1585 662 C 1586 673 1587 683 1588 691 C 1588 699 1589 705 1589 711 C 1589 741 1584 769 1575 794 C 1565 819 1552 840 1536 858 C 1520 875 1501 888 1479 898 C 1457 908 1433 913 1409 913 C 1336 913 1274 891 1224 848 C 1173 804 1139 742 1122 662 Z" unicode="œ" />
<glyph horiz-adv-x="1419" d="M 1032 666 L 1251 0 L 932 0 L 750 614 L 500 614 L 379 0 L 78 0 L 377 1530 L 913 1530 C 991 1530 1060 1521 1122 1505 C 1183 1489 1235 1465 1277 1434 C 1319 1402 1351 1363 1373 1316 C 1395 1269 1407 1215 1407 1155 C 1407 905 1282 742 1032 666 Z M 625 1264 L 545 850 L 766 850 C 816 850 862 856 903 868 C 944 880 979 897 1008 919 C 1036 941 1058 969 1074 1001 C 1090 1033 1098 1069 1098 1110 C 1098 1138 1094 1161 1087 1181 C 1079 1201 1067 1217 1051 1229 C 1035 1241 1013 1250 986 1256 C 959 1261 926 1264 887 1264 L 625 1264 Z M 1321 1973 L 879 1637 L 693 1637 L 985 1973 L 1321 1973 Z" unicode="Ŕ" />
<glyph horiz-adv-x="840" d="M 905 1108 L 827 809 L 803 809 C 655 809 537 735 449 588 L 334 0 L 57 0 L 270 1090 L 530 1090 L 473 793 C 603 995 747 1100 905 1108 Z M 1032 1563 L 590 1227 L 404 1227 L 696 1563 L 1032 1563 Z" unicode="ŕ" />
<glyph horiz-adv-x="1419" d="M 1032 666 L 1251 0 L 932 0 L 750 614 L 500 614 L 379 0 L 78 0 L 377 1530 L 913 1530 C 991 1530 1060 1521 1122 1505 C 1183 1489 1235 1465 1277 1434 C 1319 1402 1351 1363 1373 1316 C 1395 1269 1407 1215 1407 1155 C 1407 905 1282 742 1032 666 Z M 625 1264 L 545 850 L 766 850 C 816 850 862 856 903 868 C 944 880 979 897 1008 919 C 1036 941 1058 969 1074 1001 C 1090 1033 1098 1069 1098 1110 C 1098 1138 1094 1161 1087 1181 C 1079 1201 1067 1217 1051 1229 C 1035 1241 1013 1250 986 1256 C 959 1261 926 1264 887 1264 L 625 1264 Z M 1268 1956 L 889 1639 L 734 1639 L 541 1956 L 709 1956 L 834 1817 L 1076 1956 L 1268 1956 Z" unicode="Ř" />
<glyph horiz-adv-x="840" d="M 905 1108 L 827 809 L 803 809 C 655 809 537 735 449 588 L 334 0 L 57 0 L 270 1090 L 530 1090 L 473 793 C 603 995 747 1100 905 1108 Z M 979 1546 L 600 1229 L 445 1229 L 252 1546 L 420 1546 L 545 1407 L 787 1546 L 979 1546 Z" unicode="ř" />
<glyph horiz-adv-x="1272" d="M 578 -31 C 311 -31 133 87 43 324 L 319 426 C 375 288 476 219 621 219 C 681 219 736 238 786 276 C 812 295 831 317 843 341 C 855 365 862 392 862 420 C 862 452 856 480 844 505 C 832 529 813 551 789 571 C 764 591 733 609 695 625 C 657 641 613 656 561 672 C 325 739 207 872 207 1071 C 207 1220 261 1339 371 1427 C 481 1516 623 1561 797 1561 C 863 1561 924 1553 978 1537 C 1032 1521 1079 1498 1119 1468 C 1158 1438 1189 1402 1213 1359 C 1237 1316 1251 1268 1257 1214 L 985 1147 C 949 1276 875 1341 762 1341 C 694 1341 633 1321 578 1282 C 524 1243 498 1195 498 1139 C 498 1109 502 1083 511 1061 C 520 1039 535 1020 555 1003 C 575 986 602 970 635 956 C 667 942 707 927 754 913 C 912 861 1020 802 1079 735 C 1110 701 1133 662 1148 620 C 1163 578 1171 531 1171 481 C 1171 320 1117 194 1010 104 C 902 14 758 -31 578 -31 Z M 1249 1973 L 807 1637 L 621 1637 L 913 1973 L 1249 1973 Z" unicode="Ś" />
<glyph horiz-adv-x="979" d="M 420 -18 C 338 -18 256 0 176 35 C 136 52 101 73 73 97 C 44 121 20 148 2 178 L 174 305 C 232 221 314 180 420 180 C 555 180 623 223 623 309 C 623 367 561 410 438 438 C 389 450 345 465 306 485 C 266 504 233 527 205 554 C 177 580 155 610 140 643 C 124 675 117 711 117 750 C 117 853 160 938 248 1006 C 337 1074 450 1108 588 1108 C 630 1108 670 1103 709 1094 C 747 1084 784 1070 819 1051 C 855 1032 885 1011 909 989 C 933 967 951 943 965 918 L 807 786 C 735 874 657 918 575 918 C 447 918 383 872 383 782 C 383 753 393 728 414 707 C 425 695 444 684 472 673 C 500 661 536 650 580 639 C 788 583 893 479 893 326 C 893 275 882 228 860 186 C 838 144 807 107 766 77 C 725 47 675 23 617 7 C 559 -9 493 -18 420 -18 Z M 1056 1563 L 614 1227 L 428 1227 L 720 1563 L 1056 1563 Z" unicode="ś" />
<glyph horiz-adv-x="1272" d="M 578 -31 C 311 -31 133 87 43 324 L 319 426 C 375 288 476 219 621 219 C 681 219 736 238 786 276 C 812 295 831 317 843 341 C 855 365 862 392 862 420 C 862 452 856 480 844 505 C 832 529 813 551 789 571 C 764 591 733 609 695 625 C 657 641 613 656 561 672 C 325 739 207 872 207 1071 C 207 1220 261 1339 371 1427 C 481 1516 623 1561 797 1561 C 863 1561 924 1553 978 1537 C 1032 1521 1079 1498 1119 1468 C 1158 1438 1189 1402 1213 1359 C 1237 1316 1251 1268 1257 1214 L 985 1147 C 949 1276 875 1341 762 1341 C 694 1341 633 1321 578 1282 C 524 1243 498 1195 498 1139 C 498 1109 502 1083 511 1061 C 520 1039 535 1020 555 1003 C 575 986 602 970 635 956 C 667 942 707 927 754 913 C 912 861 1020 802 1079 735 C 1110 701 1133 662 1148 620 C 1163 578 1171 531 1171 481 C 1171 320 1117 194 1010 104 C 902 14 758 -31 578 -31 Z M 100 -369 L 197 -250 C 223 -265 253 -276 287 -284 C 321 -291 359 -295 401 -295 C 464 -295 496 -273 496 -229 C 496 -211 489 -198 477 -188 C 464 -178 445 -173 420 -172 L 467 -53 C 549 -58 612 -77 655 -109 C 697 -141 719 -179 719 -225 C 719 -288 689 -339 629 -379 C 568 -418 498 -438 420 -438 C 357 -438 299 -432 246 -421 C 192 -409 144 -392 100 -369 Z" unicode="Ş" />
<glyph horiz-adv-x="979" d="M 420 -18 C 338 -18 256 0 176 35 C 136 52 101 73 73 97 C 44 121 20 148 2 178 L 174 305 C 232 221 314 180 420 180 C 555 180 623 223 623 309 C 623 367 561 410 438 438 C 389 450 345 465 306 485 C 266 504 233 527 205 554 C 177 580 155 610 140 643 C 124 675 117 711 117 750 C 117 853 160 938 248 1006 C 337 1074 450 1108 588 1108 C 630 1108 670 1103 709 1094 C 747 1084 784 1070 819 1051 C 855 1032 885 1011 909 989 C 933 967 951 943 965 918 L 807 786 C 735 874 657 918 575 918 C 447 918 383 872 383 782 C 383 753 393 728 414 707 C 425 695 444 684 472 673 C 500 661 536 650 580 639 C 788 583 893 479 893 326 C 893 275 882 228 860 186 C 838 144 807 107 766 77 C 725 47 675 23 617 7 C 559 -9 493 -18 420 -18 Z M -18 -369 L 78 -250 C 104 -265 135 -276 169 -284 C 203 -291 241 -295 283 -295 C 345 -295 377 -273 377 -229 C 377 -211 370 -198 358 -188 C 345 -178 326 -173 301 -172 L 348 -53 C 430 -58 493 -77 536 -109 C 578 -141 600 -179 600 -225 C 600 -288 570 -339 510 -379 C 450 -418 381 -438 301 -438 C 238 -438 180 -432 127 -421 C 74 -409 26 -392 -18 -369 Z" unicode="ş" />
<glyph horiz-adv-x="1272" d="M 578 -31 C 311 -31 133 87 43 324 L 319 426 C 375 288 476 219 621 219 C 681 219 736 238 786 276 C 812 295 831 317 843 341 C 855 365 862 392 862 420 C 862 452 856 480 844 505 C 832 529 813 551 789 571 C 764 591 733 609 695 625 C 657 641 613 656 561 672 C 325 739 207 872 207 1071 C 207 1220 261 1339 371 1427 C 481 1516 623 1561 797 1561 C 863 1561 924 1553 978 1537 C 1032 1521 1079 1498 1119 1468 C 1158 1438 1189 1402 1213 1359 C 1237 1316 1251 1268 1257 1214 L 985 1147 C 949 1276 875 1341 762 1341 C 694 1341 633 1321 578 1282 C 524 1243 498 1195 498 1139 C 498 1109 502 1083 511 1061 C 520 1039 535 1020 555 1003 C 575 986 602 970 635 956 C 667 942 707 927 754 913 C 912 861 1020 802 1079 735 C 1110 701 1133 662 1148 620 C 1163 578 1171 531 1171 481 C 1171 320 1117 194 1010 104 C 902 14 758 -31 578 -31 Z M 1227 1958 L 848 1641 L 693 1641 L 500 1958 L 668 1958 L 793 1819 L 1035 1958 L 1227 1958 Z" unicode="Š" />
<glyph horiz-adv-x="979" d="M 420 -18 C 338 -18 256 0 176 35 C 136 52 101 73 73 97 C 44 121 20 148 2 178 L 174 305 C 232 221 314 180 420 180 C 555 180 623 223 623 309 C 623 367 561 410 438 438 C 389 450 345 465 306 485 C 266 504 233 527 205 554 C 177 580 155 610 140 643 C 124 675 117 711 117 750 C 117 853 160 938 248 1006 C 337 1074 450 1108 588 1108 C 630 1108 670 1103 709 1094 C 747 1084 784 1070 819 1051 C 855 1032 885 1011 909 989 C 933 967 951 943 965 918 L 807 786 C 735 874 657 918 575 918 C 447 918 383 872 383 782 C 383 753 393 728 414 707 C 425 695 444 684 472 673 C 500 661 536 650 580 639 C 788 583 893 479 893 326 C 893 275 882 228 860 186 C 838 144 807 107 766 77 C 725 47 675 23 617 7 C 559 -9 493 -18 420 -18 Z M 1022 1548 L 643 1231 L 488 1231 L 295 1548 L 463 1548 L 588 1409 L 830 1548 L 1022 1548 Z" unicode="š" />
<glyph horiz-adv-x="1241" d="M 1341 1268 L 911 1268 L 664 0 L 362 0 L 610 1268 L 182 1268 L 233 1530 L 1393 1530 L 1341 1268 Z M 92 -369 L 188 -250 C 215 -265 245 -276 279 -284 C 313 -291 351 -295 393 -295 C 455 -295 487 -273 487 -229 C 487 -211 480 -198 468 -188 C 456 -178 437 -173 412 -172 L 459 -53 C 541 -58 604 -77 647 -109 C 689 -141 711 -179 711 -225 C 711 -288 681 -339 621 -379 C 560 -418 490 -438 412 -438 C 349 -438 291 -432 238 -421 C 184 -409 136 -392 92 -369 Z" unicode="Ţ" />
<glyph horiz-adv-x="723" d="M 764 1090 L 725 891 L 535 891 L 430 354 C 426 340 424 328 423 317 C 422 306 422 296 422 287 C 422 235 453 209 516 209 C 535 209 564 211 604 215 L 561 -10 C 547 -13 532 -15 515 -16 C 497 -17 478 -18 457 -18 C 242 -18 135 61 135 221 C 135 233 135 247 137 262 C 139 277 141 293 145 311 L 258 891 L 90 891 L 129 1090 L 297 1090 L 365 1442 L 641 1442 L 573 1090 L 764 1090 Z M -63 -369 L 33 -250 C 59 -265 90 -276 124 -284 C 158 -291 196 -295 238 -295 C 300 -295 332 -273 332 -229 C 332 -211 325 -198 313 -188 C 300 -178 281 -173 256 -172 L 303 -53 C 385 -58 448 -77 491 -109 C 533 -141 555 -179 555 -225 C 555 -288 525 -339 465 -379 C 405 -418 336 -438 256 -438 C 193 -438 135 -432 82 -421 C 29 -409 -19 -392 -63 -369 Z" unicode="ţ" />
<glyph horiz-adv-x="1241" d="M 1341 1268 L 911 1268 L 664 0 L 362 0 L 610 1268 L 182 1268 L 233 1530 L 1393 1530 L 1341 1268 Z M 1253 1956 L 874 1639 L 719 1639 L 526 1956 L 694 1956 L 819 1817 L 1061 1956 L 1253 1956 Z" unicode="Ť" />
<glyph horiz-adv-x="942" d="M 764 1090 L 725 891 L 535 891 L 430 354 C 426 340 424 328 423 317 C 422 306 422 296 422 287 C 422 235 453 209 516 209 C 535 209 564 211 604 215 L 561 -10 C 547 -13 532 -15 515 -16 C 497 -17 478 -18 457 -18 C 242 -18 135 61 135 221 C 135 233 135 247 137 262 C 139 277 141 293 145 311 L 258 891 L 90 891 L 129 1090 L 297 1090 L 365 1442 L 641 1442 L 573 1090 L 764 1090 Z M 1024 1325 L 895 1325 L 940 1552 L 1169 1552 L 1118 1309 L 963 1118 L 868 1118 L 1024 1325 Z" unicode="ť" />
<glyph horiz-adv-x="1563" d="M 1585 1530 L 1395 569 C 1374 466 1344 377 1305 302 C 1265 226 1216 164 1156 115 C 1096 66 1025 30 945 6 C 864 -17 772 -29 670 -29 C 590 -29 520 -19 458 1 C 396 21 343 50 301 88 C 258 126 225 172 203 227 C 181 281 170 344 170 414 C 170 468 177 535 193 614 L 369 1530 L 670 1530 L 487 596 C 481 571 478 548 476 528 C 474 508 473 489 473 473 C 473 316 556 238 723 238 C 929 238 1059 379 1114 662 L 1284 1530 L 1585 1530 Z M 1217 1899 C 1217 1869 1211 1842 1201 1817 C 1190 1791 1175 1769 1156 1750 C 1137 1731 1115 1716 1090 1706 C 1064 1695 1037 1690 1008 1690 C 979 1690 952 1695 927 1706 C 901 1716 879 1731 860 1750 C 841 1768 826 1790 815 1815 C 804 1840 799 1867 799 1896 C 799 1925 804 1952 816 1978 C 828 2004 843 2026 863 2045 C 882 2064 904 2079 929 2090 C 954 2101 980 2107 1008 2107 C 1037 2107 1064 2101 1090 2090 C 1115 2079 1137 2064 1156 2045 C 1175 2026 1190 2004 1201 1979 C 1211 1954 1217 1927 1217 1899 Z M 881 1896 C 881 1878 884 1861 890 1846 C 896 1830 905 1817 917 1806 C 929 1794 942 1785 958 1779 C 973 1772 990 1769 1008 1769 C 1026 1769 1042 1772 1058 1779 C 1074 1785 1087 1794 1099 1806 C 1111 1817 1120 1830 1127 1846 C 1133 1861 1137 1878 1137 1896 C 1137 1914 1133 1930 1126 1946 C 1119 1962 1110 1975 1098 1987 C 1086 1999 1072 2008 1057 2015 C 1041 2021 1026 2025 1010 2025 C 991 2025 974 2021 958 2014 C 942 2007 929 1998 917 1986 C 905 1974 896 1960 890 1944 C 884 1928 881 1912 881 1896 Z" unicode="Ů" />
<glyph horiz-adv-x="1221" d="M 1167 1090 L 954 0 L 678 0 L 711 164 C 589 42 477 -18 373 -18 C 203 -18 119 76 119 266 C 119 286 120 309 123 333 C 125 357 129 384 135 412 L 268 1090 L 545 1090 L 412 416 C 408 398 406 383 404 369 C 402 355 401 344 401 334 C 401 256 437 217 510 217 C 602 217 681 263 748 356 L 891 1090 L 1167 1090 Z M 969 1491 C 969 1461 963 1434 953 1409 C 942 1383 927 1361 908 1342 C 889 1323 867 1308 842 1298 C 816 1287 789 1282 760 1282 C 731 1282 704 1287 679 1298 C 653 1308 631 1323 612 1342 C 593 1360 578 1382 567 1407 C 556 1432 551 1459 551 1488 C 551 1517 556 1544 568 1570 C 580 1596 595 1618 615 1637 C 634 1656 656 1671 681 1682 C 706 1693 732 1699 760 1699 C 789 1699 816 1693 842 1682 C 867 1671 889 1656 908 1637 C 927 1618 942 1596 953 1571 C 963 1546 969 1519 969 1491 Z M 633 1488 C 633 1470 636 1453 642 1438 C 648 1422 657 1409 669 1398 C 681 1386 694 1377 710 1371 C 725 1364 742 1361 760 1361 C 778 1361 794 1364 810 1371 C 826 1377 839 1386 851 1398 C 863 1409 872 1422 879 1438 C 885 1453 889 1470 889 1488 C 889 1506 885 1522 878 1538 C 871 1554 862 1567 850 1579 C 838 1591 824 1600 809 1607 C 793 1613 778 1617 762 1617 C 743 1617 726 1613 710 1606 C 694 1599 681 1590 669 1578 C 657 1566 648 1552 642 1536 C 636 1520 633 1504 633 1488 Z" unicode="ů" />
<glyph horiz-adv-x="1563" d="M 1585 1530 L 1395 569 C 1374 466 1344 377 1305 302 C 1265 226 1216 164 1156 115 C 1096 66 1025 30 945 6 C 864 -17 772 -29 670 -29 C 590 -29 520 -19 458 1 C 396 21 343 50 301 88 C 258 126 225 172 203 227 C 181 281 170 344 170 414 C 170 468 177 535 193 614 L 369 1530 L 670 1530 L 487 596 C 481 571 478 548 476 528 C 474 508 473 489 473 473 C 473 316 556 238 723 238 C 929 238 1059 379 1114 662 L 1284 1530 L 1585 1530 Z M 987 1637 L 1274 1973 L 1540 1973 L 1173 1637 L 987 1637 Z M 614 1637 L 901 1973 L 1167 1973 L 800 1637 L 614 1637 Z" unicode="Ű" />
<glyph horiz-adv-x="1221" d="M 1167 1090 L 954 0 L 678 0 L 711 164 C 589 42 477 -18 373 -18 C 203 -18 119 76 119 266 C 119 286 120 309 123 333 C 125 357 129 384 135 412 L 268 1090 L 545 1090 L 412 416 C 408 398 406 383 404 369 C 402 355 401 344 401 334 C 401 256 437 217 510 217 C 602 217 681 263 748 356 L 891 1090 L 1167 1090 Z M 817 1227 L 1104 1563 L 1370 1563 L 1003 1227 L 817 1227 Z M 444 1227 L 731 1563 L 997 1563 L 630 1227 L 444 1227 Z" unicode="ű" />
<glyph horiz-adv-x="1235" d="M 1378 1530 L 776 682 L 643 0 L 342 0 L 475 682 L 207 1530 L 508 1530 L 674 971 L 1053 1530 L 1378 1530 Z M 1208 1901 L 1167 1686 L 950 1686 L 991 1901 L 1208 1901 Z M 727 1901 L 686 1686 L 467 1686 L 508 1901 L 727 1901 Z" unicode="Ÿ" />
<glyph horiz-adv-x="1280" d="M 1114 0 L -27 0 L 14 205 L 930 1268 L 217 1268 L 268 1530 L 1354 1530 L 1307 1294 L 422 264 L 1165 264 L 1114 0 Z M 1251 1973 L 809 1637 L 623 1637 L 915 1973 L 1251 1973 Z" unicode="Ź" />
<glyph horiz-adv-x="1012" d="M 831 0 L -41 0 L 2 223 L 692 868 L 154 868 L 197 1090 L 1044 1090 L 1001 868 L 315 223 L 874 223 L 831 0 Z M 1118 1563 L 676 1227 L 490 1227 L 782 1563 L 1118 1563 Z" unicode="ź" />
<glyph horiz-adv-x="1280" d="M 1114 0 L -27 0 L 14 205 L 930 1268 L 217 1268 L 268 1530 L 1354 1530 L 1307 1294 L 422 264 L 1165 264 L 1114 0 Z M 1020 2001 L 966 1731 L 690 1731 L 743 2001 L 1020 2001 Z" unicode="Ż" />
<glyph horiz-adv-x="1012" d="M 831 0 L -41 0 L 2 223 L 692 868 L 154 868 L 197 1090 L 1044 1090 L 1001 868 L 315 223 L 874 223 L 831 0 Z M 838 1589 L 784 1319 L 508 1319 L 561 1589 L 838 1589 Z" unicode="ż" />
<glyph horiz-adv-x="1280" d="M 1114 0 L -27 0 L 14 205 L 930 1268 L 217 1268 L 268 1530 L 1354 1530 L 1307 1294 L 422 264 L 1165 264 L 1114 0 Z M 1288 1958 L 909 1641 L 754 1641 L 561 1958 L 729 1958 L 854 1819 L 1096 1958 L 1288 1958 Z" unicode="Ž" />
<glyph horiz-adv-x="1012" d="M 831 0 L -41 0 L 2 223 L 692 868 L 154 868 L 197 1090 L 1044 1090 L 1001 868 L 315 223 L 874 223 L 831 0 Z M 1104 1548 L 725 1231 L 570 1231 L 377 1548 L 545 1548 L 670 1409 L 912 1548 L 1104 1548 Z" unicode="ž" />
<glyph horiz-adv-x="815" d="M 938 1288 C 894 1307 842 1317 782 1317 C 746 1317 719 1306 701 1285 C 682 1264 666 1228 653 1176 L 639 1114 L 848 1114 L 805 899 L 598 899 L 391 -115 C 348 -325 235 -430 51 -430 C -50 -430 -141 -415 -223 -387 L -160 -164 C -119 -180 -74 -188 -25 -188 C -3 -188 16 -185 33 -180 C 49 -175 64 -166 77 -153 C 90 -139 101 -121 111 -97 C 120 -73 129 -43 137 -6 L 317 899 L 115 899 L 160 1114 L 362 1114 L 383 1208 C 411 1348 453 1442 508 1489 C 564 1537 639 1561 735 1561 C 785 1561 831 1557 875 1550 C 919 1542 961 1532 1001 1518 L 938 1288 Z" unicode="ƒ" />
<glyph horiz-adv-x="682" d="M 819 1225 L 651 1225 L 526 1364 L 285 1225 L 92 1225 L 471 1542 L 627 1542 L 819 1225 Z" unicode="ˆ" />
<glyph horiz-adv-x="682" d="M 899 1546 L 520 1229 L 365 1229 L 172 1546 L 340 1546 L 465 1407 L 707 1546 L 899 1546 Z" unicode="ˇ" />
<glyph horiz-adv-x="682" d="M 887 1577 C 796 1357 658 1247 473 1247 C 294 1247 199 1357 188 1577 L 326 1577 C 336 1474 389 1423 487 1423 C 595 1423 683 1474 750 1577 L 887 1577 Z" unicode="˘" />
<glyph horiz-adv-x="682" d="M 672 1589 L 618 1319 L 342 1319 L 395 1589 L 672 1589 Z" unicode="˙" />
<glyph horiz-adv-x="682" d="M 713 1430 C 713 1400 707 1373 697 1348 C 686 1322 671 1300 652 1281 C 633 1262 611 1247 586 1237 C 560 1226 533 1221 504 1221 C 475 1221 448 1226 423 1237 C 397 1247 375 1262 356 1281 C 337 1299 322 1321 311 1346 C 300 1371 295 1398 295 1427 C 295 1456 300 1483 312 1509 C 324 1535 339 1557 359 1576 C 378 1595 400 1610 425 1621 C 450 1632 476 1638 504 1638 C 533 1638 560 1632 586 1621 C 611 1610 633 1595 652 1576 C 671 1557 686 1535 697 1510 C 707 1485 713 1458 713 1430 Z M 377 1427 C 377 1409 380 1392 386 1377 C 392 1361 401 1348 413 1337 C 425 1325 438 1316 454 1310 C 469 1303 486 1300 504 1300 C 522 1300 538 1303 554 1310 C 570 1316 583 1325 595 1337 C 607 1348 616 1361 623 1377 C 629 1392 633 1409 633 1427 C 633 1445 629 1461 622 1477 C 615 1493 606 1506 594 1518 C 582 1530 568 1539 553 1546 C 537 1552 522 1556 506 1556 C 487 1556 470 1552 454 1545 C 438 1538 425 1529 413 1517 C 401 1505 392 1491 386 1475 C 380 1459 377 1443 377 1427 Z" unicode="˚" />
<glyph horiz-adv-x="682" d="M 582 -252 L 555 -389 C 488 -416 413 -430 330 -430 C 299 -430 271 -425 246 -415 C 221 -405 200 -391 182 -373 C 164 -355 151 -334 141 -310 C 131 -285 127 -258 127 -229 C 127 -200 137 -159 158 -106 C 180 -51 203 -7 227 27 L 379 27 C 329 -47 305 -112 305 -168 C 305 -240 344 -276 422 -276 C 491 -276 544 -268 582 -252 Z" unicode="˛" />
<glyph horiz-adv-x="739" d="M 877 1509 C 829 1327 736 1237 600 1237 C 567 1237 525 1255 475 1292 C 423 1329 386 1348 362 1348 C 352 1348 341 1345 330 1339 C 319 1333 309 1324 299 1314 C 289 1304 280 1292 273 1279 C 265 1265 260 1251 258 1237 L 102 1237 C 154 1421 249 1513 387 1513 C 425 1513 467 1494 514 1458 C 561 1422 597 1405 623 1405 C 665 1405 699 1439 727 1509 L 877 1509 Z" unicode="˜" />
<glyph horiz-adv-x="682" d="M 547 1227 L 834 1563 L 1100 1563 L 733 1227 L 547 1227 Z M 174 1227 L 461 1563 L 727 1563 L 360 1227 L 174 1227 Z" unicode="˝" />
<glyph horiz-adv-x="1124" d="M 1124 860 L 954 860 L 954 0 L 668 0 L 668 860 L 459 860 L 459 0 L 168 0 L 168 860 L 0 860 L 0 1063 L 1124 1063 L 1124 860 Z" unicode="π" />
<glyph horiz-adv-x="1024" d="M 0 434 L 0 684 L 1024 684 L 1024 434 L 0 434 Z" unicode="–" />
<glyph horiz-adv-x="2048" d="M 0 434 L 0 684 L 2048 684 L 2048 434 L 0 434 Z" unicode="—" />
<glyph horiz-adv-x="641" d="M 301 1233 L 563 1561 L 672 1561 L 438 1233 L 602 1233 L 541 907 L 240 907 L 301 1233 Z" unicode="‘" />
<glyph horiz-adv-x="641" d="M 297 1202 L 358 1530 L 657 1530 L 596 1202 L 340 877 L 227 877 L 457 1202 L 297 1202 Z" unicode="’" />
<glyph horiz-adv-x="641" d="M 66 0 L 129 334 L 430 334 L 367 0 L 119 -330 L 6 -330 L 233 0 L 66 0 Z" unicode="‚" />
<glyph horiz-adv-x="1122" d="M 786 1231 L 1042 1561 L 1153 1561 L 918 1231 L 1083 1231 L 1022 905 L 725 905 L 786 1231 Z M 301 1231 L 559 1561 L 668 1561 L 434 1231 L 598 1231 L 537 905 L 240 905 L 301 1231 Z" unicode="“" />
<glyph horiz-adv-x="1122" d="M 297 1202 L 358 1530 L 657 1530 L 596 1202 L 340 872 L 227 872 L 457 1202 L 297 1202 Z M 780 1202 L 842 1530 L 1141 1530 L 1079 1202 L 823 872 L 711 872 L 946 1202 L 780 1202 Z" unicode="”" />
<glyph horiz-adv-x="1122" d="M 66 0 L 129 328 L 426 328 L 362 0 L 111 -328 L -4 -328 L 225 0 L 66 0 Z M 549 0 L 612 328 L 911 328 L 848 0 L 592 -328 L 479 -328 L 713 0 L 549 0 Z" unicode="„" />
<glyph horiz-adv-x="1067" d="M 1090 1044 L 1044 811 L 647 877 L 487 -410 L 209 -410 L 545 877 L 123 811 L 168 1044 L 565 979 L 606 1530 L 842 1530 L 668 979 L 1090 1044 Z" unicode="†" />
<glyph horiz-adv-x="1067" d="M 1090 1133 L 1049 918 L 662 981 L 631 561 L 498 145 L 909 209 L 870 0 L 481 59 L 465 -406 L 233 -406 L 399 59 L -12 0 L 27 209 L 416 145 L 446 561 L 580 981 L 166 918 L 207 1133 L 596 1071 L 610 1530 L 842 1530 L 678 1071 L 1090 1133 Z" unicode="‡" />
<glyph horiz-adv-x="817" d="M 444 428 C 362 428 293 456 236 514 C 178 570 150 640 150 723 C 150 805 178 874 236 932 C 292 990 362 1020 444 1020 C 526 1020 596 990 653 932 C 711 875 741 805 741 723 C 741 639 711 570 653 514 C 595 456 526 428 444 428 Z" unicode="•" />
<glyph horiz-adv-x="1921" d="M 160 0 L 223 332 L 524 332 L 461 0 L 160 0 Z M 717 0 L 780 332 L 1081 332 L 1018 0 L 717 0 Z M 1264 0 L 1327 332 L 1628 332 L 1565 0 L 1264 0 Z" unicode="…" />
<glyph horiz-adv-x="2963" d="M 426 -365 L 1415 1339 C 1352 1309 1294 1286 1240 1271 C 1186 1256 1136 1249 1090 1249 C 1048 1249 1007 1254 965 1266 C 970 1247 974 1228 976 1209 C 978 1189 979 1169 979 1149 C 979 991 936 858 850 750 C 764 643 655 590 524 590 C 470 590 422 598 378 616 C 334 634 296 659 264 693 C 232 726 208 766 190 813 C 172 860 164 913 164 973 C 164 1125 206 1254 291 1358 C 376 1461 484 1513 616 1513 C 693 1513 768 1490 842 1446 C 884 1420 925 1401 965 1388 C 1005 1374 1045 1368 1085 1368 C 1148 1368 1224 1382 1313 1411 C 1405 1440 1491 1504 1571 1602 L 1733 1602 L 596 -365 L 426 -365 Z M 401 942 C 401 888 412 846 436 815 C 460 783 492 768 532 768 C 562 768 590 777 616 795 C 641 813 663 839 681 873 C 699 906 714 946 724 993 C 734 1040 739 1093 739 1151 C 739 1276 692 1339 598 1339 C 534 1339 485 1296 451 1210 C 417 1123 401 1034 401 942 Z M 2003 246 C 2003 94 1960 -33 1874 -137 C 1832 -189 1783 -228 1727 -254 C 1671 -280 1608 -293 1540 -293 C 1486 -293 1437 -283 1393 -265 C 1349 -247 1312 -221 1281 -187 C 1250 -153 1226 -113 1209 -65 C 1192 -17 1184 36 1184 96 C 1184 246 1226 372 1311 475 C 1394 579 1502 631 1636 631 C 1692 631 1742 622 1788 604 C 1833 586 1871 560 1903 526 C 1935 492 1959 452 1977 405 C 1994 357 2003 304 2003 246 Z M 1425 59 C 1425 33 1428 9 1434 -12 C 1440 -33 1450 -51 1462 -67 C 1474 -82 1488 -94 1504 -102 C 1520 -110 1539 -115 1559 -115 C 1617 -115 1665 -79 1704 -8 C 1743 61 1763 148 1763 254 C 1763 390 1714 459 1618 459 C 1559 459 1513 420 1479 342 C 1461 302 1448 259 1439 213 C 1429 166 1425 115 1425 59 Z M 2963 246 C 2963 94 2920 -33 2834 -137 C 2748 -241 2637 -293 2501 -293 C 2447 -293 2398 -283 2354 -265 C 2310 -247 2273 -221 2242 -187 C 2210 -153 2186 -113 2169 -65 C 2152 -17 2144 36 2144 96 C 2144 246 2186 372 2271 475 C 2354 579 2463 631 2597 631 C 2653 631 2703 622 2748 604 C 2793 586 2831 560 2863 526 C 2895 492 2919 452 2937 405 C 2954 357 2963 304 2963 246 Z M 2386 59 C 2386 33 2389 9 2396 -12 C 2402 -33 2412 -51 2424 -67 C 2436 -82 2450 -94 2466 -102 C 2482 -110 2499 -115 2519 -115 C 2577 -115 2626 -80 2664 -10 C 2683 24 2698 63 2708 107 C 2718 151 2724 200 2724 254 C 2724 390 2675 459 2578 459 C 2518 459 2471 420 2437 342 C 2419 302 2406 259 2398 213 C 2390 166 2386 115 2386 59 Z" unicode="‰" />
<glyph horiz-adv-x="643" d="M 59 543 L 389 1028 L 676 1028 L 348 543 L 492 61 L 205 61 L 59 543 Z" unicode="‹" />
<glyph horiz-adv-x="643" d="M 295 545 L 152 1028 L 438 1028 L 582 545 L 254 61 L -33 61 L 295 545 Z" unicode="›" />
<glyph horiz-adv-x="213" d="M 858 1493 L -489 -252 L -600 -186 L 752 1569 L 858 1493 Z" unicode="⁄" />
<glyph horiz-adv-x="1300" d="M 1178 307 C 1149 247 1116 196 1079 154 C 1042 111 1002 76 958 49 C 914 21 866 1 816 -11 C 766 -24 713 -31 657 -31 C 344 -31 188 133 188 463 C 188 755 251 1011 379 1231 C 508 1451 682 1561 901 1561 C 1201 1561 1358 1409 1372 1106 L 1077 1090 C 1069 1238 1006 1313 889 1313 C 763 1313 664 1225 590 1049 C 516 873 479 682 479 475 C 479 303 544 217 674 217 C 728 217 775 233 817 266 C 859 299 900 350 940 418 L 1178 307 Z M 139 1024 L 961 1024 L 932 874 L 106 874 L 139 1024 Z M 53 688 L 877 688 L 848 539 L 25 539 L 53 688 Z" unicode="€" />
<glyph horiz-adv-x="1556" d="M 567 854 L 430 854 L 430 1413 L 221 1413 L 221 1530 L 770 1530 L 770 1413 L 567 1413 L 567 854 Z M 1020 854 L 893 854 L 893 1530 L 1108 1530 L 1229 1065 L 1352 1530 L 1567 1530 L 1567 854 L 1436 854 L 1436 1393 L 1290 854 L 1165 854 L 1020 1393 L 1020 854 Z" unicode="™" />
<glyph horiz-adv-x="1573" d="M 1530 0 L 889 0 L 889 244 C 1092 342 1194 522 1194 784 C 1194 860 1185 929 1167 991 C 1149 1053 1122 1105 1088 1149 C 1053 1192 1010 1225 960 1249 C 909 1272 851 1284 786 1284 C 662 1284 565 1237 494 1145 C 422 1053 387 934 387 788 C 387 521 491 340 700 244 L 700 0 L 55 0 L 55 229 L 154 229 L 463 207 C 206 315 78 516 78 811 C 78 1021 141 1188 268 1313 C 396 1439 566 1503 776 1503 C 1018 1503 1201 1436 1325 1303 C 1447 1169 1509 1006 1509 813 C 1509 523 1382 321 1128 209 L 1458 231 L 1530 231 L 1530 0 Z" unicode="Ω" />
<glyph horiz-adv-x="1012" d="M 825 942 C 825 1058 806 1148 768 1212 C 730 1276 676 1309 606 1309 C 517 1309 441 1246 379 1122 L 242 1206 C 310 1396 434 1491 612 1491 C 669 1491 720 1478 766 1453 C 811 1428 849 1392 881 1345 C 912 1298 936 1241 952 1173 C 968 1105 977 1028 977 942 C 977 854 970 768 956 684 C 942 600 921 517 893 436 C 838 275 762 158 664 84 C 566 11 462 -25 354 -25 C 305 -25 261 -16 223 0 C 185 16 152 40 126 71 C 99 102 78 139 64 183 C 50 227 43 276 43 330 C 43 504 112 650 252 770 C 392 888 583 946 825 942 Z M 813 758 C 642 764 509 724 414 639 C 319 555 272 454 272 338 C 272 314 275 291 282 270 C 289 249 299 231 311 216 C 323 200 338 188 356 179 C 373 170 392 166 414 166 C 508 166 592 219 666 326 C 739 432 788 576 813 758 Z" unicode="∂" />
<glyph horiz-adv-x="1253" d="M 1227 0 L 27 0 L 653 1386 L 1227 0 Z M 989 82 L 592 1049 L 152 82 L 989 82 Z" unicode="∆" />
<glyph horiz-adv-x="1686" d="M 1524 -430 L 1331 -430 L 1331 1317 L 354 1317 L 354 -430 L 162 -430 L 162 1491 L 1524 1491 L 1524 -430 Z" unicode="∏" />
<glyph horiz-adv-x="1460" d="M 1386 -430 L 123 -430 L 123 -244 L 741 545 L 139 1317 L 139 1491 L 1376 1491 L 1376 1327 L 387 1327 L 995 553 L 346 -270 L 1386 -270 L 1386 -430 Z" unicode="∑" />
<glyph horiz-adv-x="1366" d="M 1284 659 L 170 659 L 170 874 L 1284 874 L 1284 659 Z" unicode="−" />
<glyph horiz-adv-x="1124" d="M 1124 1870 L 811 -78 L 315 942 L 119 852 L 84 915 L 385 1067 L 791 244 L 1051 1870 L 1124 1870 Z" unicode="√" />
<glyph horiz-adv-x="1460" d="M 682 600 C 598 485 501 428 393 428 C 357 428 324 435 294 450 C 264 465 239 486 218 513 C 197 539 181 571 169 607 C 157 643 152 681 152 723 C 152 764 157 802 169 838 C 180 874 196 905 217 931 C 238 957 263 977 293 992 C 323 1006 356 1014 393 1014 C 500 1014 596 957 682 844 C 774 995 881 1071 1004 1071 C 1050 1071 1093 1062 1131 1045 C 1169 1027 1201 1003 1228 973 C 1254 942 1275 905 1289 863 C 1303 820 1311 773 1311 723 C 1311 671 1303 624 1289 582 C 1275 539 1254 502 1228 471 C 1201 440 1169 416 1131 399 C 1093 381 1050 373 1004 373 C 881 373 774 448 682 600 Z M 774 725 C 834 629 879 571 909 551 C 939 530 972 520 1008 520 C 1032 520 1054 525 1074 535 C 1093 545 1109 560 1123 578 C 1136 596 1146 618 1154 643 C 1161 668 1165 695 1165 725 C 1165 753 1161 780 1154 804 C 1147 828 1137 849 1123 867 C 1109 885 1093 899 1074 909 C 1055 919 1034 924 1010 924 C 936 924 858 857 774 725 Z M 596 725 C 528 819 464 866 406 866 C 372 866 344 852 324 826 C 303 800 293 767 293 727 C 293 685 302 651 322 624 C 342 597 370 584 406 584 C 458 584 522 631 596 725 Z" unicode="∞" />
<glyph horiz-adv-x="561" d="M 201 948 L 217 1479 C 219 1531 225 1579 235 1624 C 245 1669 258 1711 276 1749 C 311 1825 364 1864 434 1864 C 450 1864 465 1861 480 1855 C 495 1849 508 1842 520 1832 C 532 1822 541 1810 548 1797 C 555 1783 559 1769 559 1755 C 559 1725 551 1700 535 1681 C 519 1662 497 1653 469 1653 C 444 1653 418 1664 391 1688 C 383 1695 376 1700 370 1703 C 363 1706 357 1708 352 1708 C 324 1708 311 1687 311 1645 C 311 1629 312 1610 314 1586 C 316 1562 318 1533 322 1499 C 346 1223 358 1001 358 834 L 350 485 C 346 345 341 231 334 145 C 327 58 317 -3 305 -39 C 293 -75 280 -104 266 -128 C 252 -151 238 -169 223 -183 C 207 -197 191 -206 173 -211 C 155 -216 137 -219 119 -219 C 83 -219 54 -207 32 -185 C 10 -163 0 -134 0 -98 C 0 -32 30 0 90 0 C 114 0 138 -11 160 -33 C 182 -53 198 -63 209 -63 C 235 -63 248 -42 248 -2 C 248 12 247 29 245 49 C 243 69 241 91 238 117 C 224 231 214 342 208 451 C 202 560 199 668 199 774 C 199 802 199 831 199 860 C 199 888 199 918 201 948 Z" unicode="∫" />
<glyph horiz-adv-x="1366" d="M 1225 1147 L 1225 1001 C 1174 959 1125 927 1077 906 C 1029 884 983 874 938 874 C 877 874 788 900 672 954 C 613 982 564 1002 525 1016 C 485 1029 455 1036 434 1036 C 348 1036 251 990 141 899 L 141 1042 C 241 1125 339 1167 436 1167 C 465 1167 501 1160 544 1147 C 586 1133 637 1113 696 1085 C 812 1032 891 1006 934 1006 C 1016 1006 1113 1053 1225 1147 Z M 1225 737 L 1225 592 C 1123 507 1027 465 938 465 C 876 465 787 492 672 547 C 613 573 564 593 525 607 C 485 620 455 627 434 627 C 348 627 251 581 141 489 L 141 633 C 241 716 339 758 436 758 C 492 758 579 731 696 678 C 812 623 891 596 934 596 C 1016 596 1113 643 1225 737 Z" unicode="≈" />
<glyph horiz-adv-x="1366" d="M 1282 422 L 670 422 L 563 197 L 358 197 L 465 422 L 170 422 L 170 637 L 565 637 L 686 899 L 170 899 L 170 1114 L 786 1114 L 889 1329 L 1094 1329 L 991 1114 L 1282 1114 L 1282 899 L 893 899 L 768 637 L 1282 637 L 1282 422 Z" unicode="≠" />
<glyph horiz-adv-x="1366" d="M 1239 387 L 127 854 L 127 1049 L 1239 1509 L 1239 1280 L 420 948 L 1239 623 L 1239 387 Z M 1239 33 L 125 33 L 125 248 L 1239 248 L 1239 33 Z" unicode="≤" />
<glyph horiz-adv-x="1366" d="M 1239 854 L 127 387 L 127 623 L 946 948 L 127 1280 L 127 1509 L 1239 1049 L 1239 854 Z M 1239 33 L 125 33 L 125 248 L 1239 248 L 1239 33 Z" unicode="≥" />
<glyph horiz-adv-x="1012" d="M 967 709 L 549 0 L 438 0 L 47 709 L 438 1421 L 549 1421 L 967 709 Z M 854 709 L 496 1325 L 156 709 L 496 94 L 854 709 Z" unicode="◊" />
<glyph horiz-adv-x="1296" d="M 584 1090 L 760 1090 L 721 891 L 545 891 L 371 0 L 94 0 L 268 891 L 133 891 L 172 1090 L 307 1090 C 323 1172 343 1242 369 1301 C 394 1359 424 1407 460 1444 C 496 1481 537 1508 584 1526 C 631 1543 685 1552 745 1552 L 870 1552 L 831 1360 L 784 1360 C 690 1360 633 1315 614 1227 L 584 1090 Z M 1335 1552 L 1282 1278 L 1006 1278 L 1059 1552 L 1335 1552 Z M 1245 1090 L 1032 0 L 756 0 L 969 1090 L 1245 1090 Z" unicode="" />
<glyph horiz-adv-x="1296" d="M 584 1090 L 760 1090 L 721 891 L 545 891 L 371 0 L 94 0 L 268 891 L 133 891 L 172 1090 L 307 1090 C 323 1172 343 1242 369 1301 C 394 1359 424 1407 460 1444 C 496 1481 537 1508 584 1526 C 631 1543 685 1552 745 1552 L 870 1552 L 831 1360 L 784 1360 C 690 1360 633 1315 614 1227 L 584 1090 Z M 1335 1552 L 1032 0 L 756 0 L 1059 1552 L 1335 1552 Z" unicode="" />
<glyph horiz-adv-x="1296" d="M 584 1090 L 760 1090 L 721 891 L 545 891 L 371 0 L 94 0 L 268 891 L 133 891 L 172 1090 L 307 1090 C 323 1172 343 1242 369 1301 C 394 1359 424 1407 460 1444 C 496 1481 537 1508 584 1526 C 631 1543 685 1552 745 1552 L 870 1552 L 831 1360 L 784 1360 C 690 1360 633 1315 614 1227 L 584 1090 Z M 1335 1552 L 1282 1278 L 1006 1278 L 1059 1552 L 1335 1552 Z M 1245 1090 L 1032 0 L 756 0 L 969 1090 L 1245 1090 Z" unicode="ﬁ" />
<glyph horiz-adv-x="1296" d="M 584 1090 L 760 1090 L 721 891 L 545 891 L 371 0 L 94 0 L 268 891 L 133 891 L 172 1090 L 307 1090 C 323 1172 343 1242 369 1301 C 394 1359 424 1407 460 1444 C 496 1481 537 1508 584 1526 C 631 1543 685 1552 745 1552 L 870 1552 L 831 1360 L 784 1360 C 690 1360 633 1315 614 1227 L 584 1090 Z M 1335 1552 L 1032 0 L 756 0 L 1059 1552 L 1335 1552 Z" unicode="ﬂ" />
</font>
</defs>
</svg>
