<?xml version="1.0" encoding="utf-8" ?><svg version="1.1" xmlns = 'http://www.w3.org/2000/svg'><defs><font id='web' horiz-adv-x="1000">
<font-face font-family="web" descent="-383" cap-height="1495" units-per-em="2048" bbox="-246,-432,2226,1945" x-height="891" ascent="1638" />
<missing-glyph horiz-adv-x="1024" d="" /><glyph horiz-adv-x="451" d="" unicode=" " />
<glyph horiz-adv-x="565" d="M 326 414 L 115 414 L 156 967 L 250 1495 L 571 1495 L 477 967 L 326 414 Z M 309 0 L -12 0 L 39 305 L 360 305 L 309 0 Z" unicode="!" />
<glyph horiz-adv-x="909" d="M 780 926 L 600 926 L 592 1217 L 641 1495 L 940 1495 L 891 1217 L 780 926 Z M 358 926 L 178 926 L 170 1217 L 219 1495 L 518 1495 L 469 1217 L 358 926 Z" unicode="&#x22;" />
<glyph horiz-adv-x="1323" d="M 1241 901 L 1049 901 L 983 596 L 1202 596 L 1165 356 L 926 356 L 850 0 L 637 0 L 711 356 L 430 356 L 356 0 L 141 0 L 217 356 L 45 356 L 82 596 L 274 596 L 340 901 L 123 901 L 158 1143 L 397 1143 L 473 1495 L 686 1495 L 612 1143 L 893 1143 L 967 1495 L 1182 1495 L 1106 1143 L 1278 1143 L 1241 901 Z M 553 907 L 483 592 L 770 592 L 842 907 L 553 907 Z" unicode="#" />
<glyph horiz-adv-x="1217" d="M 1051 1126 C 971 1186 881 1225 780 1243 L 713 866 C 821 821 900 780 952 742 C 1003 704 1042 662 1068 615 C 1094 567 1108 513 1108 451 C 1108 316 1060 209 965 130 C 869 51 737 7 569 -2 L 541 -180 L 348 -180 L 383 4 C 215 25 73 83 -43 178 L 125 383 C 163 349 210 320 266 296 C 322 272 378 255 436 246 L 506 649 C 374 698 278 755 218 820 C 157 884 127 961 127 1049 C 127 1177 174 1282 268 1363 C 362 1444 487 1488 643 1495 L 668 1624 L 858 1624 L 834 1489 C 982 1469 1107 1420 1210 1343 L 1051 1126 Z M 610 1251 C 545 1245 497 1227 465 1199 C 433 1170 418 1134 418 1090 C 418 1056 428 1028 450 1004 C 472 980 507 957 555 934 L 610 1251 Z M 819 408 C 819 482 767 542 664 586 L 602 244 C 676 249 731 265 766 292 C 801 318 819 357 819 408 Z" unicode="$" />
<glyph horiz-adv-x="1593" d="M 760 1206 C 760 1119 742 1039 708 966 C 674 892 628 835 570 793 C 512 751 451 729 385 729 C 298 729 228 757 176 814 C 124 871 98 950 98 1051 C 98 1131 115 1208 149 1282 C 183 1355 229 1413 287 1456 C 345 1498 406 1520 471 1520 C 560 1520 630 1491 682 1435 C 734 1378 760 1302 760 1206 Z M 332 0 L 82 0 L 1262 1495 L 1511 1495 L 332 0 Z M 1493 451 C 1493 365 1476 285 1443 212 C 1409 138 1364 81 1306 39 C 1248 -3 1186 -24 1120 -25 C 1032 -25 961 3 909 61 C 857 119 831 197 831 297 C 831 377 847 453 881 525 C 915 597 961 654 1019 698 C 1077 742 1139 764 1204 764 C 1292 764 1363 736 1415 681 C 1467 626 1493 549 1493 451 Z M 551 1190 C 551 1243 542 1283 526 1310 C 510 1336 487 1350 459 1350 C 418 1350 382 1320 351 1260 C 320 1200 305 1134 305 1061 C 305 953 335 899 395 899 C 438 899 475 927 505 985 C 535 1042 551 1110 551 1190 Z M 1284 434 C 1284 540 1254 594 1194 594 C 1152 594 1115 564 1084 506 C 1053 448 1038 381 1038 305 C 1038 253 1045 213 1061 185 C 1077 157 1100 143 1130 143 C 1174 143 1211 172 1240 231 C 1269 290 1284 358 1284 434 Z" unicode="%" />
<glyph horiz-adv-x="1352" d="M 1253 436 C 1189 370 1119 306 1044 244 L 1204 0 L 870 0 L 809 96 C 668 18 532 -20 401 -20 C 269 -20 163 11 84 75 C 4 139 -35 224 -35 330 C -35 397 -20 459 7 515 C 35 571 75 623 126 671 C 177 719 252 770 350 825 C 316 875 289 923 271 969 C 253 1015 244 1062 244 1110 C 244 1184 264 1253 305 1316 C 345 1379 401 1429 471 1465 C 541 1501 616 1520 694 1520 C 802 1520 887 1492 950 1438 C 1012 1384 1044 1311 1044 1221 C 1044 1139 1018 1065 966 997 C 914 929 824 857 694 782 L 911 449 C 985 514 1047 573 1096 625 L 1253 436 Z M 791 1198 C 791 1236 781 1265 761 1285 C 741 1305 712 1315 674 1315 C 635 1315 598 1297 564 1263 C 529 1228 512 1187 512 1141 C 512 1082 538 1016 590 944 C 660 987 711 1029 743 1069 C 775 1109 791 1152 791 1198 Z M 461 647 C 395 601 349 559 321 519 C 293 479 279 436 279 391 C 279 341 296 300 331 270 C 366 240 414 225 475 225 C 536 225 606 247 686 293 L 461 647 Z" unicode="&#x26;" />
<glyph horiz-adv-x="489" d="M 356 926 L 178 926 L 170 1217 L 219 1495 L 518 1495 L 469 1217 L 356 926 Z" unicode="'" />
<glyph horiz-adv-x="741" d="M 352 338 C 352 240 366 152 394 76 C 422 0 468 -72 530 -141 L 492 -367 C 350 -299 238 -196 156 -60 C 74 75 33 227 33 395 C 33 562 65 721 129 871 C 193 1021 287 1154 411 1272 C 535 1389 673 1474 823 1528 L 784 1305 C 648 1207 542 1073 466 901 C 390 729 352 542 352 338 Z" unicode="(" />
<glyph horiz-adv-x="741" d="M 662 764 C 662 594 629 434 564 284 C 499 134 404 1 280 -114 C 156 -230 19 -314 -129 -367 L -90 -143 C 43 -49 149 82 227 253 C 305 424 344 613 344 821 C 344 918 330 1005 302 1082 C 274 1158 228 1232 166 1303 L 205 1528 C 347 1459 458 1355 540 1217 C 621 1079 662 928 662 764 Z" unicode=")" />
<glyph horiz-adv-x="864" d="M 317 1208 L 211 1423 L 313 1501 L 487 1329 L 659 1499 L 764 1425 L 655 1206 L 870 1096 L 831 973 L 590 1010 L 551 770 L 424 770 L 387 1010 L 145 973 L 100 1094 L 317 1208 Z" unicode="*" />
<glyph horiz-adv-x="1020" d="M 911 545 L 604 545 L 549 221 L 274 221 L 332 545 L 25 545 L 72 811 L 381 811 L 436 1135 L 709 1135 L 653 811 L 961 811 L 911 545 Z" unicode="+" />
<glyph horiz-adv-x="473" d="M 16 -309 L -147 -242 C -96 -181 -61 -96 -41 12 L 10 311 L 315 311 L 281 102 C 266 16 236 -62 190 -133 C 144 -203 86 -262 16 -309 Z" unicode="," />
<glyph horiz-adv-x="715" d="M 571 365 L 12 365 L 57 631 L 618 631 L 571 365 Z" unicode="-" />
<glyph horiz-adv-x="473" d="M 256 0 L -47 0 L 8 311 L 311 311 L 256 0 Z" unicode="." />
<glyph horiz-adv-x="1014" d="M 201 0 L -92 0 L 702 1495 L 991 1495 L 201 0 Z" unicode="/" />
<glyph horiz-adv-x="1298" d="M 1255 944 C 1255 764 1224 599 1163 448 C 1102 297 1018 180 911 97 C 804 14 683 -27 547 -27 C 391 -27 270 25 184 131 C 98 237 55 385 55 575 C 55 749 85 909 146 1055 C 207 1201 292 1315 400 1397 C 508 1479 628 1520 762 1520 C 917 1520 1038 1469 1125 1367 C 1211 1265 1255 1124 1255 944 Z M 934 930 C 934 1037 917 1118 884 1173 C 851 1227 799 1255 729 1255 C 665 1255 607 1226 553 1170 C 499 1113 456 1032 424 927 C 391 822 375 709 375 588 C 375 477 392 392 428 332 C 463 272 514 242 580 242 C 647 242 707 271 760 331 C 813 391 855 475 887 583 C 918 691 934 806 934 930 Z" unicode="0" />
<glyph horiz-adv-x="768" d="M 504 0 L 193 0 L 383 1075 C 353 1050 310 1028 255 1009 C 199 989 140 977 78 971 L 125 1227 C 290 1248 425 1337 530 1495 L 768 1495 L 504 0 Z" unicode="1" />
<glyph horiz-adv-x="1174" d="M 1139 1133 C 1139 1057 1122 986 1090 920 C 1058 854 1000 778 918 694 L 520 264 L 1010 264 L 963 0 L -72 0 L 674 821 C 770 929 819 1020 819 1096 C 819 1145 803 1183 772 1210 C 740 1237 699 1251 647 1251 C 584 1251 533 1228 493 1182 C 453 1136 428 1072 420 989 L 121 989 L 121 1016 C 141 1171 201 1294 301 1384 C 401 1474 526 1520 676 1520 C 818 1520 930 1485 1014 1417 C 1097 1349 1139 1254 1139 1133 Z" unicode="2" />
<glyph horiz-adv-x="1176" d="M 1139 1180 C 1139 1092 1116 1014 1071 944 C 1025 874 963 822 885 788 C 943 762 988 725 1019 676 C 1049 626 1065 570 1065 508 C 1065 409 1039 319 988 237 C 936 155 864 90 771 44 C 678 -1 571 -25 449 -25 C 237 -25 72 23 -47 121 L 131 338 C 171 306 219 281 277 261 C 334 241 395 231 459 231 C 547 231 617 256 671 307 C 725 357 752 422 752 500 C 752 555 732 597 694 626 C 656 655 599 670 524 670 L 391 670 L 434 905 L 569 905 C 644 905 705 924 751 962 C 797 1000 821 1052 821 1116 C 821 1162 803 1198 769 1224 C 735 1249 689 1262 631 1262 C 577 1262 524 1248 472 1220 C 419 1192 372 1152 332 1100 L 143 1249 C 205 1337 284 1405 380 1451 C 476 1497 580 1520 692 1520 C 827 1520 935 1488 1017 1425 C 1098 1362 1139 1280 1139 1180 Z" unicode="3" />
<glyph horiz-adv-x="1214" d="M 1124 336 L 932 336 L 872 0 L 573 0 L 633 336 L -27 336 L 8 532 L 846 1495 L 1137 1495 L 973 569 L 1165 569 L 1124 336 Z M 326 569 L 674 569 L 768 1100 L 326 569 Z" unicode="4" />
<glyph horiz-adv-x="1184" d="M 1114 1239 L 528 1239 L 455 948 C 499 976 539 994 574 1004 C 609 1013 649 1018 694 1018 C 815 1018 913 982 989 911 C 1064 840 1102 747 1102 633 C 1102 509 1074 397 1018 296 C 962 195 885 116 785 60 C 685 3 575 -25 453 -25 C 355 -25 261 -6 173 30 C 85 67 12 117 -45 180 L 143 387 C 187 339 237 303 293 277 C 349 251 407 238 469 238 C 557 238 632 271 694 338 C 755 404 786 484 786 578 C 786 638 767 686 729 722 C 691 758 638 776 571 776 C 471 776 380 732 299 645 L 117 694 L 330 1495 L 1159 1495 L 1114 1239 Z" unicode="5" />
<glyph horiz-adv-x="1219" d="M 1141 563 C 1141 451 1114 350 1060 260 C 1006 170 932 100 836 50 C 740 0 637 -25 526 -25 C 375 -25 255 17 166 103 C 77 189 33 305 33 451 C 33 613 88 782 198 957 C 308 1131 479 1318 711 1518 L 950 1393 C 842 1306 744 1215 655 1120 C 566 1025 504 948 469 889 C 543 942 630 969 729 969 C 804 969 874 952 938 918 C 1002 884 1051 837 1087 776 C 1123 714 1141 643 1141 563 Z M 825 520 C 825 594 807 650 772 687 C 737 724 687 743 623 743 C 542 743 474 714 419 657 C 363 599 336 526 336 438 C 336 372 355 320 395 281 C 434 242 489 223 559 223 C 631 223 693 251 746 308 C 798 365 825 436 825 520 Z" unicode="6" />
<glyph horiz-adv-x="1171" d="M 360 0 L 10 0 L 778 1231 L 174 1231 L 221 1495 L 1278 1495 L 360 0 Z" unicode="7" />
<glyph horiz-adv-x="1270" d="M 1221 1155 C 1221 1071 1199 997 1156 933 C 1113 869 1052 818 973 782 C 1030 751 1075 710 1108 658 C 1140 606 1157 547 1157 481 C 1157 385 1131 298 1079 220 C 1027 142 954 81 861 39 C 768 -3 663 -25 547 -25 C 385 -25 256 10 159 81 C 62 151 14 244 14 360 C 14 464 42 555 99 634 C 156 712 234 769 334 805 C 290 833 255 868 229 911 C 203 953 190 1000 190 1051 C 190 1135 214 1214 262 1287 C 310 1359 376 1416 462 1458 C 547 1499 644 1520 752 1520 C 844 1520 926 1504 998 1473 C 1070 1442 1125 1399 1163 1344 C 1201 1288 1221 1225 1221 1155 Z M 920 1126 C 920 1178 903 1217 871 1245 C 838 1272 791 1286 731 1286 C 660 1286 601 1263 554 1217 C 506 1171 483 1115 483 1049 C 483 997 499 957 533 929 C 567 901 614 887 676 887 C 747 887 805 909 851 955 C 897 1001 920 1058 920 1126 Z M 858 479 C 858 534 836 577 793 609 C 750 641 691 657 616 657 C 530 657 459 633 403 587 C 347 540 319 480 319 408 C 319 346 339 298 381 266 C 423 233 482 217 559 217 C 647 217 719 241 775 289 C 830 337 858 400 858 479 Z" unicode="8" />
<glyph horiz-adv-x="1223" d="M 1202 1049 C 1202 881 1141 704 1019 517 C 897 329 722 142 494 -45 L 291 141 C 379 205 468 282 559 372 C 649 462 713 534 750 588 C 679 536 596 510 502 510 C 372 510 270 548 195 624 C 119 700 82 804 82 936 C 82 1040 109 1137 164 1227 C 218 1317 293 1389 388 1441 C 483 1493 587 1520 700 1520 C 852 1520 974 1477 1065 1393 C 1156 1309 1202 1194 1202 1049 Z M 887 1051 C 887 1121 869 1175 833 1212 C 797 1249 746 1268 678 1268 C 626 1268 578 1254 536 1226 C 493 1198 460 1160 436 1114 C 412 1067 401 1018 401 967 C 401 894 418 838 453 799 C 488 760 539 741 606 741 C 686 741 752 770 806 829 C 860 888 887 962 887 1051 Z" unicode="9" />
<glyph horiz-adv-x="473" d="M 358 590 L 55 590 L 111 891 L 414 891 L 358 590 Z M 256 0 L -47 0 L 6 301 L 311 301 L 256 0 Z" unicode=":" />
<glyph horiz-adv-x="473" d="M 358 590 L 55 590 L 111 891 L 414 891 L 358 590 Z M 12 -309 L -152 -242 C -99 -180 -63 -96 -45 12 L 6 301 L 311 301 L 276 102 C 261 16 231 -61 186 -132 C 141 -202 83 -261 12 -309 Z" unicode=";" />
<glyph horiz-adv-x="840" d="M 328 662 L 676 440 L 627 162 L 51 549 L 90 780 L 803 1163 L 752 872 L 328 662 Z" unicode="&#x3C;" />
<glyph horiz-adv-x="1055" d="M 952 782 L 119 782 L 162 1034 L 997 1034 L 952 782 Z M 872 330 L 39 330 L 82 582 L 918 582 L 872 330 Z" unicode="=" />
<glyph horiz-adv-x="840" d="M 2 162 L 53 453 L 477 664 L 129 885 L 178 1163 L 754 776 L 715 545 L 2 162 Z" unicode="&#x3E;" />
<glyph horiz-adv-x="952" d="M 975 1200 C 975 1145 967 1096 953 1052 C 938 1008 915 963 883 919 C 851 874 793 809 707 723 C 651 668 610 618 584 572 C 558 526 541 475 535 420 L 535 418 L 254 418 C 271 576 341 717 463 842 C 543 924 594 982 615 1018 C 636 1053 647 1088 647 1124 C 647 1212 602 1257 514 1257 C 432 1257 342 1211 242 1120 L 115 1346 C 179 1403 250 1446 330 1476 C 409 1505 489 1520 569 1520 C 693 1520 792 1491 865 1434 C 938 1377 975 1299 975 1200 Z M 481 0 L 160 0 L 213 305 L 535 305 L 481 0 Z" unicode="?" />
<glyph horiz-adv-x="1729" d="M 1636 809 C 1636 709 1620 623 1588 549 C 1556 475 1513 419 1459 379 C 1405 339 1346 319 1284 319 C 1181 319 1106 356 1059 432 C 975 356 872 319 748 319 C 658 319 586 343 532 392 C 478 440 451 505 451 586 C 451 680 490 753 570 807 C 650 860 761 888 905 891 L 1024 891 L 1024 895 C 1024 947 1009 982 981 1001 C 952 1020 908 1030 850 1030 C 754 1030 669 1011 596 975 L 530 1130 C 619 1180 736 1206 881 1206 C 1015 1206 1111 1180 1169 1130 C 1227 1080 1257 1001 1257 893 L 1257 543 C 1257 511 1263 488 1277 475 C 1291 461 1312 455 1341 455 C 1372 455 1401 468 1428 496 C 1455 524 1477 563 1493 615 C 1509 667 1518 729 1518 801 C 1518 914 1490 1017 1435 1110 C 1380 1202 1303 1274 1204 1326 C 1104 1377 991 1403 864 1403 C 745 1403 635 1374 535 1316 C 435 1258 356 1179 299 1078 C 241 976 213 865 213 743 C 213 623 241 513 299 412 C 357 310 436 231 537 173 C 638 115 747 86 864 86 C 962 86 1051 105 1133 143 L 1176 43 C 1074 -2 970 -25 864 -25 C 724 -25 594 9 476 79 C 358 149 264 243 195 361 C 126 479 92 608 92 748 C 92 887 126 1016 195 1134 C 264 1252 358 1346 476 1416 C 594 1485 724 1520 864 1520 C 1007 1520 1138 1489 1256 1428 C 1374 1367 1467 1282 1535 1172 C 1602 1062 1636 941 1636 809 Z M 1024 748 L 905 748 C 760 745 688 697 688 604 C 688 527 737 489 836 489 C 868 489 902 496 936 510 C 970 524 1000 544 1024 569 L 1024 748 Z" unicode="@" />
<glyph horiz-adv-x="1458" d="M 954 0 L 889 395 L 436 395 L 227 0 L -94 0 L 709 1495 L 1010 1495 L 1288 0 L 954 0 Z M 786 1102 L 565 653 L 850 653 L 786 1102 Z" unicode="A" />
<glyph horiz-adv-x="1217" d="M 1147 1163 C 1147 1073 1123 993 1075 921 C 1027 849 963 797 883 764 C 949 749 1002 715 1043 661 C 1083 607 1104 543 1104 471 C 1104 382 1079 301 1031 229 C 982 156 914 100 826 60 C 738 20 639 0 528 0 L -2 0 L 262 1495 L 741 1495 C 868 1495 967 1465 1039 1406 C 1111 1346 1147 1265 1147 1163 Z M 842 1098 C 842 1152 823 1190 787 1214 C 750 1237 697 1249 629 1249 L 526 1249 L 457 848 L 549 848 C 638 848 709 871 762 917 C 815 963 842 1024 842 1098 Z M 803 477 C 803 526 786 564 752 591 C 718 617 668 631 602 631 L 418 631 L 352 246 L 524 246 C 610 246 678 267 728 309 C 778 351 803 407 803 477 Z" unicode="B" />
<glyph horiz-adv-x="1430" d="M 1214 1085 C 1173 1139 1126 1177 1073 1201 C 1020 1225 960 1237 893 1237 C 801 1237 717 1210 640 1157 C 562 1103 501 1031 455 940 C 409 849 387 755 387 657 C 387 535 420 438 487 366 C 553 294 646 258 766 258 C 830 258 891 271 949 297 C 1007 323 1066 364 1126 420 L 1278 203 C 1108 51 920 -25 715 -25 C 585 -25 470 1 371 55 C 271 108 194 184 140 282 C 86 380 59 492 59 618 C 59 781 97 932 174 1070 C 251 1208 358 1318 495 1399 C 631 1479 778 1520 936 1520 C 1038 1520 1129 1502 1210 1468 C 1290 1433 1366 1374 1438 1292 L 1214 1085 Z" unicode="C" />
<glyph horiz-adv-x="1454" d="M 1393 909 C 1393 732 1353 575 1274 437 C 1194 299 1083 191 939 115 C 795 38 634 0 455 0 L -2 0 L 262 1495 L 711 1495 C 925 1495 1092 1443 1212 1341 C 1332 1239 1393 1095 1393 909 Z M 1067 856 C 1067 1104 933 1229 666 1229 L 532 1229 L 360 266 L 477 266 C 588 266 689 291 779 343 C 869 394 939 465 990 557 C 1041 649 1067 748 1067 856 Z" unicode="D" />
<glyph horiz-adv-x="1100" d="M 1059 1231 L 528 1231 L 465 870 L 958 870 L 911 606 L 418 606 L 358 264 L 920 264 L 872 0 L -2 0 L 262 1495 L 1106 1495 L 1059 1231 Z" unicode="E" />
<glyph horiz-adv-x="993" d="M 987 1229 L 528 1229 L 463 858 L 891 858 L 844 594 L 416 594 L 311 0 L -2 0 L 262 1495 L 1034 1495 L 987 1229 Z" unicode="F" />
<glyph horiz-adv-x="1604" d="M 1550 752 C 1531 598 1485 461 1411 343 C 1337 224 1241 133 1123 70 C 1005 6 873 -25 727 -25 C 596 -25 480 1 378 55 C 276 109 197 184 142 282 C 86 380 59 491 59 616 C 59 782 98 933 176 1071 C 254 1209 363 1318 503 1399 C 643 1479 792 1520 952 1520 C 1066 1520 1166 1501 1252 1464 C 1338 1427 1415 1368 1483 1288 L 1249 1085 C 1203 1139 1152 1178 1096 1202 C 1040 1225 977 1237 907 1237 C 814 1237 728 1212 650 1162 C 571 1112 507 1040 459 946 C 411 852 387 755 387 655 C 387 525 420 423 487 350 C 554 276 649 240 772 240 C 856 240 935 263 1009 309 C 1083 355 1138 415 1174 489 L 770 489 L 817 752 L 1550 752 Z" unicode="G" />
<glyph horiz-adv-x="1438" d="M 1176 0 L 854 0 L 956 598 L 424 598 L 322 0 L -2 0 L 262 1495 L 586 1495 L 475 881 L 1008 881 L 1118 1495 L 1440 1495 L 1176 0 Z" unicode="H" />
<glyph horiz-adv-x="586" d="M 322 0 L 0 0 L 264 1495 L 586 1495 L 322 0 Z" unicode="I" />
<glyph horiz-adv-x="836" d="M 92 -14 L 58 -14 C -9 -14 -54 -10 -78 -4 L -31 260 C -13 256 18 254 64 254 L 90 254 C 166 254 224 278 265 327 C 305 375 334 447 352 543 L 520 1495 L 844 1495 L 668 504 C 636 330 572 200 477 114 C 382 28 254 -14 92 -14 Z" unicode="J" />
<glyph horiz-adv-x="1366" d="M 766 864 L 1229 0 L 862 0 L 516 645 L 418 549 L 322 0 L -2 0 L 262 1495 L 586 1495 L 489 952 L 1034 1495 L 1425 1495 L 766 864 Z" unicode="K" />
<glyph horiz-adv-x="1012" d="M 827 0 L -2 0 L 262 1495 L 575 1495 L 358 266 L 874 266 L 827 0 Z" unicode="L" />
<glyph horiz-adv-x="1786" d="M 1524 0 L 1202 0 L 1376 989 L 901 410 L 758 410 L 481 979 L 309 0 L -2 0 L 262 1495 L 565 1495 L 897 809 L 1456 1495 L 1788 1495 L 1524 0 Z" unicode="M" />
<glyph horiz-adv-x="1511" d="M 1249 0 L 993 0 L 477 952 L 309 0 L -2 0 L 262 1495 L 543 1495 L 1042 575 L 1204 1495 L 1513 1495 L 1249 0 Z" unicode="N" />
<glyph horiz-adv-x="1683" d="M 1622 879 C 1622 715 1582 565 1504 427 C 1426 289 1319 179 1183 97 C 1047 15 900 -25 743 -25 C 609 -25 491 1 387 55 C 283 109 203 185 147 285 C 91 384 63 497 63 625 C 63 790 101 940 179 1076 C 257 1212 365 1320 504 1400 C 642 1480 794 1520 958 1520 C 1088 1520 1204 1492 1305 1438 C 1406 1384 1484 1308 1539 1210 C 1594 1112 1622 1001 1622 879 Z M 1296 842 C 1296 969 1262 1068 1194 1138 C 1126 1208 1030 1243 907 1243 C 812 1243 725 1216 647 1164 C 568 1111 506 1039 460 947 C 414 855 391 760 391 662 C 391 534 425 434 494 362 C 562 290 657 254 778 254 C 868 254 953 280 1033 334 C 1113 387 1177 459 1225 551 C 1272 642 1296 739 1296 842 Z" unicode="O" />
<glyph horiz-adv-x="1198" d="M 1212 1116 C 1212 1010 1185 915 1132 829 C 1079 743 1006 677 912 629 C 818 581 716 557 604 557 L 416 557 L 315 0 L -2 0 L 262 1495 L 770 1495 C 861 1495 940 1479 1007 1447 C 1074 1415 1125 1371 1160 1314 C 1194 1257 1212 1191 1212 1116 Z M 897 1075 C 897 1184 824 1239 678 1239 L 532 1239 L 459 815 L 612 815 C 694 815 762 839 816 888 C 870 936 897 999 897 1075 Z" unicode="P" />
<glyph horiz-adv-x="1683" d="M 1622 877 C 1622 757 1599 643 1554 537 C 1509 431 1444 335 1360 250 C 1414 220 1466 204 1516 201 L 1319 -29 C 1246 -8 1181 25 1124 72 C 996 7 867 -25 737 -25 C 606 -25 489 2 386 57 C 283 111 203 188 147 287 C 91 386 63 497 63 621 C 63 786 102 938 180 1076 C 258 1214 367 1323 506 1402 C 644 1480 793 1520 952 1520 C 1083 1520 1199 1493 1301 1439 C 1403 1385 1482 1309 1538 1211 C 1594 1112 1622 1001 1622 877 Z M 1296 846 C 1296 970 1262 1067 1194 1137 C 1126 1207 1033 1243 913 1243 C 817 1243 730 1217 651 1166 C 571 1114 508 1043 461 952 C 414 861 391 766 391 666 C 391 537 425 435 493 361 C 561 287 655 250 776 250 C 832 250 884 261 932 283 C 908 323 889 362 877 399 L 1077 553 C 1093 508 1113 469 1139 436 C 1188 489 1226 551 1254 623 C 1282 695 1296 769 1296 846 Z" unicode="Q" />
<glyph horiz-adv-x="1266" d="M 1214 1126 C 1214 1037 1194 957 1156 885 C 1117 813 1063 754 994 708 C 925 662 851 634 772 625 L 1120 0 L 762 0 L 424 625 L 313 0 L -2 0 L 262 1495 L 768 1495 C 856 1495 934 1479 1002 1448 C 1070 1417 1122 1373 1159 1316 C 1195 1259 1214 1196 1214 1126 Z M 899 1073 C 899 1125 880 1166 843 1195 C 805 1224 752 1239 684 1239 L 530 1239 L 455 811 L 608 811 C 694 811 764 835 818 883 C 872 931 899 995 899 1073 Z" unicode="R" />
<glyph horiz-adv-x="1137" d="M 942 1159 C 863 1224 777 1257 684 1257 C 619 1257 568 1241 532 1211 C 495 1181 477 1140 477 1090 C 477 1052 492 1018 524 987 C 556 955 611 920 690 881 C 800 825 879 764 927 700 C 975 635 999 561 999 477 C 999 381 974 295 926 218 C 878 141 811 81 725 39 C 639 -3 543 -25 438 -25 C 242 -25 84 29 -35 139 L 147 362 C 237 278 340 236 455 236 C 522 236 576 251 616 283 C 656 315 676 358 676 412 C 676 454 660 494 628 530 C 596 566 532 610 434 664 C 333 716 261 772 217 833 C 173 894 152 963 152 1040 C 152 1131 175 1213 223 1287 C 271 1360 338 1417 424 1458 C 510 1499 608 1520 717 1520 C 878 1520 1012 1477 1120 1393 L 942 1159 Z" unicode="S" />
<glyph horiz-adv-x="1030" d="M 1057 1229 L 750 1229 L 535 0 L 219 0 L 436 1229 L 129 1229 L 176 1495 L 1106 1495 L 1057 1229 Z" unicode="T" />
<glyph horiz-adv-x="1503" d="M 647 -25 C 551 -25 466 -10 390 18 C 314 47 251 90 202 146 C 153 202 121 262 107 324 C 93 386 86 442 86 490 C 86 537 90 587 100 641 L 252 1495 L 575 1495 L 422 618 C 416 582 413 550 413 520 C 413 435 436 368 483 320 C 529 272 594 248 678 248 C 785 248 866 277 922 336 C 977 395 1016 489 1038 618 L 1192 1495 L 1513 1495 L 1362 641 C 1324 430 1243 266 1117 150 C 991 33 835 -25 647 -25 Z" unicode="U" />
<glyph horiz-adv-x="1331" d="M 676 0 L 393 0 L 160 1495 L 483 1495 L 618 440 L 1126 1495 L 1438 1495 L 676 0 Z" unicode="V" />
<glyph horiz-adv-x="1892" d="M 1335 0 L 1051 0 L 975 971 L 553 0 L 270 0 L 162 1495 L 498 1495 L 532 543 L 944 1495 L 1221 1495 L 1288 549 L 1669 1495 L 1987 1495 L 1335 0 Z" unicode="W" />
<glyph horiz-adv-x="1419" d="M 903 795 L 1247 0 L 887 0 L 664 520 L 262 0 L -100 0 L 524 793 L 221 1495 L 586 1495 L 764 1071 L 1092 1495 L 1454 1495 L 903 795 Z" unicode="X" />
<glyph horiz-adv-x="1325" d="M 684 0 L 371 0 L 483 639 L 133 1495 L 481 1495 L 694 936 L 1106 1495 L 1454 1495 L 797 639 L 684 0 Z" unicode="Y" />
<glyph horiz-adv-x="1323" d="M 449 260 L 1135 260 L 1090 0 L -88 0 L 821 1235 L 227 1235 L 274 1495 L 1362 1495 L 449 260 Z" unicode="Z" />
<glyph horiz-adv-x="776" d="M 788 1268 L 555 1268 L 307 -139 L 541 -139 L 500 -367 L -41 -367 L 287 1495 L 827 1495 L 788 1268 Z" unicode="[" />
<glyph horiz-adv-x="754" d="M 362 0 L 94 1495 L 387 1495 L 653 0 L 362 0 Z" unicode="\" />
<glyph horiz-adv-x="776" d="M 428 -367 L -113 -367 L -74 -139 L 160 -139 L 410 1268 L 176 1268 L 215 1495 L 756 1495 L 428 -367 Z" unicode="]" />
<glyph horiz-adv-x="1186" d="M 813 758 L 674 1217 L 377 758 L 57 758 L 567 1495 L 883 1495 L 1130 758 L 813 758 Z" unicode="^" />
<glyph horiz-adv-x="1024" d="M -86 -301 L -86 -129 L 944 -129 L 944 -301 L -86 -301 Z" unicode="_" />
<glyph horiz-adv-x="1024" d="M 498 1010 L 365 1337 L 610 1337 L 721 1010 L 498 1010 Z" unicode="`" />
<glyph horiz-adv-x="1014" d="M 799 0 L 502 0 L 516 92 C 432 17 340 -20 238 -20 C 154 -20 88 0 40 42 C -7 83 -31 139 -31 211 C -31 323 18 413 118 479 C 218 545 350 580 516 582 L 604 582 L 604 586 L 608 624 C 608 653 597 674 576 686 C 554 698 520 705 473 705 C 373 705 281 686 197 649 L 147 827 C 259 880 387 907 532 907 C 664 907 759 886 818 846 C 877 806 907 743 907 658 C 907 631 904 602 899 571 L 799 0 Z M 492 418 C 424 418 368 403 324 373 C 280 343 258 306 258 262 C 258 229 267 206 287 192 C 306 178 329 172 356 172 C 387 172 421 182 458 202 C 495 222 526 246 551 276 L 575 418 L 492 418 Z" unicode="a" />
<glyph horiz-adv-x="1102" d="M 1010 524 C 1010 434 988 347 944 261 C 900 175 841 107 767 56 C 693 5 614 -20 530 -20 C 425 -20 343 16 285 88 L 270 0 L -29 0 L 231 1495 L 532 1495 L 408 776 C 488 866 580 911 684 911 C 781 911 860 875 920 803 C 980 731 1010 638 1010 524 Z M 719 496 C 719 556 706 601 681 632 C 655 662 619 678 573 678 C 518 678 469 651 425 598 C 381 544 352 478 340 399 L 326 317 C 338 287 359 262 389 243 C 419 224 454 215 494 215 C 553 215 605 242 651 298 C 696 354 719 420 719 496 Z" unicode="b" />
<glyph horiz-adv-x="893" d="M 655 616 C 636 634 615 649 592 660 C 568 670 538 676 502 676 C 441 676 389 647 345 591 C 301 535 279 469 279 393 C 279 341 291 298 316 265 C 341 231 378 215 428 215 C 466 215 499 222 528 238 C 557 254 586 276 614 305 L 772 145 C 719 90 660 48 595 19 C 529 -10 462 -25 393 -25 C 319 -25 251 -8 189 25 C 127 58 79 104 45 164 C 11 223 -6 290 -6 365 C -6 459 18 550 68 636 C 117 722 182 790 264 840 C 346 890 434 915 528 915 C 668 915 772 877 838 801 L 655 616 Z" unicode="c" />
<glyph horiz-adv-x="1102" d="M 879 0 L 578 0 L 596 113 C 514 24 423 -20 324 -20 C 224 -20 145 15 85 86 C 25 157 -4 251 -4 367 C -4 455 19 542 65 630 C 111 717 171 786 243 836 C 315 886 391 911 471 911 C 531 911 582 900 624 879 C 665 857 697 832 721 803 L 840 1495 L 1139 1495 L 879 0 Z M 680 573 C 668 603 647 627 617 647 C 587 666 552 676 514 676 C 453 676 400 647 354 591 C 308 535 285 469 285 395 C 285 331 298 285 326 256 C 354 227 390 213 434 213 C 486 213 534 238 578 288 C 622 338 651 405 666 489 L 680 573 Z" unicode="d" />
<glyph horiz-adv-x="983" d="M 879 549 C 879 489 873 437 862 393 L 262 393 L 262 377 C 265 311 283 262 316 230 C 349 198 394 182 451 182 C 503 182 553 191 601 209 C 649 227 693 251 731 281 L 834 123 C 714 24 576 -25 420 -25 C 285 -25 180 9 106 79 C 31 149 -6 247 -6 373 C -6 467 16 556 60 640 C 104 724 165 791 243 841 C 321 890 406 915 500 915 C 612 915 704 881 774 814 C 844 747 879 659 879 549 Z M 621 547 L 622 565 C 622 615 610 654 586 682 C 562 709 530 723 489 723 C 443 723 403 708 369 678 C 335 648 308 605 289 547 L 621 547 Z" unicode="e" />
<glyph horiz-adv-x="606" d="M 668 1262 C 650 1267 629 1270 606 1270 C 574 1270 549 1256 533 1229 C 517 1202 504 1160 494 1104 L 455 891 L 602 891 L 563 664 L 416 664 L 236 -367 L -61 -367 L 119 664 L 18 664 L 57 891 L 158 891 L 211 1186 C 229 1285 265 1362 319 1417 C 373 1471 442 1499 524 1499 C 562 1499 602 1497 642 1495 C 682 1493 705 1490 713 1487 L 668 1262 Z" unicode="f" />
<glyph horiz-adv-x="1102" d="M 369 -383 C 219 -383 83 -346 -39 -274 L 82 -90 C 166 -143 256 -170 352 -170 C 482 -170 559 -99 584 41 L 600 131 C 521 42 430 -2 326 -2 C 229 -2 150 32 89 100 C 28 168 -2 261 -2 379 C -2 468 21 555 67 640 C 113 725 172 791 245 839 C 318 887 394 911 473 911 C 532 911 582 900 624 879 C 665 858 697 833 721 805 L 735 891 L 1034 891 L 891 72 C 864 -82 806 -196 716 -271 C 626 -345 511 -383 369 -383 Z M 682 584 C 667 616 644 641 614 659 C 584 677 550 686 514 686 C 452 686 398 658 354 602 C 309 546 287 481 287 406 C 287 342 300 296 327 268 C 354 239 390 225 434 225 C 490 225 540 251 584 305 C 628 359 656 424 668 502 L 682 584 Z" unicode="g" />
<glyph horiz-adv-x="1075" d="M 860 0 L 559 0 L 651 506 L 655 554 C 655 584 647 609 632 631 C 617 653 591 664 553 664 C 508 664 466 643 426 601 C 386 559 360 508 350 449 L 270 0 L -29 0 L 233 1495 L 535 1495 L 408 776 C 497 868 592 915 692 915 C 779 915 847 892 895 846 C 943 800 967 734 967 650 C 967 621 964 591 958 559 L 860 0 Z" unicode="h" />
<glyph horiz-adv-x="498" d="M 459 1059 L 156 1059 L 205 1341 L 508 1341 L 459 1059 Z M 270 0 L -29 0 L 127 891 L 426 891 L 270 0 Z" unicode="i" />
<glyph horiz-adv-x="498" d="M 459 1059 L 156 1059 L 205 1341 L 508 1341 L 459 1059 Z M -51 -367 C -74 -367 -109 -365 -156 -363 C -203 -361 -230 -358 -238 -354 L -193 -133 L -137 -137 C -103 -137 -79 -123 -63 -96 C -47 -69 -35 -27 -25 29 L 127 891 L 426 891 L 262 -53 C 244 -150 208 -227 152 -283 C 96 -339 29 -367 -51 -367 Z" unicode="j" />
<glyph horiz-adv-x="1030" d="M 649 528 L 887 0 L 555 0 L 408 319 L 309 229 L 268 0 L -31 0 L 233 1495 L 532 1495 L 369 571 L 686 891 L 1028 891 L 649 528 Z" unicode="k" />
<glyph horiz-adv-x="498" d="M 270 0 L -29 0 L 236 1495 L 535 1495 L 270 0 Z" unicode="l" />
<glyph horiz-adv-x="1602" d="M 1389 0 L 1090 0 L 1182 508 C 1186 530 1188 549 1188 567 C 1188 591 1182 613 1172 634 C 1162 655 1137 666 1098 666 C 1056 666 1017 645 980 603 C 942 561 918 509 907 449 L 827 0 L 530 0 L 621 508 C 625 530 627 549 627 567 C 627 591 621 613 611 634 C 601 655 577 666 539 666 C 497 666 458 645 421 605 C 383 564 358 512 346 449 L 266 0 L -29 0 L 127 891 L 424 891 L 406 776 C 455 827 501 863 543 884 C 585 904 631 915 680 915 C 809 915 889 862 920 756 C 965 806 1015 845 1071 873 C 1126 901 1180 915 1233 915 C 1317 915 1382 892 1428 848 C 1473 804 1496 740 1496 656 C 1496 626 1493 593 1487 559 L 1389 0 Z" unicode="m" />
<glyph horiz-adv-x="1075" d="M 860 0 L 559 0 L 651 506 L 655 554 C 655 584 647 609 632 631 C 617 653 591 664 553 664 C 508 664 466 643 426 601 C 386 559 360 508 350 449 L 270 0 L -29 0 L 127 891 L 428 891 L 408 776 C 497 868 592 915 692 915 C 779 915 847 892 895 846 C 943 800 967 734 967 650 C 967 621 964 591 958 559 L 860 0 Z" unicode="n" />
<glyph horiz-adv-x="1022" d="M 938 537 C 938 433 914 337 866 251 C 818 164 752 96 669 48 C 586 0 496 -25 399 -25 C 279 -25 181 11 106 84 C 31 157 -6 251 -6 365 C -6 459 18 548 67 634 C 115 720 181 788 265 839 C 348 889 438 915 535 915 C 649 915 745 879 822 808 C 899 736 938 646 938 537 Z M 655 500 C 655 557 641 601 614 633 C 587 664 550 680 502 680 C 442 680 389 651 343 594 C 297 537 274 470 274 393 C 274 337 287 293 314 259 C 341 225 380 209 430 209 C 493 209 546 237 590 295 C 633 352 655 420 655 500 Z" unicode="o" />
<glyph horiz-adv-x="1102" d="M 1010 522 C 1010 434 988 348 944 263 C 900 177 842 109 769 57 C 696 5 617 -20 532 -20 C 472 -20 421 -9 381 12 C 340 33 308 58 285 88 L 205 -367 L -94 -367 L 127 891 L 428 891 L 408 776 C 491 866 583 911 684 911 C 780 911 859 875 919 805 C 979 734 1010 640 1010 522 Z M 719 496 C 719 556 706 601 681 632 C 655 662 619 678 573 678 C 518 678 469 651 425 598 C 381 544 352 478 340 399 L 326 317 C 338 287 359 262 389 243 C 419 224 454 215 494 215 C 553 215 605 242 651 298 C 696 354 719 420 719 496 Z" unicode="p" />
<glyph horiz-adv-x="1102" d="M 813 -367 L 514 -367 L 596 113 C 514 24 424 -20 326 -20 C 225 -20 145 15 85 87 C 25 158 -4 251 -4 367 C -4 455 18 543 64 630 C 110 716 169 785 242 835 C 314 885 391 911 473 911 C 576 911 659 875 721 803 L 735 891 L 1034 891 L 813 -367 Z M 684 573 C 672 601 651 626 621 646 C 591 666 556 676 516 676 C 455 676 402 648 357 592 C 311 536 289 471 289 395 C 289 331 302 285 329 256 C 356 227 392 213 436 213 C 491 213 541 239 585 292 C 629 345 657 412 670 492 L 684 573 Z" unicode="q" />
<glyph horiz-adv-x="813" d="M 664 604 C 647 615 631 623 617 627 C 602 631 584 633 563 633 C 513 633 466 608 422 560 C 378 511 350 455 340 393 L 270 0 L -29 0 L 127 891 L 428 891 L 408 768 C 441 811 480 846 526 874 C 572 901 618 915 666 915 C 730 915 783 898 823 866 L 664 604 Z" unicode="r" />
<glyph horiz-adv-x="797" d="M 625 651 C 593 671 557 687 519 699 C 480 711 444 717 412 717 C 347 717 315 695 315 653 C 315 635 326 619 349 604 C 371 588 408 570 459 549 C 603 483 676 400 676 301 C 676 205 640 127 568 68 C 496 9 405 -20 295 -20 C 150 -20 31 14 -63 82 L 63 258 C 145 203 228 176 313 176 C 339 176 362 182 382 194 C 402 206 412 224 412 250 C 412 270 397 289 369 307 C 341 325 302 345 252 369 C 180 399 129 432 98 470 C 66 508 51 553 51 606 C 51 694 87 767 159 825 C 231 882 318 911 422 911 C 488 911 546 904 597 892 C 647 879 695 859 741 831 L 625 651 Z" unicode="s" />
<glyph horiz-adv-x="662" d="M 575 664 L 418 664 L 369 383 C 365 362 363 344 363 328 C 363 305 368 283 378 262 C 388 241 413 231 453 231 L 464 231 L 510 233 L 424 0 L 317 0 C 217 0 149 24 111 72 C 73 120 54 178 54 245 C 54 274 57 306 63 342 L 121 664 L 18 664 L 57 891 L 160 891 L 221 1229 L 526 1276 L 457 891 L 614 891 L 575 664 Z" unicode="t" />
<glyph horiz-adv-x="1075" d="M 842 0 L 543 0 L 561 115 C 474 21 378 -25 274 -25 C 188 -25 121 -1 73 45 C 25 91 2 157 2 242 C 2 270 4 300 10 332 L 109 891 L 410 891 L 319 383 C 315 364 314 347 314 333 C 314 303 321 278 336 257 C 351 235 378 225 416 225 C 458 225 500 246 542 289 C 583 331 609 382 621 442 L 700 891 L 999 891 L 842 0 Z" unicode="u" />
<glyph horiz-adv-x="979" d="M 449 -14 L 248 -14 L 25 891 L 348 891 L 430 414 L 674 891 L 991 891 L 449 -14 Z" unicode="v" />
<glyph horiz-adv-x="1432" d="M 942 -14 L 760 -14 L 651 416 L 389 -14 L 207 -14 L 27 891 L 344 891 L 420 442 L 748 938 L 901 446 L 1126 891 L 1442 891 L 942 -14 Z" unicode="w" />
<glyph horiz-adv-x="979" d="M 616 471 L 842 0 L 524 0 L 412 262 L 205 0 L -109 0 L 276 471 L 80 891 L 399 891 L 487 686 L 643 891 L 952 891 L 616 471 Z" unicode="x" />
<glyph horiz-adv-x="983" d="M 80 -367 C -5 -367 -61 -363 -88 -356 L -49 -125 C -32 -131 -5 -135 31 -135 C 74 -135 109 -125 137 -107 C 165 -88 189 -58 209 -18 L 31 891 L 350 891 L 426 313 L 676 891 L 995 891 L 475 -90 C 427 -180 370 -248 303 -296 C 235 -343 161 -367 80 -367 Z" unicode="y" />
<glyph horiz-adv-x="942" d="M 395 229 L 786 229 L 745 0 L -111 0 L 424 659 L 76 659 L 115 891 L 932 891 L 395 229 Z" unicode="z" />
<glyph horiz-adv-x="698" d="M 309 586 C 356 566 389 540 407 507 C 425 474 434 433 434 383 C 434 331 425 255 408 156 C 398 103 394 61 394 29 C 394 -49 423 -105 483 -137 L 442 -367 C 332 -347 248 -300 189 -227 C 129 -153 100 -59 100 56 C 100 96 103 137 111 180 C 124 250 131 306 131 350 C 131 386 122 415 105 438 C 88 461 56 475 8 479 L 51 707 C 89 709 119 717 142 731 C 165 745 184 764 199 790 C 214 816 227 848 237 888 C 247 927 258 974 270 1028 C 303 1189 358 1308 436 1385 C 513 1462 626 1508 776 1524 L 733 1282 C 687 1262 650 1231 623 1190 C 596 1148 575 1088 561 1010 C 543 906 524 830 504 782 C 484 734 459 693 428 660 C 396 627 357 602 309 586 Z" unicode="{" />
<glyph horiz-adv-x="557" d="M 229 -367 L -57 -367 L 270 1495 L 555 1495 L 229 -367 Z" unicode="|" />
<glyph horiz-adv-x="698" d="M -133 -365 L -90 -123 C -44 -103 -8 -72 19 -30 C 47 12 68 71 82 147 C 100 251 118 328 138 376 C 158 424 183 464 214 497 C 245 529 285 555 334 573 C 286 592 253 618 235 652 C 217 685 209 726 209 774 C 209 814 216 879 231 969 C 245 1055 252 1107 252 1126 C 252 1209 221 1266 160 1296 L 201 1526 C 307 1508 390 1463 452 1391 C 514 1319 545 1231 547 1126 C 547 1091 541 1036 529 962 C 516 886 510 836 510 811 C 510 771 518 739 535 715 C 552 691 585 678 633 674 L 590 449 C 548 445 516 435 492 419 C 468 403 448 377 432 343 C 416 309 397 238 373 131 C 339 -30 284 -149 207 -226 C 129 -303 16 -349 -133 -365 Z" unicode="}" />
<glyph horiz-adv-x="1118" d="M 1081 963 C 1061 821 1022 715 964 643 C 906 571 833 535 745 535 C 710 535 674 543 636 561 C 598 578 551 607 497 648 C 454 680 418 696 389 696 C 347 696 317 644 301 541 L 39 541 C 63 687 103 795 159 864 C 215 932 291 967 385 967 C 410 967 437 962 466 952 C 495 942 524 928 552 911 C 580 893 608 875 636 857 C 676 826 710 811 737 811 C 780 811 807 861 819 963 L 1081 963 Z" unicode="~" />
<glyph horiz-adv-x="451" d="" unicode=" " />
<glyph horiz-adv-x="565" d="M 524 1190 L 203 1190 L 256 1495 L 578 1495 L 524 1190 Z M 315 0 L -6 0 L 86 528 L 240 1081 L 451 1081 L 408 528 L 315 0 Z" unicode="¡" />
<glyph horiz-adv-x="895" d="M 674 629 C 657 644 639 657 621 668 C 603 678 579 686 551 690 L 465 203 C 495 208 521 218 545 234 C 569 249 593 269 618 295 L 766 147 C 660 45 549 -11 432 -23 L 408 -162 L 276 -162 L 303 -16 C 211 1 137 44 83 112 C 29 180 2 265 2 365 C 2 449 22 531 63 611 C 103 691 159 757 231 811 C 303 865 381 897 465 909 L 487 1038 L 621 1038 L 598 911 C 705 901 788 864 846 801 L 674 629 Z M 434 680 C 385 660 344 622 311 568 C 278 513 262 454 262 391 C 262 299 292 240 352 215 L 434 680 Z" unicode="¢" />
<glyph horiz-adv-x="1409" d="M 1032 1067 C 1037 1089 1040 1109 1040 1129 C 1040 1181 1022 1220 988 1248 C 953 1276 904 1290 842 1290 C 765 1290 704 1268 658 1225 C 612 1181 590 1123 590 1051 C 590 1017 597 985 612 954 C 626 922 643 889 662 854 L 1069 854 L 1053 758 L 717 758 C 738 724 755 694 768 666 L 1036 666 L 1018 569 L 797 569 C 799 553 801 536 801 518 C 801 448 784 379 752 313 C 776 299 800 286 822 276 C 844 265 867 260 893 260 C 927 260 956 274 978 303 C 1000 332 1015 374 1022 428 L 1276 428 C 1261 277 1223 164 1162 88 C 1101 12 1019 -25 915 -25 C 879 -25 846 -20 817 -11 C 788 -2 761 9 735 24 C 709 39 671 69 621 113 C 517 21 396 -25 260 -25 C 178 -25 113 -5 65 35 C 16 75 -8 129 -8 197 C -8 275 21 337 81 383 C 140 429 217 453 313 453 C 378 453 444 438 510 408 L 512 442 C 512 482 501 525 481 569 L 117 569 L 133 666 L 424 666 L 365 758 L 150 758 L 166 854 L 317 854 C 283 928 266 993 266 1049 C 266 1134 290 1213 340 1285 C 390 1357 460 1415 551 1457 C 642 1499 746 1520 864 1520 C 1020 1520 1141 1488 1227 1425 C 1313 1362 1357 1274 1358 1162 C 1358 1132 1354 1100 1348 1067 L 1032 1067 Z M 463 240 C 414 279 364 299 313 299 C 273 299 241 291 219 276 C 197 260 186 239 186 213 C 186 191 194 174 211 161 C 227 147 253 141 287 141 C 321 141 354 149 385 167 C 416 184 442 208 463 240 Z" unicode="£" />
<glyph horiz-adv-x="1339" d="M 1094 1069 C 1066 1135 1035 1181 1001 1207 C 966 1233 925 1247 879 1247 C 805 1247 740 1215 685 1153 C 630 1091 590 1004 565 893 L 928 893 L 913 801 L 545 801 C 536 753 531 720 530 700 L 899 700 L 885 608 L 520 608 L 520 567 L 520 556 C 520 460 537 384 573 330 C 608 275 658 248 723 248 C 775 248 823 261 869 289 C 914 317 963 366 1016 436 L 1227 291 C 1151 181 1071 101 986 51 C 901 0 801 -25 686 -25 C 526 -25 405 24 322 123 C 238 222 197 366 197 555 L 197 581 L 199 608 L 14 608 L 29 700 L 207 700 L 221 801 L 45 801 L 59 893 L 242 893 C 292 1089 375 1242 492 1353 C 609 1464 747 1520 905 1520 C 1019 1520 1114 1493 1192 1441 C 1270 1389 1327 1312 1364 1210 L 1094 1069 Z" unicode="¤" />
<glyph horiz-adv-x="1364" d="M 397 0 L 440 240 L 190 240 L 207 332 L 455 332 L 477 455 L 229 455 L 246 549 L 487 549 L 500 633 L 160 1495 L 506 1495 L 684 977 L 689 960 C 701 922 707 899 707 893 L 760 977 L 1120 1495 L 1479 1495 L 819 633 L 803 549 L 1053 549 L 1036 455 L 786 455 L 764 332 L 1014 332 L 997 240 L 748 240 L 705 0 L 397 0 Z" unicode="¥" />
<glyph horiz-adv-x="578" d="M 266 1495 L 578 1495 L 440 719 L 129 719 L 266 1495 Z M 248 -367 L -63 -367 L 74 410 L 385 410 L 248 -367 Z" unicode="¦" />
<glyph horiz-adv-x="1323" d="M 1014 16 C 1014 -102 965 -197 868 -269 C 771 -341 643 -377 483 -377 C 286 -377 122 -324 -10 -219 L 141 -23 C 185 -55 238 -82 300 -104 C 362 -126 429 -137 502 -137 C 576 -137 631 -126 667 -105 C 703 -83 721 -57 721 -27 C 721 0 712 21 694 37 C 676 53 642 72 590 94 L 319 207 C 223 247 155 294 115 346 C 75 398 55 462 55 539 C 55 615 81 689 133 762 C 185 835 252 895 336 942 C 290 1001 268 1064 268 1130 C 268 1207 290 1275 335 1334 C 379 1392 442 1438 524 1471 C 605 1503 696 1520 797 1520 C 890 1520 980 1506 1066 1478 C 1152 1450 1226 1410 1290 1358 L 1128 1157 C 1076 1196 1017 1226 952 1247 C 887 1267 824 1278 762 1278 C 700 1278 651 1268 616 1248 C 580 1228 563 1203 563 1171 C 563 1145 572 1124 591 1108 C 609 1091 640 1074 684 1057 L 983 936 C 1072 898 1137 853 1177 801 C 1217 749 1237 687 1237 614 C 1237 533 1210 453 1158 375 C 1106 297 1037 232 952 182 C 993 136 1014 80 1014 16 Z M 950 545 C 950 577 938 606 916 632 C 894 657 856 681 803 705 L 508 831 C 394 764 338 688 338 602 C 338 564 349 533 372 507 C 394 481 433 457 489 434 L 778 313 C 832 343 874 378 904 419 C 934 460 950 502 950 545 Z" unicode="§" />
<glyph horiz-adv-x="1024" d="M 885 1010 L 633 1010 L 678 1270 L 930 1270 L 885 1010 Z M 481 1010 L 229 1010 L 274 1270 L 526 1270 L 481 1010 Z" unicode="¨" />
<glyph horiz-adv-x="1729" d="M 1636 748 C 1636 609 1601 480 1533 362 C 1464 243 1370 149 1252 79 C 1133 9 1004 -25 864 -25 C 724 -25 594 9 476 79 C 358 149 264 243 195 361 C 126 479 92 608 92 748 C 92 887 126 1016 195 1134 C 264 1252 358 1346 476 1416 C 594 1485 724 1520 864 1520 C 1003 1520 1132 1485 1250 1416 C 1368 1347 1462 1253 1532 1135 C 1601 1017 1636 888 1636 748 Z M 1516 745 C 1516 864 1487 975 1429 1077 C 1371 1179 1291 1260 1191 1318 C 1091 1376 982 1405 864 1405 C 746 1405 636 1375 536 1317 C 436 1259 357 1179 299 1077 C 241 975 213 865 213 745 C 213 626 241 516 298 415 C 355 313 434 233 535 175 C 635 117 745 88 864 88 C 980 88 1089 116 1190 173 C 1291 230 1371 310 1429 413 C 1487 515 1516 626 1516 745 Z M 1227 440 C 1135 339 1019 289 879 289 C 795 289 718 309 649 349 C 579 389 525 445 486 517 C 447 589 428 670 428 760 C 428 842 447 919 487 989 C 526 1059 581 1115 651 1156 C 721 1196 799 1217 883 1217 C 1017 1217 1125 1171 1208 1079 L 1092 948 C 1062 977 1031 999 998 1015 C 965 1030 927 1038 883 1038 C 811 1038 750 1012 702 961 C 653 909 629 844 629 764 C 629 706 640 654 663 609 C 686 564 718 529 758 504 C 798 479 841 467 887 467 C 973 467 1048 501 1112 569 L 1227 440 Z" unicode="©" />
<glyph horiz-adv-x="905" d="M 766 817 L 582 817 L 592 883 C 524 827 455 799 383 799 C 316 799 263 816 223 852 C 183 888 164 935 164 995 C 164 1080 199 1147 270 1197 C 340 1247 435 1272 553 1272 L 664 1272 L 666 1299 C 666 1325 657 1343 640 1354 C 622 1364 594 1370 555 1370 C 475 1370 402 1357 336 1331 L 305 1464 C 338 1481 380 1495 430 1505 C 480 1515 530 1520 580 1520 C 689 1520 762 1501 799 1464 C 835 1427 854 1382 854 1330 C 854 1311 852 1291 848 1270 L 766 817 Z M 733 524 L 102 524 L 131 688 L 764 688 L 733 524 Z M 530 1135 C 478 1135 435 1124 401 1104 C 367 1084 350 1056 350 1020 C 350 995 357 976 372 964 C 387 952 406 946 430 946 C 462 946 495 955 530 973 C 564 991 594 1013 618 1040 L 635 1135 L 530 1135 Z" unicode="ª" />
<glyph horiz-adv-x="909" d="M 592 446 L 741 340 L 694 80 L 395 319 L 442 573 L 823 813 L 778 553 L 592 446 Z M 186 446 L 334 340 L 289 80 L -8 319 L 37 573 L 418 813 L 373 553 L 186 446 Z" unicode="«" />
<glyph horiz-adv-x="1536" d="M 1116 352 L 1116 727 L 213 727 L 213 920 L 1296 920 L 1296 352 L 1116 352 Z" unicode="¬" />
<glyph horiz-adv-x="715" d="M 571 365 L 12 365 L 57 631 L 618 631 L 571 365 Z" unicode="­" />
<glyph horiz-adv-x="1729" d="M 1636 748 C 1636 609 1601 480 1533 362 C 1464 243 1370 149 1252 79 C 1133 9 1004 -25 864 -25 C 724 -25 594 9 476 79 C 358 149 264 243 195 361 C 126 479 92 608 92 748 C 92 887 126 1016 195 1134 C 264 1252 358 1346 476 1416 C 594 1485 724 1520 864 1520 C 1003 1520 1132 1485 1250 1416 C 1368 1347 1462 1253 1532 1135 C 1601 1017 1636 888 1636 748 Z M 1516 745 C 1516 864 1487 975 1429 1077 C 1371 1179 1291 1260 1191 1318 C 1091 1376 982 1405 864 1405 C 746 1405 636 1375 536 1317 C 436 1259 357 1179 299 1077 C 241 975 213 865 213 745 C 213 626 241 516 298 415 C 355 313 434 233 535 175 C 635 117 745 88 864 88 C 980 88 1089 116 1190 173 C 1291 230 1371 310 1429 413 C 1487 515 1516 626 1516 745 Z M 1038 317 L 764 688 L 764 317 L 565 317 L 565 1214 L 897 1214 C 988 1214 1061 1189 1117 1140 C 1172 1090 1200 1026 1200 946 C 1200 881 1179 824 1139 776 C 1098 728 1047 700 987 692 L 1270 317 L 1038 317 Z M 1006 938 C 1006 970 993 998 969 1020 C 944 1042 913 1053 877 1053 L 762 1053 L 762 811 L 866 811 C 909 811 943 821 968 843 C 993 865 1006 896 1006 938 Z" unicode="®" />
<glyph horiz-adv-x="1024" d="M 868 1010 L 236 1010 L 268 1190 L 899 1190 L 868 1010 Z" unicode="¯" />
<glyph horiz-adv-x="879" d="M 866 1130 C 866 1060 848 995 813 935 C 778 875 731 827 671 793 C 611 758 546 741 477 741 C 407 741 342 758 282 793 C 222 828 174 876 140 936 C 105 996 88 1060 88 1130 C 88 1199 105 1264 139 1324 C 173 1384 221 1432 281 1467 C 341 1502 406 1520 477 1520 C 547 1520 612 1502 672 1467 C 732 1432 779 1385 814 1325 C 848 1265 866 1200 866 1130 Z M 676 1130 C 676 1188 656 1237 617 1277 C 578 1317 531 1337 477 1337 C 423 1337 376 1317 337 1277 C 298 1237 279 1188 279 1130 C 279 1072 298 1023 337 983 C 375 943 422 924 477 924 C 531 924 578 943 617 983 C 656 1022 676 1071 676 1130 Z" unicode="°" />
<glyph horiz-adv-x="1536" d="M 672 352 L 672 764 L 201 764 L 201 936 L 672 936 L 672 1352 L 864 1352 L 864 936 L 1339 936 L 1339 764 L 864 764 L 864 352 L 672 352 Z M 205 25 L 205 215 L 1335 215 L 1335 25 L 205 25 Z" unicode="±" />
<glyph horiz-adv-x="938" d="M 836 838 L 791 592 L 80 592 L 545 1057 C 592 1108 616 1154 616 1194 C 616 1222 607 1242 591 1254 C 574 1266 554 1272 530 1272 C 497 1272 472 1260 455 1236 C 437 1212 424 1180 416 1139 L 164 1139 C 180 1255 223 1347 293 1415 C 363 1482 447 1516 545 1516 C 651 1516 733 1491 791 1441 C 849 1391 879 1319 879 1223 C 879 1179 869 1135 849 1091 C 829 1046 802 1007 768 975 L 629 838 L 836 838 Z" unicode="²" />
<glyph horiz-adv-x="866" d="M 834 1272 C 834 1236 825 1202 809 1172 C 792 1142 769 1116 739 1095 C 709 1073 681 1061 654 1057 C 696 1053 730 1035 757 1004 C 783 972 797 935 797 891 C 797 828 778 768 742 712 C 706 656 658 613 599 584 C 539 555 471 541 393 541 C 264 541 161 572 84 635 L 236 819 C 280 783 335 766 399 766 C 445 766 481 776 506 796 C 530 816 543 845 543 883 C 543 910 532 928 512 936 C 491 944 462 948 426 948 L 356 948 L 389 1133 L 457 1133 C 539 1133 580 1162 580 1221 C 580 1243 571 1260 554 1273 C 537 1285 514 1292 485 1292 C 452 1292 423 1283 397 1267 C 371 1251 351 1232 336 1212 L 174 1346 C 208 1396 256 1437 318 1469 C 380 1501 446 1518 516 1518 C 615 1518 693 1497 749 1455 C 805 1413 834 1352 834 1272 Z" unicode="³" />
<glyph horiz-adv-x="1024" d="M 592 1010 L 354 1010 L 571 1337 L 829 1337 L 592 1010 Z" unicode="´" />
<glyph horiz-adv-x="1407" d="M 252 -424 C 215 -424 187 -413 168 -392 C 148 -370 139 -333 139 -281 C 139 -168 144 -41 156 100 C 166 234 172 310 172 328 L 176 356 L 176 1176 L 369 1176 L 369 319 C 369 257 396 210 450 176 C 504 142 564 125 629 125 C 716 125 792 146 858 190 C 923 234 973 297 1008 381 L 1008 1176 L 1200 1176 L 1200 307 L 1221 0 L 1057 0 L 1020 176 C 974 104 913 49 836 13 C 759 -22 671 -41 571 -41 C 537 -41 494 -32 444 -14 C 394 3 354 27 324 59 C 324 0 333 -57 352 -113 C 371 -169 381 -219 381 -264 C 381 -370 338 -424 252 -424 Z" unicode="µ" />
<glyph horiz-adv-x="1518" d="M 1196 -367 L 907 -367 L 1198 1280 L 1055 1280 L 764 -367 L 549 -367 L 707 520 L 547 520 C 415 520 307 557 223 631 C 139 705 98 800 98 918 C 98 1028 126 1127 182 1215 C 238 1303 318 1371 420 1421 C 522 1470 638 1495 766 1495 L 1524 1495 L 1196 -367 Z M 750 1276 C 654 1276 575 1243 512 1179 C 449 1114 418 1034 418 940 C 418 806 492 739 641 739 L 745 739 L 842 1276 L 750 1276 Z" unicode="¶" />
<glyph horiz-adv-x="489" d="M 49 518 L 104 838 L 418 838 L 360 518 L 49 518 Z" unicode="·" />
<glyph horiz-adv-x="1024" d="M 565 -195 C 565 -255 541 -302 493 -338 C 445 -373 384 -391 309 -391 C 231 -391 161 -367 98 -319 L 176 -225 C 220 -253 266 -268 313 -268 C 331 -268 348 -263 362 -253 C 376 -243 383 -231 385 -217 C 385 -203 380 -192 370 -182 C 360 -172 345 -168 324 -168 C 300 -168 274 -174 246 -186 L 211 -113 L 319 25 L 475 25 L 401 -68 L 408 -68 C 454 -68 491 -80 521 -104 C 550 -128 565 -158 565 -195 Z" unicode="¸" />
<glyph horiz-adv-x="672" d="M 311 1137 C 274 1108 219 1091 145 1085 L 190 1333 C 257 1341 307 1356 340 1378 C 372 1399 407 1437 444 1493 L 659 1493 L 496 571 L 211 571 L 311 1137 Z" unicode="¹" />
<glyph horiz-adv-x="926" d="M 895 1229 C 895 1150 876 1077 840 1011 C 803 944 753 892 689 854 C 625 816 557 797 485 797 C 396 797 324 824 269 879 C 213 934 186 1007 186 1098 C 186 1170 204 1239 242 1305 C 280 1371 330 1423 394 1462 C 458 1500 525 1520 596 1520 C 684 1520 756 1492 812 1438 C 867 1383 895 1313 895 1229 Z M 756 524 L 102 524 L 129 688 L 782 688 L 756 524 Z M 682 1200 C 682 1292 644 1339 569 1339 C 521 1339 481 1317 447 1275 C 413 1232 397 1180 397 1118 C 397 1074 406 1040 425 1014 C 443 988 472 975 512 975 C 562 975 602 996 634 1038 C 666 1080 682 1134 682 1200 Z" unicode="º" />
<glyph horiz-adv-x="909" d="M 389 80 L 434 340 L 621 446 L 473 553 L 518 813 L 817 573 L 772 319 L 389 80 Z M -16 80 L 29 340 L 215 446 L 68 553 L 113 813 L 412 573 L 367 319 L -16 80 Z" unicode="»" />
<glyph horiz-adv-x="2124" d="M 315 1137 C 279 1108 224 1091 150 1085 L 195 1333 C 262 1341 312 1357 346 1379 C 379 1401 413 1439 449 1493 L 657 1493 L 494 571 L 215 571 L 315 1137 Z M 487 0 L 182 0 L 1468 1495 L 1774 1495 L 487 0 Z M 1817 182 L 1784 0 L 1518 0 L 1550 182 L 1130 182 L 1161 360 L 1620 922 L 1948 922 L 1853 387 L 1939 387 L 1903 182 L 1817 182 Z M 1630 639 L 1421 387 L 1587 387 L 1630 639 Z" unicode="¼" />
<glyph horiz-adv-x="2077" d="M 317 1145 C 281 1116 225 1096 150 1085 L 195 1333 C 309 1349 395 1402 455 1493 L 657 1493 L 494 571 L 215 571 L 317 1145 Z M 469 0 L 164 0 L 1450 1495 L 1755 1495 L 469 0 Z M 1888 246 L 1843 0 L 1130 0 L 1597 465 C 1645 517 1669 562 1669 602 C 1669 630 1660 650 1643 662 C 1626 674 1606 680 1583 680 C 1524 680 1486 635 1468 547 L 1217 547 C 1233 663 1276 754 1345 822 C 1413 890 1497 924 1597 924 C 1703 924 1786 899 1844 849 C 1902 799 1931 726 1931 631 C 1931 589 1921 545 1902 501 C 1882 456 1855 417 1821 383 L 1681 246 L 1888 246 Z" unicode="½" />
<glyph horiz-adv-x="2318" d="M 2011 182 L 1978 0 L 1712 0 L 1745 182 L 1335 182 L 1366 360 L 1825 922 L 2142 922 L 2048 387 L 2134 387 L 2097 182 L 2011 182 Z M 678 0 L 373 0 L 1659 1495 L 1964 1495 L 678 0 Z M 834 1272 C 834 1236 825 1202 809 1172 C 792 1142 769 1116 739 1095 C 709 1073 681 1061 654 1057 C 696 1053 730 1035 757 1004 C 783 972 797 935 797 891 C 797 828 778 768 742 712 C 706 656 658 613 599 584 C 539 555 471 541 393 541 C 263 541 160 573 86 637 L 236 819 C 280 783 335 766 399 766 C 445 766 481 776 506 796 C 530 816 543 845 543 883 C 543 910 532 928 512 936 C 491 944 462 948 426 948 L 356 948 L 389 1133 L 457 1133 C 539 1133 580 1162 580 1221 C 580 1243 571 1260 554 1273 C 537 1285 514 1292 485 1292 C 452 1292 423 1283 397 1267 C 371 1251 351 1232 336 1212 L 174 1346 C 208 1396 256 1437 318 1469 C 380 1501 446 1518 516 1518 C 615 1518 693 1497 749 1455 C 805 1413 834 1352 834 1272 Z M 1825 639 L 1616 387 L 1782 387 L 1825 639 Z" unicode="¾" />
<glyph horiz-adv-x="952" d="M 735 1204 L 414 1204 L 467 1509 L 788 1509 L 735 1204 Z M 834 162 C 770 105 698 62 619 33 C 539 4 459 -10 379 -10 C 252 -10 153 18 81 74 C 9 130 -27 208 -27 307 C -27 361 -19 411 -5 455 C 8 499 31 542 62 586 C 92 630 152 696 242 786 C 298 842 339 893 364 938 C 389 982 406 1033 414 1090 L 414 1092 L 694 1092 C 678 933 609 792 485 668 C 404 586 353 527 332 491 C 311 455 301 419 301 383 C 301 339 312 306 335 284 C 357 261 390 250 434 250 C 510 250 601 295 707 387 L 834 162 Z" unicode="¿" />
<glyph horiz-adv-x="1458" d="M 954 0 L 889 395 L 436 395 L 227 0 L -94 0 L 709 1495 L 1010 1495 L 1288 0 L 954 0 Z M 786 1102 L 565 653 L 850 653 L 786 1102 Z M 772 1610 L 639 1937 L 884 1937 L 995 1610 L 772 1610 Z" unicode="À" />
<glyph horiz-adv-x="1458" d="M 954 0 L 889 395 L 436 395 L 227 0 L -94 0 L 709 1495 L 1010 1495 L 1288 0 L 954 0 Z M 786 1102 L 565 653 L 850 653 L 786 1102 Z M 957 1614 L 719 1614 L 936 1941 L 1194 1941 L 957 1614 Z" unicode="Á" />
<glyph horiz-adv-x="1458" d="M 954 0 L 889 395 L 436 395 L 227 0 L -94 0 L 709 1495 L 1010 1495 L 1288 0 L 954 0 Z M 786 1102 L 565 653 L 850 653 L 786 1102 Z M 960 1610 L 883 1767 L 751 1610 L 522 1610 L 799 1937 L 1020 1937 L 1184 1610 L 960 1610 Z" unicode="Â" />
<glyph horiz-adv-x="1458" d="M 954 0 L 889 395 L 436 395 L 227 0 L -94 0 L 709 1495 L 1010 1495 L 1288 0 L 954 0 Z M 786 1102 L 565 653 L 850 653 L 786 1102 Z M 1225 1894 C 1209 1806 1179 1737 1133 1688 C 1087 1638 1031 1614 965 1614 C 925 1614 880 1631 829 1667 C 811 1677 795 1686 780 1695 C 765 1703 750 1708 735 1708 C 719 1708 705 1700 693 1686 C 681 1671 673 1648 670 1618 L 500 1618 C 514 1708 543 1777 589 1825 C 635 1873 692 1898 760 1898 C 792 1898 837 1881 893 1847 C 910 1837 926 1827 941 1818 C 956 1808 971 1804 987 1804 C 1002 1804 1016 1811 1029 1825 C 1041 1839 1049 1862 1053 1894 L 1225 1894 Z" unicode="Ã" />
<glyph horiz-adv-x="1458" d="M 1407 1235 L 1157 1235 L 1202 1495 L 1454 1495 L 1407 1235 Z M 461 1235 L 209 1235 L 254 1495 L 506 1495 L 461 1235 Z M 954 0 L 889 395 L 436 395 L 229 0 L -94 0 L 709 1495 L 1012 1495 L 1288 0 L 954 0 Z M 786 1102 L 770 1063 L 567 653 L 850 653 L 791 1061 C 787 1066 786 1080 786 1102 Z" unicode="Ä" />
<glyph horiz-adv-x="1458" d="M 954 0 L 889 395 L 436 395 L 229 0 L -94 0 L 692 1448 C 663 1469 641 1497 625 1531 C 609 1565 602 1603 602 1645 C 602 1717 627 1778 677 1828 C 727 1878 788 1903 860 1903 C 933 1903 995 1878 1045 1828 C 1095 1778 1120 1717 1120 1645 C 1120 1598 1109 1557 1087 1521 C 1065 1485 1036 1456 1001 1436 L 1288 0 L 954 0 Z M 967 1645 C 967 1675 957 1700 937 1720 C 917 1740 891 1751 860 1751 C 830 1751 805 1740 785 1720 C 765 1700 756 1675 756 1645 C 756 1615 766 1589 786 1568 C 806 1546 830 1536 860 1536 C 890 1536 915 1546 936 1567 C 956 1588 967 1614 967 1645 Z M 784 1096 L 567 653 L 850 653 L 784 1096 Z" unicode="Å" />
<glyph horiz-adv-x="1905" d="M 1862 1231 L 1329 1231 L 1266 870 L 1761 870 L 1714 606 L 1219 606 L 1157 264 L 1724 264 L 1677 0 L 805 0 L 874 395 L 510 395 L 227 0 L -104 0 L 961 1495 L 1911 1495 L 1862 1231 Z M 670 651 L 922 651 L 1026 1184 L 670 651 Z" unicode="Æ" />
<glyph horiz-adv-x="1430" d="M 625 -20 C 453 -3 315 62 213 178 C 110 294 59 440 59 618 C 59 780 97 931 175 1069 C 253 1207 360 1317 498 1398 C 635 1479 782 1520 940 1520 C 1041 1520 1131 1502 1211 1468 C 1291 1433 1366 1374 1438 1292 L 1214 1085 C 1173 1139 1126 1177 1073 1201 C 1020 1225 960 1237 893 1237 C 801 1237 717 1210 640 1157 C 562 1103 501 1031 455 940 C 409 849 387 755 387 657 C 387 535 420 438 487 366 C 553 294 646 258 766 258 C 830 258 891 271 949 297 C 1007 323 1066 364 1126 420 L 1278 203 C 1130 68 963 -7 778 -23 L 737 -74 L 744 -74 C 790 -74 827 -86 857 -110 C 886 -134 901 -164 901 -201 C 901 -261 876 -309 828 -344 C 780 -379 719 -397 645 -397 C 565 -397 495 -373 434 -326 L 512 -231 C 556 -259 602 -274 649 -274 C 667 -274 684 -269 698 -259 C 712 -249 719 -237 721 -223 C 721 -209 716 -198 706 -188 C 696 -178 680 -174 659 -174 C 634 -174 608 -180 582 -193 L 547 -119 L 625 -20 Z" unicode="Ç" />
<glyph horiz-adv-x="1100" d="M 1059 1231 L 528 1231 L 465 870 L 958 870 L 911 606 L 418 606 L 358 264 L 920 264 L 872 0 L -2 0 L 262 1495 L 1106 1495 L 1059 1231 Z M 635 1614 L 502 1941 L 747 1941 L 858 1614 L 635 1614 Z" unicode="È" />
<glyph horiz-adv-x="1100" d="M 1059 1231 L 528 1231 L 465 870 L 958 870 L 911 606 L 418 606 L 358 264 L 920 264 L 872 0 L -2 0 L 262 1495 L 1106 1495 L 1059 1231 Z M 744 1618 L 506 1618 L 723 1945 L 981 1945 L 744 1618 Z" unicode="É" />
<glyph horiz-adv-x="1100" d="M 1059 1231 L 528 1231 L 465 870 L 958 870 L 911 606 L 418 606 L 358 264 L 920 264 L 872 0 L -2 0 L 262 1495 L 1106 1495 L 1059 1231 Z M 792 1614 L 715 1771 L 583 1614 L 354 1614 L 631 1941 L 852 1941 L 1016 1614 L 792 1614 Z" unicode="Ê" />
<glyph horiz-adv-x="1100" d="M 1059 1231 L 528 1231 L 465 870 L 958 870 L 911 606 L 418 606 L 358 264 L 920 264 L 872 0 L -2 0 L 262 1495 L 1106 1495 L 1059 1231 Z M 1022 1614 L 770 1614 L 815 1874 L 1067 1874 L 1022 1614 Z M 618 1614 L 366 1614 L 411 1874 L 663 1874 L 618 1614 Z" unicode="Ë" />
<glyph horiz-adv-x="586" d="M 322 0 L 0 0 L 264 1495 L 586 1495 L 322 0 Z M 347 1614 L 214 1941 L 459 1941 L 570 1614 L 347 1614 Z" unicode="Ì" />
<glyph horiz-adv-x="586" d="M 322 0 L 0 0 L 264 1495 L 586 1495 L 322 0 Z M 519 1614 L 281 1614 L 498 1941 L 756 1941 L 519 1614 Z" unicode="Í" />
<glyph horiz-adv-x="586" d="M 322 0 L 0 0 L 264 1495 L 586 1495 L 322 0 Z M 558 1614 L 481 1771 L 349 1614 L 120 1614 L 397 1941 L 618 1941 L 782 1614 L 558 1614 Z" unicode="Î" />
<glyph horiz-adv-x="586" d="M 322 0 L 0 0 L 264 1495 L 586 1495 L 322 0 Z M 767 1618 L 515 1618 L 560 1878 L 812 1878 L 767 1618 Z M 363 1618 L 111 1618 L 156 1878 L 408 1878 L 363 1618 Z" unicode="Ï" />
<glyph horiz-adv-x="1516" d="M 1454 909 C 1454 732 1414 574 1334 436 C 1254 297 1141 190 997 114 C 853 38 692 0 514 0 L 57 0 L 164 596 L 16 596 L 61 858 L 209 858 L 322 1495 L 772 1495 C 986 1495 1153 1443 1273 1341 C 1393 1239 1454 1095 1454 909 Z M 1090 856 C 1090 982 1058 1076 994 1137 C 930 1198 835 1229 707 1229 L 586 1229 L 520 858 L 799 858 L 754 596 L 475 596 L 416 266 L 520 266 C 626 266 723 292 811 344 C 899 396 967 468 1016 559 C 1065 650 1090 749 1090 856 Z" unicode="Ð" />
<glyph horiz-adv-x="1511" d="M 1249 0 L 993 0 L 477 952 L 309 0 L -2 0 L 262 1495 L 543 1495 L 1042 575 L 1204 1495 L 1513 1495 L 1249 0 Z M 1239 1882 C 1223 1794 1193 1725 1147 1676 C 1101 1626 1045 1602 979 1602 C 939 1602 894 1619 843 1655 C 825 1665 809 1674 794 1683 C 779 1691 764 1696 749 1696 C 733 1696 719 1688 707 1674 C 695 1659 687 1636 684 1606 L 514 1606 C 528 1696 557 1765 603 1813 C 649 1861 706 1886 774 1886 C 806 1886 851 1869 907 1835 C 924 1825 940 1815 955 1806 C 970 1796 985 1792 1001 1792 C 1016 1792 1030 1799 1043 1813 C 1055 1827 1063 1850 1067 1882 L 1239 1882 Z" unicode="Ñ" />
<glyph horiz-adv-x="1683" d="M 1622 879 C 1622 715 1582 565 1504 427 C 1426 289 1319 179 1183 97 C 1047 15 900 -25 743 -25 C 609 -25 491 1 387 55 C 283 109 203 185 147 285 C 91 384 63 497 63 625 C 63 790 101 940 179 1076 C 257 1212 365 1320 504 1400 C 642 1480 794 1520 958 1520 C 1088 1520 1204 1492 1305 1438 C 1406 1384 1484 1308 1539 1210 C 1594 1112 1622 1001 1622 879 Z M 1296 842 C 1296 969 1262 1068 1194 1138 C 1126 1208 1030 1243 907 1243 C 812 1243 725 1216 647 1164 C 568 1111 506 1039 460 947 C 414 855 391 760 391 662 C 391 534 425 434 494 362 C 562 290 657 254 778 254 C 868 254 953 280 1033 334 C 1113 387 1177 459 1225 551 C 1272 642 1296 739 1296 842 Z M 830 1614 L 697 1941 L 942 1941 L 1053 1614 L 830 1614 Z" unicode="Ò" />
<glyph horiz-adv-x="1683" d="M 1622 879 C 1622 715 1582 565 1504 427 C 1426 289 1319 179 1183 97 C 1047 15 900 -25 743 -25 C 609 -25 491 1 387 55 C 283 109 203 185 147 285 C 91 384 63 497 63 625 C 63 790 101 940 179 1076 C 257 1212 365 1320 504 1400 C 642 1480 794 1520 958 1520 C 1088 1520 1204 1492 1305 1438 C 1406 1384 1484 1308 1539 1210 C 1594 1112 1622 1001 1622 879 Z M 1296 842 C 1296 969 1262 1068 1194 1138 C 1126 1208 1030 1243 907 1243 C 812 1243 725 1216 647 1164 C 568 1111 506 1039 460 947 C 414 855 391 760 391 662 C 391 534 425 434 494 362 C 562 290 657 254 778 254 C 868 254 953 280 1033 334 C 1113 387 1177 459 1225 551 C 1272 642 1296 739 1296 842 Z M 1036 1614 L 798 1614 L 1015 1941 L 1273 1941 L 1036 1614 Z" unicode="Ó" />
<glyph horiz-adv-x="1683" d="M 1622 879 C 1622 715 1582 565 1504 427 C 1426 289 1319 179 1183 97 C 1047 15 900 -25 743 -25 C 609 -25 491 1 387 55 C 283 109 203 185 147 285 C 91 384 63 497 63 625 C 63 790 101 940 179 1076 C 257 1212 365 1320 504 1400 C 642 1480 794 1520 958 1520 C 1088 1520 1204 1492 1305 1438 C 1406 1384 1484 1308 1539 1210 C 1594 1112 1622 1001 1622 879 Z M 1296 842 C 1296 969 1262 1068 1194 1138 C 1126 1208 1030 1243 907 1243 C 812 1243 725 1216 647 1164 C 568 1111 506 1039 460 947 C 414 855 391 760 391 662 C 391 534 425 434 494 362 C 562 290 657 254 778 254 C 868 254 953 280 1033 334 C 1113 387 1177 459 1225 551 C 1272 642 1296 739 1296 842 Z M 1050 1614 L 973 1771 L 841 1614 L 612 1614 L 889 1941 L 1110 1941 L 1274 1614 L 1050 1614 Z" unicode="Ô" />
<glyph horiz-adv-x="1683" d="M 1622 879 C 1622 715 1582 565 1504 427 C 1426 289 1319 179 1183 97 C 1047 15 900 -25 743 -25 C 609 -25 491 1 387 55 C 283 109 203 185 147 285 C 91 384 63 497 63 625 C 63 790 101 940 179 1076 C 257 1212 365 1320 504 1400 C 642 1480 794 1520 958 1520 C 1088 1520 1204 1492 1305 1438 C 1406 1384 1484 1308 1539 1210 C 1594 1112 1622 1001 1622 879 Z M 1296 842 C 1296 969 1262 1068 1194 1138 C 1126 1208 1030 1243 907 1243 C 812 1243 725 1216 647 1164 C 568 1111 506 1039 460 947 C 414 855 391 760 391 662 C 391 534 425 434 494 362 C 562 290 657 254 778 254 C 868 254 953 280 1033 334 C 1113 387 1177 459 1225 551 C 1272 642 1296 739 1296 842 Z M 1338 1894 C 1322 1806 1292 1737 1246 1688 C 1200 1638 1144 1614 1078 1614 C 1038 1614 993 1631 942 1667 C 924 1677 908 1686 893 1695 C 878 1703 863 1708 848 1708 C 832 1708 818 1700 806 1686 C 794 1671 786 1648 783 1618 L 613 1618 C 627 1708 656 1777 702 1825 C 748 1873 805 1898 873 1898 C 905 1898 950 1881 1006 1847 C 1023 1837 1039 1827 1054 1818 C 1069 1808 1084 1804 1100 1804 C 1115 1804 1129 1811 1142 1825 C 1154 1839 1162 1862 1166 1894 L 1338 1894 Z" unicode="Õ" />
<glyph horiz-adv-x="1683" d="M 1499 1491 L 1751 1491 L 1706 1231 L 1528 1231 C 1590 1125 1622 1007 1622 879 C 1622 715 1582 565 1504 427 C 1426 289 1319 179 1183 97 C 1047 15 900 -25 743 -25 C 609 -25 491 1 387 55 C 283 109 203 185 147 285 C 91 384 63 497 63 625 C 63 858 139 1060 293 1231 L 84 1231 L 129 1491 L 381 1491 L 344 1284 C 426 1359 520 1417 626 1458 C 731 1499 842 1520 958 1520 C 1070 1520 1169 1501 1255 1464 C 1340 1426 1411 1375 1468 1311 L 1499 1491 Z M 1296 842 C 1296 969 1262 1068 1194 1138 C 1126 1208 1030 1243 907 1243 C 812 1243 725 1216 647 1164 C 568 1111 506 1039 460 947 C 414 855 391 760 391 662 C 391 534 425 434 494 362 C 562 290 657 254 778 254 C 868 254 953 280 1033 334 C 1113 387 1177 459 1225 551 C 1272 642 1296 739 1296 842 Z" unicode="Ö" />
<glyph horiz-adv-x="1092" d="M 111 971 L 328 1161 L 567 862 L 909 1161 L 1075 956 L 733 657 L 973 360 L 756 168 L 516 467 L 174 168 L 8 375 L 350 672 L 111 971 Z" unicode="×" />
<glyph horiz-adv-x="1683" d="M 1622 877 C 1622 716 1583 567 1507 429 C 1430 291 1323 180 1186 98 C 1048 16 901 -25 743 -25 C 559 -25 407 24 285 123 L 141 -4 L 29 113 L 174 242 C 100 348 63 476 63 625 C 63 789 101 939 178 1075 C 255 1211 363 1320 503 1400 C 643 1480 794 1520 958 1520 C 1135 1520 1285 1470 1409 1370 L 1559 1505 L 1669 1391 L 1516 1251 C 1586 1145 1622 1020 1622 877 Z M 1167 1159 C 1104 1213 1017 1241 907 1241 C 812 1241 725 1214 647 1162 C 568 1109 506 1037 460 946 C 414 855 391 760 391 662 C 391 589 404 524 432 467 L 1167 1159 Z M 1294 842 C 1294 915 1281 976 1257 1026 L 524 336 C 593 281 678 254 778 254 C 870 254 955 280 1035 333 C 1115 385 1178 458 1224 550 C 1270 642 1294 739 1294 842 Z" unicode="Ø" />
<glyph horiz-adv-x="1503" d="M 647 -25 C 551 -25 466 -10 390 18 C 314 47 251 90 202 146 C 153 202 121 262 107 324 C 93 386 86 442 86 490 C 86 537 90 587 100 641 L 252 1495 L 575 1495 L 422 618 C 416 582 413 550 413 520 C 413 435 436 368 483 320 C 529 272 594 248 678 248 C 785 248 866 277 922 336 C 977 395 1016 489 1038 618 L 1192 1495 L 1513 1495 L 1362 641 C 1324 430 1243 266 1117 150 C 991 33 835 -25 647 -25 Z M 817 1614 L 684 1941 L 929 1941 L 1040 1614 L 817 1614 Z" unicode="Ù" />
<glyph horiz-adv-x="1503" d="M 647 -25 C 551 -25 466 -10 390 18 C 314 47 251 90 202 146 C 153 202 121 262 107 324 C 93 386 86 442 86 490 C 86 537 90 587 100 641 L 252 1495 L 575 1495 L 422 618 C 416 582 413 550 413 520 C 413 435 436 368 483 320 C 529 272 594 248 678 248 C 785 248 866 277 922 336 C 977 395 1016 489 1038 618 L 1192 1495 L 1513 1495 L 1362 641 C 1324 430 1243 266 1117 150 C 991 33 835 -25 647 -25 Z M 944 1614 L 706 1614 L 923 1941 L 1181 1941 L 944 1614 Z" unicode="Ú" />
<glyph horiz-adv-x="1503" d="M 647 -25 C 551 -25 466 -10 390 18 C 314 47 251 90 202 146 C 153 202 121 262 107 324 C 93 386 86 442 86 490 C 86 537 90 587 100 641 L 252 1495 L 575 1495 L 422 618 C 416 582 413 550 413 520 C 413 435 436 368 483 320 C 529 272 594 248 678 248 C 785 248 866 277 922 336 C 977 395 1016 489 1038 618 L 1192 1495 L 1513 1495 L 1362 641 C 1324 430 1243 266 1117 150 C 991 33 835 -25 647 -25 Z M 991 1614 L 914 1771 L 782 1614 L 553 1614 L 830 1941 L 1051 1941 L 1215 1614 L 991 1614 Z" unicode="Û" />
<glyph horiz-adv-x="1503" d="M 647 -25 C 551 -25 466 -10 390 18 C 314 47 251 90 202 146 C 153 202 121 262 107 324 C 93 386 86 442 86 490 C 86 537 90 587 100 641 L 252 1495 L 575 1495 L 422 618 C 416 582 413 550 413 520 C 413 435 436 368 483 320 C 529 272 594 248 678 248 C 785 248 866 277 922 336 C 977 395 1016 489 1038 618 L 1192 1495 L 1513 1495 L 1362 641 C 1324 430 1243 266 1117 150 C 991 33 835 -25 647 -25 Z M 1229 1614 L 977 1614 L 1022 1874 L 1274 1874 L 1229 1614 Z M 825 1614 L 573 1614 L 618 1874 L 870 1874 L 825 1614 Z" unicode="Ü" />
<glyph horiz-adv-x="1325" d="M 684 0 L 371 0 L 483 639 L 133 1495 L 481 1495 L 694 936 L 1106 1495 L 1454 1495 L 797 639 L 684 0 Z M 883 1606 L 645 1606 L 862 1933 L 1120 1933 L 883 1606 Z" unicode="Ý" />
<glyph horiz-adv-x="1200" d="M 1165 834 C 1165 730 1139 639 1088 559 C 1036 479 965 418 873 375 C 781 332 677 311 561 311 L 373 311 L 317 0 L -2 0 L 262 1495 L 582 1495 L 532 1212 L 727 1212 C 864 1212 971 1178 1049 1111 C 1126 1043 1165 951 1165 834 Z M 850 799 C 850 847 833 885 799 913 C 765 941 711 956 637 956 L 487 956 L 420 569 L 580 569 C 664 569 730 590 778 632 C 826 674 850 729 850 799 Z" unicode="Þ" />
<glyph horiz-adv-x="1077" d="M 1014 1200 C 1014 1122 990 1049 944 981 C 897 913 840 866 772 840 C 836 809 885 763 919 701 C 953 639 971 572 971 498 C 971 397 950 307 909 227 C 868 147 811 85 737 41 C 663 -3 579 -25 485 -25 C 440 -25 397 -18 356 -6 L 397 217 C 418 209 444 205 475 205 C 543 205 595 231 633 284 C 671 336 690 407 690 496 C 690 566 670 626 631 675 C 591 724 540 752 477 760 L 508 934 L 522 934 C 579 934 627 956 667 1002 C 707 1048 727 1103 727 1167 C 727 1204 717 1234 699 1256 C 681 1278 655 1290 621 1290 C 529 1290 473 1227 453 1102 L 195 -367 L -98 -367 L 158 1085 C 208 1375 369 1520 641 1520 C 751 1520 840 1490 910 1430 C 979 1370 1014 1294 1014 1200 Z" unicode="ß" />
<glyph horiz-adv-x="1014" d="M 799 0 L 502 0 L 516 92 C 432 17 340 -20 238 -20 C 154 -20 88 0 40 42 C -7 83 -31 139 -31 211 C -31 323 18 413 118 479 C 218 545 350 580 516 582 L 604 582 L 604 586 L 608 624 C 608 653 597 674 576 686 C 554 698 520 705 473 705 C 373 705 281 686 197 649 L 147 827 C 259 880 387 907 532 907 C 664 907 759 886 818 846 C 877 806 907 743 907 658 C 907 631 904 602 899 571 L 799 0 Z M 492 418 C 424 418 368 403 324 373 C 280 343 258 306 258 262 C 258 229 267 206 287 192 C 306 178 329 172 356 172 C 387 172 421 182 458 202 C 495 222 526 246 551 276 L 575 418 L 492 418 Z M 440 1010 L 307 1337 L 552 1337 L 663 1010 L 440 1010 Z" unicode="à" />
<glyph horiz-adv-x="1014" d="M 799 0 L 502 0 L 516 92 C 432 17 340 -20 238 -20 C 154 -20 88 0 40 42 C -7 83 -31 139 -31 211 C -31 323 18 413 118 479 C 218 545 350 580 516 582 L 604 582 L 604 586 L 608 624 C 608 653 597 674 576 686 C 554 698 520 705 473 705 C 373 705 281 686 197 649 L 147 827 C 259 880 387 907 532 907 C 664 907 759 886 818 846 C 877 806 907 743 907 658 C 907 631 904 602 899 571 L 799 0 Z M 492 418 C 424 418 368 403 324 373 C 280 343 258 306 258 262 C 258 229 267 206 287 192 C 306 178 329 172 356 172 C 387 172 421 182 458 202 C 495 222 526 246 551 276 L 575 418 L 492 418 Z M 647 1010 L 409 1010 L 626 1337 L 884 1337 L 647 1010 Z" unicode="á" />
<glyph horiz-adv-x="1014" d="M 799 0 L 502 0 L 516 92 C 432 17 340 -20 238 -20 C 154 -20 88 0 40 42 C -7 83 -31 139 -31 211 C -31 323 18 413 118 479 C 218 545 350 580 516 582 L 604 582 L 604 586 L 608 624 C 608 653 597 674 576 686 C 554 698 520 705 473 705 C 373 705 281 686 197 649 L 147 827 C 259 880 387 907 532 907 C 664 907 759 886 818 846 C 877 806 907 743 907 658 C 907 631 904 602 899 571 L 799 0 Z M 492 418 C 424 418 368 403 324 373 C 280 343 258 306 258 262 C 258 229 267 206 287 192 C 306 178 329 172 356 172 C 387 172 421 182 458 202 C 495 222 526 246 551 276 L 575 418 L 492 418 Z M 646 1010 L 569 1167 L 437 1010 L 208 1010 L 485 1337 L 706 1337 L 870 1010 L 646 1010 Z" unicode="â" />
<glyph horiz-adv-x="1014" d="M 799 0 L 502 0 L 516 92 C 432 17 340 -20 238 -20 C 154 -20 88 0 40 42 C -7 83 -31 139 -31 211 C -31 323 18 413 118 479 C 218 545 350 580 516 582 L 604 582 L 604 586 L 608 624 C 608 653 597 674 576 686 C 554 698 520 705 473 705 C 373 705 281 686 197 649 L 147 827 C 259 880 387 907 532 907 C 664 907 759 886 818 846 C 877 806 907 743 907 658 C 907 631 904 602 899 571 L 799 0 Z M 492 418 C 424 418 368 403 324 373 C 280 343 258 306 258 262 C 258 229 267 206 287 192 C 306 178 329 172 356 172 C 387 172 421 182 458 202 C 495 222 526 246 551 276 L 575 418 L 492 418 Z M 913 1286 C 897 1198 867 1129 821 1080 C 775 1030 719 1006 653 1006 C 613 1006 568 1023 517 1059 C 499 1069 483 1078 468 1087 C 453 1095 438 1100 423 1100 C 407 1100 393 1092 381 1078 C 369 1063 361 1040 358 1010 L 188 1010 C 202 1100 231 1169 277 1217 C 323 1265 380 1290 448 1290 C 480 1290 525 1273 581 1239 C 598 1229 614 1219 629 1210 C 644 1200 659 1196 675 1196 C 690 1196 704 1203 717 1217 C 729 1231 737 1254 741 1286 L 913 1286 Z" unicode="ã" />
<glyph horiz-adv-x="1014" d="M 799 0 L 502 0 L 516 92 C 432 17 340 -20 238 -20 C 154 -20 88 0 40 42 C -7 83 -31 139 -31 211 C -31 323 18 413 118 479 C 218 545 350 580 516 582 L 604 582 L 604 586 L 608 624 C 608 653 597 674 576 686 C 554 698 520 705 473 705 C 373 705 281 686 197 649 L 147 827 C 259 880 387 907 532 907 C 664 907 759 886 818 846 C 877 806 907 743 907 658 C 907 631 904 602 899 571 L 799 0 Z M 492 418 C 424 418 368 403 324 373 C 280 343 258 306 258 262 C 258 229 267 206 287 192 C 306 178 329 172 356 172 C 387 172 421 182 458 202 C 495 222 526 246 551 276 L 575 418 L 492 418 Z M 872 1010 L 620 1010 L 665 1270 L 917 1270 L 872 1010 Z M 468 1010 L 216 1010 L 261 1270 L 513 1270 L 468 1010 Z" unicode="ä" />
<glyph horiz-adv-x="1014" d="M 799 0 L 502 0 L 516 92 C 432 17 340 -20 238 -20 C 154 -20 88 0 40 42 C -7 83 -31 139 -31 211 C -31 323 18 413 118 479 C 218 545 350 580 516 582 L 604 582 L 604 586 L 608 624 C 608 653 597 674 576 686 C 554 698 520 705 473 705 C 373 705 281 686 197 649 L 147 827 C 259 880 387 907 532 907 C 664 907 759 886 818 846 C 877 806 907 743 907 658 C 907 631 904 602 899 571 L 799 0 Z M 492 418 C 424 418 368 403 324 373 C 280 343 258 306 258 262 C 258 229 267 206 287 192 C 306 178 329 172 356 172 C 387 172 421 182 458 202 C 495 222 526 246 551 276 L 575 418 L 492 418 Z M 833 1264 C 833 1190 808 1129 758 1079 C 708 1029 647 1004 575 1004 C 503 1004 442 1029 392 1079 C 342 1129 317 1190 317 1264 C 317 1336 342 1397 392 1447 C 442 1497 503 1522 575 1522 C 647 1522 708 1497 758 1447 C 808 1397 833 1336 833 1264 Z M 681 1264 C 681 1294 670 1319 650 1339 C 630 1359 605 1370 575 1370 C 545 1370 519 1359 499 1339 C 478 1318 468 1293 468 1264 C 468 1235 478 1210 498 1188 C 518 1166 543 1155 575 1155 C 605 1155 631 1165 651 1187 C 671 1209 681 1234 681 1264 Z" unicode="å" />
<glyph horiz-adv-x="1577" d="M 242 -20 C 158 -20 92 0 44 42 C -3 83 -27 139 -27 211 C -27 323 22 413 122 479 C 222 545 354 580 520 582 L 612 582 L 612 586 L 616 621 C 616 645 607 665 590 681 C 573 697 535 705 477 705 C 377 705 285 686 201 649 L 152 827 C 262 880 391 907 537 907 C 670 907 758 867 801 788 C 829 819 872 847 930 871 C 988 895 1042 907 1094 907 C 1207 907 1298 874 1368 809 C 1438 743 1473 657 1473 549 C 1473 489 1467 437 1456 393 L 856 393 L 856 377 C 862 247 925 182 1044 182 C 1148 182 1241 215 1325 281 L 1427 123 C 1308 24 1170 -25 1014 -25 C 923 -25 845 -8 780 23 C 714 55 665 104 633 168 C 585 106 528 59 460 27 C 392 -4 320 -20 242 -20 Z M 1214 547 L 1215 569 C 1215 615 1203 650 1179 676 C 1155 702 1123 715 1083 715 C 987 715 920 659 883 547 L 1214 547 Z M 496 418 C 428 418 372 403 328 373 C 284 343 262 306 262 262 C 262 229 271 206 291 192 C 310 178 333 172 360 172 C 392 172 427 182 467 204 C 506 225 537 250 561 279 L 584 418 L 496 418 Z" unicode="æ" />
<glyph horiz-adv-x="893" d="M 293 -14 C 204 6 132 51 77 119 C 21 187 -6 269 -6 365 C -6 459 18 550 68 636 C 117 722 182 790 264 840 C 346 890 434 915 528 915 C 668 915 772 877 838 801 L 655 616 C 636 634 615 649 592 660 C 568 670 538 676 502 676 C 441 676 389 647 345 591 C 301 535 279 469 279 393 C 279 341 291 298 316 265 C 341 231 378 215 428 215 C 466 215 499 222 528 238 C 557 254 586 276 614 305 L 772 145 C 674 47 564 -9 442 -23 L 406 -68 L 413 -68 C 458 -68 495 -79 525 -103 C 554 -127 569 -157 569 -195 C 569 -255 545 -302 497 -338 C 449 -373 388 -391 313 -391 C 235 -391 165 -367 102 -319 L 180 -225 C 224 -253 270 -268 317 -268 C 335 -268 352 -263 366 -253 C 380 -243 387 -231 389 -217 C 389 -203 384 -192 374 -182 C 364 -172 349 -168 328 -168 C 305 -168 279 -174 250 -186 L 215 -113 L 293 -14 Z" unicode="ç" />
<glyph horiz-adv-x="983" d="M 879 549 C 879 489 873 437 862 393 L 262 393 L 262 377 C 265 311 283 262 316 230 C 349 198 394 182 451 182 C 503 182 553 191 601 209 C 649 227 693 251 731 281 L 834 123 C 714 24 576 -25 420 -25 C 285 -25 180 9 106 79 C 31 149 -6 247 -6 373 C -6 467 16 556 60 640 C 104 724 165 791 243 841 C 321 890 406 915 500 915 C 612 915 704 881 774 814 C 844 747 879 659 879 549 Z M 621 547 L 622 565 C 622 615 610 654 586 682 C 562 709 530 723 489 723 C 443 723 403 708 369 678 C 335 648 308 605 289 547 L 621 547 Z M 399 1010 L 266 1337 L 511 1337 L 622 1010 L 399 1010 Z" unicode="è" />
<glyph horiz-adv-x="983" d="M 879 549 C 879 489 873 437 862 393 L 262 393 L 262 377 C 265 311 283 262 316 230 C 349 198 394 182 451 182 C 503 182 553 191 601 209 C 649 227 693 251 731 281 L 834 123 C 714 24 576 -25 420 -25 C 285 -25 180 9 106 79 C 31 149 -6 247 -6 373 C -6 467 16 556 60 640 C 104 724 165 791 243 841 C 321 890 406 915 500 915 C 612 915 704 881 774 814 C 844 747 879 659 879 549 Z M 621 547 L 622 565 C 622 615 610 654 586 682 C 562 709 530 723 489 723 C 443 723 403 708 369 678 C 335 648 308 605 289 547 L 621 547 Z M 619 1010 L 381 1010 L 598 1337 L 856 1337 L 619 1010 Z" unicode="é" />
<glyph horiz-adv-x="983" d="M 879 549 C 879 489 873 437 862 393 L 262 393 L 262 377 C 265 311 283 262 316 230 C 349 198 394 182 451 182 C 503 182 553 191 601 209 C 649 227 693 251 731 281 L 834 123 C 714 24 576 -25 420 -25 C 285 -25 180 9 106 79 C 31 149 -6 247 -6 373 C -6 467 16 556 60 640 C 104 724 165 791 243 841 C 321 890 406 915 500 915 C 612 915 704 881 774 814 C 844 747 879 659 879 549 Z M 621 547 L 622 565 C 622 615 610 654 586 682 C 562 709 530 723 489 723 C 443 723 403 708 369 678 C 335 648 308 605 289 547 L 621 547 Z M 611 1003 L 534 1160 L 402 1003 L 173 1003 L 450 1330 L 671 1330 L 835 1003 L 611 1003 Z" unicode="ê" />
<glyph horiz-adv-x="983" d="M 879 549 C 879 489 873 437 862 393 L 262 393 L 262 377 C 265 311 283 262 316 230 C 349 198 394 182 451 182 C 503 182 553 191 601 209 C 649 227 693 251 731 281 L 834 123 C 714 24 576 -25 420 -25 C 285 -25 180 9 106 79 C 31 149 -6 247 -6 373 C -6 467 16 556 60 640 C 104 724 165 791 243 841 C 321 890 406 915 500 915 C 612 915 704 881 774 814 C 844 747 879 659 879 549 Z M 621 547 L 622 565 C 622 615 610 654 586 682 C 562 709 530 723 489 723 C 443 723 403 708 369 678 C 335 648 308 605 289 547 L 621 547 Z M 835 1010 L 583 1010 L 628 1270 L 880 1270 L 835 1010 Z M 431 1010 L 179 1010 L 224 1270 L 476 1270 L 431 1010 Z" unicode="ë" />
<glyph horiz-adv-x="498" d="M 270 0 L -29 0 L 127 891 L 426 891 L 270 0 Z M 190 1010 L 57 1337 L 302 1337 L 413 1010 L 190 1010 Z" unicode="ì" />
<glyph horiz-adv-x="498" d="M 270 0 L -29 0 L 127 891 L 426 891 L 270 0 Z M 396 1010 L 158 1010 L 375 1337 L 633 1337 L 396 1010 Z" unicode="í" />
<glyph horiz-adv-x="498" d="M 270 0 L -29 0 L 127 891 L 426 891 L 270 0 Z M 375 1010 L 298 1167 L 166 1010 L -63 1010 L 214 1337 L 435 1337 L 599 1010 L 375 1010 Z" unicode="î" />
<glyph horiz-adv-x="498" d="M 270 0 L -29 0 L 127 891 L 426 891 L 270 0 Z M 622 1010 L 370 1010 L 415 1270 L 667 1270 L 622 1010 Z M 218 1010 L -34 1010 L 11 1270 L 263 1270 L 218 1010 Z" unicode="ï" />
<glyph horiz-adv-x="989" d="M 889 616 C 889 418 840 261 744 147 C 648 32 518 -25 356 -25 C 287 -25 225 -8 169 24 C 113 57 71 102 41 160 C 11 218 -4 282 -4 352 C -4 444 16 531 56 613 C 96 695 149 759 215 807 C 280 855 348 879 420 879 C 463 879 499 871 528 856 C 557 840 579 824 594 807 C 590 900 563 998 514 1102 L 311 1020 L 236 1165 L 430 1247 C 382 1314 329 1372 272 1421 L 389 1546 C 481 1488 562 1417 633 1331 L 831 1415 L 903 1264 L 731 1192 C 782 1104 821 1010 848 908 C 875 806 889 708 889 616 Z M 599 509 C 599 612 557 664 475 664 C 418 664 371 636 334 581 C 296 526 278 457 278 374 C 278 323 288 284 309 256 C 330 228 361 215 401 215 C 461 215 509 242 545 298 C 581 353 599 423 599 509 Z" unicode="ð" />
<glyph horiz-adv-x="1075" d="M 860 0 L 559 0 L 651 506 L 655 554 C 655 584 647 609 632 631 C 617 653 591 664 553 664 C 508 664 466 643 426 601 C 386 559 360 508 350 449 L 270 0 L -29 0 L 127 891 L 428 891 L 408 776 C 497 868 592 915 692 915 C 779 915 847 892 895 846 C 943 800 967 734 967 650 C 967 621 964 591 958 559 L 860 0 Z M 923 1286 C 907 1198 877 1129 831 1080 C 785 1030 729 1006 663 1006 C 623 1006 578 1023 527 1059 C 509 1069 493 1078 478 1087 C 463 1095 448 1100 433 1100 C 417 1100 403 1092 391 1078 C 379 1063 371 1040 368 1010 L 198 1010 C 212 1100 241 1169 287 1217 C 333 1265 390 1290 458 1290 C 490 1290 535 1273 591 1239 C 608 1229 624 1219 639 1210 C 654 1200 669 1196 685 1196 C 700 1196 714 1203 727 1217 C 739 1231 747 1254 751 1286 L 923 1286 Z" unicode="ñ" />
<glyph horiz-adv-x="1022" d="M 938 537 C 938 433 914 337 866 251 C 818 164 752 96 669 48 C 586 0 496 -25 399 -25 C 279 -25 181 11 106 84 C 31 157 -6 251 -6 365 C -6 459 18 548 67 634 C 115 720 181 788 265 839 C 348 889 438 915 535 915 C 649 915 745 879 822 808 C 899 736 938 646 938 537 Z M 655 500 C 655 557 641 601 614 633 C 587 664 550 680 502 680 C 442 680 389 651 343 594 C 297 537 274 470 274 393 C 274 337 287 293 314 259 C 341 225 380 209 430 209 C 493 209 546 237 590 295 C 633 352 655 420 655 500 Z M 395 1010 L 262 1337 L 507 1337 L 618 1010 L 395 1010 Z" unicode="ò" />
<glyph horiz-adv-x="1022" d="M 938 537 C 938 433 914 337 866 251 C 818 164 752 96 669 48 C 586 0 496 -25 399 -25 C 279 -25 181 11 106 84 C 31 157 -6 251 -6 365 C -6 459 18 548 67 634 C 115 720 181 788 265 839 C 348 889 438 915 535 915 C 649 915 745 879 822 808 C 899 736 938 646 938 537 Z M 655 500 C 655 557 641 601 614 633 C 587 664 550 680 502 680 C 442 680 389 651 343 594 C 297 537 274 470 274 393 C 274 337 287 293 314 259 C 341 225 380 209 430 209 C 493 209 546 237 590 295 C 633 352 655 420 655 500 Z M 651 1010 L 413 1010 L 630 1337 L 888 1337 L 651 1010 Z" unicode="ó" />
<glyph horiz-adv-x="1022" d="M 938 537 C 938 433 914 337 866 251 C 818 164 752 96 669 48 C 586 0 496 -25 399 -25 C 279 -25 181 11 106 84 C 31 157 -6 251 -6 365 C -6 459 18 548 67 634 C 115 720 181 788 265 839 C 348 889 438 915 535 915 C 649 915 745 879 822 808 C 899 736 938 646 938 537 Z M 655 500 C 655 557 641 601 614 633 C 587 664 550 680 502 680 C 442 680 389 651 343 594 C 297 537 274 470 274 393 C 274 337 287 293 314 259 C 341 225 380 209 430 209 C 493 209 546 237 590 295 C 633 352 655 420 655 500 Z M 629 1003 L 552 1160 L 420 1003 L 191 1003 L 468 1330 L 689 1330 L 853 1003 L 629 1003 Z" unicode="ô" />
<glyph horiz-adv-x="1022" d="M 938 537 C 938 433 914 337 866 251 C 818 164 752 96 669 48 C 586 0 496 -25 399 -25 C 279 -25 181 11 106 84 C 31 157 -6 251 -6 365 C -6 459 18 548 67 634 C 115 720 181 788 265 839 C 348 889 438 915 535 915 C 649 915 745 879 822 808 C 899 736 938 646 938 537 Z M 655 500 C 655 557 641 601 614 633 C 587 664 550 680 502 680 C 442 680 389 651 343 594 C 297 537 274 470 274 393 C 274 337 287 293 314 259 C 341 225 380 209 430 209 C 493 209 546 237 590 295 C 633 352 655 420 655 500 Z M 900 1286 C 884 1198 854 1129 808 1080 C 762 1030 706 1006 640 1006 C 600 1006 555 1023 504 1059 C 486 1069 470 1078 455 1087 C 440 1095 425 1100 410 1100 C 394 1100 380 1092 368 1078 C 356 1063 348 1040 345 1010 L 175 1010 C 189 1100 218 1169 264 1217 C 310 1265 367 1290 435 1290 C 467 1290 512 1273 568 1239 C 585 1229 601 1219 616 1210 C 631 1200 646 1196 662 1196 C 677 1196 691 1203 704 1217 C 716 1231 724 1254 728 1286 L 900 1286 Z" unicode="õ" />
<glyph horiz-adv-x="1022" d="M 938 537 C 938 433 914 337 866 251 C 818 164 752 96 669 48 C 586 0 496 -25 399 -25 C 279 -25 181 11 106 84 C 31 157 -6 251 -6 365 C -6 459 18 548 67 634 C 115 720 181 788 265 839 C 348 889 438 915 535 915 C 649 915 745 879 822 808 C 899 736 938 646 938 537 Z M 655 500 C 655 557 641 601 614 633 C 587 664 550 680 502 680 C 442 680 389 651 343 594 C 297 537 274 470 274 393 C 274 337 287 293 314 259 C 341 225 380 209 430 209 C 493 209 546 237 590 295 C 633 352 655 420 655 500 Z M 849 1010 L 597 1010 L 642 1270 L 894 1270 L 849 1010 Z M 445 1010 L 193 1010 L 238 1270 L 490 1270 L 445 1010 Z" unicode="ö" />
<glyph horiz-adv-x="1536" d="M 209 684 L 209 895 L 1327 895 L 1327 684 L 209 684 Z M 768 227 C 726 227 688 243 656 275 C 624 307 608 345 608 387 C 608 431 622 469 650 501 C 678 533 717 549 768 549 C 816 549 854 533 884 501 C 913 469 928 431 928 387 C 928 345 911 307 879 275 C 847 243 810 227 768 227 Z M 768 1028 C 726 1028 688 1044 656 1076 C 624 1108 608 1145 608 1188 C 608 1230 622 1267 650 1299 C 678 1331 717 1348 768 1348 C 816 1348 854 1331 884 1299 C 913 1267 928 1230 928 1188 C 928 1145 911 1108 879 1076 C 847 1044 810 1028 768 1028 Z" unicode="÷" />
<glyph horiz-adv-x="1022" d="M 969 819 L 881 739 C 919 680 938 613 938 537 C 938 433 914 337 866 251 C 818 164 752 96 669 48 C 586 0 497 -25 401 -25 C 297 -25 209 3 135 59 L 29 -35 L -63 68 L 45 164 C 11 225 -6 292 -6 365 C -6 461 18 551 67 637 C 116 722 182 790 265 840 C 348 890 438 915 535 915 C 629 915 712 890 782 840 L 877 926 L 969 819 Z M 655 500 C 655 557 641 601 614 632 C 587 662 550 678 502 678 C 440 678 387 649 343 593 C 298 536 276 469 276 393 C 276 339 289 295 315 261 C 341 227 380 211 430 211 C 494 211 547 239 590 296 C 633 353 655 421 655 500 Z" unicode="ø" />
<glyph horiz-adv-x="1075" d="M 842 0 L 543 0 L 561 115 C 474 21 378 -25 274 -25 C 188 -25 121 -1 73 45 C 25 91 2 157 2 242 C 2 270 4 300 10 332 L 109 891 L 410 891 L 319 383 C 315 364 314 347 314 333 C 314 303 321 278 336 257 C 351 235 378 225 416 225 C 458 225 500 246 542 289 C 583 331 609 382 621 442 L 700 891 L 999 891 L 842 0 Z M 427 1010 L 294 1337 L 539 1337 L 650 1010 L 427 1010 Z" unicode="ù" />
<glyph horiz-adv-x="1075" d="M 842 0 L 543 0 L 561 115 C 474 21 378 -25 274 -25 C 188 -25 121 -1 73 45 C 25 91 2 157 2 242 C 2 270 4 300 10 332 L 109 891 L 410 891 L 319 383 C 315 364 314 347 314 333 C 314 303 321 278 336 257 C 351 235 378 225 416 225 C 458 225 500 246 542 289 C 583 331 609 382 621 442 L 700 891 L 999 891 L 842 0 Z M 633 1010 L 395 1010 L 612 1337 L 870 1337 L 633 1010 Z" unicode="ú" />
<glyph horiz-adv-x="1075" d="M 842 0 L 543 0 L 561 115 C 474 21 378 -25 274 -25 C 188 -25 121 -1 73 45 C 25 91 2 157 2 242 C 2 270 4 300 10 332 L 109 891 L 410 891 L 319 383 C 315 364 314 347 314 333 C 314 303 321 278 336 257 C 351 235 378 225 416 225 C 458 225 500 246 542 289 C 583 331 609 382 621 442 L 700 891 L 999 891 L 842 0 Z M 638 1010 L 561 1167 L 429 1010 L 200 1010 L 477 1337 L 698 1337 L 862 1010 L 638 1010 Z" unicode="û" />
<glyph horiz-adv-x="1075" d="M 842 0 L 543 0 L 561 115 C 474 21 378 -25 274 -25 C 188 -25 121 -1 73 45 C 25 91 2 157 2 242 C 2 270 4 300 10 332 L 109 891 L 410 891 L 319 383 C 315 364 314 347 314 333 C 314 303 321 278 336 257 C 351 235 378 225 416 225 C 458 225 500 246 542 289 C 583 331 609 382 621 442 L 700 891 L 999 891 L 842 0 Z M 859 1010 L 607 1010 L 652 1270 L 904 1270 L 859 1010 Z M 455 1010 L 203 1010 L 248 1270 L 500 1270 L 455 1010 Z" unicode="ü" />
<glyph horiz-adv-x="983" d="M 80 -367 C -5 -367 -61 -363 -88 -356 L -49 -125 C -32 -131 -5 -135 31 -135 C 74 -135 109 -125 137 -107 C 165 -88 189 -58 209 -18 L 31 891 L 350 891 L 426 313 L 676 891 L 995 891 L 475 -90 C 427 -180 370 -248 303 -296 C 235 -343 161 -367 80 -367 Z M 617 1010 L 379 1010 L 596 1337 L 854 1337 L 617 1010 Z" unicode="ý" />
<glyph horiz-adv-x="1102" d="M 1010 522 C 1010 434 988 348 944 263 C 900 177 842 109 769 57 C 696 5 617 -20 532 -20 C 472 -20 421 -9 381 12 C 340 33 308 58 285 88 L 205 -367 L -94 -367 L 231 1495 L 532 1495 L 408 776 C 491 866 583 911 684 911 C 780 911 859 875 919 805 C 979 734 1010 640 1010 522 Z M 719 496 C 719 556 706 601 681 632 C 655 662 619 678 573 678 C 518 678 469 651 425 598 C 381 544 352 478 340 399 L 326 317 C 338 287 359 262 389 243 C 419 224 454 215 494 215 C 553 215 605 242 651 298 C 696 354 719 420 719 496 Z" unicode="þ" />
<glyph horiz-adv-x="983" d="M 80 -367 C -5 -367 -61 -363 -88 -356 L -49 -125 C -32 -131 -5 -135 31 -135 C 74 -135 109 -125 137 -107 C 165 -88 189 -58 209 -18 L 31 891 L 350 891 L 426 313 L 676 891 L 995 891 L 475 -90 C 427 -180 370 -248 303 -296 C 235 -343 161 -367 80 -367 Z M 857 1010 L 605 1010 L 650 1270 L 902 1270 L 857 1010 Z M 453 1010 L 201 1010 L 246 1270 L 498 1270 L 453 1010 Z" unicode="ÿ" />
<glyph horiz-adv-x="498" d="M 270 0 L -29 0 L 127 891 L 426 891 L 270 0 Z" unicode="ı" />
<glyph horiz-adv-x="1055" d="M 403 266 L 918 266 L 870 0 L 41 0 L 143 580 L 61 555 L -12 776 L 188 838 L 305 1495 L 621 1495 L 522 942 L 788 1024 L 858 805 L 477 686 L 403 266 Z" unicode="Ł" />
<glyph horiz-adv-x="590" d="M 330 0 L 29 0 L 129 567 L 47 543 L -18 774 L 176 834 L 293 1495 L 594 1495 L 494 930 L 594 961 L 662 731 L 446 666 L 330 0 Z" unicode="ł" />
<glyph horiz-adv-x="2220" d="M 2179 1231 L 1649 1231 L 1585 870 L 2077 870 L 2032 606 L 1540 606 L 1479 264 L 2040 264 L 1993 0 L 1165 0 L 1194 168 C 1140 112 1071 67 987 33 C 903 -1 817 -18 731 -18 C 601 -18 484 8 382 62 C 279 116 200 191 145 289 C 90 386 63 498 63 625 C 63 791 101 943 178 1079 C 255 1215 362 1322 500 1401 C 638 1480 788 1520 952 1520 C 1044 1520 1131 1502 1214 1466 C 1297 1430 1358 1385 1397 1331 L 1425 1495 L 2226 1495 L 2179 1231 Z M 1294 858 C 1294 982 1260 1077 1194 1143 C 1128 1209 1034 1243 913 1243 C 819 1243 732 1217 653 1166 C 574 1114 511 1043 463 951 C 415 859 391 763 391 662 C 391 535 425 435 494 363 C 562 290 658 254 780 254 C 872 254 958 281 1037 335 C 1116 389 1179 463 1225 557 C 1271 651 1294 751 1294 858 Z" unicode="Œ" />
<glyph horiz-adv-x="1638" d="M 1530 549 C 1530 485 1524 433 1513 393 L 911 393 L 913 371 C 922 245 985 182 1102 182 C 1202 182 1295 215 1382 283 L 1485 123 C 1361 24 1223 -25 1069 -25 C 997 -25 932 -13 875 10 C 818 34 773 69 739 115 C 693 71 641 36 581 12 C 521 -12 461 -25 401 -25 C 281 -25 183 12 107 86 C 31 160 -6 255 -6 371 C -6 465 17 555 65 639 C 113 723 178 790 262 840 C 346 890 436 915 532 915 C 592 915 649 902 703 878 C 757 853 799 819 829 776 C 865 818 912 851 972 877 C 1032 902 1091 915 1151 915 C 1263 915 1354 881 1424 815 C 1494 748 1530 659 1530 549 Z M 1270 547 L 1272 578 C 1272 624 1260 660 1236 685 C 1212 710 1179 723 1139 723 C 1095 723 1054 707 1018 677 C 982 647 955 603 938 547 L 1270 547 Z M 655 500 C 655 557 641 601 614 632 C 587 662 550 678 502 678 C 441 678 388 649 343 593 C 298 537 276 470 276 393 C 276 339 289 295 315 261 C 341 227 380 211 430 211 C 494 211 547 238 590 294 C 633 349 655 418 655 500 Z" unicode="œ" />
<glyph horiz-adv-x="1137" d="M 942 1159 C 863 1224 777 1257 684 1257 C 619 1257 568 1241 532 1211 C 495 1181 477 1140 477 1090 C 477 1052 492 1018 524 987 C 556 955 611 920 690 881 C 800 825 879 764 927 700 C 975 635 999 561 999 477 C 999 381 974 295 926 218 C 878 141 811 81 725 39 C 639 -3 543 -25 438 -25 C 242 -25 84 29 -35 139 L 147 362 C 237 278 340 236 455 236 C 522 236 576 251 616 283 C 656 315 676 358 676 412 C 676 454 660 494 628 530 C 596 566 532 610 434 664 C 333 716 261 772 217 833 C 173 894 152 963 152 1040 C 152 1131 175 1213 223 1287 C 271 1360 338 1417 424 1458 C 510 1499 608 1520 717 1520 C 878 1520 1012 1477 1120 1393 L 942 1159 Z M 817 1614 L 596 1614 L 432 1941 L 662 1941 L 738 1786 L 869 1941 L 1096 1941 L 817 1614 Z" unicode="Š" />
<glyph horiz-adv-x="797" d="M 625 651 C 593 671 557 687 519 699 C 480 711 444 717 412 717 C 347 717 315 695 315 653 C 315 635 326 619 349 604 C 371 588 408 570 459 549 C 603 483 676 400 676 301 C 676 205 640 127 568 68 C 496 9 405 -20 295 -20 C 150 -20 31 14 -63 82 L 63 258 C 145 203 228 176 313 176 C 339 176 362 182 382 194 C 402 206 412 224 412 250 C 412 270 397 289 369 307 C 341 325 302 345 252 369 C 180 399 129 432 98 470 C 66 508 51 553 51 606 C 51 694 87 767 159 825 C 231 882 318 911 422 911 C 488 911 546 904 597 892 C 647 879 695 859 741 831 L 625 651 Z M 541 1010 L 320 1010 L 156 1337 L 386 1337 L 462 1182 L 593 1337 L 820 1337 L 541 1010 Z" unicode="š" />
<glyph horiz-adv-x="1325" d="M 684 0 L 371 0 L 483 639 L 133 1495 L 481 1495 L 694 936 L 1106 1495 L 1454 1495 L 797 639 L 684 0 Z M 1114 1614 L 862 1614 L 907 1874 L 1159 1874 L 1114 1614 Z M 710 1614 L 458 1614 L 503 1874 L 755 1874 L 710 1614 Z" unicode="Ÿ" />
<glyph horiz-adv-x="1323" d="M 449 260 L 1135 260 L 1090 0 L -88 0 L 821 1235 L 227 1235 L 274 1495 L 1362 1495 L 449 260 Z M 901 1618 L 680 1618 L 516 1945 L 746 1945 L 822 1790 L 953 1945 L 1180 1945 L 901 1618 Z" unicode="Ž" />
<glyph horiz-adv-x="942" d="M 395 229 L 786 229 L 745 0 L -111 0 L 424 659 L 76 659 L 115 891 L 932 891 L 395 229 Z M 629 1010 L 408 1010 L 244 1337 L 474 1337 L 550 1182 L 681 1337 L 908 1337 L 629 1010 Z" unicode="ž" />
<glyph horiz-adv-x="705" d="M 723 1264 C 691 1268 668 1270 655 1270 C 629 1270 609 1258 595 1234 C 581 1210 567 1168 555 1108 L 510 881 L 645 881 L 596 653 L 461 653 L 313 -45 C 268 -259 160 -367 -12 -367 C -115 -367 -174 -362 -190 -354 L -129 -113 C -111 -117 -90 -119 -66 -119 C -39 -119 -18 -106 -4 -81 C 10 -55 23 -13 35 45 L 162 653 L 61 653 L 111 881 L 211 881 L 274 1184 C 296 1289 335 1369 390 1425 C 445 1481 515 1509 600 1509 C 699 1509 760 1505 782 1497 L 723 1264 Z" unicode="ƒ" />
<glyph horiz-adv-x="1024" d="M 655 1010 L 578 1167 L 446 1010 L 217 1010 L 494 1337 L 715 1337 L 879 1010 L 655 1010 Z" unicode="ˆ" />
<glyph horiz-adv-x="1024" d="M 659 1010 L 438 1010 L 274 1337 L 504 1337 L 580 1182 L 711 1337 L 938 1337 L 659 1010 Z" unicode="ˇ" />
<glyph horiz-adv-x="1024" d="M 868 1010 L 236 1010 L 268 1190 L 899 1190 L 868 1010 Z" unicode="ˉ" />
<glyph horiz-adv-x="1024" d="M 928 1321 C 901 1222 854 1145 788 1090 C 721 1035 642 1008 551 1008 C 468 1008 403 1031 356 1077 C 309 1123 286 1188 286 1271 L 289 1321 L 461 1321 C 462 1277 473 1242 495 1217 C 516 1192 545 1180 582 1180 C 615 1180 647 1192 678 1216 C 708 1240 734 1275 754 1321 L 928 1321 Z" unicode="˘" />
<glyph horiz-adv-x="1024" d="M 676 1010 L 424 1010 L 471 1274 L 723 1274 L 676 1010 Z" unicode="˙" />
<glyph horiz-adv-x="1024" d="M 846 1264 C 846 1190 821 1129 771 1079 C 721 1029 660 1004 588 1004 C 516 1004 455 1029 405 1079 C 355 1129 330 1190 330 1264 C 330 1336 355 1397 405 1447 C 455 1497 516 1522 588 1522 C 660 1522 721 1497 771 1447 C 821 1397 846 1336 846 1264 Z M 694 1264 C 694 1294 683 1319 663 1339 C 643 1359 618 1370 588 1370 C 558 1370 532 1359 512 1339 C 491 1318 481 1293 481 1264 C 481 1235 491 1210 511 1188 C 531 1166 556 1155 588 1155 C 618 1155 644 1165 664 1187 C 684 1209 694 1234 694 1264 Z" unicode="˚" />
<glyph horiz-adv-x="1024" d="M 526 31 C 450 -17 395 -58 361 -93 C 327 -128 311 -162 311 -195 C 311 -214 317 -230 330 -243 C 342 -255 361 -262 385 -262 C 425 -262 468 -247 516 -219 L 575 -311 C 539 -336 503 -355 468 -368 C 432 -380 393 -387 350 -387 C 284 -387 229 -371 185 -340 C 141 -308 119 -267 119 -217 C 119 -175 138 -132 176 -88 C 214 -44 273 -4 352 31 L 526 31 Z" unicode="˛" />
<glyph horiz-adv-x="1024" d="M 924 1286 C 908 1198 878 1129 832 1080 C 786 1030 730 1006 664 1006 C 624 1006 579 1023 528 1059 C 510 1069 494 1078 479 1087 C 464 1095 449 1100 434 1100 C 418 1100 404 1092 392 1078 C 380 1063 372 1040 369 1010 L 199 1010 C 213 1100 242 1169 288 1217 C 334 1265 391 1290 459 1290 C 491 1290 536 1273 592 1239 C 609 1229 625 1219 640 1210 C 655 1200 670 1196 686 1196 C 701 1196 715 1203 728 1217 C 740 1231 748 1254 752 1286 L 924 1286 Z" unicode="˜" />
<glyph horiz-adv-x="1024" d="M 766 1010 L 524 1010 L 743 1337 L 985 1337 L 766 1010 Z M 424 1010 L 182 1010 L 399 1337 L 645 1337 L 424 1010 Z" unicode="˝" />
<glyph horiz-adv-x="1536" d="M 76 0 L 651 1536 L 885 1536 L 1456 0 L 76 0 Z M 352 147 L 1163 147 L 752 1255 L 352 147 Z" unicode="Δ" />
<glyph horiz-adv-x="1663" d="M 831 1376 C 705 1376 598 1328 510 1234 C 421 1139 377 1006 377 836 C 377 673 406 538 465 432 C 523 325 610 241 725 180 L 725 0 L 88 0 L 88 197 L 537 197 C 456 225 378 295 304 405 C 230 515 193 663 193 848 C 193 1024 248 1184 358 1330 C 468 1475 626 1548 831 1548 C 1037 1548 1196 1478 1307 1338 C 1417 1198 1473 1034 1473 848 C 1473 663 1435 515 1360 405 C 1284 295 1207 225 1128 197 L 1577 197 L 1577 0 L 940 0 L 940 180 C 1054 241 1141 325 1200 432 C 1258 538 1288 673 1288 836 C 1288 974 1246 1099 1162 1210 C 1078 1320 967 1376 831 1376 Z" unicode="Ω" />
<glyph horiz-adv-x="1407" d="M 252 -424 C 215 -424 187 -413 168 -392 C 148 -370 139 -333 139 -281 C 139 -168 144 -41 156 100 C 166 234 172 310 172 328 L 176 356 L 176 1176 L 369 1176 L 369 319 C 369 257 396 210 450 176 C 504 142 564 125 629 125 C 716 125 792 146 858 190 C 923 234 973 297 1008 381 L 1008 1176 L 1200 1176 L 1200 307 L 1221 0 L 1057 0 L 1020 176 C 974 104 913 49 836 13 C 759 -22 671 -41 571 -41 C 537 -41 494 -32 444 -14 C 394 3 354 27 324 59 C 324 0 333 -57 352 -113 C 371 -169 381 -219 381 -264 C 381 -370 338 -424 252 -424 Z" unicode="μ" />
<glyph horiz-adv-x="1407" d="M 297 0 L 297 1028 L 12 1028 L 12 1176 L 1317 1176 L 1317 1028 L 995 1028 L 995 344 C 995 266 1010 212 1041 183 C 1071 153 1108 139 1151 139 C 1183 139 1210 139 1232 141 C 1253 142 1274 147 1296 156 L 1296 29 C 1263 12 1233 0 1205 -6 C 1177 -12 1137 -16 1087 -16 C 1003 -16 936 10 886 63 C 836 116 811 207 811 336 L 811 1028 L 483 1028 L 483 0 L 297 0 Z" unicode="π" />
<glyph horiz-adv-x="1024" d="" unicode=" " />
<glyph horiz-adv-x="2048" d="" unicode=" " />
<glyph horiz-adv-x="410" d="" unicode=" " />
<glyph horiz-adv-x="995" d="M 850 369 L 12 369 L 57 629 L 897 629 L 850 369 Z" unicode="–" />
<glyph horiz-adv-x="1548" d="M 1405 369 L 12 369 L 59 629 L 1452 629 L 1405 369 Z" unicode="—" />
<glyph horiz-adv-x="489" d="M 565 1446 C 545 1419 525 1384 507 1342 C 488 1299 475 1256 467 1212 L 418 936 L 104 936 L 139 1133 C 151 1197 182 1265 231 1335 C 279 1405 336 1464 401 1513 L 565 1446 Z" unicode="‘" />
<glyph horiz-adv-x="489" d="M 252 920 L 86 985 C 136 1053 170 1131 186 1221 L 236 1495 L 547 1495 L 514 1300 C 501 1233 470 1165 422 1096 C 373 1026 316 968 252 920 Z" unicode="’" />
<glyph horiz-adv-x="489" d="M 104 -250 L -72 -182 C -54 -155 -38 -121 -22 -80 C -6 -38 4 5 8 51 L 33 326 L 344 326 L 332 131 C 324 58 300 -12 258 -80 C 216 -148 164 -204 104 -250 Z" unicode="‚" />
<glyph horiz-adv-x="909" d="M 985 1446 C 965 1419 945 1384 927 1342 C 908 1299 895 1256 887 1212 L 838 936 L 524 936 L 559 1133 C 571 1197 602 1265 651 1335 C 699 1405 756 1464 821 1513 L 985 1446 Z M 565 1446 C 545 1419 525 1384 507 1342 C 488 1299 475 1256 467 1212 L 418 936 L 104 936 L 139 1133 C 151 1197 182 1265 231 1335 C 279 1405 336 1464 401 1513 L 565 1446 Z" unicode="“" />
<glyph horiz-adv-x="909" d="M 672 920 L 508 985 C 558 1053 592 1131 608 1221 L 657 1495 L 969 1495 L 934 1300 C 922 1236 892 1168 844 1098 C 796 1028 738 968 672 920 Z M 252 920 L 86 985 C 136 1053 170 1131 186 1221 L 236 1495 L 547 1495 L 514 1300 C 501 1233 470 1165 422 1096 C 373 1026 316 968 252 920 Z" unicode="”" />
<glyph horiz-adv-x="909" d="M 526 -250 L 348 -182 C 371 -146 390 -108 404 -66 C 418 -24 426 14 430 51 L 455 326 L 766 326 L 754 131 C 746 58 722 -12 680 -80 C 638 -148 586 -204 526 -250 Z M 104 -250 L -72 -182 C -54 -155 -38 -121 -22 -80 C -6 -38 4 5 8 51 L 33 326 L 344 326 L 332 131 C 324 58 300 -12 258 -80 C 216 -148 164 -204 104 -250 Z" unicode="„" />
<glyph horiz-adv-x="1106" d="M 1059 721 L 698 721 L 627 324 L 471 -367 L 233 -367 L 322 324 L 393 721 L 35 721 L 80 987 L 438 987 L 528 1495 L 834 1495 L 743 987 L 1104 987 L 1059 721 Z" unicode="†" />
<glyph horiz-adv-x="1106" d="M 999 406 L 954 139 L 596 139 L 506 -369 L 201 -369 L 291 139 L -70 139 L -25 406 L 336 406 L 393 721 L 35 721 L 80 987 L 438 987 L 528 1495 L 834 1495 L 743 987 L 1104 987 L 1059 721 L 698 721 L 641 406 L 999 406 Z" unicode="‡" />
<glyph horiz-adv-x="936" d="M 809 776 C 809 681 776 601 710 535 C 644 469 563 436 469 436 C 407 436 350 451 297 481 C 244 511 202 553 172 605 C 142 657 127 714 127 776 C 127 871 160 952 226 1018 C 292 1084 373 1118 469 1118 C 564 1118 644 1084 710 1018 C 776 951 809 870 809 776 Z" unicode="•" />
<glyph horiz-adv-x="1442" d="M 1210 0 L 918 0 L 971 295 L 1264 295 L 1210 0 Z M 735 0 L 442 0 L 496 295 L 788 295 L 735 0 Z M 260 0 L -33 0 L 20 295 L 313 295 L 260 0 Z" unicode="…" />
<glyph horiz-adv-x="2306" d="M 760 1206 C 760 1119 742 1039 708 966 C 674 892 628 835 570 793 C 512 751 451 729 385 729 C 298 729 228 757 176 814 C 124 871 98 950 98 1051 C 98 1131 115 1208 149 1282 C 183 1355 229 1413 287 1456 C 345 1498 406 1520 471 1520 C 560 1520 630 1491 682 1435 C 734 1378 760 1302 760 1206 Z M 332 0 L 82 0 L 1262 1495 L 1511 1495 L 332 0 Z M 2218 451 C 2218 365 2201 285 2167 212 C 2133 138 2087 81 2029 39 C 1971 -2 1909 -23 1843 -25 C 1755 -25 1685 4 1633 62 C 1581 120 1556 199 1556 297 C 1556 377 1573 453 1607 526 C 1641 599 1687 657 1745 700 C 1803 742 1863 764 1927 764 C 2015 764 2086 736 2139 681 C 2191 625 2218 549 2218 451 Z M 1493 451 C 1493 365 1476 285 1443 212 C 1409 138 1364 81 1306 39 C 1248 -3 1186 -24 1120 -25 C 1032 -25 961 3 909 61 C 857 119 831 197 831 297 C 831 377 847 453 881 525 C 915 597 961 654 1019 698 C 1077 742 1139 764 1204 764 C 1292 764 1363 736 1415 681 C 1467 626 1493 549 1493 451 Z M 551 1190 C 551 1243 542 1283 526 1310 C 510 1336 487 1350 459 1350 C 418 1350 382 1320 351 1260 C 320 1200 305 1134 305 1061 C 305 953 335 899 395 899 C 438 899 475 927 505 985 C 535 1042 551 1110 551 1190 Z M 2009 434 C 2009 488 2000 528 1984 554 C 1968 580 1945 594 1917 594 C 1875 594 1838 564 1807 506 C 1776 448 1761 381 1761 305 C 1761 253 1768 213 1784 185 C 1800 157 1823 143 1853 143 C 1896 143 1933 171 1963 229 C 1993 286 2009 354 2009 434 Z M 1284 434 C 1284 540 1254 594 1194 594 C 1152 594 1115 564 1084 506 C 1053 448 1038 381 1038 305 C 1038 253 1045 213 1061 185 C 1077 157 1100 143 1130 143 C 1174 143 1211 172 1240 231 C 1269 290 1284 358 1284 434 Z" unicode="‰" />
<glyph horiz-adv-x="489" d="M 195 446 L 336 340 L 289 80 L -8 319 L 39 573 L 418 813 L 373 553 L 195 446 Z" unicode="‹" />
<glyph horiz-adv-x="489" d="M -23 80 L 23 340 L 201 446 L 61 553 L 106 813 L 406 573 L 360 319 L -23 80 Z" unicode="›" />
<glyph horiz-adv-x="883" d="M 70 0 L -246 0 L 813 1495 L 1128 1495 L 70 0 Z" unicode="⁄" />
<glyph horiz-adv-x="1339" d="M 1094 1069 C 1066 1135 1035 1181 1001 1207 C 966 1233 925 1247 879 1247 C 805 1247 740 1215 685 1153 C 630 1091 590 1004 565 893 L 928 893 L 913 801 L 545 801 C 536 753 531 720 530 700 L 899 700 L 885 608 L 520 608 L 520 567 L 520 556 C 520 460 537 384 573 330 C 608 275 658 248 723 248 C 775 248 823 261 869 289 C 914 317 963 366 1016 436 L 1227 291 C 1151 181 1071 101 986 51 C 901 0 801 -25 686 -25 C 526 -25 405 24 322 123 C 238 222 197 366 197 555 L 197 581 L 199 608 L 14 608 L 29 700 L 207 700 L 221 801 L 45 801 L 59 893 L 242 893 C 292 1089 375 1242 492 1353 C 609 1464 747 1520 905 1520 C 1019 1520 1114 1493 1192 1441 C 1270 1389 1327 1312 1364 1210 L 1094 1069 Z" unicode="€" />
<glyph horiz-adv-x="1729" d="M 1636 748 C 1636 609 1601 480 1533 362 C 1464 243 1370 149 1252 79 C 1133 9 1004 -25 864 -25 C 724 -25 594 9 476 79 C 358 149 264 243 195 361 C 126 479 92 608 92 748 C 92 887 126 1016 195 1134 C 264 1252 358 1346 476 1416 C 594 1485 724 1520 864 1520 C 1003 1520 1132 1485 1250 1416 C 1368 1347 1462 1253 1532 1135 C 1601 1017 1636 888 1636 748 Z M 1516 745 C 1516 864 1487 975 1429 1077 C 1371 1179 1291 1260 1191 1318 C 1091 1376 982 1405 864 1405 C 746 1405 636 1375 536 1317 C 436 1259 357 1179 299 1077 C 241 975 213 865 213 745 C 213 626 241 516 298 415 C 355 313 434 233 535 175 C 635 117 745 88 864 88 C 980 88 1089 116 1190 173 C 1291 230 1371 310 1429 413 C 1487 515 1516 626 1516 745 Z M 1231 915 C 1231 831 1202 762 1146 708 C 1090 654 1019 627 934 627 L 797 627 L 797 299 L 596 299 L 596 1196 L 922 1196 C 1014 1196 1089 1170 1146 1120 C 1202 1069 1231 1001 1231 915 Z M 1036 918 C 1036 995 989 1034 895 1034 L 795 1034 L 795 793 L 899 793 C 990 793 1036 834 1036 918 Z" unicode="℗" />
<glyph horiz-adv-x="1737" d="M 1483 598 L 1483 1180 L 1255 840 L 1169 840 L 938 1174 L 938 598 L 743 598 L 743 1495 L 930 1495 L 1212 1090 L 1483 1495 L 1683 1495 L 1683 598 L 1483 598 Z M 449 1331 L 449 598 L 254 598 L 254 1331 L 76 1331 L 76 1495 L 631 1495 L 631 1331 L 449 1331 Z" unicode="™" />
<glyph horiz-adv-x="1663" d="M 831 1376 C 705 1376 598 1328 510 1234 C 421 1139 377 1006 377 836 C 377 673 406 538 465 432 C 523 325 610 241 725 180 L 725 0 L 88 0 L 88 197 L 537 197 C 456 225 378 295 304 405 C 230 515 193 663 193 848 C 193 1024 248 1184 358 1330 C 468 1475 626 1548 831 1548 C 1037 1548 1196 1478 1307 1338 C 1417 1198 1473 1034 1473 848 C 1473 663 1435 515 1360 405 C 1284 295 1207 225 1128 197 L 1577 197 L 1577 0 L 940 0 L 940 180 C 1054 241 1141 325 1200 432 C 1258 538 1288 673 1288 836 C 1288 974 1246 1099 1162 1210 C 1078 1320 967 1376 831 1376 Z" unicode="Ω" />
<glyph horiz-adv-x="1280" d="M 475 -33 C 342 -33 239 4 165 80 C 91 155 55 248 55 360 C 55 506 108 636 214 750 C 320 863 450 920 604 920 C 668 920 733 908 801 886 C 869 863 923 839 965 815 C 973 871 977 927 977 983 C 977 1108 954 1206 908 1277 C 862 1348 800 1384 721 1384 C 635 1384 567 1374 518 1355 C 468 1336 419 1311 369 1280 L 324 1444 C 374 1474 429 1498 491 1518 C 553 1538 629 1548 721 1548 C 877 1548 991 1496 1063 1393 C 1135 1290 1171 1149 1171 969 C 1171 691 1103 455 967 260 C 831 64 667 -33 475 -33 Z M 487 127 C 717 127 870 312 944 684 C 922 706 881 727 823 748 C 764 769 705 780 647 780 C 520 780 424 738 360 654 C 296 570 264 476 264 373 C 264 300 282 241 318 195 C 354 149 411 127 487 127 Z" unicode="∂" />
<glyph horiz-adv-x="1536" d="M 76 0 L 651 1536 L 885 1536 L 1456 0 L 76 0 Z M 352 147 L 1163 147 L 752 1255 L 352 147 Z" unicode="∆" />
<glyph horiz-adv-x="1536" d="M 332 0 L 332 1348 L 80 1348 L 80 1524 L 1456 1524 L 1456 1348 L 1212 1348 L 1212 0 L 1004 0 L 1004 1356 L 541 1356 L 541 0 L 332 0 Z" unicode="∏" />
<glyph horiz-adv-x="1151" d="M 1083 1524 L 1083 1343 L 332 1343 L 797 784 L 303 188 L 1079 188 L 1079 0 L 41 0 L 41 172 L 559 788 L 68 1380 L 68 1524 L 1083 1524 Z" unicode="∑" />
<glyph horiz-adv-x="1178" d="M 86 745 L 1112 745 L 1069 500 L 43 500 L 86 745 Z" unicode="−" />
<glyph horiz-adv-x="883" d="M 70 0 L -246 0 L 813 1495 L 1128 1495 L 70 0 Z" unicode="∕" />
<glyph horiz-adv-x="489" d="M 49 518 L 104 838 L 418 838 L 360 518 L 49 518 Z" unicode="∙" />
<glyph horiz-adv-x="1145" d="M 506 0 L 225 0 L 18 748 L 317 748 L 391 463 C 395 433 404 396 418 354 L 436 396 L 954 1495 L 1251 1495 L 506 0 Z" unicode="√" />
<glyph horiz-adv-x="1536" d="M 1071 395 C 999 395 938 410 889 441 C 839 472 799 522 768 590 C 727 528 679 480 624 446 C 568 412 507 395 440 395 C 336 395 253 432 190 508 C 127 583 96 683 96 809 C 96 925 133 1022 207 1100 C 281 1178 369 1217 469 1217 C 541 1217 603 1202 655 1172 C 707 1142 749 1095 782 1031 C 852 1155 958 1217 1100 1217 C 1198 1217 1279 1182 1345 1112 C 1411 1042 1444 945 1444 819 C 1444 699 1409 598 1340 517 C 1271 435 1181 395 1071 395 Z M 1071 555 C 1127 555 1175 578 1217 625 C 1259 672 1280 735 1280 815 C 1280 881 1264 939 1234 988 C 1203 1036 1151 1061 1079 1061 C 1024 1061 980 1042 946 1005 C 912 968 880 901 850 803 C 858 701 882 634 924 602 C 966 570 1015 555 1071 555 Z M 471 1049 C 408 1049 356 1026 316 982 C 276 937 256 874 256 793 C 256 709 271 648 302 610 C 332 572 381 553 449 553 C 505 553 554 572 596 612 C 638 652 673 716 701 806 C 675 893 644 955 606 993 C 568 1030 523 1049 471 1049 Z" unicode="∞" />
<glyph horiz-adv-x="1151" d="M -8 -391 L 55 -260 C 71 -265 87 -270 103 -274 C 119 -278 139 -281 164 -281 C 196 -281 222 -269 242 -247 C 262 -224 277 -179 289 -113 L 516 1225 C 554 1437 676 1544 881 1544 C 981 1544 1071 1521 1151 1477 L 1087 1305 C 1058 1322 1025 1339 988 1355 C 950 1371 910 1380 868 1380 C 806 1380 760 1360 730 1322 C 699 1283 680 1238 672 1188 L 449 -223 C 435 -295 402 -348 350 -382 C 298 -415 240 -432 176 -432 C 136 -432 100 -428 66 -420 C 32 -412 8 -402 -8 -391 Z" unicode="∫" />
<glyph horiz-adv-x="1536" d="M 236 399 C 230 429 227 455 227 479 C 227 546 247 604 287 652 C 327 700 390 725 475 725 C 541 725 600 715 650 696 C 700 677 746 659 788 642 C 830 624 872 610 912 598 C 952 586 988 580 1020 580 C 1112 580 1159 614 1159 684 L 1155 717 L 1300 717 C 1306 687 1309 660 1309 637 C 1309 570 1288 512 1248 464 C 1208 415 1145 391 1061 391 C 994 391 936 399 886 417 C 836 435 789 452 747 470 C 705 487 663 501 623 512 C 583 522 547 528 516 528 C 465 528 429 518 408 499 C 387 480 377 458 377 432 L 381 399 L 236 399 Z M 236 860 C 230 888 227 915 227 940 C 227 1006 247 1064 287 1112 C 327 1160 390 1184 475 1184 C 541 1184 600 1174 650 1156 C 700 1137 746 1119 788 1101 C 830 1083 872 1069 912 1057 C 952 1045 988 1040 1020 1040 C 1070 1040 1106 1050 1127 1070 C 1148 1090 1159 1115 1159 1145 L 1155 1176 L 1300 1176 C 1306 1147 1309 1120 1309 1096 C 1309 1028 1288 971 1248 923 C 1208 875 1145 852 1061 852 C 994 852 936 860 886 877 C 836 894 789 911 747 929 C 705 947 663 961 623 971 C 583 981 547 987 516 987 C 465 987 429 977 408 959 C 387 941 377 919 377 893 L 381 860 L 236 860 Z" unicode="≈" />
<glyph horiz-adv-x="1536" d="M 213 977 L 213 1176 L 899 1176 L 995 1356 L 1167 1356 L 1072 1176 L 1327 1176 L 1327 977 L 967 977 L 769 604 L 1327 604 L 1327 403 L 663 403 L 549 188 L 373 188 L 487 403 L 213 403 L 213 604 L 594 604 L 793 977 L 213 977 Z" unicode="≠" />
<glyph horiz-adv-x="1536" d="M 1348 236 L 209 709 L 209 872 L 1348 1343 L 1348 1128 L 449 793 L 1348 453 L 1348 236 Z M 213 25 L 213 215 L 1348 215 L 1348 25 L 213 25 Z" unicode="≤" />
<glyph horiz-adv-x="1536" d="M 213 236 L 213 453 L 1112 793 L 213 1128 L 213 1343 L 1352 872 L 1352 709 L 213 236 Z M 213 25 L 213 215 L 1348 215 L 1348 25 L 213 25 Z" unicode="≥" />
<glyph horiz-adv-x="1151" d="M 471 -47 L 68 756 L 471 1561 L 655 1561 L 1083 756 L 655 -47 L 471 -47 Z M 555 152 L 877 768 L 571 1356 L 252 739 L 555 152 Z" unicode="◊" />
<glyph horiz-adv-x="1495" d="M 492 1245 L 492 1495 L 1004 1495 L 1004 1245 L 492 1245 Z M 1245 492 L 1245 1004 L 1495 1004 L 1495 492 L 1245 492 Z M 492 492 L 492 1004 L 1004 1004 L 1004 492 L 492 492 Z M 0 492 L 0 1004 L 250 1004 L 250 492 L 0 492 Z M 492 0 L 492 250 L 1004 250 L 1004 0 L 492 0 Z" unicode="" />
<glyph horiz-adv-x="1198" d="M 1260 1262 C 1246 1267 1225 1270 1198 1270 C 1166 1270 1141 1256 1125 1229 C 1109 1202 1095 1160 1085 1104 L 1047 891 L 1194 891 L 1155 664 L 1008 664 L 827 -367 L 530 -367 L 711 664 L 416 664 L 236 -367 L -61 -367 L 119 664 L 18 664 L 57 891 L 158 891 L 211 1186 C 229 1285 265 1362 319 1417 C 373 1471 442 1499 524 1499 C 562 1499 602 1497 642 1495 C 682 1493 705 1490 713 1487 L 668 1262 C 650 1267 629 1270 606 1270 C 574 1270 549 1256 533 1229 C 517 1202 504 1160 494 1104 L 455 891 L 750 891 L 803 1186 C 821 1285 857 1362 911 1417 C 965 1471 1034 1499 1116 1499 C 1154 1499 1194 1497 1234 1495 C 1274 1493 1297 1490 1305 1487 L 1260 1262 Z" unicode="ﬀ" />
<glyph horiz-adv-x="1104" d="M 1065 1059 L 762 1059 L 813 1341 L 1114 1341 L 1065 1059 Z M 668 1262 C 650 1267 629 1270 606 1270 C 574 1270 549 1256 533 1229 C 517 1202 504 1160 494 1104 L 455 891 L 602 891 L 563 664 L 416 664 L 236 -367 L -61 -367 L 119 664 L 18 664 L 57 891 L 158 891 L 211 1186 C 229 1285 265 1362 319 1417 C 373 1471 442 1499 524 1499 C 562 1499 602 1497 642 1495 C 682 1493 705 1490 713 1487 L 668 1262 Z M 877 0 L 578 0 L 733 891 L 1034 891 L 877 0 Z" unicode="ﬁ" />
<glyph horiz-adv-x="1104" d="M 877 0 L 578 0 L 842 1495 L 1141 1495 L 877 0 Z M 668 1262 C 650 1267 629 1270 606 1270 C 574 1270 549 1256 533 1229 C 517 1202 504 1160 494 1104 L 455 891 L 602 891 L 563 664 L 416 664 L 236 -367 L -61 -367 L 119 664 L 18 664 L 57 891 L 158 891 L 211 1186 C 229 1285 265 1362 319 1417 C 373 1471 442 1499 524 1499 C 562 1499 602 1497 642 1495 C 682 1493 705 1490 713 1487 L 668 1262 Z" unicode="ﬂ" />
<glyph horiz-adv-x="1698" d="M 1657 1059 L 1356 1059 L 1405 1341 L 1708 1341 L 1657 1059 Z M 1260 1262 C 1246 1267 1225 1270 1198 1270 C 1166 1270 1141 1256 1125 1229 C 1109 1202 1095 1160 1085 1104 L 1047 891 L 1194 891 L 1155 664 L 1008 664 L 827 -367 L 530 -367 L 711 664 L 416 664 L 236 -367 L -61 -367 L 119 664 L 18 664 L 57 891 L 158 891 L 211 1186 C 229 1285 265 1362 319 1417 C 373 1471 442 1499 524 1499 C 562 1499 602 1497 642 1495 C 682 1493 705 1490 713 1487 L 668 1262 C 650 1267 629 1270 606 1270 C 574 1270 549 1256 533 1229 C 517 1202 504 1160 494 1104 L 455 891 L 750 891 L 803 1186 C 821 1285 857 1362 911 1417 C 965 1471 1034 1499 1116 1499 C 1154 1499 1194 1497 1234 1495 C 1274 1493 1297 1490 1305 1487 L 1260 1262 Z M 1468 0 L 1169 0 L 1327 891 L 1626 891 L 1468 0 Z" unicode="ﬃ" />
<glyph horiz-adv-x="1696" d="M 1468 0 L 1169 0 L 1434 1495 L 1733 1495 L 1468 0 Z M 1260 1262 C 1246 1267 1225 1270 1198 1270 C 1166 1270 1141 1256 1125 1229 C 1109 1202 1095 1160 1085 1104 L 1047 891 L 1194 891 L 1155 664 L 1008 664 L 827 -367 L 530 -367 L 711 664 L 416 664 L 236 -367 L -61 -367 L 119 664 L 18 664 L 57 891 L 158 891 L 211 1186 C 229 1285 265 1362 319 1417 C 373 1471 442 1499 524 1499 C 562 1499 602 1497 642 1495 C 682 1493 705 1490 713 1487 L 668 1262 C 650 1267 629 1270 606 1270 C 574 1270 549 1256 533 1229 C 517 1202 504 1160 494 1104 L 455 891 L 750 891 L 803 1186 C 821 1285 857 1362 911 1417 C 965 1471 1034 1499 1116 1499 C 1154 1499 1194 1497 1234 1495 C 1274 1493 1297 1490 1305 1487 L 1260 1262 Z" unicode="ﬄ" />
</font>
</defs>
</svg>
