<?xml version="1.0" encoding="utf-8" ?><svg version="1.1" xmlns = 'http://www.w3.org/2000/svg'><defs><font id='web' horiz-adv-x="1000">
<font-face font-family="web" descent="-389" cap-height="1495" units-per-em="2048" bbox="-223,-432,2324,1898" x-height="836" ascent="1638" />
<missing-glyph horiz-adv-x="1024" d="" /><glyph horiz-adv-x="358" d="" unicode=" " />
<glyph horiz-adv-x="410" d="M 164 289 L 80 289 L 129 739 L 262 1495 L 406 1495 L 272 739 L 164 289 Z M 143 0 L -2 0 L 33 197 L 176 197 L 143 0 Z" unicode="!" />
<glyph horiz-adv-x="629" d="M 543 1096 L 465 1096 L 471 1298 L 506 1495 L 645 1495 L 608 1298 L 543 1096 Z M 281 1096 L 201 1096 L 207 1298 L 242 1495 L 381 1495 L 344 1298 L 281 1096 Z" unicode="&#x22;" />
<glyph horiz-adv-x="1229" d="M 1182 946 L 961 946 L 868 555 L 1124 555 L 1110 446 L 844 446 L 739 0 L 610 0 L 713 446 L 377 446 L 272 0 L 141 0 L 246 446 L 33 446 L 47 555 L 270 555 L 362 946 L 104 946 L 119 1055 L 387 1055 L 489 1495 L 618 1495 L 516 1055 L 854 1055 L 956 1495 L 1085 1495 L 983 1055 L 1196 1055 L 1182 946 Z M 492 946 L 399 555 L 737 555 L 831 946 L 492 946 Z" unicode="#" />
<glyph horiz-adv-x="995" d="M 883 1241 C 825 1310 749 1351 655 1364 L 563 821 C 657 759 721 710 756 674 C 791 638 817 600 835 559 C 853 517 862 472 862 422 C 862 300 820 201 738 125 C 656 48 548 6 416 0 L 391 -150 L 287 -150 L 313 0 C 247 7 184 24 125 52 C 66 79 16 114 -25 156 L 72 260 C 104 226 143 197 189 174 C 235 151 284 137 336 131 L 444 735 C 366 785 310 827 274 862 C 238 897 211 934 192 973 C 173 1012 164 1055 164 1102 C 164 1214 202 1305 278 1377 C 354 1448 453 1487 575 1495 L 596 1610 L 700 1610 L 678 1495 C 804 1483 905 1433 983 1346 L 883 1241 Z M 553 1364 C 475 1356 414 1331 369 1288 C 323 1245 301 1189 301 1120 C 301 1074 315 1032 343 994 C 371 956 413 919 469 881 L 553 1364 Z M 721 393 C 721 448 708 496 682 538 C 656 579 607 625 537 676 L 438 131 C 524 138 592 165 644 212 C 695 258 721 319 721 393 Z" unicode="$" />
<glyph horiz-adv-x="1487" d="M 737 1229 C 737 1143 720 1063 688 989 C 655 914 612 855 558 812 C 504 769 447 748 387 748 C 311 748 252 773 208 824 C 164 875 143 948 143 1042 C 143 1125 159 1204 191 1278 C 223 1352 266 1410 321 1454 C 375 1498 432 1520 492 1520 C 570 1520 631 1494 673 1442 C 715 1390 737 1319 737 1229 Z M 215 0 L 68 0 L 1270 1495 L 1417 1495 L 215 0 Z M 1339 457 C 1339 372 1323 292 1291 218 C 1259 143 1216 84 1162 40 C 1108 -3 1051 -25 991 -25 C 913 -25 853 1 810 54 C 766 106 745 178 745 270 C 745 353 761 432 794 506 C 826 580 870 638 925 682 C 979 726 1036 748 1096 748 C 1173 748 1233 722 1275 670 C 1317 618 1339 547 1339 457 Z M 612 1212 C 612 1274 600 1323 578 1359 C 555 1395 523 1413 481 1413 C 443 1413 408 1397 375 1365 C 342 1333 316 1290 296 1234 C 276 1178 266 1117 266 1053 C 266 990 277 941 301 906 C 324 871 357 854 399 854 C 457 854 507 889 549 960 C 591 1030 612 1114 612 1212 Z M 1214 440 C 1214 502 1202 551 1180 587 C 1157 623 1125 641 1083 641 C 1045 641 1010 625 977 593 C 944 561 918 518 898 462 C 878 406 868 345 868 281 C 868 218 880 169 904 134 C 928 99 960 82 1001 82 C 1060 82 1110 117 1152 188 C 1193 259 1214 343 1214 440 Z" unicode="%" />
<glyph horiz-adv-x="1268" d="M 1133 414 C 1065 343 1005 286 954 242 L 1120 0 L 950 0 L 844 156 C 683 35 527 -25 377 -25 C 272 -25 186 6 118 68 C 50 130 16 211 16 309 C 16 401 46 488 106 570 C 166 652 265 733 401 813 C 349 885 313 946 292 996 C 270 1046 260 1099 260 1155 C 260 1220 277 1280 312 1336 C 346 1392 393 1436 453 1470 C 512 1503 575 1520 641 1520 C 730 1520 802 1494 858 1442 C 914 1390 942 1325 942 1245 C 942 1165 915 1089 861 1017 C 807 945 714 868 582 786 L 885 342 C 925 378 980 432 1049 506 L 1133 414 Z M 807 1229 C 807 1284 790 1326 756 1356 C 722 1386 678 1401 623 1401 C 564 1401 512 1377 467 1331 C 421 1285 399 1229 399 1163 C 399 1089 427 1012 483 932 L 516 883 C 619 942 693 1000 739 1057 C 784 1113 807 1171 807 1229 Z M 465 715 C 365 656 290 596 238 534 C 186 472 160 406 160 336 C 160 266 182 209 226 165 C 270 121 328 100 399 100 C 463 100 526 113 588 141 C 650 168 713 206 778 256 L 465 715 Z" unicode="&#x26;" />
<glyph horiz-adv-x="365" d="M 279 1096 L 199 1096 L 205 1298 L 240 1495 L 379 1495 L 342 1298 L 279 1096 Z" unicode="'" />
<glyph horiz-adv-x="612" d="M 176 369 C 176 243 194 124 231 14 C 267 -96 321 -195 393 -281 L 375 -385 C 267 -293 184 -179 125 -44 C 66 90 37 233 37 383 C 37 538 63 689 116 835 C 169 981 248 1118 352 1244 C 456 1370 579 1475 719 1561 L 700 1454 C 598 1379 507 1283 427 1167 C 347 1051 285 924 241 786 C 197 648 176 509 176 369 Z" unicode="(" />
<glyph horiz-adv-x="612" d="M 526 793 C 526 637 499 485 445 338 C 391 191 312 55 208 -69 C 103 -193 -18 -298 -156 -383 L -137 -279 C -35 -203 55 -106 136 10 C 216 126 278 253 322 390 C 365 527 387 667 387 809 C 387 1062 314 1278 170 1456 L 188 1561 C 296 1468 379 1354 438 1220 C 496 1085 526 943 526 793 Z" unicode=")" />
<glyph horiz-adv-x="805" d="M 770 1075 L 530 1149 L 526 897 L 438 897 L 436 1149 L 195 1075 L 164 1159 L 401 1243 L 260 1448 L 330 1501 L 481 1300 L 633 1499 L 707 1450 L 561 1241 L 799 1159 L 770 1075 Z" unicode="*" />
<glyph horiz-adv-x="983" d="M 885 614 L 526 614 L 463 256 L 332 256 L 393 614 L 37 614 L 59 739 L 418 739 L 479 1100 L 612 1100 L 549 739 L 907 739 L 885 614 Z" unicode="+" />
<glyph horiz-adv-x="362" d="M -59 -301 L -147 -301 C -89 -233 -49 -138 -27 -16 L 12 197 L 156 197 L 127 31 C 103 -101 41 -212 -59 -301 Z" unicode="," />
<glyph horiz-adv-x="649" d="M 475 387 L 43 387 L 63 512 L 496 512 L 475 387 Z" unicode="-" />
<glyph horiz-adv-x="362" d="M 119 0 L -23 0 L 12 197 L 156 197 L 119 0 Z" unicode="." />
<glyph horiz-adv-x="770" d="M 59 0 L -72 0 L 711 1495 L 842 1495 L 59 0 Z" unicode="/" />
<glyph horiz-adv-x="1204" d="M 1153 967 C 1153 789 1124 623 1066 468 C 1008 312 929 191 829 105 C 728 18 615 -25 489 -25 C 351 -25 245 24 171 123 C 96 222 59 363 59 545 C 59 723 88 887 146 1039 C 204 1190 283 1308 384 1393 C 484 1477 596 1520 719 1520 C 858 1520 965 1471 1040 1375 C 1115 1279 1153 1143 1153 967 Z M 1004 946 C 1004 1091 978 1201 927 1277 C 875 1353 799 1391 698 1391 C 608 1391 525 1353 450 1277 C 375 1201 316 1099 273 971 C 230 842 209 705 209 559 C 209 255 310 104 514 104 C 603 104 685 140 759 213 C 833 286 892 389 937 521 C 981 653 1004 795 1004 946 Z" unicode="0" />
<glyph horiz-adv-x="578" d="M 301 0 L 164 0 L 385 1255 C 354 1224 312 1196 260 1172 C 207 1147 153 1131 98 1124 L 121 1249 C 181 1257 243 1283 308 1329 C 372 1374 424 1429 463 1495 L 565 1495 L 301 0 Z" unicode="1" />
<glyph horiz-adv-x="1079" d="M 1034 1155 C 1034 1079 1016 1008 982 941 C 948 874 887 796 799 707 L 238 133 L 885 133 L 860 0 L -66 0 L 698 784 C 760 846 807 905 840 963 C 872 1021 889 1081 889 1143 C 889 1217 864 1276 816 1321 C 768 1366 704 1389 625 1389 C 449 1389 335 1287 283 1085 L 139 1085 C 170 1221 230 1327 319 1404 C 408 1481 516 1520 643 1520 C 759 1520 853 1486 925 1420 C 997 1353 1034 1265 1034 1155 Z" unicode="2" />
<glyph horiz-adv-x="1128" d="M 1065 1204 C 1065 1110 1039 1028 987 956 C 935 884 864 832 772 799 C 841 777 895 738 935 683 C 975 627 995 563 995 489 C 995 394 971 307 923 228 C 875 149 808 87 722 42 C 636 -2 538 -25 428 -25 C 322 -25 229 -7 147 29 C 65 65 -1 116 -53 184 L 49 283 C 145 161 276 100 442 100 C 562 100 660 135 737 206 C 813 276 852 367 852 479 C 852 560 823 624 766 671 C 709 717 628 741 522 741 L 391 741 L 414 864 L 551 864 C 661 864 750 892 820 948 C 889 1004 924 1077 924 1169 C 924 1237 900 1291 854 1331 C 807 1371 741 1391 655 1391 C 517 1391 397 1330 295 1208 L 190 1278 C 320 1438 482 1518 678 1518 C 796 1518 890 1488 960 1430 C 1030 1372 1065 1296 1065 1204 Z" unicode="3" />
<glyph horiz-adv-x="1110" d="M 1018 379 L 793 379 L 725 0 L 590 0 L 655 379 L -12 379 L 4 479 L 889 1495 L 989 1495 L 813 502 L 1040 502 L 1018 379 Z M 180 502 L 678 502 L 807 1237 L 180 502 Z" unicode="4" />
<glyph horiz-adv-x="1163" d="M 1079 1370 L 442 1370 L 332 915 C 420 987 518 1024 627 1024 C 707 1024 779 1006 843 972 C 907 938 956 889 990 827 C 1024 764 1042 693 1042 614 C 1042 494 1015 384 961 286 C 907 187 834 110 740 56 C 646 2 544 -25 434 -25 C 343 -25 258 -5 178 32 C 98 70 32 120 -18 182 L 78 285 C 178 165 304 106 457 106 C 536 106 609 126 676 168 C 743 210 796 268 836 343 C 875 418 895 500 895 590 C 895 680 867 754 813 812 C 759 870 686 899 594 899 C 524 899 461 881 405 847 C 348 812 300 767 260 711 L 150 729 L 336 1495 L 1102 1495 L 1079 1370 Z" unicode="5" />
<glyph horiz-adv-x="1133" d="M 1032 565 C 1032 458 1006 359 956 268 C 905 177 836 105 748 53 C 660 1 565 -25 463 -25 C 333 -25 229 13 150 91 C 70 168 31 273 31 406 C 31 558 85 726 194 911 C 302 1096 460 1291 666 1495 L 836 1495 C 726 1397 619 1284 515 1156 C 410 1028 337 924 297 844 C 390 928 503 971 635 971 C 711 971 780 954 840 921 C 900 888 947 840 981 778 C 1015 715 1032 644 1032 565 Z M 891 543 C 891 640 865 715 813 769 C 761 823 689 850 596 850 C 522 850 452 830 386 791 C 320 751 268 698 230 630 C 191 562 172 488 172 410 C 172 314 200 239 257 185 C 313 131 391 104 489 104 C 561 104 628 123 690 163 C 752 202 801 256 837 324 C 873 392 891 465 891 543 Z" unicode="6" />
<glyph horiz-adv-x="1036" d="M 164 0 L 8 0 L 881 1368 L 190 1368 L 215 1495 L 1112 1495 L 164 0 Z" unicode="7" />
<glyph horiz-adv-x="1217" d="M 1143 1180 C 1143 1119 1130 1062 1106 1010 C 1081 958 1047 912 1004 874 C 961 835 913 806 860 786 C 931 760 987 718 1027 661 C 1067 604 1087 539 1087 465 C 1087 372 1061 288 1011 214 C 961 139 891 81 801 39 C 711 -2 612 -23 504 -23 C 358 -23 242 11 154 81 C 66 150 23 242 23 358 C 23 426 38 491 70 553 C 102 615 145 668 201 712 C 257 756 317 785 383 801 C 333 826 293 862 263 909 C 232 955 217 1011 217 1075 C 217 1155 240 1230 286 1300 C 332 1369 394 1423 474 1462 C 554 1500 641 1520 735 1520 C 855 1520 953 1488 1029 1425 C 1105 1361 1143 1280 1143 1180 Z M 997 1165 C 997 1237 972 1294 923 1334 C 874 1374 803 1395 711 1395 C 610 1395 526 1365 460 1306 C 393 1246 360 1171 360 1081 C 360 1008 384 950 434 908 C 484 865 555 844 649 844 C 751 844 835 874 900 934 C 964 994 997 1071 997 1165 Z M 942 455 C 942 538 910 603 847 650 C 784 697 697 721 587 721 C 508 721 437 706 373 676 C 309 646 259 605 223 552 C 187 499 170 440 170 375 C 170 290 201 224 264 176 C 327 128 412 104 520 104 C 645 104 747 136 825 202 C 903 267 942 351 942 455 Z" unicode="8" />
<glyph horiz-adv-x="1137" d="M 1100 1092 C 1100 933 1045 759 935 569 C 825 379 660 177 440 -37 L 338 51 C 420 121 507 211 601 321 C 694 431 765 526 813 608 C 725 530 620 492 496 492 C 374 492 275 531 201 611 C 127 691 90 797 90 930 C 90 1033 116 1131 169 1223 C 221 1315 292 1387 381 1439 C 469 1491 564 1518 664 1518 C 796 1518 901 1479 981 1403 C 1060 1326 1100 1222 1100 1092 Z M 950 1075 C 950 1175 923 1252 871 1308 C 819 1363 742 1391 641 1391 C 567 1391 500 1371 438 1332 C 376 1292 328 1238 292 1168 C 256 1098 238 1024 238 946 C 238 842 263 761 315 704 C 367 646 441 618 537 618 C 614 618 684 637 748 677 C 811 716 860 771 896 841 C 932 911 950 989 950 1075 Z" unicode="9" />
<glyph horiz-adv-x="362" d="M 236 666 L 94 666 L 129 862 L 272 862 L 236 666 Z M 119 0 L -23 0 L 12 197 L 156 197 L 119 0 Z" unicode=":" />
<glyph horiz-adv-x="362" d="M 236 666 L 94 666 L 129 862 L 272 862 L 236 666 Z M -59 -301 L -147 -301 C -89 -233 -49 -138 -27 -16 L 12 197 L 156 197 L 127 31 C 103 -101 41 -212 -59 -301 Z" unicode=";" />
<glyph horiz-adv-x="725" d="M 178 664 L 559 356 L 535 209 L 49 606 L 70 723 L 694 1116 L 666 958 L 178 664 Z" unicode="&#x3C;" />
<glyph horiz-adv-x="987" d="M 868 795 L 137 795 L 160 920 L 889 920 L 868 795 Z M 807 444 L 76 444 L 98 569 L 827 569 L 807 444 Z" unicode="=" />
<glyph horiz-adv-x="725" d="M -4 209 L 25 367 L 512 662 L 129 969 L 156 1116 L 641 719 L 621 602 L -4 209 Z" unicode="&#x3E;" />
<glyph horiz-adv-x="899" d="M 889 1206 C 889 1155 881 1108 866 1065 C 851 1021 828 977 796 931 C 764 885 704 815 616 721 C 560 659 515 599 481 539 C 447 479 424 413 412 340 L 403 295 L 268 295 L 276 340 C 290 422 315 498 352 568 C 389 638 447 715 526 799 C 609 888 666 960 697 1014 C 727 1068 743 1122 743 1178 C 743 1244 723 1297 683 1335 C 643 1373 590 1393 524 1393 C 413 1393 314 1341 227 1237 L 145 1329 C 253 1456 385 1520 541 1520 C 644 1520 728 1491 792 1434 C 856 1376 889 1300 889 1206 Z M 356 0 L 213 0 L 248 197 L 391 197 L 356 0 Z" unicode="?" />
<glyph horiz-adv-x="1729" d="M 1636 809 C 1636 712 1620 627 1588 554 C 1556 481 1514 424 1460 384 C 1406 344 1348 324 1288 324 C 1238 324 1199 334 1171 356 C 1142 377 1123 405 1114 440 C 1070 402 1020 374 965 354 C 910 334 853 324 795 324 C 703 324 629 348 573 398 C 517 448 489 513 489 594 C 489 686 526 758 602 810 C 678 862 784 889 922 889 L 1106 889 L 1106 926 C 1106 986 1088 1031 1054 1061 C 1019 1091 961 1106 879 1106 C 777 1106 691 1087 621 1051 L 575 1141 C 652 1185 750 1208 868 1208 C 982 1208 1069 1186 1127 1143 C 1185 1099 1214 1030 1214 934 L 1214 498 C 1214 466 1222 443 1238 431 C 1254 418 1277 412 1309 412 C 1349 412 1387 428 1425 462 C 1462 496 1491 542 1513 602 C 1535 661 1546 729 1546 805 C 1546 919 1517 1024 1459 1120 C 1401 1216 1319 1292 1215 1347 C 1110 1402 993 1430 864 1430 C 741 1430 627 1399 521 1338 C 415 1276 332 1193 271 1087 C 210 981 180 867 180 745 C 180 625 210 512 272 406 C 333 300 416 216 522 154 C 628 92 742 61 864 61 C 960 61 1051 81 1139 123 L 1176 43 C 1074 -2 970 -25 864 -25 C 724 -25 594 9 476 79 C 358 149 264 243 195 361 C 126 479 92 608 92 748 C 92 887 126 1016 195 1134 C 264 1252 358 1346 476 1416 C 594 1485 724 1520 864 1520 C 1007 1520 1138 1489 1256 1429 C 1374 1368 1466 1282 1534 1172 C 1602 1061 1636 940 1636 809 Z M 1104 791 L 926 791 C 716 791 612 726 612 598 C 612 548 629 507 663 476 C 697 445 749 430 819 430 C 865 430 914 440 966 461 C 1018 481 1064 510 1104 547 L 1104 791 Z" unicode="@" />
<glyph horiz-adv-x="1317" d="M 973 0 L 877 532 L 365 532 L 76 0 L -72 0 L 748 1509 L 836 1509 L 1124 0 L 973 0 Z M 750 1268 L 434 662 L 854 662 L 750 1268 Z" unicode="A" />
<glyph horiz-adv-x="1141" d="M 1022 1171 C 1022 1081 995 1001 943 929 C 890 857 820 805 733 774 C 815 756 881 718 930 662 C 979 606 1004 537 1004 457 C 1004 369 980 291 933 221 C 885 151 819 96 734 58 C 649 19 554 0 449 0 L 18 0 L 283 1495 L 631 1495 C 754 1495 850 1466 919 1409 C 987 1351 1022 1272 1022 1171 Z M 877 1147 C 877 1217 853 1272 807 1310 C 760 1348 689 1368 594 1368 L 399 1368 L 303 825 L 500 825 C 573 825 638 838 695 866 C 752 894 797 932 829 982 C 861 1032 877 1087 877 1147 Z M 858 449 C 858 525 828 586 770 631 C 711 675 630 698 528 698 L 281 698 L 182 127 L 463 127 C 584 127 680 155 751 213 C 822 271 858 349 858 449 Z" unicode="B" />
<glyph horiz-adv-x="1442" d="M 1311 1194 C 1217 1322 1082 1386 905 1386 C 787 1386 675 1351 571 1283 C 467 1215 383 1121 321 1003 C 258 885 227 763 227 637 C 227 533 247 440 288 360 C 329 280 388 218 464 174 C 540 130 629 109 729 109 C 811 109 889 125 961 157 C 1033 189 1108 241 1186 313 L 1274 223 C 1194 143 1105 81 1007 39 C 909 -3 807 -25 700 -25 C 582 -25 476 2 381 56 C 286 110 212 187 159 285 C 106 383 80 492 80 614 C 80 775 119 925 197 1065 C 275 1205 382 1315 516 1397 C 650 1479 791 1520 938 1520 C 1044 1520 1139 1499 1223 1458 C 1306 1416 1375 1357 1430 1280 L 1311 1194 Z" unicode="C" />
<glyph horiz-adv-x="1348" d="M 1272 899 C 1272 724 1232 569 1153 433 C 1074 297 963 191 820 115 C 677 38 520 0 348 0 L 18 0 L 283 1495 L 602 1495 C 736 1495 854 1471 956 1423 C 1057 1375 1135 1306 1190 1216 C 1244 1126 1272 1020 1272 899 Z M 1124 864 C 1124 1029 1077 1155 985 1241 C 893 1327 759 1370 584 1370 L 401 1370 L 182 125 L 354 125 C 500 125 632 157 751 222 C 869 286 961 375 1026 488 C 1091 600 1124 726 1124 864 Z" unicode="D" />
<glyph horiz-adv-x="1065" d="M 1034 1368 L 399 1368 L 303 827 L 895 827 L 872 700 L 281 700 L 180 127 L 854 127 L 831 0 L 18 0 L 283 1495 L 1057 1495 L 1034 1368 Z" unicode="E" />
<glyph horiz-adv-x="920" d="M 940 1368 L 399 1368 L 303 823 L 801 823 L 778 694 L 281 694 L 158 0 L 18 0 L 283 1495 L 963 1495 L 940 1368 Z" unicode="F" />
<glyph horiz-adv-x="1610" d="M 1524 633 C 1498 508 1447 395 1369 294 C 1291 192 1196 114 1082 58 C 968 2 849 -25 723 -25 C 599 -25 488 1 390 55 C 292 108 215 183 161 281 C 107 378 80 488 80 610 C 80 774 118 925 195 1064 C 271 1203 379 1314 519 1396 C 658 1478 809 1520 973 1520 C 1079 1520 1177 1499 1266 1458 C 1354 1417 1429 1360 1489 1286 L 1382 1186 C 1325 1258 1261 1310 1190 1340 C 1119 1370 1034 1386 936 1386 C 810 1386 693 1352 585 1285 C 477 1217 390 1126 325 1010 C 259 894 227 770 227 639 C 227 475 273 346 367 251 C 461 156 588 109 748 109 C 878 109 997 145 1105 217 C 1212 289 1290 384 1339 504 L 842 504 L 864 633 L 1524 633 Z" unicode="G" />
<glyph horiz-adv-x="1348" d="M 1065 0 L 926 0 L 1049 700 L 281 700 L 158 0 L 18 0 L 283 1495 L 422 1495 L 305 829 L 1071 829 L 1190 1495 L 1329 1495 L 1065 0 Z" unicode="H" />
<glyph horiz-adv-x="442" d="M 158 0 L 18 0 L 283 1495 L 422 1495 L 158 0 Z" unicode="I" />
<glyph horiz-adv-x="705" d="M 47 -18 L 22 -18 C -26 -18 -60 -15 -78 -10 L -57 115 C -47 112 -15 111 39 111 L 63 111 C 141 111 205 137 256 191 C 307 245 342 322 360 424 L 551 1495 L 690 1495 L 500 416 C 475 277 423 170 344 95 C 265 19 166 -18 47 -18 Z" unicode="J" />
<glyph horiz-adv-x="1171" d="M 489 850 L 1001 0 L 842 0 L 389 756 L 272 647 L 158 0 L 18 0 L 283 1495 L 422 1495 L 305 838 L 1008 1495 L 1190 1495 L 489 850 Z" unicode="K" />
<glyph horiz-adv-x="956" d="M 774 0 L 18 0 L 283 1495 L 422 1495 L 180 127 L 797 127 L 774 0 Z" unicode="L" />
<glyph horiz-adv-x="1640" d="M 1358 0 L 1219 0 L 1444 1278 L 817 532 L 748 532 L 381 1268 L 158 0 L 18 0 L 283 1495 L 420 1495 L 809 709 L 1470 1495 L 1622 1495 L 1358 0 Z" unicode="M" />
<glyph horiz-adv-x="1454" d="M 1169 0 L 1040 0 L 381 1266 L 158 0 L 18 0 L 283 1495 L 422 1495 L 1073 242 L 1294 1495 L 1434 1495 L 1169 0 Z" unicode="N" />
<glyph horiz-adv-x="1655" d="M 1575 887 C 1575 727 1536 577 1458 437 C 1380 297 1274 185 1140 101 C 1005 17 864 -25 717 -25 C 595 -25 485 1 388 55 C 291 109 215 184 161 281 C 107 378 80 487 80 608 C 80 772 119 925 198 1065 C 276 1205 383 1316 518 1398 C 653 1479 796 1520 946 1520 C 1068 1520 1177 1493 1273 1439 C 1369 1385 1443 1309 1496 1212 C 1548 1114 1575 1006 1575 887 Z M 1430 862 C 1430 1020 1383 1147 1291 1243 C 1199 1338 1074 1386 918 1386 C 798 1386 685 1352 579 1286 C 473 1220 387 1128 323 1010 C 259 892 227 769 227 639 C 227 477 273 348 365 252 C 457 156 582 109 739 109 C 858 109 971 143 1078 212 C 1185 280 1270 373 1334 491 C 1398 609 1430 732 1430 862 Z" unicode="O" />
<glyph horiz-adv-x="1079" d="M 1069 1130 C 1069 1034 1044 948 995 870 C 946 792 879 731 793 688 C 707 644 611 623 506 623 L 268 623 L 158 0 L 18 0 L 283 1495 L 625 1495 C 763 1495 872 1462 951 1397 C 1029 1332 1069 1243 1069 1130 Z M 924 1112 C 924 1192 896 1254 841 1300 C 785 1345 698 1368 580 1368 L 399 1368 L 291 752 L 524 752 C 644 752 740 785 814 852 C 887 918 924 1005 924 1112 Z" unicode="P" />
<glyph horiz-adv-x="1655" d="M 1575 887 C 1575 741 1543 603 1480 475 C 1416 347 1329 240 1217 156 C 1268 117 1320 94 1374 86 L 1251 -27 C 1191 -5 1138 28 1090 72 C 974 7 849 -25 717 -25 C 595 -25 485 1 388 55 C 291 109 215 184 161 281 C 107 378 80 487 80 608 C 80 772 119 923 197 1063 C 275 1202 381 1313 517 1395 C 652 1477 795 1518 946 1518 C 1068 1518 1177 1490 1273 1436 C 1369 1382 1443 1306 1496 1210 C 1548 1113 1575 1005 1575 887 Z M 1430 862 C 1430 1020 1383 1147 1291 1242 C 1199 1336 1074 1384 918 1384 C 794 1384 680 1350 575 1282 C 469 1214 385 1123 322 1007 C 258 891 227 768 227 639 C 227 477 273 348 365 252 C 457 156 582 109 739 109 C 834 109 922 129 1004 170 C 971 211 946 255 928 303 L 1036 381 C 1055 335 1084 290 1122 246 C 1216 315 1290 405 1346 516 C 1402 626 1430 742 1430 862 Z" unicode="Q" />
<glyph horiz-adv-x="1139" d="M 1083 1133 C 1083 1038 1060 953 1015 879 C 969 804 906 746 824 705 C 742 663 650 643 549 643 L 492 643 L 938 0 L 770 0 L 283 705 L 158 0 L 18 0 L 283 1495 L 641 1495 C 731 1495 810 1480 877 1450 C 943 1420 994 1377 1030 1323 C 1065 1268 1083 1205 1083 1133 Z M 936 1110 C 936 1194 907 1258 850 1302 C 792 1346 709 1368 600 1368 L 399 1368 L 291 754 L 541 754 C 660 754 756 787 828 853 C 900 919 936 1004 936 1110 Z" unicode="R" />
<glyph horiz-adv-x="1010" d="M 881 1264 C 843 1308 802 1340 760 1360 C 718 1379 669 1389 614 1389 C 528 1389 457 1364 403 1315 C 349 1265 322 1202 322 1124 C 322 1074 340 1026 376 980 C 412 934 476 882 567 823 C 649 769 708 723 745 685 C 782 647 810 605 829 561 C 848 517 858 468 858 416 C 858 334 836 260 792 192 C 748 124 689 70 613 32 C 537 -5 455 -25 367 -25 C 215 -25 88 27 -14 133 L 82 238 C 167 150 265 106 377 106 C 472 106 551 131 614 183 C 677 234 709 302 709 387 C 709 429 700 468 683 504 C 665 540 639 574 605 608 C 571 641 514 684 434 737 C 339 797 272 857 232 916 C 192 975 172 1040 172 1110 C 172 1186 192 1255 232 1319 C 272 1382 327 1431 397 1467 C 467 1502 544 1520 629 1520 C 705 1520 771 1507 827 1482 C 883 1457 933 1419 979 1368 L 881 1264 Z" unicode="S" />
<glyph horiz-adv-x="958" d="M 1006 1368 L 653 1368 L 412 0 L 272 0 L 514 1368 L 166 1368 L 188 1495 L 1028 1495 L 1006 1368 Z" unicode="T" />
<glyph horiz-adv-x="1382" d="M 578 -25 C 484 -25 401 -5 328 34 C 255 74 199 130 160 204 C 121 277 102 359 102 450 C 102 493 106 539 115 588 L 274 1495 L 414 1495 L 254 588 C 246 545 243 505 243 468 C 243 357 274 269 338 204 C 401 138 487 106 596 106 C 713 106 815 148 901 233 C 987 318 1043 434 1069 582 L 1231 1495 L 1368 1495 L 1206 571 C 1174 392 1101 248 987 139 C 873 29 736 -25 578 -25 Z" unicode="U" />
<glyph horiz-adv-x="1286" d="M 535 -33 L 477 -33 L 184 1495 L 324 1495 L 559 248 L 1229 1495 L 1368 1495 L 535 -33 Z" unicode="V" />
<glyph horiz-adv-x="1831" d="M 1212 0 L 1114 0 L 989 1196 L 440 0 L 342 0 L 184 1495 L 324 1495 L 451 295 L 999 1495 L 1092 1495 L 1217 301 L 1765 1495 L 1905 1495 L 1212 0 Z" unicode="W" />
<glyph horiz-adv-x="1368" d="M 768 803 L 1171 0 L 1012 0 L 668 684 L 90 0 L -76 0 L 608 809 L 264 1495 L 426 1495 L 711 928 L 1188 1495 L 1356 1495 L 768 803 Z" unicode="X" />
<glyph horiz-adv-x="1253" d="M 559 0 L 420 0 L 545 707 L 166 1495 L 319 1495 L 637 838 L 1182 1495 L 1350 1495 L 684 705 L 559 0 Z" unicode="Y" />
<glyph horiz-adv-x="1266" d="M 199 127 L 1047 127 L 1026 0 L -63 0 L 1028 1368 L 287 1368 L 309 1495 L 1290 1495 L 199 127 Z" unicode="Z" />
<glyph horiz-adv-x="578" d="M 614 1370 L 397 1370 L 113 -242 L 330 -242 L 307 -367 L -45 -367 L 283 1495 L 637 1495 L 614 1370 Z" unicode="[" />
<glyph horiz-adv-x="750" d="M 438 0 L 178 1495 L 309 1495 L 567 0 L 438 0 Z" unicode="\" />
<glyph horiz-adv-x="578" d="M 221 -367 L -133 -367 L -111 -242 L 104 -242 L 389 1370 L 174 1370 L 197 1495 L 549 1495 L 221 -367 Z" unicode="]" />
<glyph horiz-adv-x="971" d="M 745 756 L 588 1352 L 219 756 L 66 756 L 545 1495 L 682 1495 L 901 756 L 745 756 Z" unicode="^" />
<glyph horiz-adv-x="1024" d="M -160 -236 L -154 -129 L 879 -129 L 870 -236 L -160 -236 Z" unicode="_" />
<glyph horiz-adv-x="958" d="M 500 999 L 340 1288 L 477 1288 L 633 999 L 500 999 Z" unicode="`" />
<glyph horiz-adv-x="887" d="M 647 0 L 516 0 L 532 94 C 436 14 335 -25 231 -25 C 154 -25 92 -4 46 38 C 0 80 -23 135 -23 205 C -23 307 20 389 106 451 C 192 513 308 545 453 545 L 612 545 C 619 573 623 597 623 618 C 623 656 611 686 588 710 C 565 733 519 745 449 745 C 351 745 263 726 186 690 L 156 793 C 241 837 343 860 461 860 C 656 860 754 785 754 636 C 754 616 752 594 748 571 L 647 0 Z M 440 436 C 340 436 260 416 201 378 C 142 340 113 289 113 225 C 113 179 126 145 153 123 C 180 101 216 90 260 90 C 306 90 355 102 409 128 C 463 154 511 187 555 227 L 592 436 L 440 436 Z" unicode="a" />
<glyph horiz-adv-x="987" d="M 870 494 C 870 408 849 325 809 245 C 769 164 712 99 640 49 C 568 0 491 -25 410 -25 C 354 -25 302 -13 256 9 C 209 32 170 67 139 113 L 119 0 L -10 0 L 252 1493 L 383 1493 L 242 686 C 277 739 323 781 379 813 C 435 844 493 860 553 860 C 645 860 721 826 781 758 C 840 690 870 602 870 494 Z M 735 485 C 735 567 716 631 678 675 C 640 719 588 741 520 741 C 444 741 375 708 311 644 C 247 579 208 501 193 410 L 166 260 C 187 212 219 172 261 142 C 303 111 355 96 418 96 C 505 96 580 133 642 209 C 704 284 735 376 735 485 Z" unicode="b" />
<glyph horiz-adv-x="850" d="M 680 633 C 648 672 615 700 580 716 C 544 732 504 741 459 741 C 401 741 346 723 296 688 C 246 652 206 605 177 546 C 147 486 133 424 133 360 C 133 283 153 220 195 170 C 237 120 291 96 358 96 C 412 96 461 107 504 129 C 546 151 587 183 627 225 L 707 145 C 605 31 484 -25 344 -25 C 280 -25 221 -9 168 22 C 114 54 73 98 43 156 C 13 213 -2 277 -2 348 C -2 433 19 516 62 597 C 104 677 162 741 234 789 C 306 836 385 860 469 860 C 533 860 589 849 639 829 C 688 809 733 773 774 723 L 680 633 Z" unicode="c" />
<glyph horiz-adv-x="987" d="M 733 -2 L 602 -2 L 629 150 C 591 94 544 50 488 19 C 432 -11 375 -27 315 -27 C 223 -27 147 6 88 74 C 29 141 0 230 0 340 C 0 429 21 514 63 595 C 105 675 162 739 234 787 C 305 834 381 858 461 858 C 517 858 568 846 616 822 C 664 798 702 765 731 721 L 866 1495 L 995 1495 L 733 -2 Z M 705 573 C 683 621 651 661 609 692 C 567 723 514 739 451 739 C 393 739 340 721 292 687 C 243 652 205 604 177 544 C 149 483 135 418 135 348 C 135 267 153 204 189 160 C 225 116 279 94 350 94 C 426 94 496 126 559 190 C 622 254 662 332 678 424 L 705 573 Z" unicode="d" />
<glyph horiz-adv-x="903" d="M 788 528 C 788 474 784 435 778 412 L 129 412 L 127 389 L 127 365 C 127 279 149 212 193 164 C 237 116 299 92 379 92 C 433 92 483 102 531 122 C 579 142 621 169 657 201 L 729 117 C 681 71 626 35 562 11 C 498 -12 432 -25 365 -25 C 252 -25 163 8 97 76 C 31 143 -2 235 -2 352 C -2 442 18 527 59 606 C 99 685 155 747 226 792 C 297 837 375 860 461 860 C 525 860 581 845 631 816 C 681 787 719 747 747 697 C 774 646 788 590 788 528 Z M 659 512 L 659 520 C 659 591 640 646 603 686 C 565 725 513 745 446 745 C 378 745 317 723 264 681 C 211 639 174 582 152 512 L 659 512 Z" unicode="e" />
<glyph horiz-adv-x="461" d="M 545 1374 C 533 1378 509 1380 473 1380 C 444 1380 420 1368 402 1345 C 384 1321 369 1281 358 1223 L 291 836 L 446 836 L 426 717 L 270 717 L 80 -367 L -51 -367 L 139 717 L 14 717 L 35 836 L 162 836 L 236 1264 C 249 1338 276 1396 316 1436 C 356 1476 407 1497 467 1497 C 519 1497 553 1494 569 1489 L 545 1374 Z" unicode="f" />
<glyph horiz-adv-x="987" d="M 283 -389 C 147 -389 37 -344 -49 -256 L 33 -170 C 103 -240 191 -276 295 -276 C 378 -276 446 -251 500 -202 C 554 -153 588 -84 604 6 L 631 150 C 593 96 546 53 490 22 C 434 -9 376 -25 317 -25 C 225 -25 149 9 89 77 C 29 145 0 234 0 342 C 0 430 21 515 64 596 C 106 676 163 740 234 788 C 304 836 380 860 461 860 C 517 860 569 848 617 824 C 664 800 702 766 731 721 L 752 836 L 883 836 L 739 25 C 717 -105 665 -206 585 -279 C 505 -352 404 -389 283 -389 Z M 705 573 C 684 623 653 663 611 693 C 569 723 517 739 453 739 C 365 739 290 701 228 625 C 166 549 135 458 135 350 C 135 267 153 204 191 160 C 229 116 282 94 350 94 C 426 94 495 126 559 190 C 623 254 663 332 680 424 L 705 573 Z" unicode="g" />
<glyph horiz-adv-x="932" d="M 692 0 L 561 0 L 653 514 C 657 536 659 556 659 576 C 659 619 647 658 623 692 C 599 726 556 743 496 743 C 429 743 366 714 308 658 C 250 602 214 537 201 463 L 119 0 L -10 0 L 252 1495 L 383 1495 L 244 705 C 284 755 330 794 381 820 C 432 846 484 860 537 860 C 617 860 679 837 724 792 C 769 746 792 685 792 607 C 792 581 789 554 784 526 L 692 0 Z" unicode="h" />
<glyph horiz-adv-x="371" d="M 303 1049 L 172 1049 L 207 1245 L 338 1245 L 303 1049 Z M 119 0 L -12 0 L 135 836 L 266 836 L 119 0 Z" unicode="i" />
<glyph horiz-adv-x="371" d="M 303 1049 L 172 1049 L 207 1245 L 338 1245 L 303 1049 Z M -121 -377 C -163 -377 -197 -372 -223 -362 L -209 -252 C -191 -258 -167 -262 -137 -262 C -110 -262 -88 -252 -72 -232 C -55 -212 -43 -179 -35 -133 L 135 836 L 266 836 L 88 -176 C 76 -237 52 -286 15 -322 C -22 -358 -67 -377 -121 -377 Z" unicode="j" />
<glyph horiz-adv-x="864" d="M 389 483 L 707 0 L 547 0 L 289 397 L 170 301 L 119 0 L -12 0 L 252 1495 L 383 1495 L 201 467 L 631 836 L 813 836 L 389 483 Z" unicode="k" />
<glyph horiz-adv-x="371" d="M 119 0 L -12 0 L 252 1495 L 383 1495 L 119 0 Z" unicode="l" />
<glyph horiz-adv-x="1430" d="M 1190 0 L 1059 0 L 1151 514 C 1155 541 1158 566 1158 589 C 1158 625 1149 660 1133 693 C 1117 726 1078 743 1018 743 C 953 743 893 715 838 659 C 783 603 749 537 737 463 L 655 0 L 524 0 L 616 514 C 620 541 623 566 623 589 C 623 626 614 661 597 694 C 580 726 541 743 481 743 C 416 743 356 715 302 659 C 247 603 213 538 201 463 L 119 0 L -10 0 L 137 836 L 266 836 L 244 705 C 324 808 416 860 522 860 C 646 860 720 802 745 686 C 790 743 840 786 894 816 C 948 845 1003 860 1057 860 C 1132 860 1190 839 1231 797 C 1272 755 1293 695 1293 619 C 1293 590 1290 559 1284 526 L 1190 0 Z" unicode="m" />
<glyph horiz-adv-x="932" d="M 692 0 L 561 0 L 653 514 C 657 536 659 556 659 576 C 659 619 647 658 623 692 C 599 726 556 743 496 743 C 429 743 366 714 308 658 C 250 602 214 537 201 463 L 119 0 L -10 0 L 137 836 L 266 836 L 244 705 C 284 755 330 794 381 820 C 432 846 484 860 537 860 C 617 860 679 837 724 792 C 769 746 792 685 792 607 C 792 581 789 554 784 526 L 692 0 Z" unicode="n" />
<glyph horiz-adv-x="965" d="M 854 500 C 854 403 832 314 789 233 C 746 152 687 89 612 43 C 537 -2 455 -25 367 -25 C 298 -25 236 -9 180 21 C 124 52 80 96 48 152 C 16 208 0 271 0 340 C 0 430 21 516 65 597 C 109 678 168 742 244 789 C 320 836 401 860 489 860 C 593 860 680 825 750 757 C 819 689 854 603 854 500 Z M 719 479 C 719 558 696 621 652 668 C 608 715 548 739 473 739 C 413 739 356 721 304 687 C 251 653 210 606 180 548 C 150 490 135 426 135 358 C 135 278 157 214 202 167 C 247 119 307 96 383 96 C 445 96 503 113 555 148 C 607 182 647 229 676 288 C 704 347 719 411 719 479 Z" unicode="o" />
<glyph horiz-adv-x="987" d="M 870 494 C 870 408 849 325 809 245 C 769 164 712 99 640 49 C 568 0 491 -25 410 -25 C 354 -25 302 -13 256 9 C 209 32 170 67 139 113 L 53 -367 L -76 -367 L 137 836 L 266 836 L 242 686 C 277 739 323 781 379 813 C 435 844 493 860 553 860 C 645 860 721 826 781 758 C 840 690 870 602 870 494 Z M 735 485 C 735 567 716 631 678 675 C 640 719 588 741 520 741 C 444 741 375 708 311 644 C 247 579 208 501 193 410 L 166 260 C 187 212 219 172 261 142 C 303 111 355 96 418 96 C 505 96 580 133 642 209 C 704 284 735 376 735 485 Z" unicode="p" />
<glyph horiz-adv-x="987" d="M 670 -367 L 539 -367 L 631 150 C 593 96 546 53 490 22 C 434 -9 376 -25 317 -25 C 225 -25 149 9 89 77 C 29 145 0 234 0 342 C 0 430 21 515 64 596 C 106 676 163 740 234 788 C 304 836 380 860 461 860 C 517 860 569 848 617 824 C 664 800 702 766 731 721 L 752 836 L 883 836 L 670 -367 Z M 705 573 C 684 623 653 663 611 693 C 569 723 517 739 453 739 C 365 739 290 701 228 625 C 166 549 135 458 135 350 C 135 267 153 204 191 160 C 229 116 282 94 350 94 C 426 94 495 126 559 190 C 623 254 663 332 680 424 L 705 573 Z" unicode="q" />
<glyph horiz-adv-x="633" d="M 553 707 C 525 728 493 739 457 739 C 405 739 352 710 299 653 C 245 596 213 532 201 461 L 119 0 L -10 0 L 137 836 L 266 836 L 246 711 C 277 757 315 794 360 820 C 404 846 448 860 492 860 C 548 860 592 845 625 817 L 553 707 Z" unicode="r" />
<glyph horiz-adv-x="717" d="M 547 672 C 486 722 420 748 348 748 C 303 748 267 736 239 714 C 211 692 197 663 197 629 C 197 599 210 573 238 551 C 265 529 304 506 354 483 C 429 447 482 410 513 373 C 543 335 559 292 559 242 C 559 192 545 147 517 108 C 489 68 451 37 403 15 C 354 -6 303 -18 250 -18 C 138 -18 41 15 -39 82 L 39 178 C 113 120 184 92 254 92 C 306 92 348 104 380 129 C 412 153 428 185 428 223 C 428 255 415 283 389 309 C 363 334 314 363 242 397 C 176 429 131 463 105 497 C 79 531 66 570 66 614 C 66 660 79 701 105 738 C 131 775 167 804 213 825 C 258 845 307 856 360 856 C 468 856 556 826 623 768 L 547 672 Z" unicode="s" />
<glyph horiz-adv-x="502" d="M 424 717 L 264 717 L 182 252 L 178 215 C 178 191 184 168 196 148 C 208 127 235 117 276 117 L 287 117 L 330 119 L 272 0 L 252 0 C 176 0 123 18 91 54 C 59 90 44 134 44 185 C 44 206 46 229 51 254 L 133 717 L 18 717 L 41 836 L 154 836 L 211 1155 L 354 1227 L 285 836 L 444 836 L 424 717 Z" unicode="t" />
<glyph horiz-adv-x="932" d="M 674 0 L 543 0 L 565 131 C 529 82 484 44 432 16 C 380 -11 327 -25 274 -25 C 194 -25 132 -2 86 42 C 40 86 18 149 18 229 C 18 253 20 279 25 307 L 119 836 L 250 836 L 158 319 C 154 297 152 277 152 258 C 152 215 164 177 188 143 C 212 109 255 92 315 92 C 383 92 445 120 503 178 C 561 236 596 301 610 373 L 692 836 L 821 836 L 674 0 Z" unicode="u" />
<glyph horiz-adv-x="813" d="M 260 -37 L 29 836 L 166 836 L 311 246 L 655 836 L 797 836 L 260 -37 Z" unicode="v" />
<glyph horiz-adv-x="1241" d="M 721 -37 L 582 563 L 229 -37 L 29 836 L 168 836 L 291 272 L 631 852 L 774 279 L 1081 836 L 1225 836 L 721 -37 Z" unicode="w" />
<glyph horiz-adv-x="842" d="M 442 449 L 684 0 L 535 0 L 354 352 L 53 0 L -98 0 L 295 457 L 94 836 L 240 836 L 385 553 L 623 836 L 774 836 L 442 449 Z" unicode="x" />
<glyph horiz-adv-x="807" d="M -27 -379 C -75 -379 -116 -371 -150 -356 L -129 -236 C -102 -252 -71 -260 -35 -260 C 7 -260 42 -246 71 -220 C 99 -193 126 -156 150 -109 L 207 -6 L 35 836 L 168 836 L 305 150 L 649 836 L 793 836 L 254 -162 C 176 -306 82 -379 -27 -379 Z" unicode="y" />
<glyph horiz-adv-x="842" d="M 156 115 L 641 115 L 621 0 L -96 0 L 547 721 L 106 721 L 125 836 L 801 836 L 156 115 Z" unicode="z" />
<glyph horiz-adv-x="575" d="M 197 584 C 233 570 258 548 272 516 C 286 484 293 445 293 397 C 293 363 287 308 277 234 C 255 90 245 -4 245 -52 C 245 -104 252 -147 268 -181 C 284 -215 310 -244 348 -268 L 330 -367 C 256 -339 201 -300 166 -250 C 131 -200 114 -135 114 -56 C 114 -13 117 33 125 84 L 133 162 L 145 239 C 156 311 162 361 162 389 C 162 435 152 470 132 492 C 112 514 80 526 37 526 L 57 643 C 99 643 133 653 160 673 C 186 693 208 723 225 763 C 242 803 260 877 279 987 C 302 1117 328 1217 358 1285 C 388 1353 426 1406 474 1444 C 522 1482 586 1512 666 1534 L 645 1423 C 601 1400 564 1373 536 1341 C 508 1309 485 1271 467 1225 C 449 1179 431 1109 414 1016 C 392 893 372 808 355 762 C 338 715 317 677 292 647 C 266 617 235 596 197 584 Z" unicode="{" />
<glyph horiz-adv-x="434" d="M 86 -367 L -43 -367 L 285 1495 L 414 1495 L 86 -367 Z" unicode="|" />
<glyph horiz-adv-x="575" d="M -137 -367 L -119 -256 C -75 -234 -39 -207 -11 -175 C 16 -143 40 -105 58 -59 C 76 -13 95 57 113 154 C 135 275 154 359 171 406 C 188 453 209 491 234 521 C 259 551 291 572 330 584 C 297 595 273 616 257 646 C 241 676 233 719 233 774 C 233 822 242 901 261 1009 C 278 1112 287 1183 287 1221 C 287 1275 279 1317 264 1348 C 249 1378 221 1408 180 1438 L 197 1534 C 273 1503 329 1463 364 1415 C 398 1366 416 1301 418 1219 C 418 1173 409 1097 392 991 C 374 885 365 815 365 782 C 365 732 375 696 395 674 C 415 652 447 641 489 641 L 469 526 C 427 526 392 515 366 495 C 340 474 318 443 301 403 C 284 362 266 288 248 180 C 225 50 199 -47 170 -115 C 141 -183 103 -236 56 -275 C 8 -314 -55 -345 -137 -367 Z" unicode="}" />
<glyph horiz-adv-x="983" d="M 899 905 C 877 800 846 722 804 671 C 762 619 708 594 641 594 C 612 594 581 603 549 622 C 516 640 474 673 422 721 C 381 757 345 776 313 776 C 290 776 271 763 255 738 C 239 712 224 667 211 602 L 72 602 C 96 718 129 798 169 842 C 209 886 263 909 332 909 C 356 909 384 900 416 882 C 448 864 493 831 552 781 C 594 745 629 727 657 727 C 679 727 700 742 718 774 C 736 806 749 849 758 905 L 899 905 Z" unicode="~" />
<glyph horiz-adv-x="358" d="" unicode=" " />
<glyph horiz-adv-x="410" d="M 375 1298 L 231 1298 L 266 1495 L 410 1495 L 375 1298 Z M 145 0 L 2 0 L 135 756 L 244 1206 L 330 1206 L 281 756 L 145 0 Z" unicode="¡" />
<glyph horiz-adv-x="858" d="M 682 645 C 659 675 634 698 606 716 C 578 734 544 745 502 750 L 389 106 C 435 111 476 124 512 146 C 548 168 583 198 618 236 L 698 158 C 601 52 491 -4 367 -12 L 344 -150 L 252 -150 L 276 -8 C 192 6 125 46 75 113 C 25 180 0 262 0 358 C 0 438 19 516 58 594 C 97 671 150 734 216 783 C 282 832 353 860 430 868 L 459 1026 L 551 1026 L 522 868 C 577 862 625 849 665 828 C 705 807 742 776 776 735 L 682 645 Z M 410 745 C 359 735 312 712 270 676 C 227 639 193 593 169 539 C 145 485 133 429 133 373 C 133 307 148 250 178 204 C 208 158 248 128 299 115 L 410 745 Z" unicode="¢" />
<glyph horiz-adv-x="1143" d="M 958 1126 C 962 1142 965 1159 965 1178 C 965 1244 944 1295 902 1333 C 860 1370 801 1389 727 1389 C 627 1389 547 1359 488 1299 C 428 1239 399 1160 399 1061 C 399 1025 405 988 418 950 C 430 912 461 848 510 760 L 893 760 L 881 684 L 547 684 C 569 641 586 599 596 557 L 858 557 L 844 481 L 606 481 L 608 469 L 608 455 C 608 365 585 280 541 201 C 570 176 597 155 622 139 C 647 123 675 115 705 115 C 747 115 782 133 810 170 C 837 206 855 260 864 332 L 999 332 C 986 214 953 125 901 65 C 849 5 782 -25 700 -25 C 662 -25 625 -16 589 1 C 553 18 509 51 457 100 C 417 60 373 29 323 7 C 273 -14 222 -25 170 -25 C 110 -25 62 -10 28 17 C -5 45 -23 85 -23 135 C -23 194 1 242 50 280 C 99 317 161 336 236 336 C 303 336 370 314 436 270 C 456 322 467 371 467 418 C 467 441 465 462 461 481 L 115 481 L 129 557 L 436 557 C 422 595 403 637 377 684 L 152 684 L 164 760 L 336 760 C 309 808 287 855 270 902 C 252 949 244 999 244 1053 C 244 1139 265 1217 307 1289 C 349 1361 409 1417 485 1458 C 561 1499 648 1520 745 1520 C 860 1520 951 1492 1018 1438 C 1084 1384 1118 1311 1118 1219 C 1118 1186 1114 1155 1108 1126 L 958 1126 Z M 375 172 C 320 216 269 238 223 238 C 183 238 151 229 128 212 C 105 195 94 173 94 145 C 94 121 102 103 118 90 C 134 76 157 70 188 70 C 222 70 255 79 288 98 C 320 116 349 141 375 172 Z" unicode="£" />
<glyph horiz-adv-x="1198" d="M 1094 1141 C 1064 1221 1025 1282 978 1324 C 930 1365 876 1386 815 1386 C 723 1386 638 1342 560 1254 C 481 1166 421 1049 379 903 L 891 903 L 879 819 L 358 819 C 347 759 340 699 336 639 L 844 639 L 831 555 L 334 555 C 338 411 365 300 416 224 C 466 147 539 109 633 109 C 687 109 737 123 784 151 C 831 179 886 229 948 303 L 1055 219 C 979 129 908 65 842 29 C 776 -6 702 -25 621 -25 C 481 -25 373 24 298 124 C 223 224 184 367 182 555 L 35 555 L 49 639 L 184 639 C 188 703 195 763 207 819 L 84 819 L 96 903 L 225 903 C 273 1087 352 1236 461 1350 C 570 1463 693 1520 829 1520 C 1015 1520 1149 1417 1229 1212 L 1094 1141 Z" unicode="¤" />
<glyph horiz-adv-x="1231" d="M 399 0 L 444 244 L 133 244 L 147 319 L 457 319 L 483 471 L 172 471 L 186 547 L 496 547 L 524 707 L 147 1495 L 307 1495 L 598 887 L 616 846 L 1157 1495 L 1325 1495 L 668 709 L 639 547 L 942 547 L 928 471 L 627 471 L 600 319 L 901 319 L 887 244 L 586 244 L 543 0 L 399 0 Z" unicode="¥" />
<glyph horiz-adv-x="453" d="M 295 1495 L 428 1495 L 291 719 L 158 719 L 295 1495 Z M 98 -367 L -35 -367 L 102 410 L 236 410 L 98 -367 Z" unicode="¦" />
<glyph horiz-adv-x="1307" d="M 1171 1262 C 1122 1302 1064 1333 997 1356 C 930 1379 860 1391 786 1391 C 692 1391 615 1372 556 1336 C 496 1299 467 1252 467 1194 C 467 1154 482 1120 512 1094 C 542 1068 587 1042 649 1018 L 975 889 C 1055 855 1116 814 1156 766 C 1196 717 1217 656 1217 582 C 1217 498 1189 417 1133 339 C 1077 261 1001 195 905 141 C 947 97 969 43 969 -20 C 969 -128 923 -214 831 -278 C 739 -342 619 -375 469 -375 C 285 -375 134 -324 16 -223 L 111 -117 C 160 -157 218 -189 284 -212 C 350 -234 420 -246 496 -246 C 589 -246 665 -227 724 -190 C 783 -153 813 -105 813 -47 C 813 -9 799 23 772 49 C 744 75 701 100 643 125 L 335 244 C 242 278 174 321 131 371 C 87 421 66 485 66 563 C 66 649 93 730 148 807 C 203 884 279 950 377 1004 C 333 1049 311 1103 311 1165 C 311 1273 356 1359 448 1423 C 540 1487 661 1520 813 1520 C 995 1520 1146 1469 1264 1368 L 1171 1262 Z M 1061 549 C 1061 599 1044 641 1012 677 C 979 712 930 743 866 770 L 747 817 C 614 867 525 903 481 926 C 394 880 329 829 285 773 C 241 717 219 657 219 594 C 219 542 237 498 275 462 C 312 425 370 392 449 362 C 643 286 760 239 801 219 C 974 312 1061 422 1061 549 Z" unicode="§" />
<glyph horiz-adv-x="958" d="M 754 999 L 616 999 L 655 1206 L 791 1206 L 754 999 Z M 420 999 L 283 999 L 322 1206 L 457 1206 L 420 999 Z" unicode="¨" />
<glyph horiz-adv-x="1729" d="M 1636 748 C 1636 609 1601 480 1533 362 C 1464 243 1370 149 1252 79 C 1133 9 1004 -25 864 -25 C 724 -25 594 9 476 79 C 358 149 264 243 195 361 C 126 479 92 608 92 748 C 92 887 126 1016 195 1134 C 264 1252 358 1346 476 1416 C 594 1485 724 1520 864 1520 C 1003 1520 1132 1485 1250 1416 C 1368 1347 1462 1253 1532 1135 C 1601 1017 1636 888 1636 748 Z M 1548 745 C 1548 867 1517 982 1455 1089 C 1393 1195 1310 1279 1205 1340 C 1100 1401 986 1432 864 1432 C 741 1432 627 1401 522 1340 C 417 1279 334 1195 272 1089 C 210 982 180 867 180 745 C 180 621 211 506 274 400 C 336 293 420 210 525 150 C 629 90 742 61 864 61 C 985 61 1098 90 1203 150 C 1307 209 1391 292 1454 399 C 1516 506 1548 621 1548 745 Z M 1210 451 C 1172 402 1121 363 1059 333 C 997 303 932 289 866 289 C 786 289 713 309 645 350 C 577 390 523 446 485 518 C 447 590 428 670 428 760 C 428 840 447 916 485 987 C 523 1057 576 1113 643 1153 C 710 1193 784 1214 864 1214 C 1006 1214 1115 1167 1192 1075 L 1116 1008 C 1053 1077 971 1112 870 1112 C 774 1112 695 1078 632 1012 C 568 945 537 862 537 762 C 537 692 551 629 581 573 C 610 516 650 471 701 439 C 752 407 807 391 866 391 C 968 391 1059 432 1137 514 L 1210 451 Z" unicode="©" />
<glyph horiz-adv-x="846" d="M 707 817 L 594 817 L 606 897 C 531 831 449 799 360 799 C 298 799 248 815 210 848 C 172 881 154 927 154 987 C 154 1071 188 1138 258 1187 C 327 1235 421 1260 541 1260 L 672 1260 C 676 1276 678 1293 678 1311 L 679 1327 C 679 1391 633 1423 541 1423 C 456 1423 384 1408 326 1378 L 297 1464 C 327 1481 364 1495 410 1505 C 455 1515 501 1520 549 1520 C 644 1520 708 1502 741 1467 C 774 1431 791 1388 791 1338 C 791 1321 789 1303 786 1284 L 707 817 Z M 692 586 L 119 586 L 137 688 L 709 688 L 692 586 Z M 528 1167 C 450 1167 388 1152 340 1124 C 292 1095 268 1056 268 1006 C 268 970 278 943 298 924 C 318 904 347 895 385 895 C 424 895 466 906 510 928 C 554 950 593 978 627 1010 L 653 1167 L 528 1167 Z" unicode="ª" />
<glyph horiz-adv-x="680" d="M 389 418 L 539 266 L 512 113 L 266 360 L 289 477 L 623 723 L 596 573 L 389 418 Z M 102 418 L 252 266 L 225 113 L -18 360 L 2 477 L 336 723 L 309 573 L 102 418 Z" unicode="«" />
<glyph horiz-adv-x="1536" d="M 1116 352 L 1116 727 L 213 727 L 213 920 L 1296 920 L 1296 352 L 1116 352 Z" unicode="¬" />
<glyph horiz-adv-x="649" d="M 475 387 L 43 387 L 63 512 L 496 512 L 475 387 Z" unicode="­" />
<glyph horiz-adv-x="1729" d="M 1636 748 C 1636 609 1601 480 1533 362 C 1464 243 1370 149 1252 79 C 1133 9 1004 -25 864 -25 C 724 -25 594 9 476 79 C 358 149 264 243 195 361 C 126 479 92 608 92 748 C 92 887 126 1016 195 1134 C 264 1252 358 1346 476 1416 C 594 1485 724 1520 864 1520 C 1003 1520 1132 1485 1250 1416 C 1368 1347 1462 1253 1532 1135 C 1601 1017 1636 888 1636 748 Z M 1548 745 C 1548 867 1517 982 1455 1089 C 1393 1195 1310 1279 1205 1340 C 1100 1401 986 1432 864 1432 C 741 1432 627 1401 522 1340 C 417 1279 334 1195 272 1089 C 210 982 180 867 180 745 C 180 621 211 506 274 400 C 336 293 420 210 525 150 C 629 90 742 61 864 61 C 985 61 1098 90 1203 150 C 1307 209 1391 292 1454 399 C 1516 506 1548 621 1548 745 Z M 1075 317 L 715 733 L 715 317 L 610 317 L 610 1214 L 881 1214 C 963 1214 1030 1189 1082 1141 C 1134 1093 1161 1032 1161 958 C 1161 884 1134 823 1081 776 C 1028 728 961 705 881 705 L 866 705 L 1208 317 L 1075 317 Z M 1053 961 C 1053 1006 1036 1043 1002 1072 C 968 1101 927 1116 877 1116 L 715 1116 L 715 791 L 862 791 C 922 791 968 806 1002 837 C 1036 868 1053 909 1053 961 Z" unicode="®" />
<glyph horiz-adv-x="961" d="M 805 1010 L 219 1010 L 236 1114 L 821 1114 L 805 1010 Z" unicode="¯" />
<glyph horiz-adv-x="811" d="M 813 1169 C 813 1106 797 1048 766 994 C 734 940 691 897 637 866 C 582 834 524 819 463 819 C 400 819 342 834 288 865 C 234 895 192 938 160 993 C 128 1047 113 1106 113 1169 C 113 1231 128 1290 160 1345 C 191 1399 234 1442 288 1473 C 342 1504 400 1520 463 1520 C 558 1520 640 1486 709 1418 C 778 1350 813 1267 813 1169 Z M 694 1169 C 694 1233 671 1287 627 1333 C 583 1378 528 1401 463 1401 C 398 1401 343 1378 298 1333 C 253 1288 231 1233 231 1169 C 231 1103 253 1048 299 1004 C 344 960 399 938 463 938 C 527 938 582 960 627 1005 C 671 1049 694 1104 694 1169 Z" unicode="°" />
<glyph horiz-adv-x="1536" d="M 672 352 L 672 764 L 201 764 L 201 936 L 672 936 L 672 1352 L 864 1352 L 864 936 L 1339 936 L 1339 764 L 864 764 L 864 352 L 672 352 Z M 205 25 L 205 215 L 1335 215 L 1335 25 L 205 25 Z" unicode="±" />
<glyph horiz-adv-x="813" d="M 387 821 L 678 821 L 655 702 L 111 702 L 535 1139 C 561 1167 583 1193 600 1219 C 616 1245 625 1272 625 1300 C 625 1331 614 1355 594 1373 C 573 1390 547 1399 516 1399 C 474 1399 442 1386 419 1360 C 396 1334 379 1297 367 1247 L 244 1247 C 263 1337 298 1404 348 1449 C 398 1493 457 1516 526 1516 C 592 1516 645 1497 686 1459 C 727 1421 748 1370 748 1307 C 748 1263 737 1222 716 1183 C 695 1144 664 1104 623 1063 L 387 821 Z" unicode="²" />
<glyph horiz-adv-x="780" d="M 592 1130 C 629 1116 656 1094 673 1066 C 689 1038 698 1007 698 975 C 698 894 668 827 610 774 C 552 720 477 694 387 694 C 325 694 272 705 228 727 C 184 749 147 783 115 827 L 203 913 C 229 876 258 849 288 832 C 318 815 354 807 395 807 C 449 807 492 822 525 854 C 558 886 575 925 575 971 C 575 1003 562 1029 537 1048 C 512 1067 478 1077 434 1077 L 338 1077 L 360 1190 L 449 1190 C 495 1190 534 1201 564 1224 C 594 1246 610 1277 610 1315 C 610 1338 601 1358 584 1375 C 567 1392 540 1401 502 1401 C 464 1401 432 1392 405 1374 C 378 1356 352 1333 328 1303 L 231 1366 C 275 1419 319 1457 365 1481 C 410 1504 459 1516 512 1516 C 577 1516 630 1499 671 1465 C 712 1431 733 1387 733 1333 C 733 1285 721 1243 697 1208 C 673 1172 638 1146 592 1130 Z" unicode="³" />
<glyph horiz-adv-x="958" d="M 508 999 L 360 999 L 586 1288 L 735 1288 L 508 999 Z" unicode="´" />
<glyph horiz-adv-x="1407" d="M 252 -424 C 215 -424 187 -413 168 -392 C 148 -370 139 -333 139 -281 C 139 -168 144 -41 156 100 C 166 234 172 310 172 328 L 176 356 L 176 1176 L 369 1176 L 369 319 C 369 257 396 210 450 176 C 504 142 564 125 629 125 C 716 125 792 146 858 190 C 923 234 973 297 1008 381 L 1008 1176 L 1200 1176 L 1200 307 L 1221 0 L 1057 0 L 1020 176 C 974 104 913 49 836 13 C 759 -22 671 -41 571 -41 C 537 -41 494 -32 444 -14 C 394 3 354 27 324 59 C 324 0 333 -57 352 -113 C 371 -169 381 -219 381 -264 C 381 -370 338 -424 252 -424 Z" unicode="µ" />
<glyph horiz-adv-x="1317" d="M 977 -367 L 844 -367 L 1153 1372 L 989 1372 L 682 -367 L 549 -367 L 711 543 L 557 543 C 421 543 310 580 224 655 C 138 730 96 827 96 946 C 96 1047 122 1140 175 1225 C 227 1309 300 1375 394 1423 C 487 1471 588 1495 696 1495 L 1305 1495 L 977 -367 Z M 688 1372 C 606 1372 530 1354 460 1320 C 390 1286 336 1238 297 1178 C 257 1117 238 1049 238 975 C 238 873 269 796 333 744 C 397 692 490 666 614 666 L 731 666 L 858 1372 L 688 1372 Z" unicode="¶" />
<glyph horiz-adv-x="367" d="M 233 639 L 92 639 L 127 836 L 270 836 L 233 639 Z" unicode="·" />
<glyph horiz-adv-x="961" d="M 555 -203 C 555 -253 535 -292 497 -322 C 459 -352 406 -367 338 -367 C 271 -367 209 -345 152 -301 L 201 -248 C 236 -279 282 -295 338 -295 C 366 -295 391 -287 412 -273 C 433 -258 444 -239 444 -215 C 444 -197 436 -183 422 -173 C 408 -163 388 -158 362 -158 C 333 -158 306 -161 281 -168 L 256 -131 L 373 18 L 475 18 L 387 -96 L 399 -94 L 416 -94 C 456 -94 490 -104 516 -124 C 542 -144 555 -171 555 -203 Z" unicode="¸" />
<glyph horiz-adv-x="596" d="M 360 1317 C 347 1299 327 1284 299 1270 C 271 1256 240 1248 207 1245 L 229 1366 C 311 1377 375 1420 422 1495 L 514 1495 L 371 686 L 250 686 L 360 1317 Z" unicode="¹" />
<glyph horiz-adv-x="881" d="M 848 1227 C 848 1149 830 1077 795 1011 C 760 945 712 893 651 855 C 590 817 525 799 455 799 C 369 799 300 826 248 881 C 196 936 170 1008 170 1098 C 170 1169 187 1238 223 1304 C 258 1370 306 1423 366 1462 C 426 1500 492 1520 563 1520 C 618 1520 667 1507 711 1482 C 755 1456 788 1421 812 1376 C 836 1330 848 1281 848 1227 Z M 727 586 L 115 586 L 133 688 L 743 688 L 727 586 Z M 733 1210 C 733 1274 716 1325 684 1362 C 651 1398 605 1417 547 1417 C 473 1417 410 1387 359 1328 C 308 1269 283 1196 283 1110 C 283 1048 299 997 333 959 C 367 920 413 901 471 901 C 547 901 609 930 659 990 C 708 1049 733 1122 733 1210 Z" unicode="º" />
<glyph horiz-adv-x="680" d="M 240 113 L 268 266 L 475 424 L 328 573 L 350 725 L 598 479 L 575 362 L 240 113 Z M -47 113 L -18 266 L 188 424 L 39 573 L 63 725 L 311 479 L 289 362 L -47 113 Z" unicode="»" />
<glyph horiz-adv-x="1604" d="M 360 1317 C 347 1299 327 1284 299 1270 C 271 1256 240 1248 207 1245 L 229 1366 C 311 1377 375 1420 422 1495 L 514 1495 L 371 686 L 250 686 L 360 1317 Z M 215 0 L 74 0 L 1360 1495 L 1501 1495 L 215 0 Z M 1255 0 L 1135 0 L 1167 190 L 827 190 L 844 274 L 1307 801 L 1397 801 L 1309 305 L 1421 305 L 1401 190 L 1288 190 L 1255 0 Z M 1008 305 L 1188 305 L 1233 563 L 1008 305 Z" unicode="¼" />
<glyph horiz-adv-x="1769" d="M 381 1317 C 367 1299 346 1283 317 1269 C 287 1255 257 1247 227 1245 L 250 1366 C 331 1377 395 1420 442 1495 L 535 1495 L 391 686 L 270 686 L 381 1317 Z M 236 0 L 94 0 L 1380 1495 L 1522 1495 L 236 0 Z M 1178 119 L 1468 119 L 1446 0 L 901 0 L 1325 436 C 1351 464 1373 491 1390 517 C 1406 543 1415 570 1415 598 C 1415 628 1404 652 1384 670 C 1363 687 1337 696 1307 696 C 1265 696 1233 683 1210 657 C 1187 631 1169 594 1157 545 L 1034 545 C 1053 632 1087 698 1136 744 C 1184 790 1245 813 1317 813 C 1383 813 1437 793 1477 755 C 1517 716 1538 666 1538 604 C 1538 560 1527 519 1506 480 C 1485 441 1454 401 1413 360 L 1178 119 Z" unicode="½" />
<glyph horiz-adv-x="1673" d="M 592 1130 C 629 1116 656 1094 673 1066 C 689 1038 698 1007 698 975 C 698 894 668 827 610 774 C 552 720 477 694 387 694 C 325 694 272 705 228 727 C 184 749 147 783 115 827 L 203 913 C 229 876 258 849 288 832 C 318 815 354 807 395 807 C 449 807 492 822 525 854 C 558 886 575 925 575 971 C 575 1003 562 1029 537 1048 C 512 1067 478 1077 434 1077 L 338 1077 L 360 1190 L 449 1190 C 495 1190 534 1201 564 1224 C 594 1246 610 1277 610 1315 C 610 1338 601 1358 584 1375 C 567 1392 540 1401 502 1401 C 464 1401 432 1392 405 1374 C 378 1356 352 1333 328 1303 L 231 1366 C 275 1419 319 1457 365 1481 C 410 1504 459 1516 512 1516 C 577 1516 630 1499 671 1465 C 712 1431 733 1387 733 1333 C 733 1285 721 1243 697 1208 C 673 1172 638 1146 592 1130 Z M 324 0 L 182 0 L 1468 1495 L 1610 1495 L 324 0 Z M 1325 0 L 1204 0 L 1237 190 L 897 190 L 913 274 L 1376 801 L 1466 801 L 1378 305 L 1491 305 L 1470 190 L 1358 190 L 1325 0 Z M 1077 305 L 1257 305 L 1303 563 L 1077 305 Z" unicode="¾" />
<glyph horiz-adv-x="899" d="M 651 1311 L 508 1311 L 543 1505 L 686 1505 L 651 1311 Z M 754 176 C 645 49 512 -14 356 -14 C 254 -14 170 14 106 72 C 42 129 10 205 10 301 C 10 351 17 398 32 442 C 47 486 70 530 101 575 C 131 620 191 690 281 786 C 322 828 357 871 385 913 C 413 955 435 999 453 1044 C 470 1088 484 1144 494 1212 L 631 1212 L 623 1167 C 609 1085 583 1009 546 939 C 509 869 451 791 373 707 C 282 608 223 533 196 483 C 169 433 156 382 156 330 C 156 263 175 210 215 172 C 254 134 307 115 375 115 C 489 115 587 166 670 268 L 754 176 Z" unicode="¿" />
<glyph horiz-adv-x="1317" d="M 973 0 L 877 532 L 365 532 L 76 0 L -72 0 L 748 1509 L 836 1509 L 1124 0 L 973 0 Z M 750 1268 L 434 662 L 854 662 L 750 1268 Z M 705 1609 L 545 1898 L 682 1898 L 838 1609 L 705 1609 Z" unicode="À" />
<glyph horiz-adv-x="1317" d="M 973 0 L 877 532 L 365 532 L 76 0 L -72 0 L 748 1509 L 836 1509 L 1124 0 L 973 0 Z M 750 1268 L 434 662 L 854 662 L 750 1268 Z M 875 1609 L 727 1609 L 953 1898 L 1102 1898 L 875 1609 Z" unicode="Á" />
<glyph horiz-adv-x="1317" d="M 973 0 L 877 532 L 365 532 L 76 0 L -72 0 L 748 1509 L 836 1509 L 1124 0 L 973 0 Z M 750 1268 L 434 662 L 854 662 L 750 1268 Z M 923 1589 L 819 1776 L 651 1589 L 507 1589 L 768 1874 L 897 1874 L 1058 1589 L 923 1589 Z" unicode="Â" />
<glyph horiz-adv-x="1317" d="M 973 0 L 877 532 L 365 532 L 76 0 L -72 0 L 748 1509 L 836 1509 L 1124 0 L 973 0 Z M 750 1268 L 434 662 L 854 662 L 750 1268 Z M 1112 1829 C 1101 1761 1079 1706 1047 1665 C 1014 1623 969 1603 913 1603 C 877 1603 831 1626 776 1673 C 759 1686 743 1697 729 1707 C 714 1717 697 1722 678 1722 C 640 1722 616 1684 604 1609 L 491 1609 C 501 1679 523 1735 557 1775 C 591 1815 635 1835 690 1835 C 706 1835 722 1831 740 1824 C 758 1817 787 1799 827 1771 C 843 1757 859 1744 874 1733 C 889 1721 905 1716 923 1716 C 961 1716 985 1753 997 1829 L 1112 1829 Z" unicode="Ã" />
<glyph horiz-adv-x="1317" d="M 1161 1286 L 1024 1286 L 1063 1493 L 1198 1493 L 1161 1286 Z M 469 1286 L 332 1286 L 371 1493 L 506 1493 L 469 1286 Z M 973 0 L 877 532 L 365 532 L 76 0 L -72 0 L 748 1509 L 836 1509 L 1124 0 L 973 0 Z M 750 1268 L 434 662 L 854 662 L 750 1268 Z" unicode="Ä" />
<glyph horiz-adv-x="1317" d="M 1124 0 L 973 0 L 877 532 L 365 532 L 76 0 L -72 0 L 707 1436 C 669 1451 639 1476 615 1510 C 591 1544 580 1584 580 1630 C 580 1691 601 1743 645 1786 C 689 1829 741 1851 803 1851 C 861 1851 910 1830 951 1790 C 991 1749 1012 1700 1012 1642 C 1012 1592 997 1548 967 1508 C 937 1468 899 1441 852 1427 L 1124 0 Z M 920 1640 C 920 1674 908 1702 885 1725 C 861 1747 834 1759 803 1759 C 766 1759 735 1746 711 1720 C 686 1694 674 1665 674 1632 C 674 1598 685 1570 707 1546 C 729 1522 756 1511 788 1511 C 825 1511 856 1523 882 1549 C 907 1575 920 1605 920 1640 Z M 750 1268 L 434 662 L 854 662 L 750 1268 Z" unicode="Å" />
<glyph horiz-adv-x="1802" d="M 1798 1362 L 1163 1362 L 1067 827 L 1663 827 L 1638 696 L 1044 696 L 944 133 L 1622 133 L 1597 0 L 784 0 L 879 528 L 479 528 L 78 0 L -86 0 L 1044 1495 L 1823 1495 L 1798 1362 Z M 569 662 L 901 662 L 1018 1276 L 569 662 Z" unicode="Æ" />
<glyph horiz-adv-x="1442" d="M 633 -20 C 526 -10 430 22 346 78 C 262 134 196 209 150 303 C 103 396 80 500 80 614 C 80 775 119 925 197 1065 C 275 1205 382 1315 516 1397 C 650 1479 791 1520 938 1520 C 1044 1520 1139 1499 1223 1458 C 1306 1416 1375 1357 1430 1280 L 1311 1194 C 1217 1322 1082 1386 905 1386 C 787 1386 675 1351 571 1283 C 467 1215 383 1121 321 1003 C 258 885 227 763 227 637 C 227 533 247 440 288 360 C 329 280 388 218 464 174 C 540 130 629 109 729 109 C 811 109 889 125 961 157 C 1033 189 1108 241 1186 313 L 1274 223 C 1198 147 1113 87 1021 45 C 928 3 832 -20 733 -25 L 678 -96 L 690 -94 L 707 -94 C 746 -94 779 -104 806 -124 C 832 -144 846 -171 846 -203 C 846 -253 826 -292 788 -322 C 750 -352 697 -367 629 -367 C 563 -367 501 -345 442 -301 L 492 -248 C 526 -279 572 -295 629 -295 C 657 -295 682 -287 703 -273 C 724 -258 735 -239 735 -215 C 735 -197 727 -183 713 -173 C 699 -163 679 -158 653 -158 C 623 -158 596 -161 571 -168 L 547 -131 L 633 -20 Z" unicode="Ç" />
<glyph horiz-adv-x="1065" d="M 1034 1368 L 399 1368 L 303 827 L 895 827 L 872 700 L 281 700 L 180 127 L 854 127 L 831 0 L 18 0 L 283 1495 L 1057 1495 L 1034 1368 Z M 568 1609 L 408 1898 L 545 1898 L 701 1609 L 568 1609 Z" unicode="È" />
<glyph horiz-adv-x="1065" d="M 1034 1368 L 399 1368 L 303 827 L 895 827 L 872 700 L 281 700 L 180 127 L 854 127 L 831 0 L 18 0 L 283 1495 L 1057 1495 L 1034 1368 Z M 696 1609 L 548 1609 L 774 1898 L 923 1898 L 696 1609 Z" unicode="É" />
<glyph horiz-adv-x="1065" d="M 1034 1368 L 399 1368 L 303 827 L 895 827 L 872 700 L 281 700 L 180 127 L 854 127 L 831 0 L 18 0 L 283 1495 L 1057 1495 L 1034 1368 Z M 782 1609 L 678 1796 L 510 1609 L 366 1609 L 627 1894 L 756 1894 L 917 1609 L 782 1609 Z" unicode="Ê" />
<glyph horiz-adv-x="1065" d="M 1034 1368 L 399 1368 L 303 827 L 895 827 L 872 700 L 281 700 L 180 127 L 854 127 L 831 0 L 18 0 L 283 1495 L 1057 1495 L 1034 1368 Z M 877 1609 L 739 1609 L 778 1816 L 914 1816 L 877 1609 Z M 543 1609 L 406 1609 L 445 1816 L 580 1816 L 543 1609 Z" unicode="Ë" />
<glyph horiz-adv-x="442" d="M 158 0 L 18 0 L 283 1495 L 422 1495 L 158 0 Z M 263 1609 L 103 1898 L 240 1898 L 396 1609 L 263 1609 Z" unicode="Ì" />
<glyph horiz-adv-x="442" d="M 158 0 L 18 0 L 283 1495 L 422 1495 L 158 0 Z M 441 1609 L 293 1609 L 519 1898 L 668 1898 L 441 1609 Z" unicode="Í" />
<glyph horiz-adv-x="442" d="M 158 0 L 18 0 L 283 1495 L 422 1495 L 158 0 Z M 486 1609 L 382 1796 L 214 1609 L 70 1609 L 331 1894 L 460 1894 L 621 1609 L 486 1609 Z" unicode="Î" />
<glyph horiz-adv-x="442" d="M 158 0 L 18 0 L 283 1495 L 422 1495 L 158 0 Z M 581 1609 L 443 1609 L 482 1816 L 618 1816 L 581 1609 Z M 247 1609 L 110 1609 L 149 1816 L 284 1816 L 247 1609 Z" unicode="Ï" />
<glyph horiz-adv-x="1378" d="M 43 678 L 68 817 L 190 817 L 309 1495 L 635 1495 C 770 1495 888 1471 990 1424 C 1091 1376 1169 1307 1223 1217 C 1277 1126 1305 1020 1305 899 C 1305 726 1265 572 1187 436 C 1109 300 998 193 856 116 C 714 38 556 0 383 0 L 45 0 L 166 678 L 43 678 Z M 702 817 L 680 678 L 311 678 L 215 129 L 389 129 C 533 129 664 160 782 224 C 900 288 991 376 1056 490 C 1120 604 1153 730 1153 868 C 1153 1029 1106 1152 1014 1238 C 921 1323 789 1366 618 1366 L 434 1366 L 336 817 L 702 817 Z" unicode="Ð" />
<glyph horiz-adv-x="1454" d="M 1169 0 L 1040 0 L 381 1266 L 158 0 L 18 0 L 283 1495 L 422 1495 L 1073 242 L 1294 1495 L 1434 1495 L 1169 0 Z M 1196 1833 C 1185 1765 1163 1710 1131 1669 C 1098 1627 1053 1607 997 1607 C 961 1607 915 1630 860 1677 C 843 1690 827 1701 813 1711 C 798 1721 781 1726 762 1726 C 724 1726 700 1688 688 1613 L 575 1613 C 585 1683 607 1739 641 1779 C 675 1819 719 1839 774 1839 C 790 1839 806 1835 824 1828 C 842 1821 871 1803 911 1775 C 927 1761 943 1748 958 1737 C 973 1725 989 1720 1007 1720 C 1045 1720 1069 1757 1081 1833 L 1196 1833 Z" unicode="Ñ" />
<glyph horiz-adv-x="1655" d="M 1575 887 C 1575 727 1536 577 1458 437 C 1380 297 1274 185 1140 101 C 1005 17 864 -25 717 -25 C 595 -25 485 1 388 55 C 291 109 215 184 161 281 C 107 378 80 487 80 608 C 80 772 119 925 198 1065 C 276 1205 383 1316 518 1398 C 653 1479 796 1520 946 1520 C 1068 1520 1177 1493 1273 1439 C 1369 1385 1443 1309 1496 1212 C 1548 1114 1575 1006 1575 887 Z M 1430 862 C 1430 1020 1383 1147 1291 1243 C 1199 1338 1074 1386 918 1386 C 798 1386 685 1352 579 1286 C 473 1220 387 1128 323 1010 C 259 892 227 769 227 639 C 227 477 273 348 365 252 C 457 156 582 109 739 109 C 858 109 971 143 1078 212 C 1185 280 1270 373 1334 491 C 1398 609 1430 732 1430 862 Z M 858 1609 L 698 1898 L 835 1898 L 991 1609 L 858 1609 Z" unicode="Ò" />
<glyph horiz-adv-x="1655" d="M 1575 887 C 1575 727 1536 577 1458 437 C 1380 297 1274 185 1140 101 C 1005 17 864 -25 717 -25 C 595 -25 485 1 388 55 C 291 109 215 184 161 281 C 107 378 80 487 80 608 C 80 772 119 925 198 1065 C 276 1205 383 1316 518 1398 C 653 1479 796 1520 946 1520 C 1068 1520 1177 1493 1273 1439 C 1369 1385 1443 1309 1496 1212 C 1548 1114 1575 1006 1575 887 Z M 1430 862 C 1430 1020 1383 1147 1291 1243 C 1199 1338 1074 1386 918 1386 C 798 1386 685 1352 579 1286 C 473 1220 387 1128 323 1010 C 259 892 227 769 227 639 C 227 477 273 348 365 252 C 457 156 582 109 739 109 C 858 109 971 143 1078 212 C 1185 280 1270 373 1334 491 C 1398 609 1430 732 1430 862 Z M 1008 1609 L 860 1609 L 1086 1898 L 1235 1898 L 1008 1609 Z" unicode="Ó" />
<glyph horiz-adv-x="1655" d="M 1575 887 C 1575 727 1536 577 1458 437 C 1380 297 1274 185 1140 101 C 1005 17 864 -25 717 -25 C 595 -25 485 1 388 55 C 291 109 215 184 161 281 C 107 378 80 487 80 608 C 80 772 119 925 198 1065 C 276 1205 383 1316 518 1398 C 653 1479 796 1520 946 1520 C 1068 1520 1177 1493 1273 1439 C 1369 1385 1443 1309 1496 1212 C 1548 1114 1575 1006 1575 887 Z M 1430 862 C 1430 1020 1383 1147 1291 1243 C 1199 1338 1074 1386 918 1386 C 798 1386 685 1352 579 1286 C 473 1220 387 1128 323 1010 C 259 892 227 769 227 639 C 227 477 273 348 365 252 C 457 156 582 109 739 109 C 858 109 971 143 1078 212 C 1185 280 1270 373 1334 491 C 1398 609 1430 732 1430 862 Z M 1091 1609 L 987 1796 L 819 1609 L 675 1609 L 936 1894 L 1065 1894 L 1226 1609 L 1091 1609 Z" unicode="Ô" />
<glyph horiz-adv-x="1655" d="M 1575 887 C 1575 727 1536 577 1458 437 C 1380 297 1274 185 1140 101 C 1005 17 864 -25 717 -25 C 595 -25 485 1 388 55 C 291 109 215 184 161 281 C 107 378 80 487 80 608 C 80 772 119 925 198 1065 C 276 1205 383 1316 518 1398 C 653 1479 796 1520 946 1520 C 1068 1520 1177 1493 1273 1439 C 1369 1385 1443 1309 1496 1212 C 1548 1114 1575 1006 1575 887 Z M 1430 862 C 1430 1020 1383 1147 1291 1243 C 1199 1338 1074 1386 918 1386 C 798 1386 685 1352 579 1286 C 473 1220 387 1128 323 1010 C 259 892 227 769 227 639 C 227 477 273 348 365 252 C 457 156 582 109 739 109 C 858 109 971 143 1078 212 C 1185 280 1270 373 1334 491 C 1398 609 1430 732 1430 862 Z M 1303 1829 C 1292 1761 1270 1706 1238 1665 C 1205 1623 1160 1603 1104 1603 C 1068 1603 1022 1626 967 1673 C 950 1686 934 1697 920 1707 C 905 1717 888 1722 869 1722 C 831 1722 807 1684 795 1609 L 682 1609 C 692 1679 714 1735 748 1775 C 782 1815 826 1835 881 1835 C 897 1835 913 1831 931 1824 C 949 1817 978 1799 1018 1771 C 1034 1757 1050 1744 1065 1733 C 1080 1721 1096 1716 1114 1716 C 1152 1716 1176 1753 1188 1829 L 1303 1829 Z" unicode="Õ" />
<glyph horiz-adv-x="1655" d="M 1671 1288 L 1534 1288 L 1573 1495 L 1708 1495 L 1671 1288 Z M 270 1288 L 133 1288 L 172 1495 L 307 1495 L 270 1288 Z M 1575 887 C 1575 727 1536 577 1458 437 C 1380 297 1274 185 1140 101 C 1005 17 864 -25 717 -25 C 595 -25 485 1 388 55 C 291 109 215 184 161 281 C 107 378 80 487 80 608 C 80 772 119 925 198 1065 C 276 1205 383 1316 518 1398 C 653 1479 796 1520 946 1520 C 1068 1520 1177 1493 1273 1439 C 1369 1385 1443 1309 1496 1212 C 1548 1114 1575 1006 1575 887 Z M 1430 862 C 1430 1020 1383 1147 1291 1243 C 1199 1338 1074 1386 918 1386 C 798 1386 685 1352 579 1286 C 473 1220 387 1128 323 1010 C 259 892 227 769 227 639 C 227 477 273 348 365 252 C 457 156 582 109 739 109 C 858 109 971 143 1078 212 C 1185 280 1270 373 1334 491 C 1398 609 1430 732 1430 862 Z" unicode="Ö" />
<glyph horiz-adv-x="989" d="M 51 385 L 393 676 L 156 963 L 262 1057 L 500 766 L 842 1057 L 926 954 L 584 664 L 821 377 L 715 283 L 477 573 L 135 283 L 51 385 Z" unicode="×" />
<glyph horiz-adv-x="1655" d="M 1575 895 C 1575 731 1537 579 1461 439 C 1385 299 1280 186 1146 102 C 1012 17 869 -25 719 -25 C 629 -25 547 -11 473 17 C 399 45 335 83 281 133 L 133 -10 L 55 63 L 207 211 C 123 322 82 453 82 604 C 82 774 121 930 199 1070 C 277 1210 383 1320 518 1400 C 652 1480 796 1520 948 1520 C 1120 1520 1264 1467 1380 1362 L 1542 1520 L 1618 1444 L 1452 1284 C 1534 1173 1575 1043 1575 895 Z M 1270 1253 C 1182 1337 1064 1380 915 1380 C 790 1380 676 1347 573 1281 C 469 1215 386 1123 324 1007 C 262 891 231 768 231 639 C 231 517 260 412 319 324 L 1270 1253 Z M 1425 870 C 1425 986 1397 1087 1341 1171 C 1277 1111 960 801 389 242 C 482 157 600 115 743 115 C 863 115 976 149 1082 219 C 1188 288 1271 382 1333 500 C 1394 618 1425 742 1425 870 Z" unicode="Ø" />
<glyph horiz-adv-x="1382" d="M 578 -25 C 484 -25 401 -5 328 34 C 255 74 199 130 160 204 C 121 277 102 359 102 450 C 102 493 106 539 115 588 L 274 1495 L 414 1495 L 254 588 C 246 545 243 505 243 468 C 243 357 274 269 338 204 C 401 138 487 106 596 106 C 713 106 815 148 901 233 C 987 318 1043 434 1069 582 L 1231 1495 L 1368 1495 L 1206 571 C 1174 392 1101 248 987 139 C 873 29 736 -25 578 -25 Z M 746 1589 L 586 1878 L 723 1878 L 879 1589 L 746 1589 Z" unicode="Ù" />
<glyph horiz-adv-x="1382" d="M 578 -25 C 484 -25 401 -5 328 34 C 255 74 199 130 160 204 C 121 277 102 359 102 450 C 102 493 106 539 115 588 L 274 1495 L 414 1495 L 254 588 C 246 545 243 505 243 468 C 243 357 274 269 338 204 C 401 138 487 106 596 106 C 713 106 815 148 901 233 C 987 318 1043 434 1069 582 L 1231 1495 L 1368 1495 L 1206 571 C 1174 392 1101 248 987 139 C 873 29 736 -25 578 -25 Z M 864 1589 L 716 1589 L 942 1878 L 1091 1878 L 864 1589 Z" unicode="Ú" />
<glyph horiz-adv-x="1382" d="M 578 -25 C 484 -25 401 -5 328 34 C 255 74 199 130 160 204 C 121 277 102 359 102 450 C 102 493 106 539 115 588 L 274 1495 L 414 1495 L 254 588 C 246 545 243 505 243 468 C 243 357 274 269 338 204 C 401 138 487 106 596 106 C 713 106 815 148 901 233 C 987 318 1043 434 1069 582 L 1231 1495 L 1368 1495 L 1206 571 C 1174 392 1101 248 987 139 C 873 29 736 -25 578 -25 Z M 940 1589 L 836 1776 L 668 1589 L 524 1589 L 785 1874 L 914 1874 L 1075 1589 L 940 1589 Z" unicode="Û" />
<glyph horiz-adv-x="1382" d="M 1018 1288 L 881 1288 L 920 1495 L 1055 1495 L 1018 1288 Z M 684 1288 L 547 1288 L 586 1495 L 721 1495 L 684 1288 Z M 578 -25 C 484 -25 401 -5 328 34 C 255 74 199 130 160 204 C 121 277 102 359 102 450 C 102 493 106 539 115 588 L 274 1495 L 414 1495 L 254 588 C 246 545 243 505 243 468 C 243 357 274 269 338 204 C 401 138 487 106 596 106 C 713 106 815 148 901 233 C 987 318 1043 434 1069 582 L 1231 1495 L 1368 1495 L 1206 571 C 1174 392 1101 248 987 139 C 873 29 736 -25 578 -25 Z" unicode="Ü" />
<glyph horiz-adv-x="1253" d="M 559 0 L 420 0 L 545 707 L 166 1495 L 319 1495 L 637 838 L 1182 1495 L 1350 1495 L 684 705 L 559 0 Z M 789 1607 L 641 1607 L 867 1896 L 1016 1896 L 789 1607 Z" unicode="Ý" />
<glyph horiz-adv-x="1083" d="M 1026 844 C 1026 748 1001 660 952 581 C 903 502 835 440 748 396 C 661 352 565 330 459 330 L 221 330 L 162 0 L 18 0 L 281 1495 L 426 1495 L 375 1208 L 586 1208 C 724 1208 832 1175 910 1111 C 987 1047 1026 958 1026 844 Z M 877 823 C 877 904 848 966 791 1009 C 733 1051 649 1073 539 1073 L 350 1073 L 244 465 L 469 465 C 589 465 687 497 763 563 C 839 629 877 715 877 823 Z" unicode="Þ" />
<glyph horiz-adv-x="928" d="M 864 1245 C 864 1183 850 1123 824 1067 C 797 1010 761 962 717 923 C 673 883 629 860 586 852 C 650 822 700 774 738 707 C 776 640 795 565 795 481 C 795 384 778 297 745 220 C 712 143 665 83 604 40 C 542 -3 471 -25 389 -25 C 341 -25 294 -14 248 6 L 279 129 C 313 111 353 102 399 102 C 475 102 536 135 582 202 C 628 268 651 355 651 463 C 651 554 628 633 584 700 C 540 767 482 806 410 817 L 403 817 L 420 915 L 442 915 C 488 915 534 929 578 958 C 622 986 658 1025 685 1073 C 711 1121 725 1173 725 1227 C 725 1280 711 1323 684 1356 C 656 1388 617 1405 567 1405 C 505 1405 453 1381 411 1334 C 368 1287 340 1223 326 1141 L 59 -367 L -76 -367 L 188 1130 C 210 1258 254 1355 321 1421 C 388 1487 476 1520 584 1520 C 664 1520 731 1494 784 1443 C 837 1391 864 1325 864 1245 Z" unicode="ß" />
<glyph horiz-adv-x="887" d="M 647 0 L 516 0 L 532 94 C 436 14 335 -25 231 -25 C 154 -25 92 -4 46 38 C 0 80 -23 135 -23 205 C -23 307 20 389 106 451 C 192 513 308 545 453 545 L 612 545 C 619 573 623 597 623 618 C 623 656 611 686 588 710 C 565 733 519 745 449 745 C 351 745 263 726 186 690 L 156 793 C 241 837 343 860 461 860 C 656 860 754 785 754 636 C 754 616 752 594 748 571 L 647 0 Z M 440 436 C 340 436 260 416 201 378 C 142 340 113 289 113 225 C 113 179 126 145 153 123 C 180 101 216 90 260 90 C 306 90 355 102 409 128 C 463 154 511 187 555 227 L 592 436 L 440 436 Z M 407 999 L 247 1288 L 384 1288 L 540 999 L 407 999 Z" unicode="à" />
<glyph horiz-adv-x="887" d="M 647 0 L 516 0 L 532 94 C 436 14 335 -25 231 -25 C 154 -25 92 -4 46 38 C 0 80 -23 135 -23 205 C -23 307 20 389 106 451 C 192 513 308 545 453 545 L 612 545 C 619 573 623 597 623 618 C 623 656 611 686 588 710 C 565 733 519 745 449 745 C 351 745 263 726 186 690 L 156 793 C 241 837 343 860 461 860 C 656 860 754 785 754 636 C 754 616 752 594 748 571 L 647 0 Z M 440 436 C 340 436 260 416 201 378 C 142 340 113 289 113 225 C 113 179 126 145 153 123 C 180 101 216 90 260 90 C 306 90 355 102 409 128 C 463 154 511 187 555 227 L 592 436 L 440 436 Z M 549 999 L 401 999 L 627 1288 L 776 1288 L 549 999 Z" unicode="á" />
<glyph horiz-adv-x="887" d="M 647 0 L 516 0 L 532 94 C 436 14 335 -25 231 -25 C 154 -25 92 -4 46 38 C 0 80 -23 135 -23 205 C -23 307 20 389 106 451 C 192 513 308 545 453 545 L 612 545 C 619 573 623 597 623 618 C 623 656 611 686 588 710 C 565 733 519 745 449 745 C 351 745 263 726 186 690 L 156 793 C 241 837 343 860 461 860 C 656 860 754 785 754 636 C 754 616 752 594 748 571 L 647 0 Z M 440 436 C 340 436 260 416 201 378 C 142 340 113 289 113 225 C 113 179 126 145 153 123 C 180 101 216 90 260 90 C 306 90 355 102 409 128 C 463 154 511 187 555 227 L 592 436 L 440 436 Z M 609 999 L 505 1186 L 337 999 L 193 999 L 454 1284 L 583 1284 L 744 999 L 609 999 Z" unicode="â" />
<glyph horiz-adv-x="887" d="M 647 0 L 516 0 L 532 94 C 436 14 335 -25 231 -25 C 154 -25 92 -4 46 38 C 0 80 -23 135 -23 205 C -23 307 20 389 106 451 C 192 513 308 545 453 545 L 612 545 C 619 573 623 597 623 618 C 623 656 611 686 588 710 C 565 733 519 745 449 745 C 351 745 263 726 186 690 L 156 793 C 241 837 343 860 461 860 C 656 860 754 785 754 636 C 754 616 752 594 748 571 L 647 0 Z M 440 436 C 340 436 260 416 201 378 C 142 340 113 289 113 225 C 113 179 126 145 153 123 C 180 101 216 90 260 90 C 306 90 355 102 409 128 C 463 154 511 187 555 227 L 592 436 L 440 436 Z M 792 1219 C 781 1151 759 1096 727 1055 C 694 1013 649 993 593 993 C 557 993 511 1016 456 1063 C 439 1076 423 1087 409 1097 C 394 1107 377 1112 358 1112 C 320 1112 296 1074 284 999 L 171 999 C 181 1069 203 1125 237 1165 C 271 1205 315 1225 370 1225 C 386 1225 402 1221 420 1214 C 438 1207 467 1189 507 1161 C 523 1147 539 1134 554 1123 C 569 1111 585 1106 603 1106 C 641 1106 665 1143 677 1219 L 792 1219 Z" unicode="ã" />
<glyph horiz-adv-x="887" d="M 647 0 L 516 0 L 532 94 C 436 14 335 -25 231 -25 C 154 -25 92 -4 46 38 C 0 80 -23 135 -23 205 C -23 307 20 389 106 451 C 192 513 308 545 453 545 L 612 545 C 619 573 623 597 623 618 C 623 656 611 686 588 710 C 565 733 519 745 449 745 C 351 745 263 726 186 690 L 156 793 C 241 837 343 860 461 860 C 656 860 754 785 754 636 C 754 616 752 594 748 571 L 647 0 Z M 440 436 C 340 436 260 416 201 378 C 142 340 113 289 113 225 C 113 179 126 145 153 123 C 180 101 216 90 260 90 C 306 90 355 102 409 128 C 463 154 511 187 555 227 L 592 436 L 440 436 Z M 706 999 L 568 999 L 607 1206 L 743 1206 L 706 999 Z M 372 999 L 235 999 L 274 1206 L 409 1206 L 372 999 Z" unicode="ä" />
<glyph horiz-adv-x="887" d="M 647 0 L 516 0 L 532 94 C 436 14 335 -25 231 -25 C 154 -25 92 -4 46 38 C 0 80 -23 135 -23 205 C -23 307 20 389 106 451 C 192 513 308 545 453 545 L 612 545 C 619 573 623 597 623 618 C 623 656 611 686 588 710 C 565 733 519 745 449 745 C 351 745 263 726 186 690 L 156 793 C 241 837 343 860 461 860 C 656 860 754 785 754 636 C 754 616 752 594 748 571 L 647 0 Z M 440 436 C 340 436 260 416 201 378 C 142 340 113 289 113 225 C 113 179 126 145 153 123 C 180 101 216 90 260 90 C 306 90 355 102 409 128 C 463 154 511 187 555 227 L 592 436 L 440 436 Z M 697 1212 C 697 1149 675 1096 631 1053 C 587 1010 534 989 474 989 C 416 989 366 1009 326 1050 C 285 1090 265 1140 265 1200 C 265 1261 286 1313 330 1356 C 374 1399 427 1421 489 1421 C 547 1421 596 1400 636 1359 C 676 1318 697 1269 697 1212 Z M 605 1210 C 605 1243 593 1271 571 1294 C 548 1317 521 1329 489 1329 C 452 1329 421 1316 397 1290 C 372 1264 360 1235 360 1202 C 360 1168 371 1140 393 1116 C 415 1092 442 1081 474 1081 C 512 1081 543 1094 568 1120 C 592 1146 605 1176 605 1210 Z" unicode="å" />
<glyph horiz-adv-x="1526" d="M 1395 526 C 1395 468 1390 430 1382 412 L 721 412 C 718 397 717 379 717 358 C 717 276 738 212 781 166 C 824 119 885 96 963 96 C 1018 96 1070 105 1118 125 C 1166 145 1209 171 1245 203 L 1319 119 C 1271 71 1216 35 1153 11 C 1090 -12 1024 -25 956 -25 C 877 -25 809 -9 753 22 C 697 54 656 100 631 160 C 577 103 514 58 444 25 C 373 -8 303 -25 233 -25 C 156 -25 95 -4 50 38 C 4 80 -18 136 -18 207 C -18 309 24 390 109 450 C 193 509 309 539 455 539 L 614 539 L 618 569 C 621 587 623 605 623 621 C 623 655 612 683 592 707 C 571 731 525 743 455 743 C 353 743 264 725 190 690 L 158 795 C 240 838 343 860 465 860 C 543 860 605 846 650 819 C 694 792 721 756 731 711 C 770 757 818 793 874 820 C 930 846 990 860 1055 860 C 1119 860 1176 845 1228 816 C 1280 787 1320 747 1350 695 C 1380 643 1395 587 1395 526 Z M 1266 512 L 1266 519 C 1266 587 1246 641 1208 682 C 1169 722 1115 743 1047 743 C 979 743 918 722 863 680 C 808 638 768 582 743 512 L 1266 512 Z M 440 428 C 342 428 264 409 207 373 C 149 337 121 288 121 227 C 121 183 134 150 160 127 C 186 103 220 92 264 92 C 310 92 362 106 418 134 C 474 162 528 203 582 256 C 579 262 578 273 578 290 C 578 335 582 381 592 428 L 440 428 Z" unicode="æ" />
<glyph horiz-adv-x="850" d="M 289 -20 C 202 -7 132 33 78 101 C 24 169 -2 251 -2 348 C -2 433 19 516 62 597 C 104 677 162 741 234 789 C 306 836 385 860 469 860 C 533 860 589 849 639 829 C 688 809 733 773 774 723 L 680 633 C 648 672 615 700 580 716 C 544 732 504 741 459 741 C 401 741 346 723 296 688 C 246 652 206 605 177 546 C 147 486 133 424 133 360 C 133 283 153 220 195 170 C 237 120 291 96 358 96 C 412 96 461 107 504 129 C 546 151 587 183 627 225 L 707 145 C 616 45 511 -11 391 -23 L 334 -96 L 346 -94 L 362 -94 C 402 -94 435 -104 462 -124 C 488 -144 502 -171 502 -203 C 502 -253 482 -292 444 -322 C 406 -352 353 -367 285 -367 C 219 -367 157 -345 98 -301 L 147 -248 C 182 -279 228 -295 285 -295 C 313 -295 338 -287 359 -273 C 380 -258 391 -239 391 -215 C 391 -197 383 -183 369 -173 C 354 -163 334 -158 309 -158 C 279 -158 252 -161 227 -168 L 203 -131 L 289 -20 Z" unicode="ç" />
<glyph horiz-adv-x="903" d="M 788 528 C 788 474 784 435 778 412 L 129 412 L 127 389 L 127 365 C 127 279 149 212 193 164 C 237 116 299 92 379 92 C 433 92 483 102 531 122 C 579 142 621 169 657 201 L 729 117 C 681 71 626 35 562 11 C 498 -12 432 -25 365 -25 C 252 -25 163 8 97 76 C 31 143 -2 235 -2 352 C -2 442 18 527 59 606 C 99 685 155 747 226 792 C 297 837 375 860 461 860 C 525 860 581 845 631 816 C 681 787 719 747 747 697 C 774 646 788 590 788 528 Z M 659 512 L 659 520 C 659 591 640 646 603 686 C 565 725 513 745 446 745 C 378 745 317 723 264 681 C 211 639 174 582 152 512 L 659 512 Z M 370 999 L 210 1288 L 347 1288 L 503 999 L 370 999 Z" unicode="è" />
<glyph horiz-adv-x="903" d="M 788 528 C 788 474 784 435 778 412 L 129 412 L 127 389 L 127 365 C 127 279 149 212 193 164 C 237 116 299 92 379 92 C 433 92 483 102 531 122 C 579 142 621 169 657 201 L 729 117 C 681 71 626 35 562 11 C 498 -12 432 -25 365 -25 C 252 -25 163 8 97 76 C 31 143 -2 235 -2 352 C -2 442 18 527 59 606 C 99 685 155 747 226 792 C 297 837 375 860 461 860 C 525 860 581 845 631 816 C 681 787 719 747 747 697 C 774 646 788 590 788 528 Z M 659 512 L 659 520 C 659 591 640 646 603 686 C 565 725 513 745 446 745 C 378 745 317 723 264 681 C 211 639 174 582 152 512 L 659 512 Z M 514 999 L 366 999 L 592 1288 L 741 1288 L 514 999 Z" unicode="é" />
<glyph horiz-adv-x="903" d="M 788 528 C 788 474 784 435 778 412 L 129 412 L 127 389 L 127 365 C 127 279 149 212 193 164 C 237 116 299 92 379 92 C 433 92 483 102 531 122 C 579 142 621 169 657 201 L 729 117 C 681 71 626 35 562 11 C 498 -12 432 -25 365 -25 C 252 -25 163 8 97 76 C 31 143 -2 235 -2 352 C -2 442 18 527 59 606 C 99 685 155 747 226 792 C 297 837 375 860 461 860 C 525 860 581 845 631 816 C 681 787 719 747 747 697 C 774 646 788 590 788 528 Z M 659 512 L 659 520 C 659 591 640 646 603 686 C 565 725 513 745 446 745 C 378 745 317 723 264 681 C 211 639 174 582 152 512 L 659 512 Z M 578 986 L 474 1173 L 306 986 L 162 986 L 423 1271 L 552 1271 L 713 986 L 578 986 Z" unicode="ê" />
<glyph horiz-adv-x="903" d="M 788 528 C 788 474 784 435 778 412 L 129 412 L 127 389 L 127 365 C 127 279 149 212 193 164 C 237 116 299 92 379 92 C 433 92 483 102 531 122 C 579 142 621 169 657 201 L 729 117 C 681 71 626 35 562 11 C 498 -12 432 -25 365 -25 C 252 -25 163 8 97 76 C 31 143 -2 235 -2 352 C -2 442 18 527 59 606 C 99 685 155 747 226 792 C 297 837 375 860 461 860 C 525 860 581 845 631 816 C 681 787 719 747 747 697 C 774 646 788 590 788 528 Z M 659 512 L 659 520 C 659 591 640 646 603 686 C 565 725 513 745 446 745 C 378 745 317 723 264 681 C 211 639 174 582 152 512 L 659 512 Z M 679 999 L 541 999 L 580 1206 L 716 1206 L 679 999 Z M 345 999 L 208 999 L 247 1206 L 382 1206 L 345 999 Z" unicode="ë" />
<glyph horiz-adv-x="371" d="M 119 0 L -12 0 L 135 836 L 266 836 L 119 0 Z M 126 999 L -34 1288 L 103 1288 L 259 999 L 126 999 Z" unicode="ì" />
<glyph horiz-adv-x="371" d="M 119 0 L -12 0 L 135 836 L 266 836 L 119 0 Z M 304 999 L 156 999 L 382 1288 L 531 1288 L 304 999 Z" unicode="í" />
<glyph horiz-adv-x="371" d="M 119 0 L -12 0 L 135 836 L 266 836 L 119 0 Z M 347 999 L 243 1186 L 75 999 L -69 999 L 192 1284 L 321 1284 L 482 999 L 347 999 Z" unicode="î" />
<glyph horiz-adv-x="371" d="M 119 0 L -12 0 L 135 836 L 266 836 L 119 0 Z M 450 999 L 312 999 L 351 1206 L 487 1206 L 450 999 Z M 116 999 L -21 999 L 18 1206 L 153 1206 L 116 999 Z" unicode="ï" />
<glyph horiz-adv-x="942" d="M 842 528 C 842 417 822 320 784 236 C 745 152 691 87 621 42 C 551 -2 471 -25 381 -25 C 275 -25 188 10 122 82 C 56 154 23 247 23 362 C 23 453 41 537 79 613 C 116 689 168 748 234 792 C 300 836 373 858 453 858 C 503 858 550 848 594 829 C 638 809 668 786 686 758 C 668 878 612 1011 518 1157 L 291 1065 L 242 1171 L 457 1260 C 392 1340 325 1409 256 1468 L 319 1534 C 416 1467 498 1390 565 1303 L 721 1368 L 770 1262 L 633 1204 C 702 1096 754 984 789 866 C 824 748 842 636 842 528 Z M 700 477 C 700 556 678 619 634 665 C 590 711 531 735 457 735 C 371 735 300 700 242 632 C 184 563 156 478 156 377 C 156 293 178 226 223 175 C 267 123 327 98 401 98 C 490 98 562 133 617 204 C 672 274 700 365 700 477 Z" unicode="ð" />
<glyph horiz-adv-x="932" d="M 692 0 L 561 0 L 653 514 C 657 536 659 556 659 576 C 659 619 647 658 623 692 C 599 726 556 743 496 743 C 429 743 366 714 308 658 C 250 602 214 537 201 463 L 119 0 L -10 0 L 137 836 L 266 836 L 244 705 C 284 755 330 794 381 820 C 432 846 484 860 537 860 C 617 860 679 837 724 792 C 769 746 792 685 792 607 C 792 581 789 554 784 526 L 692 0 Z M 786 1219 C 775 1151 753 1096 721 1055 C 688 1013 643 993 587 993 C 551 993 505 1016 450 1063 C 433 1076 417 1087 403 1097 C 388 1107 371 1112 352 1112 C 314 1112 290 1074 278 999 L 165 999 C 175 1069 197 1125 231 1165 C 265 1205 309 1225 364 1225 C 380 1225 396 1221 414 1214 C 432 1207 461 1189 501 1161 C 517 1147 533 1134 548 1123 C 563 1111 579 1106 597 1106 C 635 1106 659 1143 671 1219 L 786 1219 Z" unicode="ñ" />
<glyph horiz-adv-x="965" d="M 854 500 C 854 403 832 314 789 233 C 746 152 687 89 612 43 C 537 -2 455 -25 367 -25 C 298 -25 236 -9 180 21 C 124 52 80 96 48 152 C 16 208 0 271 0 340 C 0 430 21 516 65 597 C 109 678 168 742 244 789 C 320 836 401 860 489 860 C 593 860 680 825 750 757 C 819 689 854 603 854 500 Z M 719 479 C 719 558 696 621 652 668 C 608 715 548 739 473 739 C 413 739 356 721 304 687 C 251 653 210 606 180 548 C 150 490 135 426 135 358 C 135 278 157 214 202 167 C 247 119 307 96 383 96 C 445 96 503 113 555 148 C 607 182 647 229 676 288 C 704 347 719 411 719 479 Z M 415 999 L 255 1288 L 392 1288 L 548 999 L 415 999 Z" unicode="ò" />
<glyph horiz-adv-x="965" d="M 854 500 C 854 403 832 314 789 233 C 746 152 687 89 612 43 C 537 -2 455 -25 367 -25 C 298 -25 236 -9 180 21 C 124 52 80 96 48 152 C 16 208 0 271 0 340 C 0 430 21 516 65 597 C 109 678 168 742 244 789 C 320 836 401 860 489 860 C 593 860 680 825 750 757 C 819 689 854 603 854 500 Z M 719 479 C 719 558 696 621 652 668 C 608 715 548 739 473 739 C 413 739 356 721 304 687 C 251 653 210 606 180 548 C 150 490 135 426 135 358 C 135 278 157 214 202 167 C 247 119 307 96 383 96 C 445 96 503 113 555 148 C 607 182 647 229 676 288 C 704 347 719 411 719 479 Z M 539 999 L 391 999 L 617 1288 L 766 1288 L 539 999 Z" unicode="ó" />
<glyph horiz-adv-x="965" d="M 854 500 C 854 403 832 314 789 233 C 746 152 687 89 612 43 C 537 -2 455 -25 367 -25 C 298 -25 236 -9 180 21 C 124 52 80 96 48 152 C 16 208 0 271 0 340 C 0 430 21 516 65 597 C 109 678 168 742 244 789 C 320 836 401 860 489 860 C 593 860 680 825 750 757 C 819 689 854 603 854 500 Z M 719 479 C 719 558 696 621 652 668 C 608 715 548 739 473 739 C 413 739 356 721 304 687 C 251 653 210 606 180 548 C 150 490 135 426 135 358 C 135 278 157 214 202 167 C 247 119 307 96 383 96 C 445 96 503 113 555 148 C 607 182 647 229 676 288 C 704 347 719 411 719 479 Z M 607 986 L 503 1173 L 335 986 L 191 986 L 452 1271 L 581 1271 L 742 986 L 607 986 Z" unicode="ô" />
<glyph horiz-adv-x="965" d="M 854 500 C 854 403 832 314 789 233 C 746 152 687 89 612 43 C 537 -2 455 -25 367 -25 C 298 -25 236 -9 180 21 C 124 52 80 96 48 152 C 16 208 0 271 0 340 C 0 430 21 516 65 597 C 109 678 168 742 244 789 C 320 836 401 860 489 860 C 593 860 680 825 750 757 C 819 689 854 603 854 500 Z M 719 479 C 719 558 696 621 652 668 C 608 715 548 739 473 739 C 413 739 356 721 304 687 C 251 653 210 606 180 548 C 150 490 135 426 135 358 C 135 278 157 214 202 167 C 247 119 307 96 383 96 C 445 96 503 113 555 148 C 607 182 647 229 676 288 C 704 347 719 411 719 479 Z M 792 1219 C 781 1151 759 1096 727 1055 C 694 1013 649 993 593 993 C 557 993 511 1016 456 1063 C 439 1076 423 1087 409 1097 C 394 1107 377 1112 358 1112 C 320 1112 296 1074 284 999 L 171 999 C 181 1069 203 1125 237 1165 C 271 1205 315 1225 370 1225 C 386 1225 402 1221 420 1214 C 438 1207 467 1189 507 1161 C 523 1147 539 1134 554 1123 C 569 1111 585 1106 603 1106 C 641 1106 665 1143 677 1219 L 792 1219 Z" unicode="õ" />
<glyph horiz-adv-x="965" d="M 854 500 C 854 403 832 314 789 233 C 746 152 687 89 612 43 C 537 -2 455 -25 367 -25 C 298 -25 236 -9 180 21 C 124 52 80 96 48 152 C 16 208 0 271 0 340 C 0 430 21 516 65 597 C 109 678 168 742 244 789 C 320 836 401 860 489 860 C 593 860 680 825 750 757 C 819 689 854 603 854 500 Z M 719 479 C 719 558 696 621 652 668 C 608 715 548 739 473 739 C 413 739 356 721 304 687 C 251 653 210 606 180 548 C 150 490 135 426 135 358 C 135 278 157 214 202 167 C 247 119 307 96 383 96 C 445 96 503 113 555 148 C 607 182 647 229 676 288 C 704 347 719 411 719 479 Z M 718 999 L 580 999 L 619 1206 L 755 1206 L 718 999 Z M 384 999 L 247 999 L 286 1206 L 421 1206 L 384 999 Z" unicode="ö" />
<glyph horiz-adv-x="1536" d="M 209 684 L 209 895 L 1327 895 L 1327 684 L 209 684 Z M 768 227 C 726 227 688 243 656 275 C 624 307 608 345 608 387 C 608 431 622 469 650 501 C 678 533 717 549 768 549 C 816 549 854 533 884 501 C 913 469 928 431 928 387 C 928 345 911 307 879 275 C 847 243 810 227 768 227 Z M 768 1028 C 726 1028 688 1044 656 1076 C 624 1108 608 1145 608 1188 C 608 1230 622 1267 650 1299 C 678 1331 717 1348 768 1348 C 816 1348 854 1331 884 1299 C 913 1267 928 1230 928 1188 C 928 1145 911 1108 879 1076 C 847 1044 810 1028 768 1028 Z" unicode="÷" />
<glyph horiz-adv-x="963" d="M 784 711 C 828 649 850 578 850 500 C 850 402 828 313 786 233 C 744 152 685 89 611 43 C 536 -2 455 -25 367 -25 C 265 -25 181 6 117 68 L 14 -27 L -45 33 L 61 135 C 23 198 4 267 4 342 C 4 431 25 516 68 597 C 111 678 170 742 244 789 C 318 836 400 860 489 860 C 581 860 661 831 729 774 L 827 866 L 887 805 L 784 711 Z M 633 678 C 590 716 536 735 471 735 C 413 735 358 718 307 684 C 256 650 216 604 187 546 C 157 488 143 425 143 358 C 143 314 152 275 170 242 L 633 678 Z M 711 481 C 711 526 700 568 680 606 L 213 166 C 257 122 313 100 381 100 C 442 100 498 117 548 151 C 598 185 638 231 667 291 C 696 350 711 413 711 481 Z" unicode="ø" />
<glyph horiz-adv-x="932" d="M 674 0 L 543 0 L 565 131 C 529 82 484 44 432 16 C 380 -11 327 -25 274 -25 C 194 -25 132 -2 86 42 C 40 86 18 149 18 229 C 18 253 20 279 25 307 L 119 836 L 250 836 L 158 319 C 154 297 152 277 152 258 C 152 215 164 177 188 143 C 212 109 255 92 315 92 C 383 92 445 120 503 178 C 561 236 596 301 610 373 L 692 836 L 821 836 L 674 0 Z M 425 999 L 265 1288 L 402 1288 L 558 999 L 425 999 Z" unicode="ù" />
<glyph horiz-adv-x="932" d="M 674 0 L 543 0 L 565 131 C 529 82 484 44 432 16 C 380 -11 327 -25 274 -25 C 194 -25 132 -2 86 42 C 40 86 18 149 18 229 C 18 253 20 279 25 307 L 119 836 L 250 836 L 158 319 C 154 297 152 277 152 258 C 152 215 164 177 188 143 C 212 109 255 92 315 92 C 383 92 445 120 503 178 C 561 236 596 301 610 373 L 692 836 L 821 836 L 674 0 Z M 518 999 L 370 999 L 596 1288 L 745 1288 L 518 999 Z" unicode="ú" />
<glyph horiz-adv-x="932" d="M 674 0 L 543 0 L 565 131 C 529 82 484 44 432 16 C 380 -11 327 -25 274 -25 C 194 -25 132 -2 86 42 C 40 86 18 149 18 229 C 18 253 20 279 25 307 L 119 836 L 250 836 L 158 319 C 154 297 152 277 152 258 C 152 215 164 177 188 143 C 212 109 255 92 315 92 C 383 92 445 120 503 178 C 561 236 596 301 610 373 L 692 836 L 821 836 L 674 0 Z M 593 999 L 489 1186 L 321 999 L 177 999 L 438 1284 L 567 1284 L 728 999 L 593 999 Z" unicode="û" />
<glyph horiz-adv-x="932" d="M 674 0 L 543 0 L 565 131 C 529 82 484 44 432 16 C 380 -11 327 -25 274 -25 C 194 -25 132 -2 86 42 C 40 86 18 149 18 229 C 18 253 20 279 25 307 L 119 836 L 250 836 L 158 319 C 154 297 152 277 152 258 C 152 215 164 177 188 143 C 212 109 255 92 315 92 C 383 92 445 120 503 178 C 561 236 596 301 610 373 L 692 836 L 821 836 L 674 0 Z M 708 999 L 570 999 L 609 1206 L 745 1206 L 708 999 Z M 374 999 L 237 999 L 276 1206 L 411 1206 L 374 999 Z" unicode="ü" />
<glyph horiz-adv-x="807" d="M -27 -379 C -75 -379 -116 -371 -150 -356 L -129 -236 C -102 -252 -71 -260 -35 -260 C 7 -260 42 -246 71 -220 C 99 -193 126 -156 150 -109 L 207 -6 L 35 836 L 168 836 L 305 150 L 649 836 L 793 836 L 254 -162 C 176 -306 82 -379 -27 -379 Z M 472 999 L 324 999 L 550 1288 L 699 1288 L 472 999 Z" unicode="ý" />
<glyph horiz-adv-x="987" d="M 872 494 C 872 401 849 314 805 233 C 761 151 703 88 632 42 C 561 -4 487 -27 410 -27 C 353 -27 301 -15 255 7 C 209 30 171 62 141 104 L 57 -367 L -80 -367 L 248 1495 L 387 1495 L 248 688 C 278 738 321 779 377 812 C 433 845 492 862 555 862 C 648 862 724 827 783 759 C 842 691 872 602 872 494 Z M 733 485 C 733 565 714 627 676 670 C 638 713 584 735 516 735 C 442 735 375 703 313 641 C 251 579 212 502 197 410 L 168 252 C 188 204 220 167 264 140 C 307 113 357 100 414 100 C 501 100 576 137 639 213 C 701 289 733 379 733 485 Z" unicode="þ" />
<glyph horiz-adv-x="807" d="M -27 -379 C -75 -379 -116 -371 -150 -356 L -129 -236 C -102 -252 -71 -260 -35 -260 C 7 -260 42 -246 71 -220 C 99 -193 126 -156 150 -109 L 207 -6 L 35 836 L 168 836 L 305 150 L 649 836 L 793 836 L 254 -162 C 176 -306 82 -379 -27 -379 Z M 638 999 L 500 999 L 539 1206 L 675 1206 L 638 999 Z M 304 999 L 167 999 L 206 1206 L 341 1206 L 304 999 Z" unicode="ÿ" />
<glyph horiz-adv-x="371" d="M 119 0 L -12 0 L 135 836 L 266 836 L 119 0 Z" unicode="ı" />
<glyph horiz-adv-x="971" d="M 260 135 L 858 135 L 836 0 L 94 0 L 166 614 L 76 586 L 33 705 L 188 756 L 268 1495 L 412 1495 L 340 803 L 657 913 L 700 797 L 317 666 L 260 135 Z" unicode="Ł" />
<glyph horiz-adv-x="489" d="M 223 0 L 86 0 L 156 616 L 61 584 L 16 705 L 178 758 L 258 1495 L 395 1495 L 322 803 L 432 842 L 475 725 L 301 664 L 223 0 Z" unicode="ł" />
<glyph horiz-adv-x="2304" d="M 2302 1362 L 1667 1362 L 1573 827 L 2163 827 L 2140 696 L 1548 696 L 1450 133 L 2122 133 L 2099 0 L 1286 0 L 1339 301 C 1267 201 1175 121 1065 63 C 954 4 839 -25 719 -25 C 596 -25 486 1 389 54 C 291 107 216 182 162 279 C 108 376 82 484 82 604 C 82 774 121 930 199 1070 C 277 1210 383 1320 518 1400 C 652 1480 796 1520 948 1520 C 1031 1520 1110 1504 1186 1474 C 1262 1443 1327 1400 1381 1345 C 1435 1289 1471 1229 1491 1163 L 1550 1495 L 2324 1495 L 2302 1362 Z M 1425 870 C 1425 970 1404 1058 1363 1136 C 1322 1213 1263 1273 1186 1316 C 1108 1358 1018 1380 915 1380 C 790 1380 676 1347 573 1281 C 469 1215 386 1123 324 1007 C 262 891 231 768 231 639 C 231 536 251 445 293 365 C 335 285 394 224 472 180 C 550 136 640 115 743 115 C 863 115 976 149 1082 219 C 1188 288 1271 382 1333 500 C 1394 618 1425 742 1425 870 Z" unicode="Œ" />
<glyph horiz-adv-x="1645" d="M 1511 526 C 1511 475 1507 437 1501 412 L 838 412 L 836 389 L 836 365 C 836 283 858 217 902 169 C 946 120 1007 96 1083 96 C 1187 96 1280 131 1364 203 L 1436 119 C 1388 71 1333 35 1270 11 C 1207 -12 1143 -25 1077 -25 C 999 -25 930 -6 871 31 C 811 68 769 118 745 182 C 707 121 654 71 586 33 C 517 -5 444 -25 367 -25 C 260 -25 173 9 105 78 C 37 146 4 234 4 342 C 4 431 25 516 68 597 C 111 678 170 742 244 789 C 318 836 400 860 489 860 C 563 860 628 841 686 804 C 744 766 783 716 805 653 C 836 711 885 760 953 800 C 1020 840 1094 860 1174 860 C 1271 860 1351 827 1415 763 C 1479 699 1511 620 1511 526 Z M 711 481 C 711 558 689 620 646 666 C 603 712 545 735 471 735 C 413 735 358 718 307 684 C 256 650 216 604 187 546 C 157 488 143 425 143 358 C 143 280 164 217 206 170 C 248 123 307 100 381 100 C 442 100 498 117 548 151 C 598 185 638 231 667 291 C 696 350 711 413 711 481 Z M 1382 512 L 1382 519 C 1382 588 1362 643 1324 683 C 1286 723 1233 743 1165 743 C 1098 743 1037 722 982 682 C 927 641 886 584 860 512 L 1382 512 Z" unicode="œ" />
<glyph horiz-adv-x="1010" d="M 881 1264 C 843 1308 802 1340 760 1360 C 718 1379 669 1389 614 1389 C 528 1389 457 1364 403 1315 C 349 1265 322 1202 322 1124 C 322 1074 340 1026 376 980 C 412 934 476 882 567 823 C 649 769 708 723 745 685 C 782 647 810 605 829 561 C 848 517 858 468 858 416 C 858 334 836 260 792 192 C 748 124 689 70 613 32 C 537 -5 455 -25 367 -25 C 215 -25 88 27 -14 133 L 82 238 C 167 150 265 106 377 106 C 472 106 551 131 614 183 C 677 234 709 302 709 387 C 709 429 700 468 683 504 C 665 540 639 574 605 608 C 571 641 514 684 434 737 C 339 797 272 857 232 916 C 192 975 172 1040 172 1110 C 172 1186 192 1255 232 1319 C 272 1382 327 1431 397 1467 C 467 1502 544 1520 629 1520 C 705 1520 771 1507 827 1482 C 883 1457 933 1419 979 1368 L 881 1264 Z M 688 1609 L 559 1609 L 397 1894 L 539 1894 L 641 1714 L 811 1894 L 950 1894 L 688 1609 Z" unicode="Š" />
<glyph horiz-adv-x="717" d="M 547 672 C 486 722 420 748 348 748 C 303 748 267 736 239 714 C 211 692 197 663 197 629 C 197 599 210 573 238 551 C 265 529 304 506 354 483 C 429 447 482 410 513 373 C 543 335 559 292 559 242 C 559 192 545 147 517 108 C 489 68 451 37 403 15 C 354 -6 303 -18 250 -18 C 138 -18 41 15 -39 82 L 39 178 C 113 120 184 92 254 92 C 306 92 348 104 380 129 C 412 153 428 185 428 223 C 428 255 415 283 389 309 C 363 334 314 363 242 397 C 176 429 131 463 105 497 C 79 531 66 570 66 614 C 66 660 79 701 105 738 C 131 775 167 804 213 825 C 258 845 307 856 360 856 C 468 856 556 826 623 768 L 547 672 Z M 449 999 L 320 999 L 158 1284 L 300 1284 L 402 1104 L 572 1284 L 711 1284 L 449 999 Z" unicode="š" />
<glyph horiz-adv-x="1253" d="M 559 0 L 420 0 L 545 707 L 166 1495 L 319 1495 L 637 838 L 1182 1495 L 1350 1495 L 684 705 L 559 0 Z M 971 1609 L 833 1609 L 872 1816 L 1008 1816 L 971 1609 Z M 637 1609 L 500 1609 L 539 1816 L 674 1816 L 637 1609 Z" unicode="Ÿ" />
<glyph horiz-adv-x="1266" d="M 199 127 L 1047 127 L 1026 0 L -63 0 L 1028 1368 L 287 1368 L 309 1495 L 1290 1495 L 199 127 Z M 868 1609 L 739 1609 L 577 1894 L 719 1894 L 821 1714 L 991 1894 L 1130 1894 L 868 1609 Z" unicode="Ž" />
<glyph horiz-adv-x="842" d="M 156 115 L 641 115 L 621 0 L -96 0 L 547 721 L 106 721 L 125 836 L 801 836 L 156 115 Z M 531 999 L 402 999 L 240 1284 L 382 1284 L 484 1104 L 654 1284 L 793 1284 L 531 999 Z" unicode="ž" />
<glyph horiz-adv-x="551" d="M 598 1370 C 582 1375 558 1378 528 1378 C 492 1378 463 1365 442 1340 C 421 1315 403 1266 389 1192 L 328 842 L 492 842 L 471 715 L 307 715 L 164 -109 C 132 -281 49 -367 -86 -367 C -130 -367 -162 -362 -184 -352 L -160 -238 C -140 -243 -121 -246 -102 -246 C -62 -246 -32 -232 -12 -206 C 7 -179 24 -131 37 -61 L 170 715 L 59 715 L 82 842 L 190 842 L 262 1239 C 276 1322 305 1386 349 1431 C 392 1476 446 1499 510 1499 C 569 1499 607 1494 625 1485 L 598 1370 Z" unicode="ƒ" />
<glyph horiz-adv-x="961" d="M 647 999 L 543 1186 L 375 999 L 231 999 L 492 1284 L 621 1284 L 782 999 L 647 999 Z" unicode="ˆ" />
<glyph horiz-adv-x="961" d="M 563 999 L 434 999 L 272 1284 L 414 1284 L 516 1104 L 686 1284 L 825 1284 L 563 999 Z" unicode="ˇ" />
<glyph horiz-adv-x="961" d="M 805 1010 L 219 1010 L 236 1114 L 821 1114 L 805 1010 Z" unicode="ˉ" />
<glyph horiz-adv-x="961" d="M 838 1280 C 817 1192 776 1122 714 1070 C 652 1018 580 993 500 993 C 426 993 367 1014 325 1057 C 282 1099 261 1158 261 1232 L 264 1280 L 381 1280 L 380 1260 C 380 1214 392 1176 418 1148 C 444 1120 477 1106 518 1106 C 564 1106 606 1122 645 1156 C 683 1190 709 1231 723 1280 L 838 1280 Z" unicode="˘" />
<glyph horiz-adv-x="961" d="M 502 1020 L 362 1020 L 397 1212 L 537 1212 L 502 1020 Z" unicode="˙" />
<glyph horiz-adv-x="961" d="M 745 1212 C 745 1149 723 1096 679 1053 C 635 1010 582 989 522 989 C 464 989 414 1009 374 1050 C 333 1090 313 1140 313 1200 C 313 1261 334 1313 378 1356 C 422 1399 475 1421 537 1421 C 595 1421 644 1400 684 1359 C 724 1318 745 1269 745 1212 Z M 653 1210 C 653 1243 641 1271 619 1294 C 596 1317 569 1329 537 1329 C 500 1329 469 1316 445 1290 C 420 1264 408 1235 408 1202 C 408 1168 419 1140 441 1116 C 463 1092 490 1081 522 1081 C 560 1081 591 1094 616 1120 C 640 1146 653 1176 653 1210 Z" unicode="˚" />
<glyph horiz-adv-x="961" d="M 596 -305 C 540 -349 474 -371 399 -371 C 337 -371 284 -355 241 -325 C 197 -294 176 -255 176 -207 C 176 -169 193 -130 227 -90 C 261 -50 315 -12 389 23 L 502 23 C 368 -55 301 -130 301 -201 C 301 -232 311 -255 332 -269 C 353 -283 378 -291 406 -291 C 458 -291 507 -276 553 -246 L 596 -305 Z" unicode="˛" />
<glyph horiz-adv-x="961" d="M 840 1219 C 829 1151 807 1096 775 1055 C 742 1013 697 993 641 993 C 605 993 559 1016 504 1063 C 487 1076 471 1087 457 1097 C 442 1107 425 1112 406 1112 C 368 1112 344 1074 332 999 L 219 999 C 229 1069 251 1125 285 1165 C 319 1205 363 1225 418 1225 C 434 1225 450 1221 468 1214 C 486 1207 515 1189 555 1161 C 571 1147 587 1134 602 1123 C 617 1111 633 1106 651 1106 C 689 1106 713 1143 725 1219 L 840 1219 Z" unicode="˜" />
<glyph horiz-adv-x="961" d="M 645 999 L 512 999 L 690 1288 L 831 1288 L 645 999 Z M 358 999 L 223 999 L 403 1288 L 545 1288 L 358 999 Z" unicode="˝" />
<glyph horiz-adv-x="1536" d="M 76 0 L 651 1536 L 885 1536 L 1456 0 L 76 0 Z M 352 147 L 1163 147 L 752 1255 L 352 147 Z" unicode="Δ" />
<glyph horiz-adv-x="1663" d="M 831 1376 C 705 1376 598 1328 510 1234 C 421 1139 377 1006 377 836 C 377 673 406 538 465 432 C 523 325 610 241 725 180 L 725 0 L 88 0 L 88 197 L 537 197 C 456 225 378 295 304 405 C 230 515 193 663 193 848 C 193 1024 248 1184 358 1330 C 468 1475 626 1548 831 1548 C 1037 1548 1196 1478 1307 1338 C 1417 1198 1473 1034 1473 848 C 1473 663 1435 515 1360 405 C 1284 295 1207 225 1128 197 L 1577 197 L 1577 0 L 940 0 L 940 180 C 1054 241 1141 325 1200 432 C 1258 538 1288 673 1288 836 C 1288 974 1246 1099 1162 1210 C 1078 1320 967 1376 831 1376 Z" unicode="Ω" />
<glyph horiz-adv-x="1407" d="M 252 -424 C 215 -424 187 -413 168 -392 C 148 -370 139 -333 139 -281 C 139 -168 144 -41 156 100 C 166 234 172 310 172 328 L 176 356 L 176 1176 L 369 1176 L 369 319 C 369 257 396 210 450 176 C 504 142 564 125 629 125 C 716 125 792 146 858 190 C 923 234 973 297 1008 381 L 1008 1176 L 1200 1176 L 1200 307 L 1221 0 L 1057 0 L 1020 176 C 974 104 913 49 836 13 C 759 -22 671 -41 571 -41 C 537 -41 494 -32 444 -14 C 394 3 354 27 324 59 C 324 0 333 -57 352 -113 C 371 -169 381 -219 381 -264 C 381 -370 338 -424 252 -424 Z" unicode="μ" />
<glyph horiz-adv-x="1407" d="M 297 0 L 297 1028 L 12 1028 L 12 1176 L 1317 1176 L 1317 1028 L 995 1028 L 995 344 C 995 266 1010 212 1041 183 C 1071 153 1108 139 1151 139 C 1183 139 1210 139 1232 141 C 1253 142 1274 147 1296 156 L 1296 29 C 1263 12 1233 0 1205 -6 C 1177 -12 1137 -16 1087 -16 C 1003 -16 936 10 886 63 C 836 116 811 207 811 336 L 811 1028 L 483 1028 L 483 0 L 297 0 Z" unicode="π" />
<glyph horiz-adv-x="1024" d="" unicode=" " />
<glyph horiz-adv-x="2048" d="" unicode=" " />
<glyph horiz-adv-x="410" d="" unicode=" " />
<glyph horiz-adv-x="866" d="M 692 387 L 43 387 L 63 512 L 713 512 L 692 387 Z" unicode="–" />
<glyph horiz-adv-x="1219" d="M 1042 387 L 43 387 L 66 512 L 1065 512 L 1042 387 Z" unicode="—" />
<glyph horiz-adv-x="365" d="M 430 1495 C 386 1441 356 1368 340 1278 L 307 1096 L 160 1096 L 184 1233 C 190 1273 208 1317 238 1365 C 268 1413 302 1457 342 1495 L 430 1495 Z" unicode="‘" />
<glyph horiz-adv-x="365" d="M 211 1096 L 125 1096 C 168 1152 197 1225 213 1313 L 246 1495 L 393 1495 L 371 1358 C 363 1318 345 1273 315 1225 C 285 1176 250 1133 211 1096 Z" unicode="’" />
<glyph horiz-adv-x="365" d="M -23 -199 L -111 -199 C -66 -144 -36 -72 -20 18 L 12 201 L 160 201 L 135 63 C 127 19 107 -27 75 -77 C 43 -127 10 -168 -23 -199 Z" unicode="‚" />
<glyph horiz-adv-x="629" d="M 694 1495 C 650 1441 620 1368 604 1278 L 571 1096 L 424 1096 L 449 1233 C 455 1271 472 1315 502 1364 C 531 1413 566 1457 606 1495 L 694 1495 Z M 430 1495 C 386 1441 356 1368 340 1278 L 307 1096 L 160 1096 L 184 1233 C 190 1273 208 1317 238 1365 C 268 1413 302 1457 342 1495 L 430 1495 Z" unicode="“" />
<glyph horiz-adv-x="629" d="M 475 1096 L 389 1096 C 432 1152 461 1225 477 1313 L 510 1495 L 657 1495 L 635 1358 C 627 1318 609 1273 579 1225 C 549 1176 514 1133 475 1096 Z M 211 1096 L 125 1096 C 168 1152 197 1225 213 1313 L 246 1495 L 393 1495 L 371 1358 C 363 1318 345 1273 315 1225 C 285 1176 250 1133 211 1096 Z" unicode="”" />
<glyph horiz-adv-x="629" d="M 242 -199 L 154 -199 C 197 -145 227 -72 244 18 L 276 201 L 424 201 L 399 63 C 391 20 372 -24 343 -72 C 313 -120 280 -162 242 -199 Z M -23 -199 L -111 -199 C -66 -144 -36 -72 -20 18 L 12 201 L 160 201 L 135 63 C 127 19 107 -27 75 -77 C 43 -127 10 -168 -23 -199 Z" unicode="„" />
<glyph horiz-adv-x="1040" d="M 1010 807 L 594 807 L 385 -367 L 256 -367 L 465 807 L 49 807 L 70 924 L 483 924 L 586 1495 L 715 1495 L 614 924 L 1028 924 L 1010 807 Z" unicode="†" />
<glyph horiz-adv-x="1040" d="M 1010 807 L 594 807 L 514 348 L 928 348 L 907 231 L 492 231 L 385 -367 L 256 -367 L 362 231 L -51 231 L -31 348 L 383 348 L 465 807 L 49 807 L 70 924 L 483 924 L 586 1495 L 715 1495 L 614 924 L 1028 924 L 1010 807 Z" unicode="‡" />
<glyph horiz-adv-x="649" d="M 514 776 C 514 724 495 679 458 642 C 420 604 376 586 324 586 C 271 586 226 604 190 642 C 153 680 135 724 135 776 C 135 828 153 872 190 910 C 227 948 272 967 324 967 C 376 967 420 948 458 911 C 495 873 514 828 514 776 Z" unicode="•" />
<glyph horiz-adv-x="1110" d="M 877 0 L 729 0 L 766 207 L 913 207 L 877 0 Z M 500 0 L 352 0 L 389 207 L 537 207 L 500 0 Z M 125 0 L -25 0 L 14 207 L 162 207 L 125 0 Z" unicode="…" />
<glyph horiz-adv-x="2150" d="M 737 1229 C 737 1143 720 1063 688 989 C 655 914 612 855 558 812 C 504 769 447 748 387 748 C 311 748 252 773 208 824 C 164 875 143 948 143 1042 C 143 1125 159 1204 191 1278 C 223 1352 266 1410 321 1454 C 375 1498 432 1520 492 1520 C 570 1520 631 1494 673 1442 C 715 1390 737 1319 737 1229 Z M 215 0 L 68 0 L 1270 1495 L 1417 1495 L 215 0 Z M 2013 457 C 2013 371 1996 291 1964 217 C 1932 143 1888 84 1834 40 C 1779 -3 1722 -25 1663 -25 C 1587 -25 1527 0 1484 52 C 1440 104 1419 176 1419 270 C 1419 353 1435 432 1467 506 C 1499 580 1542 638 1597 682 C 1652 726 1709 748 1767 748 C 1844 748 1904 722 1948 671 C 1991 619 2013 548 2013 457 Z M 1339 457 C 1339 372 1323 292 1291 218 C 1259 143 1216 84 1162 40 C 1108 -3 1051 -25 991 -25 C 913 -25 853 1 810 54 C 766 106 745 178 745 270 C 745 353 761 432 794 506 C 826 580 870 638 925 682 C 979 726 1036 748 1096 748 C 1173 748 1233 722 1275 670 C 1317 618 1339 547 1339 457 Z M 612 1212 C 612 1274 600 1323 578 1359 C 555 1395 523 1413 481 1413 C 443 1413 408 1397 375 1365 C 342 1333 316 1290 296 1234 C 276 1178 266 1117 266 1053 C 266 990 277 941 301 906 C 324 871 357 854 399 854 C 457 854 507 889 549 960 C 591 1030 612 1114 612 1212 Z M 1888 440 C 1888 502 1876 551 1853 587 C 1830 623 1798 641 1757 641 C 1697 641 1647 605 1605 534 C 1563 463 1542 379 1542 281 C 1542 218 1553 169 1576 134 C 1599 99 1631 82 1673 82 C 1732 82 1783 117 1825 187 C 1867 257 1888 342 1888 440 Z M 1214 440 C 1214 502 1202 551 1180 587 C 1157 623 1125 641 1083 641 C 1045 641 1010 625 977 593 C 944 561 918 518 898 462 C 878 406 868 345 868 281 C 868 218 880 169 904 134 C 928 99 960 82 1001 82 C 1060 82 1110 117 1152 188 C 1193 259 1214 343 1214 440 Z" unicode="‰" />
<glyph horiz-adv-x="397" d="M 104 418 L 254 266 L 227 113 L -16 360 L 6 477 L 338 723 L 311 573 L 104 418 Z" unicode="‹" />
<glyph horiz-adv-x="424" d="M -16 115 L 12 266 L 221 424 L 72 573 L 94 723 L 342 479 L 319 362 L -16 115 Z" unicode="›" />
<glyph horiz-adv-x="782" d="M -72 0 L -223 0 L 854 1495 L 1004 1495 L -72 0 Z" unicode="⁄" />
<glyph horiz-adv-x="1198" d="M 1094 1141 C 1064 1221 1025 1282 978 1324 C 930 1365 876 1386 815 1386 C 723 1386 638 1342 560 1254 C 481 1166 421 1049 379 903 L 891 903 L 879 819 L 358 819 C 347 759 340 699 336 639 L 844 639 L 831 555 L 334 555 C 338 411 365 300 416 224 C 466 147 539 109 633 109 C 687 109 737 123 784 151 C 831 179 886 229 948 303 L 1055 219 C 979 129 908 65 842 29 C 776 -6 702 -25 621 -25 C 481 -25 373 24 298 124 C 223 224 184 367 182 555 L 35 555 L 49 639 L 184 639 C 188 703 195 763 207 819 L 84 819 L 96 903 L 225 903 C 273 1087 352 1236 461 1350 C 570 1463 693 1520 829 1520 C 1015 1520 1149 1417 1229 1212 L 1094 1141 Z" unicode="€" />
<glyph horiz-adv-x="1729" d="M 1636 748 C 1636 609 1601 480 1533 362 C 1464 243 1370 149 1252 79 C 1133 9 1004 -25 864 -25 C 724 -25 594 9 476 79 C 358 149 264 243 195 361 C 126 479 92 608 92 748 C 92 887 126 1016 195 1134 C 264 1252 358 1346 476 1416 C 594 1485 724 1520 864 1520 C 1003 1520 1132 1485 1250 1416 C 1368 1347 1462 1253 1532 1135 C 1601 1017 1636 888 1636 748 Z M 1548 745 C 1548 867 1517 982 1455 1089 C 1393 1195 1310 1279 1205 1340 C 1100 1401 986 1432 864 1432 C 741 1432 627 1401 522 1340 C 417 1279 334 1195 272 1089 C 210 982 180 867 180 745 C 180 621 211 506 274 400 C 336 293 420 210 525 150 C 629 90 742 61 864 61 C 985 61 1098 90 1203 150 C 1307 209 1391 292 1454 399 C 1516 506 1548 621 1548 745 Z M 1190 932 C 1190 856 1163 791 1109 738 C 1055 685 987 659 905 659 L 750 659 L 750 299 L 645 299 L 645 1196 L 895 1196 C 984 1196 1055 1171 1109 1122 C 1163 1073 1190 1010 1190 932 Z M 1081 934 C 1081 984 1064 1023 1030 1053 C 996 1083 949 1098 887 1098 L 750 1098 L 750 760 L 883 760 C 1015 760 1081 818 1081 934 Z" unicode="℗" />
<glyph horiz-adv-x="1642" d="M 1440 598 L 1440 1341 L 1143 905 L 1100 905 L 801 1335 L 801 598 L 702 598 L 702 1495 L 799 1495 L 1120 1032 L 1438 1495 L 1538 1495 L 1538 598 L 1440 598 Z M 356 1405 L 356 598 L 258 598 L 258 1405 L 55 1405 L 55 1495 L 559 1495 L 559 1405 L 356 1405 Z" unicode="™" />
<glyph horiz-adv-x="1663" d="M 831 1376 C 705 1376 598 1328 510 1234 C 421 1139 377 1006 377 836 C 377 673 406 538 465 432 C 523 325 610 241 725 180 L 725 0 L 88 0 L 88 197 L 537 197 C 456 225 378 295 304 405 C 230 515 193 663 193 848 C 193 1024 248 1184 358 1330 C 468 1475 626 1548 831 1548 C 1037 1548 1196 1478 1307 1338 C 1417 1198 1473 1034 1473 848 C 1473 663 1435 515 1360 405 C 1284 295 1207 225 1128 197 L 1577 197 L 1577 0 L 940 0 L 940 180 C 1054 241 1141 325 1200 432 C 1258 538 1288 673 1288 836 C 1288 974 1246 1099 1162 1210 C 1078 1320 967 1376 831 1376 Z" unicode="Ω" />
<glyph horiz-adv-x="1280" d="M 475 -33 C 342 -33 239 4 165 80 C 91 155 55 248 55 360 C 55 506 108 636 214 750 C 320 863 450 920 604 920 C 668 920 733 908 801 886 C 869 863 923 839 965 815 C 973 871 977 927 977 983 C 977 1108 954 1206 908 1277 C 862 1348 800 1384 721 1384 C 635 1384 567 1374 518 1355 C 468 1336 419 1311 369 1280 L 324 1444 C 374 1474 429 1498 491 1518 C 553 1538 629 1548 721 1548 C 877 1548 991 1496 1063 1393 C 1135 1290 1171 1149 1171 969 C 1171 691 1103 455 967 260 C 831 64 667 -33 475 -33 Z M 487 127 C 717 127 870 312 944 684 C 922 706 881 727 823 748 C 764 769 705 780 647 780 C 520 780 424 738 360 654 C 296 570 264 476 264 373 C 264 300 282 241 318 195 C 354 149 411 127 487 127 Z" unicode="∂" />
<glyph horiz-adv-x="1536" d="M 76 0 L 651 1536 L 885 1536 L 1456 0 L 76 0 Z M 352 147 L 1163 147 L 752 1255 L 352 147 Z" unicode="∆" />
<glyph horiz-adv-x="1536" d="M 332 0 L 332 1348 L 80 1348 L 80 1524 L 1456 1524 L 1456 1348 L 1212 1348 L 1212 0 L 1004 0 L 1004 1356 L 541 1356 L 541 0 L 332 0 Z" unicode="∏" />
<glyph horiz-adv-x="1151" d="M 1083 1524 L 1083 1343 L 332 1343 L 797 784 L 303 188 L 1079 188 L 1079 0 L 41 0 L 41 172 L 559 788 L 68 1380 L 68 1524 L 1083 1524 Z" unicode="∑" />
<glyph horiz-adv-x="1075" d="M 76 717 L 999 717 L 977 590 L 53 590 L 76 717 Z" unicode="−" />
<glyph horiz-adv-x="782" d="M -72 0 L -223 0 L 854 1495 L 1004 1495 L -72 0 Z" unicode="∕" />
<glyph horiz-adv-x="367" d="M 233 639 L 92 639 L 127 836 L 270 836 L 233 639 Z" unicode="∙" />
<glyph horiz-adv-x="1014" d="M 317 -20 L 231 -20 L 4 647 L 156 647 L 299 201 L 324 254 L 956 1495 L 1100 1495 L 317 -20 Z" unicode="√" />
<glyph horiz-adv-x="1536" d="M 1071 395 C 999 395 938 410 889 441 C 839 472 799 522 768 590 C 727 528 679 480 624 446 C 568 412 507 395 440 395 C 336 395 253 432 190 508 C 127 583 96 683 96 809 C 96 925 133 1022 207 1100 C 281 1178 369 1217 469 1217 C 541 1217 603 1202 655 1172 C 707 1142 749 1095 782 1031 C 852 1155 958 1217 1100 1217 C 1198 1217 1279 1182 1345 1112 C 1411 1042 1444 945 1444 819 C 1444 699 1409 598 1340 517 C 1271 435 1181 395 1071 395 Z M 1071 555 C 1127 555 1175 578 1217 625 C 1259 672 1280 735 1280 815 C 1280 881 1264 939 1234 988 C 1203 1036 1151 1061 1079 1061 C 1024 1061 980 1042 946 1005 C 912 968 880 901 850 803 C 858 701 882 634 924 602 C 966 570 1015 555 1071 555 Z M 471 1049 C 408 1049 356 1026 316 982 C 276 937 256 874 256 793 C 256 709 271 648 302 610 C 332 572 381 553 449 553 C 505 553 554 572 596 612 C 638 652 673 716 701 806 C 675 893 644 955 606 993 C 568 1030 523 1049 471 1049 Z" unicode="∞" />
<glyph horiz-adv-x="1151" d="M -8 -391 L 55 -260 C 71 -265 87 -270 103 -274 C 119 -278 139 -281 164 -281 C 196 -281 222 -269 242 -247 C 262 -224 277 -179 289 -113 L 516 1225 C 554 1437 676 1544 881 1544 C 981 1544 1071 1521 1151 1477 L 1087 1305 C 1058 1322 1025 1339 988 1355 C 950 1371 910 1380 868 1380 C 806 1380 760 1360 730 1322 C 699 1283 680 1238 672 1188 L 449 -223 C 435 -295 402 -348 350 -382 C 298 -415 240 -432 176 -432 C 136 -432 100 -428 66 -420 C 32 -412 8 -402 -8 -391 Z" unicode="∫" />
<glyph horiz-adv-x="1536" d="M 236 399 C 230 429 227 455 227 479 C 227 546 247 604 287 652 C 327 700 390 725 475 725 C 541 725 600 715 650 696 C 700 677 746 659 788 642 C 830 624 872 610 912 598 C 952 586 988 580 1020 580 C 1112 580 1159 614 1159 684 L 1155 717 L 1300 717 C 1306 687 1309 660 1309 637 C 1309 570 1288 512 1248 464 C 1208 415 1145 391 1061 391 C 994 391 936 399 886 417 C 836 435 789 452 747 470 C 705 487 663 501 623 512 C 583 522 547 528 516 528 C 465 528 429 518 408 499 C 387 480 377 458 377 432 L 381 399 L 236 399 Z M 236 860 C 230 888 227 915 227 940 C 227 1006 247 1064 287 1112 C 327 1160 390 1184 475 1184 C 541 1184 600 1174 650 1156 C 700 1137 746 1119 788 1101 C 830 1083 872 1069 912 1057 C 952 1045 988 1040 1020 1040 C 1070 1040 1106 1050 1127 1070 C 1148 1090 1159 1115 1159 1145 L 1155 1176 L 1300 1176 C 1306 1147 1309 1120 1309 1096 C 1309 1028 1288 971 1248 923 C 1208 875 1145 852 1061 852 C 994 852 936 860 886 877 C 836 894 789 911 747 929 C 705 947 663 961 623 971 C 583 981 547 987 516 987 C 465 987 429 977 408 959 C 387 941 377 919 377 893 L 381 860 L 236 860 Z" unicode="≈" />
<glyph horiz-adv-x="1536" d="M 213 977 L 213 1176 L 899 1176 L 995 1356 L 1167 1356 L 1072 1176 L 1327 1176 L 1327 977 L 967 977 L 769 604 L 1327 604 L 1327 403 L 663 403 L 549 188 L 373 188 L 487 403 L 213 403 L 213 604 L 594 604 L 793 977 L 213 977 Z" unicode="≠" />
<glyph horiz-adv-x="1536" d="M 1348 236 L 209 709 L 209 872 L 1348 1343 L 1348 1128 L 449 793 L 1348 453 L 1348 236 Z M 213 25 L 213 215 L 1348 215 L 1348 25 L 213 25 Z" unicode="≤" />
<glyph horiz-adv-x="1536" d="M 213 236 L 213 453 L 1112 793 L 213 1128 L 213 1343 L 1352 872 L 1352 709 L 213 236 Z M 213 25 L 213 215 L 1348 215 L 1348 25 L 213 25 Z" unicode="≥" />
<glyph horiz-adv-x="1151" d="M 471 -47 L 68 756 L 471 1561 L 655 1561 L 1083 756 L 655 -47 L 471 -47 Z M 555 152 L 877 768 L 571 1356 L 252 739 L 555 152 Z" unicode="◊" />
<glyph horiz-adv-x="1495" d="M 625 1372 L 625 1495 L 870 1495 L 870 1372 L 625 1372 Z M 1372 625 L 1372 870 L 1495 870 L 1495 625 L 1372 625 Z M 625 625 L 625 870 L 870 870 L 870 625 L 625 625 Z M 0 625 L 0 870 L 123 870 L 123 625 L 0 625 Z M 625 0 L 625 123 L 870 123 L 870 0 L 625 0 Z" unicode="" />
<glyph horiz-adv-x="909" d="M 993 1374 L 981 1377 L 924 1380 C 894 1380 869 1368 851 1345 C 833 1321 819 1281 809 1223 L 739 836 L 895 836 L 874 717 L 719 717 L 528 -367 L 397 -367 L 590 717 L 270 717 L 80 -367 L -51 -367 L 139 717 L 14 717 L 35 836 L 162 836 L 236 1264 C 249 1338 276 1396 316 1436 C 356 1476 407 1497 467 1497 C 519 1497 553 1494 569 1489 L 545 1374 C 533 1378 509 1380 473 1380 C 444 1380 420 1368 402 1345 C 384 1321 369 1281 358 1223 L 291 836 L 610 836 L 684 1264 C 698 1342 726 1400 767 1439 C 807 1477 857 1497 915 1497 C 970 1497 1004 1494 1018 1489 L 993 1374 Z" unicode="ﬀ" />
<glyph horiz-adv-x="831" d="M 545 1374 C 533 1378 509 1380 473 1380 C 444 1380 420 1368 402 1345 C 384 1321 369 1281 358 1223 L 291 836 L 446 836 L 426 717 L 270 717 L 80 -367 L -51 -367 L 139 717 L 14 717 L 35 836 L 162 836 L 236 1264 C 249 1338 276 1396 316 1436 C 356 1476 407 1497 467 1497 C 519 1497 553 1494 569 1489 L 545 1374 Z M 580 0 L 449 0 L 596 836 L 727 836 L 580 0 Z M 764 1049 L 633 1049 L 668 1245 L 799 1245 L 764 1049 Z" unicode="ﬁ" />
<glyph horiz-adv-x="831" d="M 545 1374 C 533 1378 509 1380 473 1380 C 444 1380 420 1368 402 1345 C 384 1321 369 1281 358 1223 L 291 836 L 446 836 L 426 717 L 270 717 L 80 -367 L -51 -367 L 139 717 L 14 717 L 35 836 L 162 836 L 236 1264 C 249 1338 276 1396 316 1436 C 356 1476 407 1497 467 1497 C 519 1497 553 1494 569 1489 L 545 1374 Z M 580 0 L 449 0 L 713 1495 L 844 1495 L 580 0 Z" unicode="ﬂ" />
<glyph horiz-adv-x="1282" d="M 993 1374 L 981 1377 L 924 1380 C 894 1380 869 1368 851 1345 C 833 1321 819 1281 809 1223 L 739 836 L 895 836 L 874 717 L 719 717 L 528 -367 L 397 -367 L 590 717 L 270 717 L 80 -367 L -51 -367 L 139 717 L 14 717 L 35 836 L 162 836 L 236 1264 C 249 1338 276 1396 316 1436 C 356 1476 407 1497 467 1497 C 519 1497 553 1494 569 1489 L 545 1374 C 533 1378 509 1380 473 1380 C 444 1380 420 1368 402 1345 C 384 1321 369 1281 358 1223 L 291 836 L 610 836 L 684 1264 C 698 1342 726 1400 767 1439 C 807 1477 857 1497 915 1497 C 970 1497 1004 1494 1018 1489 L 993 1374 Z M 1026 0 L 897 0 L 1044 836 L 1174 836 L 1026 0 Z M 1210 1049 L 1081 1049 L 1116 1245 L 1247 1245 L 1210 1049 Z" unicode="ﬃ" />
<glyph horiz-adv-x="1280" d="M 993 1374 L 981 1377 L 924 1380 C 894 1380 869 1368 851 1345 C 833 1321 819 1281 809 1223 L 739 836 L 895 836 L 874 717 L 719 717 L 528 -367 L 397 -367 L 590 717 L 270 717 L 80 -367 L -51 -367 L 139 717 L 14 717 L 35 836 L 162 836 L 236 1264 C 249 1338 276 1396 316 1436 C 356 1476 407 1497 467 1497 C 519 1497 553 1494 569 1489 L 545 1374 C 533 1378 509 1380 473 1380 C 444 1380 420 1368 402 1345 C 384 1321 369 1281 358 1223 L 291 836 L 610 836 L 684 1264 C 698 1342 726 1400 767 1439 C 807 1477 857 1497 915 1497 C 970 1497 1004 1494 1018 1489 L 993 1374 Z M 1026 0 L 897 0 L 1161 1495 L 1290 1495 L 1026 0 Z" unicode="ﬄ" />
</font>
</defs>
</svg>
