<?xml version="1.0" encoding="utf-8" ?><svg version="1.1" xmlns = 'http://www.w3.org/2000/svg'><defs><font id='web' horiz-adv-x="1000">
<font-face font-family="web" descent="-389" cap-height="1495" units-per-em="2048" bbox="-113,-432,2273,1900" x-height="836" ascent="1638" />
<missing-glyph horiz-adv-x="1024" d="" /><glyph horiz-adv-x="369" d="" unicode=" " />
<glyph horiz-adv-x="410" d="M 246 289 L 158 289 L 129 739 L 129 1495 L 276 1495 L 276 739 L 246 289 Z M 129 0 L 129 197 L 276 197 L 276 0 L 129 0 Z" unicode="!" />
<glyph horiz-adv-x="629" d="M 485 1096 L 408 1096 L 377 1298 L 377 1495 L 516 1495 L 516 1298 L 485 1096 Z M 221 1096 L 143 1096 L 115 1298 L 115 1495 L 252 1495 L 252 1298 L 221 1096 Z" unicode="&#x22;" />
<glyph horiz-adv-x="1227" d="M 877 446 L 838 0 L 705 0 L 743 446 L 432 446 L 393 0 L 260 0 L 299 446 L 76 446 L 76 557 L 309 557 L 342 944 L 76 944 L 76 1055 L 352 1055 L 391 1495 L 524 1495 L 485 1055 L 795 1055 L 836 1495 L 969 1495 L 930 1055 L 1153 1055 L 1153 944 L 920 944 L 887 557 L 1153 557 L 1153 446 L 877 446 Z M 475 944 L 442 557 L 752 557 L 786 944 L 475 944 Z" unicode="#" />
<glyph horiz-adv-x="1071" d="M 1001 391 C 1001 283 963 193 887 123 C 811 52 710 12 584 2 L 584 -150 L 469 -150 L 469 2 C 390 9 311 33 231 73 C 151 113 89 158 47 209 L 137 299 C 178 256 229 220 290 190 C 350 160 410 142 469 135 L 469 754 C 369 797 295 837 247 874 C 199 910 163 951 139 996 C 115 1040 104 1092 104 1151 C 104 1246 137 1325 204 1387 C 271 1449 359 1484 469 1493 L 469 1610 L 584 1610 L 584 1493 C 721 1483 837 1436 932 1354 L 852 1249 C 773 1317 684 1356 584 1364 L 584 854 C 698 803 782 756 836 714 C 890 671 931 623 959 571 C 987 519 1001 459 1001 391 Z M 469 1366 C 401 1359 347 1337 307 1301 C 267 1264 248 1215 248 1155 C 248 1099 264 1052 297 1016 C 329 979 387 942 469 905 L 469 1366 Z M 856 385 C 856 431 847 472 831 507 C 815 541 790 573 756 602 C 722 630 665 665 584 705 L 584 133 C 670 143 736 170 784 214 C 832 258 856 315 856 385 Z" unicode="$" />
<glyph horiz-adv-x="1503" d="M 684 1139 C 684 1023 656 929 601 857 C 546 784 475 748 389 748 C 335 748 286 763 242 795 C 198 826 164 871 139 930 C 114 988 102 1056 102 1133 C 102 1246 129 1339 183 1411 C 237 1483 307 1520 395 1520 C 482 1520 552 1484 605 1413 C 657 1341 684 1250 684 1139 Z M 305 0 L 156 0 L 1178 1495 L 1327 1495 L 305 0 Z M 1401 367 C 1401 250 1373 155 1318 83 C 1263 11 1192 -25 1106 -25 C 1052 -25 1004 -9 960 22 C 916 53 881 98 856 156 C 831 214 819 282 819 360 C 819 472 845 565 899 638 C 953 711 1024 748 1112 748 C 1198 748 1267 712 1321 642 C 1374 572 1401 480 1401 367 Z M 555 1133 C 555 1215 540 1282 510 1332 C 480 1382 442 1407 395 1407 C 345 1407 304 1381 274 1331 C 244 1280 229 1214 229 1133 C 229 1052 243 986 271 936 C 299 885 338 860 389 860 C 441 860 481 884 511 933 C 540 982 555 1049 555 1133 Z M 1274 360 C 1274 440 1259 506 1229 558 C 1199 609 1160 635 1112 635 C 1061 635 1021 609 992 558 C 962 506 948 440 948 360 C 948 278 962 212 990 162 C 1018 112 1057 88 1106 88 C 1157 88 1198 112 1228 162 C 1258 211 1274 277 1274 360 Z" unicode="%" />
<glyph horiz-adv-x="1300" d="M 1081 0 L 940 160 C 862 95 787 48 713 19 C 639 -10 563 -25 485 -25 C 410 -25 341 -7 277 26 C 213 60 163 108 127 168 C 90 228 72 293 72 365 C 72 447 97 527 148 606 C 198 685 272 757 369 823 L 279 926 C 245 965 216 1007 192 1052 C 168 1097 156 1146 156 1198 C 156 1286 189 1361 257 1425 C 324 1488 403 1520 494 1520 C 592 1520 672 1489 735 1429 C 797 1368 829 1292 829 1200 C 829 1137 809 1075 769 1014 C 729 952 658 883 555 805 L 961 348 C 1006 393 1050 445 1094 504 L 1190 414 C 1132 342 1082 288 1042 250 L 1264 0 L 1081 0 Z M 692 1194 C 692 1254 674 1302 639 1340 C 604 1378 556 1397 496 1397 C 441 1397 394 1378 355 1341 C 316 1304 297 1258 297 1202 C 297 1162 304 1126 320 1094 C 335 1061 360 1025 395 987 L 475 897 C 553 953 609 1005 642 1053 C 675 1101 692 1148 692 1194 Z M 451 727 C 368 666 308 607 271 550 C 233 493 215 435 215 377 C 215 301 240 236 292 182 C 343 128 407 102 485 102 C 618 102 744 153 862 256 L 451 727 Z" unicode="&#x26;" />
<glyph horiz-adv-x="365" d="M 221 1096 L 143 1096 L 115 1298 L 115 1495 L 252 1495 L 252 1298 L 221 1096 Z" unicode="'" />
<glyph horiz-adv-x="594" d="M 567 -385 C 411 -271 291 -127 205 46 C 119 219 76 402 76 596 C 76 784 119 964 206 1135 C 292 1305 413 1447 567 1561 L 567 1456 C 458 1351 373 1224 313 1074 C 253 924 223 761 223 585 C 223 416 252 257 311 107 C 370 -42 455 -171 567 -279 L 567 -385 Z" unicode="(" />
<glyph horiz-adv-x="594" d="M 520 596 C 520 402 477 218 391 45 C 305 -127 184 -271 29 -385 L 29 -279 C 139 -171 223 -43 282 106 C 341 256 371 415 371 585 C 371 759 341 921 282 1071 C 223 1221 139 1349 29 1456 L 29 1561 C 181 1447 301 1305 389 1134 C 476 963 520 784 520 596 Z" unicode=")" />
<glyph horiz-adv-x="805" d="M 481 1149 L 625 944 L 553 891 L 401 1092 L 250 893 L 176 942 L 322 1151 L 84 1231 L 113 1317 L 352 1243 L 356 1495 L 444 1495 L 446 1243 L 690 1317 L 719 1233 L 481 1149 Z" unicode="*" />
<glyph horiz-adv-x="1028" d="M 580 614 L 580 256 L 449 256 L 449 614 L 72 614 L 72 739 L 449 739 L 449 1100 L 580 1100 L 580 739 L 956 739 L 956 614 L 580 614 Z" unicode="+" />
<glyph horiz-adv-x="365" d="M 256 31 C 256 -25 244 -84 220 -145 C 196 -205 165 -257 127 -301 L 41 -301 C 86 -224 109 -129 109 -16 L 109 197 L 256 197 L 256 31 Z" unicode="," />
<glyph horiz-adv-x="649" d="M 109 387 L 109 512 L 541 512 L 541 387 L 109 387 Z" unicode="-" />
<glyph horiz-adv-x="365" d="M 109 0 L 109 197 L 256 197 L 256 0 L 109 0 Z" unicode="." />
<glyph horiz-adv-x="774" d="M 197 0 L 57 0 L 580 1495 L 717 1495 L 197 0 Z" unicode="/" />
<glyph horiz-adv-x="1239" d="M 1157 760 C 1157 516 1108 324 1012 184 C 915 44 782 -25 612 -25 C 507 -25 414 6 333 70 C 252 133 190 223 146 339 C 102 455 80 588 80 737 C 80 894 101 1032 144 1151 C 187 1269 250 1360 332 1424 C 414 1488 511 1520 623 1520 C 788 1520 918 1449 1014 1309 C 1109 1168 1157 985 1157 760 Z M 1008 748 C 1008 874 991 987 958 1087 C 925 1187 880 1262 822 1312 C 764 1361 697 1386 621 1386 C 497 1386 401 1327 333 1210 C 265 1092 231 937 231 745 C 231 624 247 513 281 413 C 315 312 360 236 417 185 C 474 134 540 109 614 109 C 697 109 768 135 827 187 C 886 239 931 313 962 411 C 992 509 1008 621 1008 748 Z" unicode="0" />
<glyph horiz-adv-x="606" d="M 319 0 L 319 1255 C 292 1223 250 1193 193 1164 C 135 1135 83 1118 37 1114 L 37 1245 C 98 1253 160 1282 223 1331 C 285 1379 330 1434 356 1495 L 461 1495 L 461 0 L 319 0 Z" unicode="1" />
<glyph horiz-adv-x="1118" d="M 68 0 L 721 799 C 770 859 804 911 823 954 C 842 996 852 1039 852 1081 C 852 1139 838 1192 810 1238 C 782 1284 745 1320 698 1346 C 650 1371 599 1384 543 1384 C 452 1384 378 1357 320 1303 C 262 1249 229 1177 221 1085 L 80 1085 C 88 1215 134 1320 220 1400 C 306 1480 413 1520 541 1520 C 626 1520 704 1501 774 1465 C 844 1429 899 1377 939 1311 C 979 1245 999 1169 999 1085 C 999 1021 984 959 956 901 C 927 842 888 783 838 723 L 350 137 L 1022 137 L 1022 0 L 68 0 Z" unicode="2" />
<glyph horiz-adv-x="1167" d="M 1073 432 C 1073 342 1052 262 1012 192 C 971 122 912 69 835 31 C 758 -6 666 -25 559 -25 C 454 -25 355 -6 263 30 C 170 67 96 116 41 178 L 131 281 C 183 227 246 184 318 152 C 390 120 470 104 559 104 C 672 104 762 133 829 193 C 896 253 930 330 930 426 C 930 524 897 601 831 656 C 765 711 672 739 551 739 L 403 739 L 403 866 L 549 866 C 648 866 727 890 787 939 C 847 988 877 1054 877 1137 C 877 1182 864 1224 838 1264 C 812 1303 777 1334 732 1356 C 687 1378 636 1389 578 1389 C 506 1389 439 1372 378 1339 C 316 1305 266 1258 227 1198 L 111 1266 C 164 1350 231 1414 312 1456 C 393 1498 483 1520 582 1520 C 670 1520 748 1503 814 1470 C 880 1437 930 1391 966 1333 C 1002 1274 1020 1210 1020 1141 C 1020 1067 1000 1001 962 943 C 924 884 869 839 799 809 C 885 780 953 732 1001 666 C 1049 599 1073 521 1073 432 Z" unicode="3" />
<glyph horiz-adv-x="1135" d="M 868 379 L 868 0 L 731 0 L 731 379 L 45 379 L 45 479 L 768 1495 L 868 1495 L 868 506 L 1096 506 L 1096 379 L 868 379 Z M 731 1231 L 221 506 L 731 506 L 731 1231 Z" unicode="4" />
<glyph horiz-adv-x="1188" d="M 1087 516 C 1087 412 1065 318 1021 236 C 977 153 915 89 835 43 C 754 -2 663 -25 561 -25 C 476 -25 390 -7 303 28 C 215 63 144 109 88 166 L 172 270 C 227 218 289 178 358 150 C 427 122 495 109 563 109 C 636 109 701 126 758 160 C 815 194 859 241 891 303 C 922 364 938 431 938 504 C 938 624 905 719 840 789 C 775 859 690 895 586 895 C 512 895 449 877 396 842 C 342 806 300 758 268 696 L 158 727 L 211 1495 L 987 1495 L 987 1368 L 338 1368 L 307 911 C 383 987 483 1026 606 1026 C 698 1026 780 1004 854 961 C 928 918 985 857 1026 779 C 1066 701 1087 613 1087 516 Z" unicode="5" />
<glyph horiz-adv-x="1145" d="M 1071 485 C 1071 388 1049 301 1007 223 C 964 145 904 84 828 40 C 751 -3 666 -25 573 -25 C 479 -25 395 -4 321 37 C 247 78 189 137 148 215 C 106 292 86 380 86 479 C 86 583 102 687 134 790 C 166 892 213 997 276 1104 C 338 1210 431 1341 555 1495 L 721 1495 C 639 1407 554 1297 467 1165 C 380 1033 321 924 291 840 C 324 881 368 914 424 938 C 479 962 536 975 594 975 C 685 975 767 954 840 913 C 913 871 970 813 1010 738 C 1050 663 1071 579 1071 485 Z M 928 481 C 928 591 896 680 834 747 C 771 814 687 848 582 848 C 518 848 460 831 406 799 C 352 767 309 722 278 665 C 246 608 231 547 231 483 C 231 369 263 277 327 208 C 391 138 475 104 580 104 C 681 104 764 139 830 211 C 895 283 928 373 928 481 Z" unicode="6" />
<glyph horiz-adv-x="1057" d="M 305 0 L 145 0 L 797 1364 L 100 1364 L 100 1495 L 1008 1495 L 305 0 Z" unicode="7" />
<glyph horiz-adv-x="1245" d="M 1161 418 C 1161 284 1111 177 1012 96 C 912 15 783 -25 625 -25 C 521 -25 428 -6 346 29 C 264 65 201 117 157 184 C 112 251 90 329 90 418 C 90 505 116 584 168 654 C 220 724 288 772 371 797 C 307 823 255 864 215 922 C 175 980 156 1044 156 1116 C 156 1237 199 1335 287 1409 C 374 1483 487 1520 625 1520 C 763 1520 875 1483 963 1409 C 1050 1335 1094 1240 1094 1122 C 1094 1050 1073 984 1033 924 C 992 864 940 821 877 797 C 964 771 1033 724 1084 656 C 1135 588 1161 509 1161 418 Z M 946 1116 C 946 1200 917 1268 859 1318 C 801 1368 723 1393 625 1393 C 529 1393 452 1368 392 1318 C 332 1268 303 1202 303 1120 C 303 1036 332 970 391 921 C 449 872 527 848 625 848 C 723 848 801 872 859 920 C 917 968 946 1033 946 1116 Z M 1014 412 C 1014 508 979 583 910 637 C 840 691 745 719 625 719 C 506 719 412 692 342 639 C 272 585 238 513 238 422 C 238 326 274 249 347 192 C 419 134 512 106 625 106 C 737 106 829 134 903 190 C 977 246 1014 320 1014 412 Z" unicode="8" />
<glyph horiz-adv-x="1165" d="M 1073 1008 C 1073 902 1056 796 1022 692 C 988 587 938 480 874 371 C 809 262 711 125 580 -39 L 463 49 C 527 116 602 212 688 337 C 774 461 830 554 854 614 C 776 534 675 494 551 494 C 462 494 381 515 307 559 C 233 603 175 663 133 741 C 91 818 70 904 70 999 C 70 1097 91 1187 134 1267 C 176 1347 236 1409 312 1453 C 388 1497 473 1520 567 1520 C 663 1520 749 1498 827 1455 C 905 1411 965 1350 1008 1272 C 1051 1194 1073 1106 1073 1008 Z M 924 999 C 924 1117 892 1211 828 1281 C 764 1351 677 1386 567 1386 C 464 1386 380 1350 316 1278 C 251 1206 219 1115 219 1004 C 219 889 251 797 316 728 C 380 659 465 625 569 625 C 677 625 763 659 827 728 C 891 796 924 887 924 999 Z" unicode="9" />
<glyph horiz-adv-x="365" d="M 109 678 L 109 872 L 256 872 L 256 678 L 109 678 Z M 109 0 L 109 197 L 256 197 L 256 0 L 109 0 Z" unicode=":" />
<glyph horiz-adv-x="365" d="M 109 678 L 109 872 L 256 872 L 256 678 L 109 678 Z M 256 31 C 256 -25 244 -84 220 -145 C 196 -205 165 -257 127 -301 L 41 -301 C 86 -224 109 -129 109 -16 L 109 197 L 256 197 L 256 31 Z" unicode=";" />
<glyph horiz-adv-x="735" d="M 78 606 L 78 723 L 633 1116 L 633 963 L 199 666 L 633 367 L 633 209 L 78 606 Z" unicode="&#x3C;" />
<glyph horiz-adv-x="1024" d="M 133 795 L 133 920 L 891 920 L 891 795 L 133 795 Z M 133 444 L 133 569 L 891 569 L 891 444 L 133 444 Z" unicode="=" />
<glyph horiz-adv-x="735" d="M 102 209 L 102 365 L 537 662 L 102 961 L 102 1116 L 657 721 L 657 604 L 102 209 Z" unicode="&#x3E;" />
<glyph horiz-adv-x="899" d="M 821 1143 C 821 1038 780 930 698 818 C 625 719 576 647 552 603 C 528 559 509 515 496 472 C 483 428 477 386 477 344 L 477 295 L 336 295 L 336 340 C 336 388 342 434 354 478 C 366 522 382 564 402 604 C 422 644 462 709 524 799 C 586 883 627 948 647 994 C 666 1040 676 1085 676 1130 C 676 1204 652 1267 604 1317 C 556 1367 496 1393 426 1393 C 366 1393 313 1378 267 1348 C 221 1318 182 1279 152 1229 L 51 1319 C 140 1453 265 1520 426 1520 C 543 1520 638 1484 711 1414 C 784 1344 821 1253 821 1143 Z M 334 0 L 334 197 L 479 197 L 479 0 L 334 0 Z" unicode="?" />
<glyph horiz-adv-x="1729" d="M 1636 809 C 1636 712 1620 627 1588 554 C 1556 481 1514 424 1460 384 C 1406 344 1348 324 1288 324 C 1238 324 1199 334 1171 356 C 1142 377 1123 405 1114 440 C 1070 402 1020 374 965 354 C 910 334 853 324 795 324 C 703 324 629 348 573 398 C 517 448 489 513 489 594 C 489 686 526 758 602 810 C 678 862 784 889 922 889 L 1106 889 L 1106 926 C 1106 986 1088 1031 1054 1061 C 1019 1091 961 1106 879 1106 C 777 1106 691 1087 621 1051 L 575 1141 C 652 1185 750 1208 868 1208 C 982 1208 1069 1186 1127 1143 C 1185 1099 1214 1030 1214 934 L 1214 498 C 1214 466 1222 443 1238 431 C 1254 418 1277 412 1309 412 C 1349 412 1387 428 1425 462 C 1462 496 1491 542 1513 602 C 1535 661 1546 729 1546 805 C 1546 919 1517 1024 1459 1120 C 1401 1216 1319 1292 1215 1347 C 1110 1402 993 1430 864 1430 C 741 1430 627 1399 521 1338 C 415 1276 332 1193 271 1087 C 210 981 180 867 180 745 C 180 625 210 512 272 406 C 333 300 416 216 522 154 C 628 92 742 61 864 61 C 960 61 1051 81 1139 123 L 1176 43 C 1074 -2 970 -25 864 -25 C 724 -25 594 9 476 79 C 358 149 264 243 195 361 C 126 479 92 608 92 748 C 92 887 126 1016 195 1134 C 264 1252 358 1346 476 1416 C 594 1485 724 1520 864 1520 C 1007 1520 1138 1489 1256 1429 C 1374 1368 1466 1282 1534 1172 C 1602 1061 1636 940 1636 809 Z M 1104 791 L 926 791 C 716 791 612 726 612 598 C 612 548 629 507 663 476 C 697 445 749 430 819 430 C 865 430 914 440 966 461 C 1018 481 1064 510 1104 547 L 1104 791 Z" unicode="@" />
<glyph horiz-adv-x="1368" d="M 1114 0 L 922 532 L 401 532 L 209 0 L 57 0 L 621 1509 L 707 1509 L 1272 0 L 1114 0 Z M 662 1257 L 451 664 L 872 664 L 662 1257 Z" unicode="A" />
<glyph horiz-adv-x="1174" d="M 1087 410 C 1087 286 1042 186 954 112 C 865 37 746 0 596 0 L 160 0 L 160 1495 L 528 1495 C 666 1495 776 1461 858 1394 C 940 1326 981 1235 981 1120 C 981 1041 962 972 925 913 C 887 854 833 809 762 778 C 820 768 874 746 924 712 C 974 678 1014 635 1043 583 C 1072 531 1087 474 1087 410 Z M 834 1112 C 834 1194 806 1257 750 1300 C 694 1342 615 1364 512 1364 L 301 1364 L 301 827 L 514 827 C 611 827 689 852 747 904 C 805 955 834 1024 834 1112 Z M 938 418 C 938 474 922 523 892 565 C 861 607 818 639 764 662 C 710 684 650 696 584 696 L 301 696 L 301 131 L 586 131 C 697 131 783 156 845 206 C 907 256 938 327 938 418 Z" unicode="B" />
<glyph horiz-adv-x="1477" d="M 1395 248 C 1324 160 1239 93 1139 46 C 1039 -1 933 -25 819 -25 C 687 -25 564 9 452 78 C 339 147 251 241 187 359 C 123 477 92 606 92 748 C 92 886 124 1014 188 1132 C 252 1250 339 1344 451 1414 C 563 1484 687 1520 823 1520 C 1056 1520 1237 1441 1366 1284 L 1262 1192 C 1146 1318 1000 1382 823 1382 C 718 1382 621 1354 532 1300 C 442 1246 372 1170 320 1073 C 268 976 242 870 242 754 C 242 634 267 524 319 426 C 371 328 442 251 532 196 C 622 140 719 113 823 113 C 919 113 1005 131 1081 169 C 1157 206 1227 261 1292 334 L 1395 248 Z" unicode="C" />
<glyph horiz-adv-x="1378" d="M 1286 758 C 1286 611 1252 480 1186 364 C 1120 248 1026 159 905 95 C 784 31 646 0 492 0 L 160 0 L 160 1495 L 500 1495 C 653 1495 789 1464 909 1403 C 1029 1342 1121 1255 1187 1142 C 1253 1029 1286 901 1286 758 Z M 1137 756 C 1137 873 1110 979 1057 1073 C 1003 1167 929 1239 834 1291 C 738 1342 631 1368 512 1368 L 301 1368 L 301 127 L 494 127 C 620 127 732 153 830 207 C 928 260 1003 335 1057 432 C 1110 529 1137 637 1137 756 Z" unicode="D" />
<glyph horiz-adv-x="1094" d="M 160 0 L 160 1495 L 950 1495 L 950 1364 L 301 1364 L 301 827 L 909 827 L 909 696 L 301 696 L 301 131 L 989 131 L 989 0 L 160 0 Z" unicode="E" />
<glyph horiz-adv-x="948" d="M 301 1364 L 301 823 L 813 823 L 813 692 L 301 692 L 301 0 L 160 0 L 160 1495 L 858 1495 L 858 1364 L 301 1364 Z" unicode="F" />
<glyph horiz-adv-x="1630" d="M 1559 633 C 1555 513 1521 403 1459 303 C 1397 203 1312 123 1206 64 C 1100 4 986 -25 866 -25 C 723 -25 591 9 471 78 C 351 147 257 240 191 357 C 125 474 92 603 92 745 C 92 885 125 1014 191 1132 C 257 1250 350 1345 470 1415 C 590 1485 722 1520 866 1520 C 1088 1520 1271 1446 1415 1300 L 1325 1196 C 1259 1260 1191 1307 1119 1337 C 1047 1367 962 1382 862 1382 C 747 1382 642 1354 547 1299 C 451 1244 377 1168 323 1070 C 269 972 242 863 242 743 C 242 628 268 522 322 426 C 375 330 450 253 547 197 C 643 141 750 113 868 113 C 995 113 1108 149 1207 221 C 1305 293 1368 386 1395 500 L 899 500 L 899 633 L 1559 633 Z" unicode="G" />
<glyph horiz-adv-x="1405" d="M 1102 0 L 1102 696 L 301 696 L 301 0 L 160 0 L 160 1495 L 301 1495 L 301 829 L 1102 829 L 1102 1495 L 1245 1495 L 1245 0 L 1102 0 Z" unicode="H" />
<glyph horiz-adv-x="461" d="M 160 0 L 160 1495 L 301 1495 L 301 0 L 160 0 Z" unicode="I" />
<glyph horiz-adv-x="717" d="M 567 397 C 567 275 530 176 457 98 C 384 20 291 -18 178 -18 L 154 -18 C 108 -18 76 -15 57 -10 L 57 119 C 67 116 100 115 154 115 L 178 115 C 249 115 308 141 355 193 C 402 245 426 312 426 393 L 426 1495 L 567 1495 L 567 397 Z" unicode="J" />
<glyph horiz-adv-x="1214" d="M 989 0 L 389 743 L 301 651 L 301 0 L 160 0 L 160 1495 L 301 1495 L 301 836 L 913 1495 L 1094 1495 L 485 846 L 1169 0 L 989 0 Z" unicode="K" />
<glyph horiz-adv-x="987" d="M 160 0 L 160 1495 L 301 1495 L 301 131 L 932 131 L 932 0 L 160 0 Z" unicode="L" />
<glyph horiz-adv-x="1675" d="M 1374 0 L 1374 1260 L 872 532 L 803 532 L 301 1255 L 301 0 L 160 0 L 160 1495 L 299 1495 L 840 717 L 1372 1495 L 1516 1495 L 1516 0 L 1374 0 Z" unicode="M" />
<glyph horiz-adv-x="1489" d="M 1196 0 L 301 1253 L 301 0 L 160 0 L 160 1495 L 301 1495 L 1186 252 L 1186 1495 L 1329 1495 L 1329 0 L 1196 0 Z" unicode="N" />
<glyph horiz-adv-x="1686" d="M 1593 750 C 1593 609 1560 479 1495 361 C 1429 242 1339 148 1224 79 C 1109 9 982 -25 844 -25 C 704 -25 576 9 460 79 C 344 148 253 241 189 359 C 124 477 92 607 92 750 C 92 893 125 1024 191 1143 C 257 1261 348 1354 464 1420 C 579 1486 704 1520 840 1520 C 978 1520 1105 1487 1221 1421 C 1336 1355 1427 1262 1493 1144 C 1559 1025 1593 894 1593 750 Z M 1444 752 C 1444 869 1418 976 1366 1073 C 1314 1170 1241 1246 1148 1300 C 1054 1354 952 1382 840 1382 C 728 1382 627 1354 535 1300 C 443 1245 372 1169 320 1072 C 268 975 242 868 242 750 C 242 633 268 525 322 427 C 376 328 449 251 542 196 C 634 140 735 113 844 113 C 954 113 1055 140 1147 195 C 1239 250 1312 327 1365 425 C 1417 523 1444 632 1444 752 Z" unicode="O" />
<glyph horiz-adv-x="1106" d="M 1034 1065 C 1034 981 1013 906 973 838 C 933 770 876 717 804 679 C 732 641 650 623 559 623 L 301 623 L 301 0 L 160 0 L 160 1495 L 541 1495 C 692 1495 812 1456 901 1378 C 989 1300 1034 1196 1034 1065 Z M 887 1065 C 887 1159 856 1232 795 1285 C 734 1337 642 1364 518 1364 L 301 1364 L 301 754 L 545 754 C 650 754 733 781 795 836 C 856 890 887 967 887 1065 Z" unicode="P" />
<glyph horiz-adv-x="1686" d="M 1593 750 C 1593 631 1569 520 1522 416 C 1475 312 1411 225 1329 156 C 1394 116 1449 94 1495 90 L 1391 -27 C 1337 -11 1277 22 1212 72 C 1095 7 972 -25 844 -25 C 704 -25 576 9 460 79 C 344 148 253 241 189 359 C 124 477 92 607 92 750 C 92 893 125 1024 191 1143 C 257 1261 348 1354 464 1420 C 579 1486 704 1520 840 1520 C 978 1520 1105 1487 1221 1421 C 1336 1355 1427 1262 1493 1144 C 1559 1025 1593 894 1593 750 Z M 1444 752 C 1444 869 1418 976 1366 1073 C 1314 1170 1241 1246 1148 1300 C 1054 1354 952 1382 840 1382 C 728 1382 627 1354 535 1300 C 443 1245 372 1169 320 1072 C 268 975 242 868 242 750 C 242 633 268 525 322 427 C 376 328 449 251 542 196 C 634 140 735 113 844 113 C 938 113 1025 132 1106 172 C 1058 224 1025 267 1008 303 L 1104 381 C 1124 342 1161 296 1214 244 C 1286 301 1343 374 1383 462 C 1423 550 1444 647 1444 752 Z" unicode="Q" />
<glyph horiz-adv-x="1174" d="M 926 0 L 301 709 L 301 0 L 160 0 L 160 1495 L 578 1495 C 666 1495 746 1476 818 1440 C 890 1404 946 1353 986 1287 C 1026 1221 1047 1149 1047 1069 C 1047 988 1026 915 986 849 C 945 783 888 732 816 696 C 744 659 666 641 582 641 L 543 641 L 1110 0 L 926 0 Z M 899 1073 C 899 1158 867 1228 803 1282 C 739 1336 659 1364 561 1364 L 301 1364 L 301 760 L 547 760 C 653 760 739 788 803 844 C 867 900 899 977 899 1073 Z" unicode="R" />
<glyph horiz-adv-x="1022" d="M 942 375 C 942 299 922 230 884 169 C 845 107 792 60 726 26 C 660 -8 586 -25 506 -25 C 348 -25 210 26 92 129 L 178 236 C 221 198 271 168 327 146 C 383 124 442 113 502 113 C 588 113 658 136 713 183 C 767 230 795 291 795 367 C 795 412 785 452 766 487 C 747 521 721 553 687 582 C 653 610 588 650 494 700 C 446 724 398 750 352 776 C 305 802 263 832 227 866 C 190 900 160 939 138 985 C 115 1031 104 1085 104 1149 C 104 1259 141 1348 217 1417 C 292 1485 388 1520 504 1520 C 580 1520 651 1508 715 1486 C 779 1463 839 1426 895 1374 L 807 1266 C 763 1308 717 1338 670 1356 C 622 1373 567 1382 504 1382 C 430 1382 370 1361 324 1319 C 277 1277 254 1222 254 1155 C 254 1110 262 1072 278 1041 C 294 1009 317 981 346 957 C 375 932 409 909 449 888 C 489 866 532 843 580 819 C 688 763 764 715 807 677 C 850 639 883 595 907 547 C 930 498 942 441 942 375 Z" unicode="S" />
<glyph horiz-adv-x="979" d="M 559 1364 L 559 0 L 416 0 L 416 1364 L 70 1364 L 70 1495 L 909 1495 L 909 1364 L 559 1364 Z" unicode="T" />
<glyph horiz-adv-x="1411" d="M 1262 553 C 1262 442 1238 342 1190 254 C 1142 166 1076 97 990 48 C 904 0 809 -25 705 -25 C 599 -25 503 -1 418 47 C 333 95 267 163 220 251 C 173 339 150 439 150 553 L 150 1495 L 293 1495 L 293 553 C 293 466 310 389 346 321 C 382 253 431 200 495 164 C 558 127 628 109 705 109 C 782 109 852 127 916 165 C 980 202 1030 255 1066 323 C 1102 391 1120 468 1120 553 L 1120 1495 L 1262 1495 L 1262 553 Z" unicode="U" />
<glyph horiz-adv-x="1317" d="M 686 -33 L 629 -33 L 57 1495 L 201 1495 L 659 270 L 1120 1495 L 1260 1495 L 686 -33 Z" unicode="V" />
<glyph horiz-adv-x="1892" d="M 1386 0 L 1286 0 L 944 1184 L 598 0 L 500 0 L 68 1495 L 211 1495 L 555 309 L 899 1495 L 995 1495 L 1337 311 L 1683 1495 L 1825 1495 L 1386 0 Z" unicode="W" />
<glyph horiz-adv-x="1397" d="M 1163 0 L 698 680 L 229 0 L 63 0 L 616 803 L 143 1495 L 315 1495 L 702 932 L 1092 1495 L 1253 1495 L 784 807 L 1335 0 L 1163 0 Z" unicode="X" />
<glyph horiz-adv-x="1303" d="M 719 705 L 719 0 L 575 0 L 575 707 L 49 1495 L 215 1495 L 653 844 L 1090 1495 L 1251 1495 L 719 705 Z" unicode="Y" />
<glyph horiz-adv-x="1276" d="M 309 135 L 1178 135 L 1178 0 L 63 0 L 936 1360 L 178 1360 L 178 1495 L 1186 1495 L 309 135 Z" unicode="Z" />
<glyph horiz-adv-x="567" d="M 154 -367 L 154 1495 L 506 1495 L 506 1372 L 289 1372 L 289 -244 L 506 -244 L 506 -367 L 154 -367 Z" unicode="[" />
<glyph horiz-adv-x="774" d="M 580 0 L 57 1495 L 197 1495 L 717 0 L 580 0 Z" unicode="\" />
<glyph horiz-adv-x="567" d="M 61 -367 L 61 -244 L 279 -244 L 279 1372 L 61 1372 L 61 1495 L 414 1495 L 414 -367 L 61 -367 Z" unicode="]" />
<glyph horiz-adv-x="989" d="M 760 756 L 489 1352 L 223 756 L 70 756 L 424 1495 L 559 1495 L 913 756 L 760 756 Z" unicode="^" />
<glyph horiz-adv-x="1024" d="M 0 -236 L 0 -129 L 1024 -129 L 1024 -236 L 0 -236 Z" unicode="_" />
<glyph horiz-adv-x="956" d="M 500 999 L 319 1282 L 463 1282 L 639 999 L 500 999 Z" unicode="`" />
<glyph horiz-adv-x="905" d="M 659 0 L 659 80 C 577 10 481 -25 373 -25 C 280 -25 206 0 151 49 C 95 99 68 164 68 246 C 68 340 107 413 185 466 C 263 518 372 545 512 545 L 662 545 L 662 582 C 662 636 646 677 616 703 C 585 729 532 743 457 743 C 353 743 268 725 203 690 L 154 793 C 187 813 229 829 280 841 C 331 853 386 860 446 860 C 677 860 793 776 793 608 L 793 0 L 659 0 Z M 659 432 L 547 432 C 435 432 350 417 292 389 C 234 360 205 312 205 246 C 205 201 222 165 257 137 C 292 109 339 96 397 96 C 489 96 576 129 659 195 L 659 432 Z" unicode="a" />
<glyph horiz-adv-x="1001" d="M 932 422 C 932 340 915 265 881 196 C 847 126 800 72 741 33 C 681 -5 615 -25 543 -25 C 484 -25 429 -10 378 20 C 327 50 288 89 262 139 L 262 0 L 129 0 L 129 1495 L 262 1495 L 262 696 C 288 744 327 783 379 814 C 431 844 486 860 543 860 C 659 860 752 820 824 740 C 896 660 932 554 932 422 Z M 795 418 C 795 514 770 591 722 649 C 674 706 607 735 522 735 C 473 735 428 720 387 692 C 346 663 314 624 290 576 C 266 528 254 476 254 422 C 254 332 280 256 332 193 C 384 129 448 98 526 98 C 606 98 670 128 720 188 C 770 248 795 324 795 418 Z" unicode="b" />
<glyph horiz-adv-x="905" d="M 858 180 C 812 114 757 64 692 28 C 627 -7 561 -25 494 -25 C 368 -25 265 16 187 100 C 109 184 70 290 70 420 C 70 499 88 572 124 640 C 160 708 209 761 273 801 C 336 840 406 860 483 860 C 632 860 752 801 842 684 L 741 606 C 674 692 591 735 492 735 C 410 735 342 705 288 645 C 234 585 207 512 207 426 C 207 330 233 252 286 190 C 339 128 407 98 489 98 C 548 98 599 111 643 139 C 687 167 726 204 762 252 L 858 180 Z" unicode="c" />
<glyph horiz-adv-x="1001" d="M 739 0 L 739 135 C 714 90 675 52 623 21 C 570 -9 513 -25 451 -25 C 378 -25 313 -5 255 32 C 197 70 151 124 119 194 C 86 263 70 338 70 418 C 70 502 87 578 121 646 C 155 714 202 766 262 804 C 322 841 388 860 461 860 C 521 860 576 844 626 814 C 676 784 713 746 739 700 L 739 1495 L 872 1495 L 872 0 L 739 0 Z M 745 422 C 745 509 718 583 666 644 C 614 704 549 735 473 735 C 392 735 327 705 279 647 C 231 589 207 512 207 418 C 207 324 231 247 279 187 C 327 127 391 98 471 98 C 549 98 615 129 667 191 C 719 253 745 330 745 422 Z" unicode="d" />
<glyph horiz-adv-x="952" d="M 205 414 C 206 321 234 245 288 186 C 342 127 414 98 502 98 C 557 98 607 106 652 124 C 696 142 741 171 786 213 L 872 129 C 772 26 648 -25 498 -25 C 414 -25 339 -6 274 32 C 208 70 158 123 123 193 C 87 262 70 340 70 428 C 70 506 87 579 123 646 C 158 712 207 765 271 803 C 335 841 407 860 487 860 C 606 860 702 819 775 737 C 847 655 885 548 889 414 L 205 414 Z M 739 520 C 726 586 696 639 649 679 C 602 719 546 739 481 739 C 409 739 348 719 300 679 C 252 639 222 586 211 520 L 739 520 Z" unicode="e" />
<glyph horiz-adv-x="473" d="M 293 713 L 293 0 L 160 0 L 160 713 L 25 713 L 25 836 L 160 836 L 160 1311 C 160 1369 177 1415 212 1448 C 247 1480 293 1497 350 1497 L 391 1497 L 434 1495 L 434 1374 L 388 1377 L 373 1376 C 345 1374 324 1365 312 1347 C 299 1329 293 1303 293 1270 L 293 836 L 436 836 L 436 713 L 293 713 Z" unicode="f" />
<glyph horiz-adv-x="1001" d="M 872 6 C 872 -116 835 -213 762 -283 C 689 -353 590 -389 465 -389 C 400 -389 337 -379 277 -359 C 217 -339 164 -307 119 -264 L 195 -170 C 271 -235 360 -268 463 -268 C 545 -268 612 -245 663 -199 C 713 -153 739 -93 739 -18 L 739 135 C 713 87 674 48 623 19 C 572 -10 517 -25 457 -25 C 341 -25 247 15 176 95 C 105 175 70 281 70 412 C 70 493 86 568 120 637 C 153 706 199 760 258 800 C 317 840 384 860 459 860 C 515 860 569 845 621 816 C 672 786 711 747 739 698 L 739 836 L 872 836 L 872 6 Z M 745 416 C 745 506 719 581 668 643 C 616 704 551 735 473 735 C 392 735 327 704 279 644 C 231 583 207 508 207 420 C 207 321 231 243 280 185 C 328 127 394 98 477 98 C 553 98 617 129 668 192 C 719 255 745 330 745 416 Z" unicode="g" />
<glyph horiz-adv-x="940" d="M 696 0 L 696 532 C 696 593 678 642 643 680 C 608 718 561 737 502 737 C 435 737 378 712 332 664 C 285 615 262 555 262 483 L 262 0 L 129 0 L 129 1495 L 262 1495 L 262 715 C 288 761 325 797 372 822 C 419 847 468 860 520 860 C 614 860 689 832 745 776 C 801 720 829 646 829 555 L 829 0 L 696 0 Z" unicode="h" />
<glyph horiz-adv-x="391" d="M 129 1049 L 129 1245 L 262 1245 L 262 1049 L 129 1049 Z M 129 0 L 129 836 L 262 836 L 262 0 L 129 0 Z" unicode="i" />
<glyph horiz-adv-x="391" d="M 129 1049 L 129 1245 L 262 1245 L 262 1049 L 129 1049 Z M 262 -205 C 262 -259 245 -301 211 -331 C 177 -361 132 -377 76 -377 C 40 -377 8 -373 -18 -367 L -27 -250 C -1 -256 20 -259 38 -259 C 74 -259 98 -253 110 -243 C 122 -232 129 -216 129 -195 L 129 836 L 262 836 L 262 -205 Z" unicode="j" />
<glyph horiz-adv-x="897" d="M 686 0 L 360 393 L 262 303 L 262 0 L 129 0 L 129 1495 L 262 1495 L 262 467 L 649 836 L 836 836 L 459 483 L 862 0 L 686 0 Z" unicode="k" />
<glyph horiz-adv-x="391" d="M 129 0 L 129 1495 L 262 1495 L 262 0 L 129 0 Z" unicode="l" />
<glyph horiz-adv-x="1454" d="M 1208 0 L 1208 543 C 1208 603 1193 651 1163 685 C 1133 719 1092 737 1040 737 C 974 737 918 714 872 669 C 826 623 803 569 803 506 L 803 0 L 670 0 L 670 543 C 670 603 655 651 627 685 C 598 719 555 737 498 737 C 434 737 378 714 332 668 C 285 622 262 567 262 504 L 262 0 L 129 0 L 129 836 L 262 836 L 262 723 C 285 761 320 794 366 820 C 412 846 462 860 516 860 C 642 860 728 809 774 709 C 803 752 844 788 897 817 C 950 845 1005 860 1061 860 C 1149 860 1218 833 1268 781 C 1318 728 1343 654 1343 559 L 1343 0 L 1208 0 Z" unicode="m" />
<glyph horiz-adv-x="944" d="M 698 0 L 698 532 C 698 595 680 645 645 682 C 610 718 562 737 502 737 C 432 737 375 711 330 661 C 284 611 262 551 262 483 L 262 0 L 129 0 L 129 836 L 262 836 L 262 715 C 286 759 322 794 369 820 C 415 846 466 860 522 860 C 614 860 688 832 745 778 C 802 724 831 649 831 555 L 831 0 L 698 0 Z" unicode="n" />
<glyph horiz-adv-x="1010" d="M 940 424 C 940 340 920 264 882 195 C 843 125 790 71 724 33 C 657 -5 584 -25 504 -25 C 422 -25 348 -5 281 32 C 214 70 162 124 125 192 C 88 260 70 336 70 420 C 70 500 88 574 125 642 C 162 710 214 763 280 802 C 346 840 420 860 502 860 C 582 860 656 841 724 803 C 792 765 845 712 883 645 C 921 577 940 504 940 424 Z M 803 420 C 803 513 775 589 719 647 C 663 705 590 735 502 735 C 416 735 346 705 290 647 C 234 588 207 512 207 420 C 207 325 234 248 289 188 C 343 128 414 98 502 98 C 592 98 664 127 720 187 C 775 247 803 324 803 420 Z" unicode="o" />
<glyph horiz-adv-x="1001" d="M 932 418 C 932 334 915 258 881 190 C 847 122 801 69 741 31 C 681 -6 614 -25 541 -25 C 481 -25 426 -10 376 20 C 325 50 287 88 262 135 L 262 -367 L 129 -367 L 129 836 L 262 836 L 262 698 C 288 746 328 785 382 815 C 435 845 491 860 551 860 C 623 860 688 840 746 801 C 804 762 849 709 882 641 C 915 573 932 498 932 418 Z M 795 418 C 795 512 770 588 722 647 C 673 705 609 735 530 735 C 451 735 385 704 333 643 C 280 581 254 505 254 414 C 254 358 265 306 289 257 C 313 208 346 169 388 141 C 430 112 476 98 526 98 C 606 98 670 127 720 186 C 770 245 795 322 795 418 Z" unicode="p" />
<glyph horiz-adv-x="1001" d="M 739 -367 L 739 135 C 713 88 675 50 624 20 C 573 -10 517 -25 457 -25 C 341 -25 247 15 176 95 C 105 175 70 281 70 412 C 70 493 86 568 120 637 C 153 706 199 760 258 800 C 317 840 384 860 459 860 C 515 860 569 845 621 816 C 672 786 711 747 739 698 L 739 836 L 872 836 L 872 -367 L 739 -367 Z M 745 416 C 745 506 719 581 668 643 C 616 704 551 735 473 735 C 392 735 327 704 279 644 C 231 583 207 508 207 420 C 207 321 231 243 280 185 C 328 127 394 98 477 98 C 553 98 617 129 668 192 C 719 255 745 330 745 416 Z" unicode="q" />
<glyph horiz-adv-x="666" d="M 582 688 C 545 719 505 735 461 735 C 406 735 359 708 320 655 C 281 601 262 539 262 469 L 262 0 L 129 0 L 129 836 L 262 836 L 262 721 C 285 762 316 795 354 821 C 392 847 435 860 483 860 C 517 860 546 855 572 845 C 598 835 623 819 649 797 L 582 688 Z" unicode="r" />
<glyph horiz-adv-x="739" d="M 662 223 C 662 178 648 136 622 98 C 595 60 559 30 514 9 C 469 -12 421 -23 371 -23 C 315 -23 261 -14 210 4 C 158 22 114 46 76 76 L 147 178 C 180 152 216 133 256 119 C 296 105 333 98 367 98 C 410 98 447 109 479 132 C 510 155 526 184 526 219 C 526 252 514 280 492 303 C 469 325 419 350 342 377 C 275 401 226 424 195 446 C 163 468 139 495 121 525 C 103 555 94 591 94 633 C 94 698 120 752 174 795 C 227 838 291 860 367 860 C 470 860 559 832 635 776 L 573 674 C 510 718 441 741 367 741 C 326 741 292 731 266 712 C 240 693 227 668 227 637 C 227 617 232 599 243 584 C 254 568 270 554 292 542 C 313 529 349 514 399 498 C 472 470 525 445 557 422 C 589 398 615 371 634 339 C 652 307 662 268 662 223 Z" unicode="s" />
<glyph horiz-adv-x="522" d="M 449 -4 L 425 -5 L 408 -6 L 399 -6 C 317 -6 256 12 216 49 C 176 86 156 143 156 219 L 156 713 L 33 713 L 33 836 L 156 836 L 156 1227 L 289 1227 L 289 836 L 446 836 L 446 713 L 289 713 L 289 221 C 289 153 327 119 403 119 L 449 119 L 449 -4 Z" unicode="t" />
<glyph horiz-adv-x="948" d="M 686 0 L 686 121 C 661 77 626 42 580 15 C 534 -11 482 -25 424 -25 C 327 -25 252 2 198 57 C 144 111 117 186 117 281 L 117 836 L 250 836 L 250 303 C 250 242 267 192 302 154 C 337 115 385 96 446 96 C 513 96 570 122 616 174 C 662 226 686 285 686 352 L 686 836 L 819 836 L 819 0 L 686 0 Z" unicode="u" />
<glyph horiz-adv-x="842" d="M 422 -37 L 29 836 L 174 836 L 422 266 L 674 836 L 813 836 L 422 -37 Z" unicode="v" />
<glyph horiz-adv-x="1290" d="M 901 -37 L 647 565 L 391 -37 L 29 836 L 172 836 L 401 281 L 647 846 L 895 285 L 1120 836 L 1262 836 L 901 -37 Z" unicode="w" />
<glyph horiz-adv-x="866" d="M 670 0 L 432 346 L 193 0 L 33 0 L 352 457 L 86 836 L 246 836 L 432 567 L 616 836 L 774 836 L 512 459 L 834 0 L 670 0 Z" unicode="x" />
<glyph horiz-adv-x="838" d="M 184 -379 C 134 -379 91 -371 55 -356 L 55 -231 C 84 -247 116 -256 150 -256 C 186 -256 215 -246 239 -226 C 263 -206 286 -164 309 -102 L 348 -4 L 31 836 L 174 836 L 426 174 L 668 836 L 807 836 L 416 -188 C 390 -255 358 -304 320 -334 C 282 -364 237 -379 184 -379 Z" unicode="y" />
<glyph horiz-adv-x="868" d="M 285 123 L 780 123 L 780 0 L 39 0 L 571 711 L 117 711 L 117 836 L 819 836 L 285 123 Z" unicode="z" />
<glyph horiz-adv-x="588" d="M 528 -367 C 444 -333 380 -294 336 -252 C 291 -210 259 -157 239 -95 C 219 -33 209 58 209 180 C 209 274 204 342 195 386 C 185 429 170 462 150 486 C 130 510 102 522 66 522 L 66 645 C 102 645 130 656 150 679 C 170 702 185 735 195 779 C 204 822 209 891 209 987 C 209 1107 219 1199 239 1262 C 259 1324 291 1377 337 1420 C 382 1462 446 1500 528 1534 L 528 1436 C 455 1383 406 1329 382 1273 C 358 1217 346 1132 346 1016 C 346 906 341 828 332 781 C 322 733 307 693 286 661 C 265 628 236 602 199 584 C 236 565 265 539 286 506 C 307 473 322 433 332 385 C 341 337 346 260 346 152 C 346 36 357 -49 381 -105 C 405 -160 454 -214 528 -268 L 528 -367 Z" unicode="{" />
<glyph horiz-adv-x="453" d="M 160 -367 L 160 1495 L 293 1495 L 293 -367 L 160 -367 Z" unicode="|" />
<glyph horiz-adv-x="588" d="M 522 522 C 486 522 457 510 437 486 C 417 462 402 429 393 386 C 383 342 379 274 379 180 C 379 59 369 -32 349 -95 C 329 -157 297 -210 252 -252 C 206 -294 142 -333 59 -367 L 59 -268 C 111 -230 150 -195 174 -161 C 198 -127 216 -87 226 -41 C 236 5 242 70 242 152 C 242 260 246 338 256 386 C 265 433 280 473 301 506 C 322 539 351 565 389 584 C 351 602 322 628 301 661 C 280 693 265 733 256 781 C 246 828 242 906 242 1016 C 242 1132 229 1218 205 1274 C 181 1330 132 1384 59 1436 L 59 1534 C 142 1500 206 1461 251 1419 C 296 1377 329 1324 349 1262 C 369 1200 379 1108 379 987 C 379 892 383 823 393 779 C 402 735 417 702 437 679 C 457 656 486 645 522 645 L 522 522 Z" unicode="}" />
<glyph horiz-adv-x="956" d="M 862 895 C 852 790 828 716 792 672 C 756 628 707 606 645 606 C 593 606 530 636 455 696 C 425 718 399 737 378 751 C 356 765 335 772 315 772 C 290 772 270 757 254 729 C 238 701 229 662 227 612 L 94 612 C 102 712 124 784 160 830 C 196 876 247 899 311 899 C 335 899 361 892 391 880 C 420 867 456 844 500 811 C 528 790 553 772 577 756 C 600 740 621 733 641 733 C 665 733 686 748 702 778 C 718 808 727 847 729 895 L 862 895 Z" unicode="~" />
<glyph horiz-adv-x="369" d="" unicode=" " />
<glyph horiz-adv-x="410" d="M 129 1298 L 129 1495 L 276 1495 L 276 1298 L 129 1298 Z M 129 0 L 129 756 L 158 1206 L 246 1206 L 276 756 L 276 0 L 129 0 Z" unicode="¡" />
<glyph horiz-adv-x="920" d="M 858 180 C 817 122 769 76 714 41 C 659 5 600 -15 537 -23 L 537 -162 L 440 -162 L 440 -23 C 329 -10 240 36 172 118 C 104 199 70 300 70 420 C 70 532 104 630 174 714 C 244 798 332 845 440 856 L 440 1014 L 537 1014 L 537 856 C 599 849 656 831 709 801 C 761 771 806 732 842 684 L 741 606 C 683 680 615 722 537 733 L 537 100 C 623 113 698 164 762 252 L 858 180 Z M 440 733 C 370 720 314 685 270 628 C 226 570 205 503 205 426 C 205 340 226 268 269 209 C 312 149 369 114 440 102 L 440 733 Z" unicode="¢" />
<glyph horiz-adv-x="1143" d="M 1069 315 L 1069 303 C 1069 84 985 -25 817 -25 C 781 -25 742 -16 701 1 C 659 18 609 48 551 92 C 482 14 393 -25 283 -25 C 226 -25 177 -9 137 21 C 96 51 76 91 76 139 C 76 193 96 235 137 265 C 177 295 233 311 303 311 C 369 311 436 294 504 260 C 513 294 518 323 518 348 C 518 396 512 434 500 463 L 160 463 L 160 549 L 465 549 C 451 576 434 606 412 639 L 160 639 L 160 723 L 352 723 L 288 813 C 248 867 218 918 199 967 C 179 1015 170 1065 170 1116 C 170 1237 210 1335 291 1409 C 371 1483 477 1520 608 1520 C 691 1520 765 1503 831 1470 C 897 1437 948 1392 984 1334 C 1020 1276 1039 1212 1040 1143 L 891 1143 C 884 1219 855 1279 805 1323 C 754 1367 688 1389 606 1389 C 520 1389 450 1365 398 1317 C 345 1269 319 1203 319 1120 C 319 1071 329 1023 349 977 C 369 930 403 877 451 817 L 520 723 L 864 723 L 864 639 L 573 639 C 584 619 598 589 614 549 L 864 549 L 864 463 L 639 463 C 645 433 649 403 649 371 C 649 307 639 249 621 197 C 697 139 762 111 815 111 C 854 111 884 126 904 157 C 924 187 936 240 938 315 L 1069 315 Z M 449 160 C 432 172 410 183 382 193 C 354 203 327 209 301 209 C 231 209 197 185 197 139 C 197 119 205 103 222 92 C 239 81 262 76 291 76 C 321 76 351 83 379 99 C 407 115 430 135 449 160 Z" unicode="£" />
<glyph horiz-adv-x="1243" d="M 360 608 C 379 451 422 329 488 241 C 554 153 636 109 733 109 C 869 109 975 180 1049 322 L 1176 256 C 1078 68 930 -25 731 -25 C 587 -25 469 32 377 146 C 284 260 229 414 211 608 L 41 608 L 41 694 L 205 694 L 203 741 L 205 786 L 41 786 L 41 868 L 209 868 C 227 1072 282 1231 375 1347 C 467 1462 589 1520 739 1520 C 933 1520 1077 1429 1171 1247 L 1047 1182 C 1007 1253 962 1305 912 1337 C 862 1369 803 1386 737 1386 C 632 1386 546 1340 480 1250 C 414 1160 373 1032 358 868 L 813 868 L 813 786 L 354 786 L 353 739 L 354 694 L 813 694 L 813 608 L 360 608 Z" unicode="¤" />
<glyph horiz-adv-x="1274" d="M 705 705 L 705 553 L 1063 553 L 1063 469 L 705 469 L 705 324 L 1063 324 L 1063 240 L 705 240 L 705 0 L 563 0 L 563 240 L 186 240 L 186 324 L 563 324 L 563 469 L 186 469 L 186 553 L 563 553 L 563 707 L 37 1495 L 201 1495 L 637 844 L 1075 1495 L 1237 1495 L 705 705 Z" unicode="¥" />
<glyph horiz-adv-x="453" d="M 160 1495 L 293 1495 L 293 719 L 160 719 L 160 1495 Z M 293 -367 L 160 -367 L 160 410 L 293 410 L 293 -367 Z" unicode="¦" />
<glyph horiz-adv-x="1331" d="M 1260 496 C 1260 424 1239 355 1197 287 C 1155 219 1096 164 1022 123 C 1079 73 1108 9 1108 -68 C 1108 -167 1069 -244 992 -299 C 915 -353 806 -381 666 -381 C 582 -381 496 -366 407 -336 C 317 -306 246 -269 193 -223 L 270 -119 C 311 -155 370 -185 446 -211 C 522 -237 598 -250 672 -250 C 763 -250 833 -234 883 -204 C 933 -174 958 -132 958 -80 C 958 -50 949 -25 933 -3 C 917 18 891 38 856 58 C 821 78 758 104 666 137 L 463 215 C 323 267 221 327 159 397 C 97 467 66 549 66 645 C 66 715 87 785 130 853 C 172 921 230 976 303 1016 C 245 1069 217 1132 217 1206 C 217 1304 255 1380 331 1436 C 407 1492 516 1520 659 1520 C 743 1520 828 1506 914 1478 C 1000 1450 1074 1411 1135 1362 L 1055 1257 C 1010 1296 950 1328 876 1352 C 801 1376 727 1389 653 1389 C 565 1389 495 1374 445 1346 C 394 1317 369 1275 369 1221 C 369 1191 376 1166 392 1145 C 408 1123 432 1103 464 1084 C 496 1065 561 1037 659 1001 L 862 924 C 962 886 1039 847 1093 807 C 1147 767 1188 722 1217 671 C 1245 620 1260 562 1260 496 Z M 1110 487 C 1110 537 1099 581 1077 617 C 1055 653 1020 686 974 716 C 927 745 845 781 727 823 C 553 888 450 929 416 946 C 355 917 306 877 270 826 C 233 775 215 717 215 651 C 215 602 225 560 246 525 C 266 490 298 459 341 431 C 383 403 455 370 557 332 L 811 235 L 909 193 C 969 223 1018 263 1055 313 C 1091 363 1110 421 1110 487 Z" unicode="§" />
<glyph horiz-adv-x="956" d="M 571 999 L 571 1196 L 707 1196 L 707 999 L 571 999 Z M 250 999 L 250 1196 L 385 1196 L 385 999 L 250 999 Z" unicode="¨" />
<glyph horiz-adv-x="1729" d="M 1636 748 C 1636 609 1601 480 1533 362 C 1464 243 1370 149 1252 79 C 1133 9 1004 -25 864 -25 C 724 -25 594 9 476 79 C 358 149 264 243 195 361 C 126 479 92 608 92 748 C 92 887 126 1016 195 1134 C 264 1252 358 1346 476 1416 C 594 1485 724 1520 864 1520 C 1003 1520 1132 1485 1250 1416 C 1368 1347 1462 1253 1532 1135 C 1601 1017 1636 888 1636 748 Z M 1548 745 C 1548 867 1517 982 1455 1089 C 1393 1195 1310 1279 1205 1340 C 1100 1401 986 1432 864 1432 C 741 1432 627 1401 522 1340 C 417 1279 334 1195 272 1089 C 210 982 180 867 180 745 C 180 621 211 506 274 400 C 336 293 420 210 525 150 C 629 90 742 61 864 61 C 985 61 1098 90 1203 150 C 1307 209 1391 292 1454 399 C 1516 506 1548 621 1548 745 Z M 1210 451 C 1172 402 1121 363 1059 333 C 997 303 932 289 866 289 C 786 289 713 309 645 350 C 577 390 523 446 485 518 C 447 590 428 670 428 760 C 428 840 447 916 485 987 C 523 1057 576 1113 643 1153 C 710 1193 784 1214 864 1214 C 1006 1214 1115 1167 1192 1075 L 1116 1008 C 1053 1077 971 1112 870 1112 C 774 1112 695 1078 632 1012 C 568 945 537 862 537 762 C 537 692 551 629 581 573 C 610 516 650 471 701 439 C 752 407 807 391 866 391 C 968 391 1059 432 1137 514 L 1210 451 Z" unicode="©" />
<glyph horiz-adv-x="881" d="M 606 821 L 606 883 C 539 828 463 801 377 801 C 303 801 244 820 198 860 C 152 900 129 953 129 1020 C 129 1098 160 1158 224 1200 C 288 1242 376 1264 489 1264 L 608 1264 L 608 1294 C 608 1337 595 1369 570 1390 C 545 1410 504 1421 446 1421 C 364 1421 296 1406 240 1378 L 199 1466 C 265 1502 345 1520 438 1520 C 625 1520 719 1451 719 1315 L 719 821 L 606 821 Z M 129 590 L 129 688 L 729 688 L 729 590 L 129 590 Z M 606 1167 L 518 1167 C 426 1167 358 1155 313 1132 C 268 1109 246 1072 246 1020 C 246 984 259 955 287 933 C 314 911 351 901 397 901 C 440 901 478 908 511 923 C 544 938 576 958 606 983 L 606 1167 Z" unicode="ª" />
<glyph horiz-adv-x="721" d="M 344 399 L 344 469 L 647 752 L 647 606 L 471 434 L 647 262 L 647 115 L 344 399 Z M 49 399 L 49 469 L 352 752 L 352 606 L 176 434 L 352 262 L 352 115 L 49 399 Z" unicode="«" />
<glyph horiz-adv-x="1536" d="M 1116 352 L 1116 727 L 213 727 L 213 920 L 1296 920 L 1296 352 L 1116 352 Z" unicode="¬" />
<glyph horiz-adv-x="649" d="M 109 387 L 109 512 L 541 512 L 541 387 L 109 387 Z" unicode="­" />
<glyph horiz-adv-x="1729" d="M 1636 748 C 1636 609 1601 480 1533 362 C 1464 243 1370 149 1252 79 C 1133 9 1004 -25 864 -25 C 724 -25 594 9 476 79 C 358 149 264 243 195 361 C 126 479 92 608 92 748 C 92 887 126 1016 195 1134 C 264 1252 358 1346 476 1416 C 594 1485 724 1520 864 1520 C 1003 1520 1132 1485 1250 1416 C 1368 1347 1462 1253 1532 1135 C 1601 1017 1636 888 1636 748 Z M 1548 745 C 1548 867 1517 982 1455 1089 C 1393 1195 1310 1279 1205 1340 C 1100 1401 986 1432 864 1432 C 741 1432 627 1401 522 1340 C 417 1279 334 1195 272 1089 C 210 982 180 867 180 745 C 180 621 211 506 274 400 C 336 293 420 210 525 150 C 629 90 742 61 864 61 C 985 61 1098 90 1203 150 C 1307 209 1391 292 1454 399 C 1516 506 1548 621 1548 745 Z M 1075 317 L 715 733 L 715 317 L 610 317 L 610 1214 L 881 1214 C 963 1214 1030 1189 1082 1141 C 1134 1093 1161 1032 1161 958 C 1161 884 1134 823 1081 776 C 1028 728 961 705 881 705 L 866 705 L 1208 317 L 1075 317 Z M 1053 961 C 1053 1006 1036 1043 1002 1072 C 968 1101 927 1116 877 1116 L 715 1116 L 715 791 L 862 791 C 922 791 968 806 1002 837 C 1036 868 1053 909 1053 961 Z" unicode="®" />
<glyph horiz-adv-x="956" d="M 193 999 L 193 1102 L 762 1102 L 762 999 L 193 999 Z" unicode="¯" />
<glyph horiz-adv-x="823" d="M 762 1169 C 762 1072 727 989 659 921 C 591 853 508 819 412 819 C 349 819 291 834 237 865 C 183 896 140 939 108 993 C 76 1047 61 1105 61 1169 C 61 1231 76 1290 108 1344 C 139 1398 182 1441 236 1473 C 290 1504 348 1520 412 1520 C 508 1520 591 1485 659 1417 C 727 1349 762 1266 762 1169 Z M 643 1169 C 643 1233 620 1287 576 1333 C 532 1378 477 1401 412 1401 C 347 1401 292 1378 247 1333 C 202 1288 180 1233 180 1169 C 180 1103 202 1048 248 1004 C 293 960 348 938 412 938 C 476 938 531 960 576 1005 C 620 1049 643 1104 643 1169 Z" unicode="°" />
<glyph horiz-adv-x="1536" d="M 672 352 L 672 764 L 201 764 L 201 936 L 672 936 L 672 1352 L 864 1352 L 864 936 L 1339 936 L 1339 764 L 864 764 L 864 352 L 672 352 Z M 205 25 L 205 215 L 1335 215 L 1335 25 L 205 25 Z" unicode="±" />
<glyph horiz-adv-x="877" d="M 569 1268 C 569 1305 556 1336 530 1360 C 504 1384 472 1397 436 1397 C 396 1397 364 1383 340 1357 C 316 1330 302 1294 297 1249 L 180 1249 C 186 1331 213 1396 259 1444 C 305 1492 364 1516 436 1516 C 509 1516 570 1492 620 1446 C 669 1400 694 1341 694 1270 C 694 1234 685 1201 669 1169 C 652 1137 630 1104 604 1071 L 397 823 L 705 823 L 705 705 L 145 705 L 506 1143 C 527 1168 543 1190 553 1209 C 563 1227 569 1247 569 1268 Z" unicode="²" />
<glyph horiz-adv-x="893" d="M 444 672 C 326 672 230 713 154 797 L 233 887 C 293 819 364 786 444 786 C 492 786 531 799 561 825 C 591 851 606 886 606 928 C 606 973 590 1007 560 1030 C 530 1053 490 1065 440 1065 L 342 1065 L 342 1174 L 440 1174 C 480 1174 513 1184 540 1204 C 566 1224 580 1254 580 1292 C 580 1322 568 1348 545 1368 C 522 1388 492 1399 455 1399 C 375 1399 319 1367 287 1305 L 186 1360 C 210 1407 247 1445 296 1473 C 345 1501 399 1516 457 1516 C 532 1516 592 1495 636 1453 C 680 1411 702 1358 702 1294 C 702 1256 693 1221 676 1191 C 659 1160 634 1138 600 1126 C 638 1116 669 1093 693 1055 C 717 1017 729 976 729 930 C 729 852 703 790 652 743 C 601 695 532 672 444 672 Z" unicode="³" />
<glyph horiz-adv-x="956" d="M 457 999 L 317 999 L 494 1282 L 637 1282 L 457 999 Z" unicode="´" />
<glyph horiz-adv-x="1407" d="M 252 -424 C 215 -424 187 -413 168 -392 C 148 -370 139 -333 139 -281 C 139 -168 144 -41 156 100 C 166 234 172 310 172 328 L 176 356 L 176 1176 L 369 1176 L 369 319 C 369 257 396 210 450 176 C 504 142 564 125 629 125 C 716 125 792 146 858 190 C 923 234 973 297 1008 381 L 1008 1176 L 1200 1176 L 1200 307 L 1221 0 L 1057 0 L 1020 176 C 974 104 913 49 836 13 C 759 -22 671 -41 571 -41 C 537 -41 494 -32 444 -14 C 394 3 354 27 324 59 C 324 0 333 -57 352 -113 C 371 -169 381 -219 381 -264 C 381 -370 338 -424 252 -424 Z" unicode="µ" />
<glyph horiz-adv-x="1358" d="M 1073 -367 L 1073 1370 L 901 1370 L 901 -367 L 768 -367 L 768 506 L 557 506 C 470 506 388 528 310 572 C 232 616 170 676 124 752 C 78 827 55 907 55 993 C 55 1088 77 1174 122 1251 C 167 1327 230 1387 312 1430 C 393 1473 484 1495 586 1495 L 1208 1495 L 1208 -367 L 1073 -367 Z M 768 1370 L 596 1370 C 480 1370 385 1336 311 1268 C 237 1200 201 1113 201 1006 C 201 897 237 807 311 737 C 384 666 479 631 596 631 L 768 631 L 768 1370 Z" unicode="¶" />
<glyph horiz-adv-x="365" d="M 109 639 L 109 836 L 256 836 L 256 639 L 109 639 Z" unicode="·" />
<glyph horiz-adv-x="956" d="M 647 -211 C 647 -260 627 -298 587 -326 C 547 -353 497 -367 436 -367 C 366 -367 301 -345 242 -301 L 289 -244 C 306 -258 329 -269 357 -278 C 385 -286 412 -291 438 -291 C 461 -291 482 -285 500 -274 C 518 -262 528 -245 528 -223 C 528 -202 519 -186 503 -175 C 486 -163 464 -158 436 -158 C 407 -158 381 -162 358 -172 L 326 -133 L 451 27 L 561 27 L 469 -92 L 486 -92 C 534 -92 573 -103 603 -125 C 632 -147 647 -175 647 -211 Z" unicode="¸" />
<glyph horiz-adv-x="649" d="M 291 1303 C 277 1287 257 1274 231 1264 C 204 1254 177 1247 150 1245 L 150 1366 C 230 1377 287 1420 319 1495 L 412 1495 L 412 686 L 291 686 L 291 1303 Z" unicode="¹" />
<glyph horiz-adv-x="975" d="M 838 1167 C 838 1062 804 975 736 905 C 668 835 583 801 483 801 C 382 801 298 834 230 902 C 162 969 129 1056 129 1163 C 129 1264 162 1349 229 1418 C 296 1487 380 1522 481 1522 C 583 1522 668 1487 736 1419 C 804 1350 838 1266 838 1167 Z M 137 590 L 137 688 L 829 688 L 829 590 L 137 590 Z M 721 1163 C 721 1237 698 1298 654 1345 C 610 1391 552 1415 481 1415 C 411 1415 355 1391 311 1344 C 267 1296 246 1236 246 1163 C 246 1087 267 1025 311 977 C 354 929 411 905 481 905 C 552 905 610 929 654 977 C 698 1025 721 1087 721 1163 Z" unicode="º" />
<glyph horiz-adv-x="721" d="M 369 115 L 369 260 L 545 432 L 369 604 L 369 752 L 672 467 L 672 397 L 369 115 Z M 74 115 L 74 260 L 250 432 L 74 604 L 74 752 L 377 467 L 377 397 L 74 115 Z" unicode="»" />
<glyph horiz-adv-x="1700" d="M 291 1303 C 277 1287 257 1274 231 1264 C 204 1254 177 1247 150 1245 L 150 1366 C 230 1377 287 1420 319 1495 L 412 1495 L 412 686 L 291 686 L 291 1303 Z M 377 0 L 236 0 L 1257 1495 L 1399 1495 L 377 0 Z M 1417 0 L 1296 0 L 1296 190 L 956 190 L 956 274 L 1327 801 L 1417 801 L 1417 305 L 1530 305 L 1530 190 L 1417 190 L 1417 0 Z M 1116 305 L 1296 305 L 1296 563 L 1116 305 Z" unicode="¼" />
<glyph horiz-adv-x="1769" d="M 291 1303 C 277 1287 257 1274 231 1264 C 204 1254 177 1247 150 1245 L 150 1366 C 230 1377 287 1420 319 1495 L 412 1495 L 412 686 L 291 686 L 291 1303 Z M 377 0 L 236 0 L 1257 1495 L 1399 1495 L 377 0 Z M 1466 563 C 1466 600 1453 631 1427 655 C 1401 679 1369 692 1333 692 C 1293 692 1261 678 1237 652 C 1213 626 1199 590 1194 545 L 1077 545 C 1083 627 1110 692 1156 740 C 1202 787 1261 811 1333 811 C 1405 811 1466 787 1516 741 C 1566 695 1591 636 1591 565 C 1591 506 1561 440 1501 367 L 1294 119 L 1602 119 L 1602 0 L 1042 0 L 1403 438 C 1424 463 1440 485 1450 504 C 1460 522 1466 542 1466 563 Z" unicode="½" />
<glyph horiz-adv-x="1802" d="M 444 672 C 326 672 230 713 154 797 L 233 887 C 293 819 364 786 444 786 C 492 786 531 799 561 825 C 591 851 606 886 606 928 C 606 973 590 1007 560 1030 C 530 1053 490 1065 440 1065 L 342 1065 L 342 1174 L 440 1174 C 480 1174 513 1184 540 1204 C 566 1224 580 1254 580 1292 C 580 1322 568 1348 545 1368 C 522 1388 492 1399 455 1399 C 375 1399 319 1367 287 1305 L 186 1360 C 210 1407 247 1445 296 1473 C 345 1501 399 1516 457 1516 C 532 1516 592 1495 636 1453 C 680 1411 702 1358 702 1294 C 702 1256 693 1221 676 1191 C 659 1160 634 1138 600 1126 C 638 1116 669 1093 693 1055 C 717 1017 729 976 729 930 C 729 852 703 790 652 743 C 601 695 532 672 444 672 Z M 543 0 L 401 0 L 1423 1495 L 1565 1495 L 543 0 Z M 1540 0 L 1419 0 L 1419 190 L 1079 190 L 1079 274 L 1450 801 L 1540 801 L 1540 305 L 1653 305 L 1653 190 L 1540 190 L 1540 0 Z M 1239 305 L 1419 305 L 1419 563 L 1239 305 Z" unicode="¾" />
<glyph horiz-adv-x="899" d="M 420 1298 L 420 1495 L 565 1495 L 565 1298 L 420 1298 Z M 848 176 C 758 42 633 -25 473 -25 C 355 -25 260 10 187 80 C 114 150 78 241 78 352 C 78 405 87 458 107 510 C 127 562 158 617 201 677 L 270 772 C 324 848 363 916 387 976 C 410 1036 422 1094 422 1151 L 422 1200 L 563 1200 L 563 1155 C 563 1106 557 1060 545 1016 C 533 972 517 930 497 890 C 477 850 436 785 375 696 C 312 611 271 546 252 500 C 232 454 223 409 223 365 C 223 290 247 227 295 177 C 343 127 402 102 473 102 C 587 102 679 156 748 266 L 848 176 Z" unicode="¿" />
<glyph horiz-adv-x="1368" d="M 1114 0 L 922 532 L 401 532 L 209 0 L 57 0 L 621 1509 L 707 1509 L 1272 0 L 1114 0 Z M 662 1257 L 451 664 L 872 664 L 662 1257 Z M 588 1615 L 407 1898 L 551 1898 L 727 1615 L 588 1615 Z" unicode="À" />
<glyph horiz-adv-x="1368" d="M 1114 0 L 922 532 L 401 532 L 209 0 L 57 0 L 621 1509 L 707 1509 L 1272 0 L 1114 0 Z M 662 1257 L 451 664 L 872 664 L 662 1257 Z M 727 1615 L 587 1615 L 764 1898 L 907 1898 L 727 1615 Z" unicode="Á" />
<glyph horiz-adv-x="1368" d="M 1114 0 L 922 532 L 401 532 L 209 0 L 57 0 L 621 1509 L 707 1509 L 1272 0 L 1114 0 Z M 662 1257 L 451 664 L 872 664 L 662 1257 Z M 784 1595 L 659 1767 L 534 1595 L 393 1595 L 602 1870 L 719 1870 L 927 1595 L 784 1595 Z" unicode="Â" />
<glyph horiz-adv-x="1368" d="M 1114 0 L 922 532 L 401 532 L 209 0 L 57 0 L 621 1509 L 707 1509 L 1272 0 L 1114 0 Z M 662 1257 L 451 664 L 872 664 L 662 1257 Z M 955 1810 C 953 1741 939 1691 913 1659 C 886 1627 846 1611 793 1611 C 754 1611 708 1628 656 1663 C 610 1689 577 1703 555 1703 C 521 1703 502 1673 500 1615 L 386 1615 C 387 1681 401 1731 427 1764 C 453 1797 494 1814 549 1814 C 585 1814 630 1797 682 1765 C 730 1736 765 1722 787 1722 C 821 1722 839 1751 842 1810 L 955 1810 Z" unicode="Ã" />
<glyph horiz-adv-x="1368" d="M 961 1298 L 961 1495 L 1096 1495 L 1096 1298 L 961 1298 Z M 231 1298 L 231 1495 L 367 1495 L 367 1298 L 231 1298 Z M 1114 0 L 922 532 L 401 532 L 209 0 L 57 0 L 621 1509 L 707 1509 L 1272 0 L 1114 0 Z M 662 1257 L 451 664 L 872 664 L 662 1257 Z" unicode="Ä" />
<glyph horiz-adv-x="1368" d="M 1114 0 L 922 532 L 401 532 L 209 0 L 57 0 L 592 1434 C 550 1448 516 1472 490 1508 C 464 1543 451 1584 451 1632 C 451 1691 472 1741 514 1783 C 556 1824 606 1845 664 1845 C 722 1845 772 1824 814 1782 C 856 1740 877 1690 877 1632 C 877 1586 863 1545 837 1509 C 810 1472 776 1447 735 1434 L 1272 0 L 1114 0 Z M 780 1632 C 780 1664 769 1691 747 1714 C 725 1737 697 1749 664 1749 C 630 1749 602 1737 580 1714 C 558 1690 547 1663 547 1632 C 547 1599 558 1571 580 1549 C 602 1527 630 1516 664 1516 C 696 1516 724 1527 746 1549 C 768 1571 780 1599 780 1632 Z M 662 1257 L 451 664 L 872 664 L 662 1257 Z" unicode="Å" />
<glyph horiz-adv-x="1911" d="M 977 0 L 977 487 L 473 487 L 172 0 L 16 0 L 938 1495 L 1767 1495 L 1767 1364 L 1120 1364 L 1120 827 L 1726 827 L 1726 696 L 1120 696 L 1120 131 L 1806 131 L 1806 0 L 977 0 Z M 977 1325 L 557 618 L 977 618 L 977 1325 Z" unicode="Æ" />
<glyph horiz-adv-x="1477" d="M 1395 248 C 1332 167 1255 103 1164 56 C 1073 9 974 -17 866 -23 L 813 -92 L 830 -92 C 880 -92 919 -103 948 -125 C 976 -147 991 -176 991 -211 C 991 -260 971 -298 931 -326 C 891 -353 841 -367 780 -367 C 712 -367 648 -345 588 -301 L 633 -244 C 650 -258 673 -269 701 -278 C 729 -286 756 -291 782 -291 C 806 -291 827 -285 845 -274 C 863 -262 872 -245 872 -223 C 872 -202 864 -186 848 -175 C 832 -163 809 -158 780 -158 C 751 -158 725 -162 702 -172 L 670 -133 L 758 -23 C 633 -11 518 30 414 103 C 310 176 230 269 175 383 C 119 497 92 618 92 748 C 92 886 124 1014 188 1132 C 252 1250 339 1344 451 1414 C 563 1484 687 1520 823 1520 C 1056 1520 1237 1441 1366 1284 L 1262 1192 C 1146 1318 1000 1382 823 1382 C 718 1382 621 1354 532 1300 C 442 1246 372 1170 320 1073 C 268 976 242 870 242 754 C 242 634 267 524 319 426 C 371 328 442 251 532 196 C 622 140 719 113 823 113 C 919 113 1005 131 1081 169 C 1157 206 1227 261 1292 334 L 1395 248 Z" unicode="Ç" />
<glyph horiz-adv-x="1094" d="M 160 0 L 160 1495 L 950 1495 L 950 1364 L 301 1364 L 301 827 L 909 827 L 909 696 L 301 696 L 301 131 L 989 131 L 989 0 L 160 0 Z M 500 1615 L 319 1898 L 463 1898 L 639 1615 L 500 1615 Z" unicode="È" />
<glyph horiz-adv-x="1094" d="M 160 0 L 160 1495 L 950 1495 L 950 1364 L 301 1364 L 301 827 L 909 827 L 909 696 L 301 696 L 301 131 L 989 131 L 989 0 L 160 0 Z M 582 1615 L 442 1615 L 619 1898 L 762 1898 L 582 1615 Z" unicode="É" />
<glyph horiz-adv-x="1094" d="M 160 0 L 160 1495 L 950 1495 L 950 1364 L 301 1364 L 301 827 L 909 827 L 909 696 L 301 696 L 301 131 L 989 131 L 989 0 L 160 0 Z M 674 1615 L 549 1787 L 424 1615 L 283 1615 L 492 1890 L 609 1890 L 817 1615 L 674 1615 Z" unicode="Ê" />
<glyph horiz-adv-x="1094" d="M 160 0 L 160 1495 L 950 1495 L 950 1364 L 301 1364 L 301 827 L 909 827 L 909 696 L 301 696 L 301 131 L 989 131 L 989 0 L 160 0 Z M 645 1615 L 645 1812 L 781 1812 L 781 1615 L 645 1615 Z M 324 1615 L 324 1812 L 459 1812 L 459 1615 L 324 1615 Z" unicode="Ë" />
<glyph horiz-adv-x="461" d="M 160 0 L 160 1495 L 301 1495 L 301 0 L 160 0 Z M 163 1615 L -18 1898 L 126 1898 L 302 1615 L 163 1615 Z" unicode="Ì" />
<glyph horiz-adv-x="461" d="M 160 0 L 160 1495 L 301 1495 L 301 0 L 160 0 Z M 302 1617 L 162 1617 L 339 1900 L 482 1900 L 302 1617 Z" unicode="Í" />
<glyph horiz-adv-x="461" d="M 160 0 L 160 1495 L 301 1495 L 301 0 L 160 0 Z M 355 1609 L 230 1781 L 105 1609 L -36 1609 L 173 1884 L 290 1884 L 498 1609 L 355 1609 Z" unicode="Î" />
<glyph horiz-adv-x="461" d="M 160 0 L 160 1495 L 301 1495 L 301 0 L 160 0 Z M 324 1615 L 324 1812 L 460 1812 L 460 1615 L 324 1615 Z M 3 1615 L 3 1812 L 138 1812 L 138 1615 L 3 1615 Z" unicode="Ï" />
<glyph horiz-adv-x="1425" d="M 1333 758 C 1333 611 1299 480 1232 364 C 1165 248 1071 159 949 95 C 827 31 690 0 539 0 L 207 0 L 207 692 L 76 692 L 76 823 L 207 823 L 207 1495 L 547 1495 C 700 1495 836 1464 956 1403 C 1075 1342 1168 1255 1234 1143 C 1300 1030 1333 902 1333 758 Z M 1186 756 C 1186 873 1159 978 1106 1072 C 1053 1166 979 1238 883 1290 C 787 1342 679 1368 559 1368 L 350 1368 L 350 823 L 694 823 L 694 692 L 350 692 L 350 127 L 541 127 C 667 127 780 154 878 208 C 976 262 1052 337 1106 433 C 1159 529 1186 636 1186 756 Z" unicode="Ð" />
<glyph horiz-adv-x="1489" d="M 1196 0 L 301 1253 L 301 0 L 160 0 L 160 1495 L 301 1495 L 1186 252 L 1186 1495 L 1329 1495 L 1329 0 L 1196 0 Z M 1049 1774 C 1047 1705 1033 1655 1007 1623 C 980 1591 940 1575 887 1575 C 848 1575 802 1592 750 1627 C 704 1653 671 1667 649 1667 C 615 1667 596 1637 594 1579 L 480 1579 C 481 1645 495 1695 521 1728 C 547 1761 588 1778 643 1778 C 679 1778 724 1761 776 1729 C 824 1700 859 1686 881 1686 C 915 1686 933 1715 936 1774 L 1049 1774 Z" unicode="Ñ" />
<glyph horiz-adv-x="1686" d="M 1593 750 C 1593 609 1560 479 1495 361 C 1429 242 1339 148 1224 79 C 1109 9 982 -25 844 -25 C 704 -25 576 9 460 79 C 344 148 253 241 189 359 C 124 477 92 607 92 750 C 92 893 125 1024 191 1143 C 257 1261 348 1354 464 1420 C 579 1486 704 1520 840 1520 C 978 1520 1105 1487 1221 1421 C 1336 1355 1427 1262 1493 1144 C 1559 1025 1593 894 1593 750 Z M 1444 752 C 1444 869 1418 976 1366 1073 C 1314 1170 1241 1246 1148 1300 C 1054 1354 952 1382 840 1382 C 728 1382 627 1354 535 1300 C 443 1245 372 1169 320 1072 C 268 975 242 868 242 750 C 242 633 268 525 322 427 C 376 328 449 251 542 196 C 634 140 735 113 844 113 C 954 113 1055 140 1147 195 C 1239 250 1312 327 1365 425 C 1417 523 1444 632 1444 752 Z M 770 1615 L 589 1898 L 733 1898 L 909 1615 L 770 1615 Z" unicode="Ò" />
<glyph horiz-adv-x="1686" d="M 1593 750 C 1593 609 1560 479 1495 361 C 1429 242 1339 148 1224 79 C 1109 9 982 -25 844 -25 C 704 -25 576 9 460 79 C 344 148 253 241 189 359 C 124 477 92 607 92 750 C 92 893 125 1024 191 1143 C 257 1261 348 1354 464 1420 C 579 1486 704 1520 840 1520 C 978 1520 1105 1487 1221 1421 C 1336 1355 1427 1262 1493 1144 C 1559 1025 1593 894 1593 750 Z M 1444 752 C 1444 869 1418 976 1366 1073 C 1314 1170 1241 1246 1148 1300 C 1054 1354 952 1382 840 1382 C 728 1382 627 1354 535 1300 C 443 1245 372 1169 320 1072 C 268 975 242 868 242 750 C 242 633 268 525 322 427 C 376 328 449 251 542 196 C 634 140 735 113 844 113 C 954 113 1055 140 1147 195 C 1239 250 1312 327 1365 425 C 1417 523 1444 632 1444 752 Z M 889 1615 L 749 1615 L 926 1898 L 1069 1898 L 889 1615 Z" unicode="Ó" />
<glyph horiz-adv-x="1686" d="M 1593 750 C 1593 609 1560 479 1495 361 C 1429 242 1339 148 1224 79 C 1109 9 982 -25 844 -25 C 704 -25 576 9 460 79 C 344 148 253 241 189 359 C 124 477 92 607 92 750 C 92 893 125 1024 191 1143 C 257 1261 348 1354 464 1420 C 579 1486 704 1520 840 1520 C 978 1520 1105 1487 1221 1421 C 1336 1355 1427 1262 1493 1144 C 1559 1025 1593 894 1593 750 Z M 1444 752 C 1444 869 1418 976 1366 1073 C 1314 1170 1241 1246 1148 1300 C 1054 1354 952 1382 840 1382 C 728 1382 627 1354 535 1300 C 443 1245 372 1169 320 1072 C 268 975 242 868 242 750 C 242 633 268 525 322 427 C 376 328 449 251 542 196 C 634 140 735 113 844 113 C 954 113 1055 140 1147 195 C 1239 250 1312 327 1365 425 C 1417 523 1444 632 1444 752 Z M 956 1615 L 831 1787 L 706 1615 L 565 1615 L 774 1890 L 891 1890 L 1099 1615 L 956 1615 Z" unicode="Ô" />
<glyph horiz-adv-x="1686" d="M 1593 750 C 1593 609 1560 479 1495 361 C 1429 242 1339 148 1224 79 C 1109 9 982 -25 844 -25 C 704 -25 576 9 460 79 C 344 148 253 241 189 359 C 124 477 92 607 92 750 C 92 893 125 1024 191 1143 C 257 1261 348 1354 464 1420 C 579 1486 704 1520 840 1520 C 978 1520 1105 1487 1221 1421 C 1336 1355 1427 1262 1493 1144 C 1559 1025 1593 894 1593 750 Z M 1444 752 C 1444 869 1418 976 1366 1073 C 1314 1170 1241 1246 1148 1300 C 1054 1354 952 1382 840 1382 C 728 1382 627 1354 535 1300 C 443 1245 372 1169 320 1072 C 268 975 242 868 242 750 C 242 633 268 525 322 427 C 376 328 449 251 542 196 C 634 140 735 113 844 113 C 954 113 1055 140 1147 195 C 1239 250 1312 327 1365 425 C 1417 523 1444 632 1444 752 Z M 1118 1827 C 1116 1758 1102 1708 1076 1676 C 1049 1644 1009 1628 956 1628 C 917 1628 871 1645 819 1680 C 773 1706 740 1720 718 1720 C 684 1720 665 1690 663 1632 L 549 1632 C 550 1698 564 1748 590 1781 C 616 1814 657 1831 712 1831 C 748 1831 793 1814 845 1782 C 893 1753 928 1739 950 1739 C 984 1739 1002 1768 1005 1827 L 1118 1827 Z" unicode="Õ" />
<glyph horiz-adv-x="1686" d="M 1483 1298 L 1483 1495 L 1618 1495 L 1618 1298 L 1483 1298 Z M 66 1298 L 66 1495 L 203 1495 L 203 1298 L 66 1298 Z M 1593 750 C 1593 609 1560 479 1495 361 C 1429 242 1339 148 1224 79 C 1109 9 982 -25 844 -25 C 704 -25 576 9 460 79 C 344 148 253 241 189 359 C 124 477 92 607 92 750 C 92 893 125 1024 191 1143 C 257 1261 348 1354 464 1420 C 579 1486 704 1520 840 1520 C 978 1520 1105 1487 1221 1421 C 1336 1355 1427 1262 1493 1144 C 1559 1025 1593 894 1593 750 Z M 1444 752 C 1444 869 1418 976 1366 1073 C 1314 1170 1241 1246 1148 1300 C 1054 1354 952 1382 840 1382 C 728 1382 627 1354 535 1300 C 443 1245 372 1169 320 1072 C 268 975 242 868 242 750 C 242 633 268 525 322 427 C 376 328 449 251 542 196 C 634 140 735 113 844 113 C 954 113 1055 140 1147 195 C 1239 250 1312 327 1365 425 C 1417 523 1444 632 1444 752 Z" unicode="Ö" />
<glyph horiz-adv-x="989" d="M 111 385 L 399 674 L 111 963 L 205 1057 L 494 768 L 782 1057 L 877 963 L 588 674 L 877 385 L 782 291 L 494 580 L 205 291 L 111 385 Z" unicode="×" />
<glyph horiz-adv-x="1686" d="M 1593 750 C 1593 609 1560 479 1495 361 C 1429 242 1339 148 1224 79 C 1109 9 982 -25 844 -25 C 653 -25 489 35 352 156 L 195 -14 L 115 59 L 276 233 C 153 379 92 552 92 750 C 92 893 125 1024 191 1143 C 257 1261 348 1354 464 1420 C 579 1486 704 1520 840 1520 C 1024 1520 1185 1463 1323 1350 L 1481 1520 L 1563 1448 L 1399 1274 C 1461 1206 1508 1127 1542 1038 C 1576 949 1593 853 1593 750 Z M 1223 1247 C 1117 1337 990 1382 840 1382 C 728 1382 627 1354 535 1300 C 443 1245 372 1169 320 1072 C 268 975 242 868 242 750 C 242 592 287 456 379 342 L 1223 1247 Z M 1444 752 C 1444 916 1396 1055 1300 1171 L 453 262 C 565 162 695 113 844 113 C 954 113 1055 140 1147 195 C 1239 250 1312 327 1365 425 C 1417 523 1444 632 1444 752 Z" unicode="Ø" />
<glyph horiz-adv-x="1411" d="M 1262 553 C 1262 442 1238 342 1190 254 C 1142 166 1076 97 990 48 C 904 0 809 -25 705 -25 C 599 -25 503 -1 418 47 C 333 95 267 163 220 251 C 173 339 150 439 150 553 L 150 1495 L 293 1495 L 293 553 C 293 466 310 389 346 321 C 382 253 431 200 495 164 C 558 127 628 109 705 109 C 782 109 852 127 916 165 C 980 202 1030 255 1066 323 C 1102 391 1120 468 1120 553 L 1120 1495 L 1262 1495 L 1262 553 Z M 664 1595 L 483 1878 L 627 1878 L 803 1595 L 664 1595 Z" unicode="Ù" />
<glyph horiz-adv-x="1411" d="M 1262 553 C 1262 442 1238 342 1190 254 C 1142 166 1076 97 990 48 C 904 0 809 -25 705 -25 C 599 -25 503 -1 418 47 C 333 95 267 163 220 251 C 173 339 150 439 150 553 L 150 1495 L 293 1495 L 293 553 C 293 466 310 389 346 321 C 382 253 431 200 495 164 C 558 127 628 109 705 109 C 782 109 852 127 916 165 C 980 202 1030 255 1066 323 C 1102 391 1120 468 1120 553 L 1120 1495 L 1262 1495 L 1262 553 Z M 727 1595 L 587 1595 L 764 1878 L 907 1878 L 727 1595 Z" unicode="Ú" />
<glyph horiz-adv-x="1411" d="M 1262 553 C 1262 442 1238 342 1190 254 C 1142 166 1076 97 990 48 C 904 0 809 -25 705 -25 C 599 -25 503 -1 418 47 C 333 95 267 163 220 251 C 173 339 150 439 150 553 L 150 1495 L 293 1495 L 293 553 C 293 466 310 389 346 321 C 382 253 431 200 495 164 C 558 127 628 109 705 109 C 782 109 852 127 916 165 C 980 202 1030 255 1066 323 C 1102 391 1120 468 1120 553 L 1120 1495 L 1262 1495 L 1262 553 Z M 831 1595 L 706 1767 L 581 1595 L 440 1595 L 649 1870 L 766 1870 L 974 1595 L 831 1595 Z" unicode="Û" />
<glyph horiz-adv-x="1411" d="M 797 1298 L 797 1495 L 932 1495 L 932 1298 L 797 1298 Z M 479 1298 L 479 1495 L 614 1495 L 614 1298 L 479 1298 Z M 1262 553 C 1262 442 1238 342 1190 254 C 1142 166 1076 97 990 48 C 904 0 809 -25 705 -25 C 599 -25 503 -1 418 47 C 333 95 267 163 220 251 C 173 339 150 439 150 553 L 150 1495 L 293 1495 L 293 553 C 293 466 310 389 346 321 C 382 253 431 200 495 164 C 558 127 628 109 705 109 C 782 109 852 127 916 165 C 980 202 1030 255 1066 323 C 1102 391 1120 468 1120 553 L 1120 1495 L 1262 1495 L 1262 553 Z" unicode="Ü" />
<glyph horiz-adv-x="1303" d="M 719 705 L 719 0 L 575 0 L 575 707 L 49 1495 L 215 1495 L 653 844 L 1090 1495 L 1251 1495 L 719 705 Z M 699 1595 L 559 1595 L 736 1878 L 879 1878 L 699 1595 Z" unicode="Ý" />
<glyph horiz-adv-x="1106" d="M 1034 778 C 1034 695 1013 619 973 551 C 933 483 877 430 805 392 C 733 354 651 336 559 336 L 301 336 L 301 0 L 160 0 L 160 1495 L 301 1495 L 301 1208 L 541 1208 C 692 1208 812 1169 901 1091 C 989 1013 1034 909 1034 778 Z M 887 780 C 887 873 856 946 795 998 C 734 1050 642 1077 518 1077 L 301 1077 L 301 467 L 545 467 C 651 467 734 494 795 550 C 856 606 887 682 887 780 Z" unicode="Þ" />
<glyph horiz-adv-x="940" d="M 872 356 C 872 246 841 155 779 83 C 717 11 638 -25 541 -25 C 472 -25 417 -12 375 12 L 395 129 C 431 108 476 98 532 98 C 592 98 640 121 677 167 C 714 213 733 274 733 350 C 733 425 717 496 687 562 C 657 628 615 684 562 729 C 508 774 452 803 393 815 L 393 911 L 401 911 C 448 911 493 924 536 948 C 579 972 613 1004 638 1045 C 663 1086 676 1132 676 1184 C 676 1252 657 1306 619 1346 C 581 1385 529 1405 461 1405 C 400 1405 352 1383 316 1341 C 280 1298 262 1238 262 1161 L 262 0 L 129 0 L 129 1153 C 129 1269 158 1360 217 1424 C 276 1488 358 1520 463 1520 C 567 1520 651 1490 714 1431 C 777 1372 809 1292 809 1190 C 809 1111 787 1042 745 982 C 702 922 645 880 573 856 C 625 834 675 797 721 745 C 767 693 804 633 831 565 C 858 496 872 426 872 356 Z" unicode="ß" />
<glyph horiz-adv-x="905" d="M 659 0 L 659 80 C 577 10 481 -25 373 -25 C 280 -25 206 0 151 49 C 95 99 68 164 68 246 C 68 340 107 413 185 466 C 263 518 372 545 512 545 L 662 545 L 662 582 C 662 636 646 677 616 703 C 585 729 532 743 457 743 C 353 743 268 725 203 690 L 154 793 C 187 813 229 829 280 841 C 331 853 386 860 446 860 C 677 860 793 776 793 608 L 793 0 L 659 0 Z M 659 432 L 547 432 C 435 432 350 417 292 389 C 234 360 205 312 205 246 C 205 201 222 165 257 137 C 292 109 339 96 397 96 C 489 96 576 129 659 195 L 659 432 Z M 409 999 L 228 1282 L 372 1282 L 548 999 L 409 999 Z" unicode="à" />
<glyph horiz-adv-x="905" d="M 659 0 L 659 80 C 577 10 481 -25 373 -25 C 280 -25 206 0 151 49 C 95 99 68 164 68 246 C 68 340 107 413 185 466 C 263 518 372 545 512 545 L 662 545 L 662 582 C 662 636 646 677 616 703 C 585 729 532 743 457 743 C 353 743 268 725 203 690 L 154 793 C 187 813 229 829 280 841 C 331 853 386 860 446 860 C 677 860 793 776 793 608 L 793 0 L 659 0 Z M 659 432 L 547 432 C 435 432 350 417 292 389 C 234 360 205 312 205 246 C 205 201 222 165 257 137 C 292 109 339 96 397 96 C 489 96 576 129 659 195 L 659 432 Z M 490 999 L 350 999 L 527 1282 L 670 1282 L 490 999 Z" unicode="á" />
<glyph horiz-adv-x="905" d="M 659 0 L 659 80 C 577 10 481 -25 373 -25 C 280 -25 206 0 151 49 C 95 99 68 164 68 246 C 68 340 107 413 185 466 C 263 518 372 545 512 545 L 662 545 L 662 582 C 662 636 646 677 616 703 C 585 729 532 743 457 743 C 353 743 268 725 203 690 L 154 793 C 187 813 229 829 280 841 C 331 853 386 860 446 860 C 677 860 793 776 793 608 L 793 0 L 659 0 Z M 659 432 L 547 432 C 435 432 350 417 292 389 C 234 360 205 312 205 246 C 205 201 222 165 257 137 C 292 109 339 96 397 96 C 489 96 576 129 659 195 L 659 432 Z M 578 999 L 453 1171 L 328 999 L 187 999 L 396 1274 L 513 1274 L 721 999 L 578 999 Z" unicode="â" />
<glyph horiz-adv-x="905" d="M 659 0 L 659 80 C 577 10 481 -25 373 -25 C 280 -25 206 0 151 49 C 95 99 68 164 68 246 C 68 340 107 413 185 466 C 263 518 372 545 512 545 L 662 545 L 662 582 C 662 636 646 677 616 703 C 585 729 532 743 457 743 C 353 743 268 725 203 690 L 154 793 C 187 813 229 829 280 841 C 331 853 386 860 446 860 C 677 860 793 776 793 608 L 793 0 L 659 0 Z M 659 432 L 547 432 C 435 432 350 417 292 389 C 234 360 205 312 205 246 C 205 201 222 165 257 137 C 292 109 339 96 397 96 C 489 96 576 129 659 195 L 659 432 Z M 747 1194 C 745 1125 731 1075 705 1043 C 678 1011 638 995 585 995 C 546 995 500 1012 448 1047 C 402 1073 369 1087 347 1087 C 313 1087 294 1057 292 999 L 178 999 C 179 1065 193 1115 219 1148 C 245 1181 286 1198 341 1198 C 377 1198 422 1181 474 1149 C 522 1120 557 1106 579 1106 C 613 1106 631 1135 634 1194 L 747 1194 Z" unicode="ã" />
<glyph horiz-adv-x="905" d="M 659 0 L 659 80 C 577 10 481 -25 373 -25 C 280 -25 206 0 151 49 C 95 99 68 164 68 246 C 68 340 107 413 185 466 C 263 518 372 545 512 545 L 662 545 L 662 582 C 662 636 646 677 616 703 C 585 729 532 743 457 743 C 353 743 268 725 203 690 L 154 793 C 187 813 229 829 280 841 C 331 853 386 860 446 860 C 677 860 793 776 793 608 L 793 0 L 659 0 Z M 659 432 L 547 432 C 435 432 350 417 292 389 C 234 360 205 312 205 246 C 205 201 222 165 257 137 C 292 109 339 96 397 96 C 489 96 576 129 659 195 L 659 432 Z M 547 999 L 547 1196 L 683 1196 L 683 999 L 547 999 Z M 226 999 L 226 1196 L 361 1196 L 361 999 L 226 999 Z" unicode="ä" />
<glyph horiz-adv-x="905" d="M 659 0 L 659 80 C 577 10 481 -25 373 -25 C 280 -25 206 0 151 49 C 95 99 68 164 68 246 C 68 340 107 413 185 466 C 263 518 372 545 512 545 L 662 545 L 662 582 C 662 636 646 677 616 703 C 585 729 532 743 457 743 C 353 743 268 725 203 690 L 154 793 C 187 813 229 829 280 841 C 331 853 386 860 446 860 C 677 860 793 776 793 608 L 793 0 L 659 0 Z M 659 432 L 547 432 C 435 432 350 417 292 389 C 234 360 205 312 205 246 C 205 201 222 165 257 137 C 292 109 339 96 397 96 C 489 96 576 129 659 195 L 659 432 Z M 673 1198 C 673 1138 652 1088 611 1047 C 569 1005 519 985 460 985 C 400 985 350 1005 310 1047 C 269 1089 249 1139 249 1198 C 249 1256 269 1306 310 1347 C 351 1388 401 1409 460 1409 C 518 1409 568 1388 610 1348 C 652 1307 673 1257 673 1198 Z M 581 1198 C 581 1230 569 1258 545 1282 C 521 1305 493 1317 460 1317 C 427 1317 399 1305 376 1281 C 352 1257 341 1230 341 1198 C 341 1164 352 1135 376 1112 C 399 1088 427 1077 460 1077 C 494 1077 522 1088 546 1112 C 569 1135 581 1164 581 1198 Z" unicode="å" />
<glyph horiz-adv-x="1524" d="M 795 414 C 796 318 824 241 879 183 C 933 125 1004 96 1090 96 C 1142 96 1189 104 1231 120 C 1272 136 1316 166 1362 211 L 1446 129 C 1391 74 1334 35 1274 11 C 1214 -13 1151 -25 1085 -25 C 1007 -25 939 -8 882 25 C 825 58 780 101 748 154 C 704 99 651 55 588 23 C 524 -8 453 -25 373 -25 C 280 -25 206 0 151 49 C 95 99 68 164 68 246 C 68 335 104 403 178 450 C 251 496 356 520 492 520 L 666 520 L 666 559 C 666 622 649 668 617 698 C 584 728 531 743 457 743 C 353 743 268 725 203 690 L 154 793 C 187 813 229 829 280 841 C 331 853 386 860 446 860 C 620 860 725 808 760 705 C 792 752 835 790 889 818 C 943 846 1005 860 1073 860 C 1189 860 1282 819 1352 737 C 1422 655 1458 548 1462 414 L 795 414 Z M 1311 520 C 1299 587 1272 640 1229 680 C 1186 719 1132 739 1067 739 C 996 739 937 719 889 679 C 841 639 812 586 801 520 L 1311 520 Z M 684 305 C 672 337 666 374 666 414 L 526 414 C 419 414 338 401 284 376 C 230 350 203 307 203 246 C 203 199 220 162 255 134 C 290 106 335 92 389 92 C 456 92 518 112 576 152 C 633 192 669 243 684 305 Z" unicode="æ" />
<glyph horiz-adv-x="905" d="M 858 180 C 819 123 772 77 716 41 C 660 5 602 -16 543 -23 L 489 -92 L 505 -92 C 554 -92 593 -103 622 -125 C 651 -147 666 -175 666 -211 C 666 -259 646 -297 608 -325 C 569 -353 518 -367 455 -367 C 387 -367 322 -345 262 -301 L 307 -244 C 323 -258 345 -269 375 -278 C 405 -286 432 -291 457 -291 C 481 -291 502 -285 520 -274 C 538 -262 547 -245 547 -223 C 547 -202 538 -186 522 -175 C 506 -163 483 -158 455 -158 C 425 -158 399 -162 377 -172 L 344 -133 L 432 -20 C 324 -7 236 39 170 120 C 103 201 70 301 70 420 C 70 499 88 572 124 640 C 160 708 209 761 273 801 C 336 840 406 860 483 860 C 629 860 748 801 842 684 L 741 606 C 674 692 591 735 492 735 C 410 735 342 705 288 645 C 234 585 207 512 207 426 C 207 330 233 252 286 190 C 339 128 407 98 489 98 C 548 98 599 111 643 139 C 687 167 726 204 762 252 L 858 180 Z" unicode="ç" />
<glyph horiz-adv-x="952" d="M 205 414 C 206 321 234 245 288 186 C 342 127 414 98 502 98 C 557 98 607 106 652 124 C 696 142 741 171 786 213 L 872 129 C 772 26 648 -25 498 -25 C 414 -25 339 -6 274 32 C 208 70 158 123 123 193 C 87 262 70 340 70 428 C 70 506 87 579 123 646 C 158 712 207 765 271 803 C 335 841 407 860 487 860 C 606 860 702 819 775 737 C 847 655 885 548 889 414 L 205 414 Z M 739 520 C 726 586 696 639 649 679 C 602 719 546 739 481 739 C 409 739 348 719 300 679 C 252 639 222 586 211 520 L 739 520 Z M 419 999 L 238 1282 L 382 1282 L 558 999 L 419 999 Z" unicode="è" />
<glyph horiz-adv-x="952" d="M 205 414 C 206 321 234 245 288 186 C 342 127 414 98 502 98 C 557 98 607 106 652 124 C 696 142 741 171 786 213 L 872 129 C 772 26 648 -25 498 -25 C 414 -25 339 -6 274 32 C 208 70 158 123 123 193 C 87 262 70 340 70 428 C 70 506 87 579 123 646 C 158 712 207 765 271 803 C 335 841 407 860 487 860 C 606 860 702 819 775 737 C 847 655 885 548 889 414 L 205 414 Z M 739 520 C 726 586 696 639 649 679 C 602 719 546 739 481 739 C 409 739 348 719 300 679 C 252 639 222 586 211 520 L 739 520 Z M 525 999 L 385 999 L 562 1282 L 705 1282 L 525 999 Z" unicode="é" />
<glyph horiz-adv-x="952" d="M 205 414 C 206 321 234 245 288 186 C 342 127 414 98 502 98 C 557 98 607 106 652 124 C 696 142 741 171 786 213 L 872 129 C 772 26 648 -25 498 -25 C 414 -25 339 -6 274 32 C 208 70 158 123 123 193 C 87 262 70 340 70 428 C 70 506 87 579 123 646 C 158 712 207 765 271 803 C 335 841 407 860 487 860 C 606 860 702 819 775 737 C 847 655 885 548 889 414 L 205 414 Z M 739 520 C 726 586 696 639 649 679 C 602 719 546 739 481 739 C 409 739 348 719 300 679 C 252 639 222 586 211 520 L 739 520 Z M 604 990 L 479 1162 L 354 990 L 213 990 L 422 1265 L 539 1265 L 747 990 L 604 990 Z" unicode="ê" />
<glyph horiz-adv-x="952" d="M 205 414 C 206 321 234 245 288 186 C 342 127 414 98 502 98 C 557 98 607 106 652 124 C 696 142 741 171 786 213 L 872 129 C 772 26 648 -25 498 -25 C 414 -25 339 -6 274 32 C 208 70 158 123 123 193 C 87 262 70 340 70 428 C 70 506 87 579 123 646 C 158 712 207 765 271 803 C 335 841 407 860 487 860 C 606 860 702 819 775 737 C 847 655 885 548 889 414 L 205 414 Z M 739 520 C 726 586 696 639 649 679 C 602 719 546 739 481 739 C 409 739 348 719 300 679 C 252 639 222 586 211 520 L 739 520 Z M 571 999 L 571 1196 L 707 1196 L 707 999 L 571 999 Z M 250 999 L 250 1196 L 385 1196 L 385 999 L 250 999 Z" unicode="ë" />
<glyph horiz-adv-x="391" d="M 129 0 L 129 836 L 262 836 L 262 0 L 129 0 Z M 126 999 L -55 1282 L 89 1282 L 265 999 L 126 999 Z" unicode="ì" />
<glyph horiz-adv-x="391" d="M 129 0 L 129 836 L 262 836 L 262 0 L 129 0 Z M 265 999 L 125 999 L 302 1282 L 445 1282 L 265 999 Z" unicode="í" />
<glyph horiz-adv-x="391" d="M 129 0 L 129 836 L 262 836 L 262 0 L 129 0 Z M 318 988 L 193 1160 L 68 988 L -73 988 L 136 1263 L 253 1263 L 461 988 L 318 988 Z" unicode="î" />
<glyph horiz-adv-x="391" d="M 129 0 L 129 836 L 262 836 L 262 0 L 129 0 Z M 289 999 L 289 1196 L 425 1196 L 425 999 L 289 999 Z M -32 999 L -32 1196 L 103 1196 L 103 999 L -32 999 Z" unicode="ï" />
<glyph horiz-adv-x="1022" d="M 952 434 C 952 351 933 274 896 203 C 858 132 806 76 739 36 C 672 -4 594 -25 504 -25 C 422 -25 347 -5 281 33 C 214 71 162 125 125 195 C 88 264 70 343 70 432 C 70 507 89 578 128 645 C 166 711 219 764 287 802 C 355 840 428 860 508 860 C 623 860 714 819 780 739 C 767 807 743 879 707 957 C 671 1034 626 1111 571 1188 L 324 1087 L 274 1186 L 504 1278 C 437 1355 373 1418 311 1468 L 377 1534 C 461 1474 539 1403 610 1321 L 760 1382 L 807 1284 L 682 1233 C 768 1115 834 986 881 847 C 928 708 952 570 952 434 Z M 813 420 C 813 513 784 589 726 647 C 668 705 596 735 508 735 C 420 735 347 705 291 645 C 235 585 207 510 207 420 C 207 325 235 248 291 188 C 347 128 418 98 506 98 C 596 98 670 127 727 187 C 784 247 813 324 813 420 Z" unicode="ð" />
<glyph horiz-adv-x="944" d="M 698 0 L 698 532 C 698 595 680 645 645 682 C 610 718 562 737 502 737 C 432 737 375 711 330 661 C 284 611 262 551 262 483 L 262 0 L 129 0 L 129 836 L 262 836 L 262 715 C 286 759 322 794 369 820 C 415 846 466 860 522 860 C 614 860 688 832 745 778 C 802 724 831 649 831 555 L 831 0 L 698 0 Z M 761 1194 C 759 1125 745 1075 719 1043 C 692 1011 652 995 599 995 C 560 995 514 1012 462 1047 C 416 1073 383 1087 361 1087 C 327 1087 308 1057 306 999 L 192 999 C 193 1065 207 1115 233 1148 C 259 1181 300 1198 355 1198 C 391 1198 436 1181 488 1149 C 536 1120 571 1106 593 1106 C 627 1106 645 1135 648 1194 L 761 1194 Z" unicode="ñ" />
<glyph horiz-adv-x="1010" d="M 940 424 C 940 340 920 264 882 195 C 843 125 790 71 724 33 C 657 -5 584 -25 504 -25 C 422 -25 348 -5 281 32 C 214 70 162 124 125 192 C 88 260 70 336 70 420 C 70 500 88 574 125 642 C 162 710 214 763 280 802 C 346 840 420 860 502 860 C 582 860 656 841 724 803 C 792 765 845 712 883 645 C 921 577 940 504 940 424 Z M 803 420 C 803 513 775 589 719 647 C 663 705 590 735 502 735 C 416 735 346 705 290 647 C 234 588 207 512 207 420 C 207 325 234 248 289 188 C 343 128 414 98 502 98 C 592 98 664 127 720 187 C 775 247 803 324 803 420 Z M 435 999 L 254 1282 L 398 1282 L 574 999 L 435 999 Z" unicode="ò" />
<glyph horiz-adv-x="1010" d="M 940 424 C 940 340 920 264 882 195 C 843 125 790 71 724 33 C 657 -5 584 -25 504 -25 C 422 -25 348 -5 281 32 C 214 70 162 124 125 192 C 88 260 70 336 70 420 C 70 500 88 574 125 642 C 162 710 214 763 280 802 C 346 840 420 860 502 860 C 582 860 656 841 724 803 C 792 765 845 712 883 645 C 921 577 940 504 940 424 Z M 803 420 C 803 513 775 589 719 647 C 663 705 590 735 502 735 C 416 735 346 705 290 647 C 234 588 207 512 207 420 C 207 325 234 248 289 188 C 343 128 414 98 502 98 C 592 98 664 127 720 187 C 775 247 803 324 803 420 Z M 543 999 L 403 999 L 580 1282 L 723 1282 L 543 999 Z" unicode="ó" />
<glyph horiz-adv-x="1010" d="M 940 424 C 940 340 920 264 882 195 C 843 125 790 71 724 33 C 657 -5 584 -25 504 -25 C 422 -25 348 -5 281 32 C 214 70 162 124 125 192 C 88 260 70 336 70 420 C 70 500 88 574 125 642 C 162 710 214 763 280 802 C 346 840 420 860 502 860 C 582 860 656 841 724 803 C 792 765 845 712 883 645 C 921 577 940 504 940 424 Z M 803 420 C 803 513 775 589 719 647 C 663 705 590 735 502 735 C 416 735 346 705 290 647 C 234 588 207 512 207 420 C 207 325 234 248 289 188 C 343 128 414 98 502 98 C 592 98 664 127 720 187 C 775 247 803 324 803 420 Z M 618 992 L 493 1164 L 368 992 L 227 992 L 436 1267 L 553 1267 L 761 992 L 618 992 Z" unicode="ô" />
<glyph horiz-adv-x="1010" d="M 940 424 C 940 340 920 264 882 195 C 843 125 790 71 724 33 C 657 -5 584 -25 504 -25 C 422 -25 348 -5 281 32 C 214 70 162 124 125 192 C 88 260 70 336 70 420 C 70 500 88 574 125 642 C 162 710 214 763 280 802 C 346 840 420 860 502 860 C 582 860 656 841 724 803 C 792 765 845 712 883 645 C 921 577 940 504 940 424 Z M 803 420 C 803 513 775 589 719 647 C 663 705 590 735 502 735 C 416 735 346 705 290 647 C 234 588 207 512 207 420 C 207 325 234 248 289 188 C 343 128 414 98 502 98 C 592 98 664 127 720 187 C 775 247 803 324 803 420 Z M 780 1194 C 778 1125 764 1075 738 1043 C 711 1011 671 995 618 995 C 579 995 533 1012 481 1047 C 435 1073 402 1087 380 1087 C 346 1087 327 1057 325 999 L 211 999 C 212 1065 226 1115 252 1148 C 278 1181 319 1198 374 1198 C 410 1198 455 1181 507 1149 C 555 1120 590 1106 612 1106 C 646 1106 664 1135 667 1194 L 780 1194 Z" unicode="õ" />
<glyph horiz-adv-x="1010" d="M 940 424 C 940 340 920 264 882 195 C 843 125 790 71 724 33 C 657 -5 584 -25 504 -25 C 422 -25 348 -5 281 32 C 214 70 162 124 125 192 C 88 260 70 336 70 420 C 70 500 88 574 125 642 C 162 710 214 763 280 802 C 346 840 420 860 502 860 C 582 860 656 841 724 803 C 792 765 845 712 883 645 C 921 577 940 504 940 424 Z M 803 420 C 803 513 775 589 719 647 C 663 705 590 735 502 735 C 416 735 346 705 290 647 C 234 588 207 512 207 420 C 207 325 234 248 289 188 C 343 128 414 98 502 98 C 592 98 664 127 720 187 C 775 247 803 324 803 420 Z M 585 999 L 585 1196 L 721 1196 L 721 999 L 585 999 Z M 264 999 L 264 1196 L 399 1196 L 399 999 L 264 999 Z" unicode="ö" />
<glyph horiz-adv-x="1536" d="M 209 684 L 209 895 L 1327 895 L 1327 684 L 209 684 Z M 768 227 C 726 227 688 243 656 275 C 624 307 608 345 608 387 C 608 431 622 469 650 501 C 678 533 717 549 768 549 C 816 549 854 533 884 501 C 913 469 928 431 928 387 C 928 345 911 307 879 275 C 847 243 810 227 768 227 Z M 768 1028 C 726 1028 688 1044 656 1076 C 624 1108 608 1145 608 1188 C 608 1230 622 1267 650 1299 C 678 1331 717 1348 768 1348 C 816 1348 854 1331 884 1299 C 913 1267 928 1230 928 1188 C 928 1145 911 1108 879 1076 C 847 1044 810 1028 768 1028 Z" unicode="÷" />
<glyph horiz-adv-x="1010" d="M 852 692 C 910 614 940 524 940 424 C 940 340 920 264 882 195 C 843 125 790 71 724 33 C 657 -5 584 -25 504 -25 C 398 -25 306 6 229 68 L 139 -25 L 72 43 L 164 135 C 101 213 70 308 70 420 C 70 500 88 574 125 642 C 162 710 214 763 280 802 C 346 840 420 860 502 860 C 612 860 706 826 786 760 L 885 860 L 954 795 L 852 692 Z M 694 670 C 642 713 578 735 502 735 C 416 735 346 705 290 647 C 234 588 207 512 207 420 C 207 349 224 286 260 231 L 694 670 Z M 803 420 C 803 484 787 542 756 594 L 322 158 C 372 118 432 98 502 98 C 592 98 664 127 720 187 C 775 247 803 324 803 420 Z" unicode="ø" />
<glyph horiz-adv-x="948" d="M 686 0 L 686 121 C 661 77 626 42 580 15 C 534 -11 482 -25 424 -25 C 327 -25 252 2 198 57 C 144 111 117 186 117 281 L 117 836 L 250 836 L 250 303 C 250 242 267 192 302 154 C 337 115 385 96 446 96 C 513 96 570 122 616 174 C 662 226 686 285 686 352 L 686 836 L 819 836 L 819 0 L 686 0 Z M 435 998 L 254 1281 L 398 1281 L 574 998 L 435 998 Z" unicode="ù" />
<glyph horiz-adv-x="948" d="M 686 0 L 686 121 C 661 77 626 42 580 15 C 534 -11 482 -25 424 -25 C 327 -25 252 2 198 57 C 144 111 117 186 117 281 L 117 836 L 250 836 L 250 303 C 250 242 267 192 302 154 C 337 115 385 96 446 96 C 513 96 570 122 616 174 C 662 226 686 285 686 352 L 686 836 L 819 836 L 819 0 L 686 0 Z M 504 998 L 364 998 L 541 1281 L 684 1281 L 504 998 Z" unicode="ú" />
<glyph horiz-adv-x="948" d="M 686 0 L 686 121 C 661 77 626 42 580 15 C 534 -11 482 -25 424 -25 C 327 -25 252 2 198 57 C 144 111 117 186 117 281 L 117 836 L 250 836 L 250 303 C 250 242 267 192 302 154 C 337 115 385 96 446 96 C 513 96 570 122 616 174 C 662 226 686 285 686 352 L 686 836 L 819 836 L 819 0 L 686 0 Z M 595 998 L 470 1170 L 345 998 L 204 998 L 413 1273 L 530 1273 L 738 998 L 595 998 Z" unicode="û" />
<glyph horiz-adv-x="948" d="M 686 0 L 686 121 C 661 77 626 42 580 15 C 534 -11 482 -25 424 -25 C 327 -25 252 2 198 57 C 144 111 117 186 117 281 L 117 836 L 250 836 L 250 303 C 250 242 267 192 302 154 C 337 115 385 96 446 96 C 513 96 570 122 616 174 C 662 226 686 285 686 352 L 686 836 L 819 836 L 819 0 L 686 0 Z M 564 994 L 564 1191 L 700 1191 L 700 994 L 564 994 Z M 243 994 L 243 1191 L 378 1191 L 378 994 L 243 994 Z" unicode="ü" />
<glyph horiz-adv-x="838" d="M 184 -379 C 134 -379 91 -371 55 -356 L 55 -231 C 84 -247 116 -256 150 -256 C 186 -256 215 -246 239 -226 C 263 -206 286 -164 309 -102 L 348 -4 L 31 836 L 174 836 L 426 174 L 668 836 L 807 836 L 416 -188 C 390 -255 358 -304 320 -334 C 282 -364 237 -379 184 -379 Z M 477 999 L 337 999 L 514 1282 L 657 1282 L 477 999 Z" unicode="ý" />
<glyph horiz-adv-x="1001" d="M 932 426 C 932 342 915 265 881 196 C 847 126 799 72 739 33 C 679 -5 613 -25 541 -25 C 483 -25 428 -10 378 20 C 328 50 289 89 262 139 L 262 -367 L 129 -367 L 129 1495 L 262 1495 L 262 696 C 290 744 331 784 383 814 C 435 844 491 860 551 860 C 623 860 689 840 748 802 C 806 764 852 711 884 645 C 916 578 932 505 932 426 Z M 795 418 C 795 512 770 588 722 647 C 673 705 608 735 528 735 C 451 735 386 704 333 643 C 280 582 254 507 254 418 C 254 363 266 310 290 260 C 314 210 347 170 389 141 C 430 112 475 98 524 98 C 604 98 670 126 720 184 C 770 242 795 320 795 418 Z" unicode="þ" />
<glyph horiz-adv-x="838" d="M 184 -379 C 134 -379 91 -371 55 -356 L 55 -231 C 84 -247 116 -256 150 -256 C 186 -256 215 -246 239 -226 C 263 -206 286 -164 309 -102 L 348 -4 L 31 836 L 174 836 L 426 174 L 668 836 L 807 836 L 416 -188 C 390 -255 358 -304 320 -334 C 282 -364 237 -379 184 -379 Z M 513 988 L 513 1185 L 649 1185 L 649 988 L 513 988 Z M 192 988 L 192 1185 L 327 1185 L 327 988 L 192 988 Z" unicode="ÿ" />
<glyph horiz-adv-x="391" d="M 129 0 L 129 836 L 262 836 L 262 0 L 129 0 Z" unicode="ı" />
<glyph horiz-adv-x="1026" d="M 199 0 L 199 592 L 102 553 L 49 672 L 199 733 L 199 1495 L 340 1495 L 340 791 L 655 918 L 709 797 L 340 649 L 340 131 L 971 131 L 971 0 L 199 0 Z" unicode="Ł" />
<glyph horiz-adv-x="506" d="M 315 657 L 315 0 L 182 0 L 182 604 L 78 561 L 27 672 L 182 735 L 182 1495 L 315 1495 L 315 788 L 430 836 L 477 723 L 315 657 Z" unicode="ł" />
<glyph horiz-adv-x="2378" d="M 1442 0 L 1442 289 C 1375 191 1289 114 1185 58 C 1080 2 966 -25 844 -25 C 704 -25 576 9 460 79 C 344 148 253 241 189 359 C 124 477 92 607 92 750 C 92 893 125 1024 191 1143 C 257 1261 348 1354 464 1420 C 579 1486 704 1520 840 1520 C 965 1520 1080 1492 1186 1438 C 1291 1383 1376 1308 1442 1212 L 1442 1495 L 2234 1495 L 2234 1364 L 1585 1364 L 1585 827 L 2191 827 L 2191 696 L 1585 696 L 1585 131 L 2273 131 L 2273 0 L 1442 0 Z M 1444 752 C 1444 869 1418 976 1366 1073 C 1314 1170 1241 1246 1148 1300 C 1054 1354 952 1382 840 1382 C 728 1382 627 1354 535 1300 C 443 1245 372 1169 320 1072 C 268 975 242 868 242 750 C 242 633 268 525 322 427 C 376 328 449 251 542 196 C 634 140 735 113 844 113 C 954 113 1055 140 1147 195 C 1239 250 1312 327 1365 425 C 1417 523 1444 632 1444 752 Z" unicode="Œ" />
<glyph horiz-adv-x="1659" d="M 924 414 C 924 318 950 241 1003 183 C 1056 125 1128 96 1219 96 C 1272 96 1320 104 1362 121 C 1404 138 1449 168 1497 211 L 1579 129 C 1476 26 1354 -25 1214 -25 C 1135 -25 1064 -6 1002 29 C 939 65 891 118 858 186 C 825 120 776 69 711 31 C 645 -6 574 -25 498 -25 C 417 -25 344 -6 278 31 C 212 69 160 122 124 191 C 88 259 70 336 70 420 C 70 501 88 575 124 643 C 160 710 210 763 276 802 C 341 840 414 860 496 860 C 576 860 649 841 713 804 C 777 766 825 717 856 655 C 889 719 937 770 999 806 C 1061 842 1131 860 1208 860 C 1322 860 1414 818 1484 736 C 1554 654 1591 546 1595 414 L 924 414 Z M 1444 520 C 1433 585 1405 638 1360 678 C 1315 718 1261 739 1198 739 C 1126 739 1066 719 1019 680 C 971 640 942 587 930 520 L 1444 520 Z M 793 420 C 793 516 765 592 711 649 C 656 706 584 735 496 735 C 412 735 342 705 288 647 C 234 589 207 513 207 420 C 207 324 233 247 287 187 C 340 127 410 98 496 98 C 586 98 658 127 712 187 C 766 247 793 324 793 420 Z" unicode="œ" />
<glyph horiz-adv-x="1022" d="M 942 375 C 942 299 922 230 884 169 C 845 107 792 60 726 26 C 660 -8 586 -25 506 -25 C 348 -25 210 26 92 129 L 178 236 C 221 198 271 168 327 146 C 383 124 442 113 502 113 C 588 113 658 136 713 183 C 767 230 795 291 795 367 C 795 412 785 452 766 487 C 747 521 721 553 687 582 C 653 610 588 650 494 700 C 446 724 398 750 352 776 C 305 802 263 832 227 866 C 190 900 160 939 138 985 C 115 1031 104 1085 104 1149 C 104 1259 141 1348 217 1417 C 292 1485 388 1520 504 1520 C 580 1520 651 1508 715 1486 C 779 1463 839 1426 895 1374 L 807 1266 C 763 1308 717 1338 670 1356 C 622 1373 567 1382 504 1382 C 430 1382 370 1361 324 1319 C 277 1277 254 1222 254 1155 C 254 1110 262 1072 278 1041 C 294 1009 317 981 346 957 C 375 932 409 909 449 888 C 489 866 532 843 580 819 C 688 763 764 715 807 677 C 850 639 883 595 907 547 C 930 498 942 441 942 375 Z M 564 1617 L 447 1617 L 238 1892 L 381 1892 L 506 1720 L 631 1892 L 772 1892 L 564 1617 Z" unicode="Š" />
<glyph horiz-adv-x="739" d="M 662 223 C 662 178 648 136 622 98 C 595 60 559 30 514 9 C 469 -12 421 -23 371 -23 C 315 -23 261 -14 210 4 C 158 22 114 46 76 76 L 147 178 C 180 152 216 133 256 119 C 296 105 333 98 367 98 C 410 98 447 109 479 132 C 510 155 526 184 526 219 C 526 252 514 280 492 303 C 469 325 419 350 342 377 C 275 401 226 424 195 446 C 163 468 139 495 121 525 C 103 555 94 591 94 633 C 94 698 120 752 174 795 C 227 838 291 860 367 860 C 470 860 559 832 635 776 L 573 674 C 510 718 441 741 367 741 C 326 741 292 731 266 712 C 240 693 227 668 227 637 C 227 617 232 599 243 584 C 254 568 270 554 292 542 C 313 529 349 514 399 498 C 472 470 525 445 557 422 C 589 398 615 371 634 339 C 652 307 662 268 662 223 Z M 423 999 L 306 999 L 97 1274 L 240 1274 L 365 1102 L 490 1274 L 631 1274 L 423 999 Z" unicode="š" />
<glyph horiz-adv-x="1303" d="M 719 705 L 719 0 L 575 0 L 575 707 L 49 1495 L 215 1495 L 653 844 L 1090 1495 L 1251 1495 L 719 705 Z M 745 1595 L 745 1792 L 881 1792 L 881 1595 L 745 1595 Z M 424 1595 L 424 1792 L 559 1792 L 559 1595 L 424 1595 Z" unicode="Ÿ" />
<glyph horiz-adv-x="1276" d="M 309 135 L 1178 135 L 1178 0 L 63 0 L 936 1360 L 178 1360 L 178 1495 L 1186 1495 L 309 135 Z M 705 1615 L 588 1615 L 379 1890 L 522 1890 L 647 1718 L 772 1890 L 913 1890 L 705 1615 Z" unicode="Ž" />
<glyph horiz-adv-x="868" d="M 285 123 L 780 123 L 780 0 L 39 0 L 571 711 L 117 711 L 117 836 L 819 836 L 285 123 Z M 513 999 L 396 999 L 187 1274 L 330 1274 L 455 1102 L 580 1274 L 721 1274 L 513 999 Z" unicode="ž" />
<glyph horiz-adv-x="551" d="M 516 1374 L 470 1377 L 455 1376 C 402 1373 373 1338 367 1270 L 328 836 L 465 836 L 455 713 L 317 713 L 240 -178 C 235 -236 213 -282 175 -316 C 137 -350 89 -367 33 -367 L 15 -367 C -17 -367 -39 -365 -51 -362 L -41 -244 L 6 -247 L 20 -246 C 73 -243 103 -207 109 -139 L 182 713 L 66 713 L 76 836 L 195 836 L 236 1311 C 240 1368 261 1413 299 1447 C 337 1480 384 1497 442 1497 L 484 1497 L 526 1495 L 516 1374 Z" unicode="ƒ" />
<glyph horiz-adv-x="956" d="M 602 999 L 477 1171 L 352 999 L 211 999 L 420 1274 L 537 1274 L 745 999 L 602 999 Z" unicode="ˆ" />
<glyph horiz-adv-x="956" d="M 535 999 L 418 999 L 209 1274 L 352 1274 L 477 1102 L 602 1274 L 743 1274 L 535 999 Z" unicode="ˇ" />
<glyph horiz-adv-x="956" d="M 193 999 L 193 1102 L 762 1102 L 762 999 L 193 999 Z" unicode="ˉ" />
<glyph horiz-adv-x="956" d="M 758 1270 C 755 1184 728 1116 677 1066 C 625 1016 559 991 477 991 C 395 991 329 1016 279 1066 C 228 1116 201 1184 197 1270 L 315 1270 C 316 1217 331 1175 361 1143 C 391 1111 429 1096 477 1096 C 525 1096 564 1111 594 1143 C 624 1175 639 1217 641 1270 L 758 1270 Z" unicode="˘" />
<glyph horiz-adv-x="956" d="M 410 999 L 410 1196 L 547 1196 L 547 999 L 410 999 Z" unicode="˙" />
<glyph horiz-adv-x="956" d="M 690 1198 C 690 1138 669 1088 628 1047 C 586 1005 536 985 477 985 C 417 985 367 1005 327 1047 C 286 1089 266 1139 266 1198 C 266 1256 286 1306 327 1347 C 368 1388 418 1409 477 1409 C 535 1409 585 1388 627 1348 C 669 1307 690 1257 690 1198 Z M 598 1198 C 598 1230 586 1258 562 1282 C 538 1305 510 1317 477 1317 C 444 1317 416 1305 393 1281 C 369 1257 358 1230 358 1198 C 358 1164 369 1135 393 1112 C 416 1088 444 1077 477 1077 C 511 1077 539 1088 563 1112 C 586 1135 598 1164 598 1198 Z" unicode="˚" />
<glyph horiz-adv-x="956" d="M 655 -299 C 631 -320 603 -337 569 -350 C 535 -362 501 -369 465 -369 C 403 -369 350 -353 308 -323 C 265 -292 244 -251 244 -201 C 244 -163 260 -124 292 -84 C 324 -44 374 -8 440 25 L 557 25 C 433 -53 371 -125 371 -193 C 371 -253 405 -283 475 -283 C 523 -283 568 -267 610 -236 L 655 -299 Z" unicode="˛" />
<glyph horiz-adv-x="956" d="M 762 1194 C 760 1125 746 1075 720 1043 C 693 1011 653 995 600 995 C 561 995 515 1012 463 1047 C 417 1073 384 1087 362 1087 C 328 1087 309 1057 307 999 L 193 999 C 194 1065 208 1115 234 1148 C 260 1181 301 1198 356 1198 C 392 1198 437 1181 489 1149 C 537 1120 572 1106 594 1106 C 628 1106 646 1135 649 1194 L 762 1194 Z" unicode="˜" />
<glyph horiz-adv-x="956" d="M 582 999 L 444 999 L 623 1282 L 760 1282 L 582 999 Z M 315 999 L 178 999 L 356 1282 L 494 1282 L 315 999 Z" unicode="˝" />
<glyph horiz-adv-x="1536" d="M 76 0 L 651 1536 L 885 1536 L 1456 0 L 76 0 Z M 352 147 L 1163 147 L 752 1255 L 352 147 Z" unicode="Δ" />
<glyph horiz-adv-x="1663" d="M 831 1376 C 705 1376 598 1328 510 1234 C 421 1139 377 1006 377 836 C 377 673 406 538 465 432 C 523 325 610 241 725 180 L 725 0 L 88 0 L 88 197 L 537 197 C 456 225 378 295 304 405 C 230 515 193 663 193 848 C 193 1024 248 1184 358 1330 C 468 1475 626 1548 831 1548 C 1037 1548 1196 1478 1307 1338 C 1417 1198 1473 1034 1473 848 C 1473 663 1435 515 1360 405 C 1284 295 1207 225 1128 197 L 1577 197 L 1577 0 L 940 0 L 940 180 C 1054 241 1141 325 1200 432 C 1258 538 1288 673 1288 836 C 1288 974 1246 1099 1162 1210 C 1078 1320 967 1376 831 1376 Z" unicode="Ω" />
<glyph horiz-adv-x="1407" d="M 252 -424 C 215 -424 187 -413 168 -392 C 148 -370 139 -333 139 -281 C 139 -168 144 -41 156 100 C 166 234 172 310 172 328 L 176 356 L 176 1176 L 369 1176 L 369 319 C 369 257 396 210 450 176 C 504 142 564 125 629 125 C 716 125 792 146 858 190 C 923 234 973 297 1008 381 L 1008 1176 L 1200 1176 L 1200 307 L 1221 0 L 1057 0 L 1020 176 C 974 104 913 49 836 13 C 759 -22 671 -41 571 -41 C 537 -41 494 -32 444 -14 C 394 3 354 27 324 59 C 324 0 333 -57 352 -113 C 371 -169 381 -219 381 -264 C 381 -370 338 -424 252 -424 Z" unicode="μ" />
<glyph horiz-adv-x="1407" d="M 297 0 L 297 1028 L 12 1028 L 12 1176 L 1317 1176 L 1317 1028 L 995 1028 L 995 344 C 995 266 1010 212 1041 183 C 1071 153 1108 139 1151 139 C 1183 139 1210 139 1232 141 C 1253 142 1274 147 1296 156 L 1296 29 C 1263 12 1233 0 1205 -6 C 1177 -12 1137 -16 1087 -16 C 1003 -16 936 10 886 63 C 836 116 811 207 811 336 L 811 1028 L 483 1028 L 483 0 L 297 0 Z" unicode="π" />
<glyph horiz-adv-x="1024" d="" unicode=" " />
<glyph horiz-adv-x="2048" d="" unicode=" " />
<glyph horiz-adv-x="410" d="" unicode=" " />
<glyph horiz-adv-x="885" d="M 109 387 L 109 512 L 776 512 L 776 387 L 109 387 Z" unicode="–" />
<glyph horiz-adv-x="1237" d="M 109 387 L 109 512 L 1126 512 L 1126 387 L 109 387 Z" unicode="—" />
<glyph horiz-adv-x="367" d="M 303 1495 C 269 1440 252 1368 252 1278 L 252 1096 L 104 1096 L 104 1233 C 104 1275 114 1320 136 1370 C 158 1419 184 1461 215 1495 L 303 1495 Z" unicode="‘" />
<glyph horiz-adv-x="367" d="M 264 1358 C 264 1316 253 1271 232 1222 C 210 1173 184 1131 152 1096 L 66 1096 C 100 1150 117 1223 117 1313 L 117 1495 L 264 1495 L 264 1358 Z" unicode="’" />
<glyph horiz-adv-x="367" d="M 260 59 C 260 15 248 -31 226 -81 C 204 -130 178 -171 150 -203 L 61 -203 C 97 -145 115 -72 115 14 L 115 197 L 260 197 L 260 59 Z" unicode="‚" />
<glyph horiz-adv-x="629" d="M 565 1495 C 531 1440 514 1368 514 1278 L 514 1096 L 367 1096 L 367 1233 C 367 1274 377 1319 399 1368 C 420 1417 447 1459 479 1495 L 565 1495 Z M 301 1495 C 267 1440 250 1368 250 1278 L 250 1096 L 102 1096 L 102 1233 C 102 1273 112 1317 134 1367 C 155 1416 182 1459 215 1495 L 301 1495 Z" unicode="“" />
<glyph horiz-adv-x="629" d="M 528 1358 C 528 1316 517 1271 496 1222 C 474 1173 448 1131 416 1096 L 330 1096 C 364 1150 381 1223 381 1313 L 381 1495 L 528 1495 L 528 1358 Z M 264 1358 C 264 1316 253 1271 232 1222 C 210 1173 184 1131 152 1096 L 66 1096 C 100 1150 117 1223 117 1313 L 117 1495 L 264 1495 L 264 1358 Z" unicode="”" />
<glyph horiz-adv-x="629" d="M 524 59 C 524 17 513 -28 492 -76 C 471 -124 444 -167 412 -203 L 326 -203 C 360 -148 377 -76 377 14 L 377 197 L 524 197 L 524 59 Z M 260 59 C 260 15 248 -31 226 -81 C 204 -130 178 -171 150 -203 L 61 -203 C 97 -145 115 -72 115 14 L 115 197 L 260 197 L 260 59 Z" unicode="„" />
<glyph horiz-adv-x="1087" d="M 610 805 L 610 -367 L 477 -367 L 477 805 L 45 805 L 45 926 L 477 926 L 477 1495 L 610 1495 L 610 926 L 1042 926 L 1042 805 L 610 805 Z" unicode="†" />
<glyph horiz-adv-x="1087" d="M 610 229 L 610 -367 L 477 -367 L 477 229 L 45 229 L 45 350 L 477 350 L 477 805 L 45 805 L 45 926 L 477 926 L 477 1495 L 610 1495 L 610 926 L 1042 926 L 1042 805 L 610 805 L 610 350 L 1042 350 L 1042 229 L 610 229 Z" unicode="‡" />
<glyph horiz-adv-x="686" d="M 532 776 C 532 724 513 679 476 642 C 438 604 394 586 342 586 C 290 586 245 604 208 642 C 170 679 152 724 152 776 C 152 828 170 873 208 911 C 245 948 290 967 342 967 C 394 967 438 948 476 911 C 513 873 532 828 532 776 Z" unicode="•" />
<glyph horiz-adv-x="1100" d="M 844 0 L 844 197 L 991 197 L 991 0 L 844 0 Z M 477 0 L 477 197 L 623 197 L 623 0 L 477 0 Z M 109 0 L 109 197 L 256 197 L 256 0 L 109 0 Z" unicode="…" />
<glyph horiz-adv-x="2150" d="M 684 1139 C 684 1023 656 929 601 857 C 546 784 475 748 389 748 C 335 748 286 763 242 795 C 198 826 164 871 139 930 C 114 988 102 1056 102 1133 C 102 1246 129 1339 183 1411 C 237 1483 307 1520 395 1520 C 482 1520 552 1484 605 1413 C 657 1341 684 1250 684 1139 Z M 305 0 L 156 0 L 1178 1495 L 1327 1495 L 305 0 Z M 2068 367 C 2068 251 2041 157 1987 84 C 1933 11 1862 -25 1774 -25 C 1720 -25 1671 -9 1627 22 C 1583 54 1548 99 1524 158 C 1499 216 1487 284 1487 360 C 1487 472 1513 565 1567 638 C 1621 711 1692 748 1780 748 C 1866 748 1936 712 1989 641 C 2041 570 2068 479 2068 367 Z M 1401 367 C 1401 250 1373 155 1318 83 C 1263 11 1192 -25 1106 -25 C 1052 -25 1004 -9 960 22 C 916 53 881 98 856 156 C 831 214 819 282 819 360 C 819 472 845 565 899 638 C 953 711 1024 748 1112 748 C 1198 748 1267 712 1321 642 C 1374 572 1401 480 1401 367 Z M 555 1133 C 555 1215 540 1282 510 1332 C 480 1382 442 1407 395 1407 C 345 1407 304 1381 274 1331 C 244 1280 229 1214 229 1133 C 229 1052 243 986 271 936 C 299 885 338 860 389 860 C 441 860 481 884 511 933 C 540 982 555 1049 555 1133 Z M 1939 360 C 1939 443 1924 510 1894 560 C 1864 610 1826 635 1780 635 C 1728 635 1687 609 1658 557 C 1628 505 1614 440 1614 360 C 1614 277 1628 211 1657 162 C 1686 112 1725 88 1774 88 C 1825 88 1865 112 1895 161 C 1924 210 1939 276 1939 360 Z M 1274 360 C 1274 440 1259 506 1229 558 C 1199 609 1160 635 1112 635 C 1061 635 1021 609 992 558 C 962 506 948 440 948 360 C 948 278 962 212 990 162 C 1018 112 1057 88 1106 88 C 1157 88 1198 112 1228 162 C 1258 211 1274 277 1274 360 Z" unicode="‰" />
<glyph horiz-adv-x="426" d="M 49 399 L 49 469 L 352 752 L 352 606 L 176 434 L 352 262 L 352 115 L 49 399 Z" unicode="‹" />
<glyph horiz-adv-x="426" d="M 74 115 L 74 260 L 250 432 L 74 604 L 74 752 L 377 467 L 377 397 L 74 115 Z" unicode="›" />
<glyph horiz-adv-x="782" d="M 29 0 L -113 0 L 754 1495 L 895 1495 L 29 0 Z" unicode="⁄" />
<glyph horiz-adv-x="1243" d="M 360 608 C 379 451 422 329 488 241 C 554 153 636 109 733 109 C 869 109 975 180 1049 322 L 1176 256 C 1078 68 930 -25 731 -25 C 587 -25 469 32 377 146 C 284 260 229 414 211 608 L 41 608 L 41 694 L 205 694 L 203 741 L 205 786 L 41 786 L 41 868 L 209 868 C 227 1072 282 1231 375 1347 C 467 1462 589 1520 739 1520 C 933 1520 1077 1429 1171 1247 L 1047 1182 C 1007 1253 962 1305 912 1337 C 862 1369 803 1386 737 1386 C 632 1386 546 1340 480 1250 C 414 1160 373 1032 358 868 L 813 868 L 813 786 L 354 786 L 353 739 L 354 694 L 813 694 L 813 608 L 360 608 Z" unicode="€" />
<glyph horiz-adv-x="1729" d="M 1636 748 C 1636 609 1601 480 1533 362 C 1464 243 1370 149 1252 79 C 1133 9 1004 -25 864 -25 C 724 -25 594 9 476 79 C 358 149 264 243 195 361 C 126 479 92 608 92 748 C 92 887 126 1016 195 1134 C 264 1252 358 1346 476 1416 C 594 1485 724 1520 864 1520 C 1003 1520 1132 1485 1250 1416 C 1368 1347 1462 1253 1532 1135 C 1601 1017 1636 888 1636 748 Z M 1548 745 C 1548 867 1517 982 1455 1089 C 1393 1195 1310 1279 1205 1340 C 1100 1401 986 1432 864 1432 C 741 1432 627 1401 522 1340 C 417 1279 334 1195 272 1089 C 210 982 180 867 180 745 C 180 621 211 506 274 400 C 336 293 420 210 525 150 C 629 90 742 61 864 61 C 985 61 1098 90 1203 150 C 1307 209 1391 292 1454 399 C 1516 506 1548 621 1548 745 Z M 1190 932 C 1190 856 1163 791 1109 738 C 1055 685 987 659 905 659 L 750 659 L 750 299 L 645 299 L 645 1196 L 895 1196 C 984 1196 1055 1171 1109 1122 C 1163 1073 1190 1010 1190 932 Z M 1081 934 C 1081 984 1064 1023 1030 1053 C 996 1083 949 1098 887 1098 L 750 1098 L 750 760 L 883 760 C 1015 760 1081 818 1081 934 Z" unicode="℗" />
<glyph horiz-adv-x="1642" d="M 1440 598 L 1440 1341 L 1143 905 L 1100 905 L 801 1335 L 801 598 L 702 598 L 702 1495 L 799 1495 L 1120 1032 L 1438 1495 L 1538 1495 L 1538 598 L 1440 598 Z M 356 1405 L 356 598 L 258 598 L 258 1405 L 55 1405 L 55 1495 L 559 1495 L 559 1405 L 356 1405 Z" unicode="™" />
<glyph horiz-adv-x="1663" d="M 831 1376 C 705 1376 598 1328 510 1234 C 421 1139 377 1006 377 836 C 377 673 406 538 465 432 C 523 325 610 241 725 180 L 725 0 L 88 0 L 88 197 L 537 197 C 456 225 378 295 304 405 C 230 515 193 663 193 848 C 193 1024 248 1184 358 1330 C 468 1475 626 1548 831 1548 C 1037 1548 1196 1478 1307 1338 C 1417 1198 1473 1034 1473 848 C 1473 663 1435 515 1360 405 C 1284 295 1207 225 1128 197 L 1577 197 L 1577 0 L 940 0 L 940 180 C 1054 241 1141 325 1200 432 C 1258 538 1288 673 1288 836 C 1288 974 1246 1099 1162 1210 C 1078 1320 967 1376 831 1376 Z" unicode="Ω" />
<glyph horiz-adv-x="1280" d="M 475 -33 C 342 -33 239 4 165 80 C 91 155 55 248 55 360 C 55 506 108 636 214 750 C 320 863 450 920 604 920 C 668 920 733 908 801 886 C 869 863 923 839 965 815 C 973 871 977 927 977 983 C 977 1108 954 1206 908 1277 C 862 1348 800 1384 721 1384 C 635 1384 567 1374 518 1355 C 468 1336 419 1311 369 1280 L 324 1444 C 374 1474 429 1498 491 1518 C 553 1538 629 1548 721 1548 C 877 1548 991 1496 1063 1393 C 1135 1290 1171 1149 1171 969 C 1171 691 1103 455 967 260 C 831 64 667 -33 475 -33 Z M 487 127 C 717 127 870 312 944 684 C 922 706 881 727 823 748 C 764 769 705 780 647 780 C 520 780 424 738 360 654 C 296 570 264 476 264 373 C 264 300 282 241 318 195 C 354 149 411 127 487 127 Z" unicode="∂" />
<glyph horiz-adv-x="1536" d="M 76 0 L 651 1536 L 885 1536 L 1456 0 L 76 0 Z M 352 147 L 1163 147 L 752 1255 L 352 147 Z" unicode="∆" />
<glyph horiz-adv-x="1536" d="M 332 0 L 332 1348 L 80 1348 L 80 1524 L 1456 1524 L 1456 1348 L 1212 1348 L 1212 0 L 1004 0 L 1004 1356 L 541 1356 L 541 0 L 332 0 Z" unicode="∏" />
<glyph horiz-adv-x="1151" d="M 1083 1524 L 1083 1343 L 332 1343 L 797 784 L 303 188 L 1079 188 L 1079 0 L 41 0 L 41 172 L 559 788 L 68 1380 L 68 1524 L 1083 1524 Z" unicode="∑" />
<glyph horiz-adv-x="1075" d="M 76 717 L 999 717 L 999 590 L 76 590 L 76 717 Z" unicode="−" />
<glyph horiz-adv-x="782" d="M 29 0 L -113 0 L 754 1495 L 895 1495 L 29 0 Z" unicode="∕" />
<glyph horiz-adv-x="365" d="M 109 639 L 109 836 L 256 836 L 256 639 L 109 639 Z" unicode="∙" />
<glyph horiz-adv-x="1044" d="M 455 -33 L 397 -33 L 39 647 L 190 647 L 416 207 L 850 1495 L 993 1495 L 455 -33 Z" unicode="√" />
<glyph horiz-adv-x="1536" d="M 1071 395 C 999 395 938 410 889 441 C 839 472 799 522 768 590 C 727 528 679 480 624 446 C 568 412 507 395 440 395 C 336 395 253 432 190 508 C 127 583 96 683 96 809 C 96 925 133 1022 207 1100 C 281 1178 369 1217 469 1217 C 541 1217 603 1202 655 1172 C 707 1142 749 1095 782 1031 C 852 1155 958 1217 1100 1217 C 1198 1217 1279 1182 1345 1112 C 1411 1042 1444 945 1444 819 C 1444 699 1409 598 1340 517 C 1271 435 1181 395 1071 395 Z M 1071 555 C 1127 555 1175 578 1217 625 C 1259 672 1280 735 1280 815 C 1280 881 1264 939 1234 988 C 1203 1036 1151 1061 1079 1061 C 1024 1061 980 1042 946 1005 C 912 968 880 901 850 803 C 858 701 882 634 924 602 C 966 570 1015 555 1071 555 Z M 471 1049 C 408 1049 356 1026 316 982 C 276 937 256 874 256 793 C 256 709 271 648 302 610 C 332 572 381 553 449 553 C 505 553 554 572 596 612 C 638 652 673 716 701 806 C 675 893 644 955 606 993 C 568 1030 523 1049 471 1049 Z" unicode="∞" />
<glyph horiz-adv-x="1151" d="M -8 -391 L 55 -260 C 71 -265 87 -270 103 -274 C 119 -278 139 -281 164 -281 C 196 -281 222 -269 242 -247 C 262 -224 277 -179 289 -113 L 516 1225 C 554 1437 676 1544 881 1544 C 981 1544 1071 1521 1151 1477 L 1087 1305 C 1058 1322 1025 1339 988 1355 C 950 1371 910 1380 868 1380 C 806 1380 760 1360 730 1322 C 699 1283 680 1238 672 1188 L 449 -223 C 435 -295 402 -348 350 -382 C 298 -415 240 -432 176 -432 C 136 -432 100 -428 66 -420 C 32 -412 8 -402 -8 -391 Z" unicode="∫" />
<glyph horiz-adv-x="1536" d="M 236 399 C 230 429 227 455 227 479 C 227 546 247 604 287 652 C 327 700 390 725 475 725 C 541 725 600 715 650 696 C 700 677 746 659 788 642 C 830 624 872 610 912 598 C 952 586 988 580 1020 580 C 1112 580 1159 614 1159 684 L 1155 717 L 1300 717 C 1306 687 1309 660 1309 637 C 1309 570 1288 512 1248 464 C 1208 415 1145 391 1061 391 C 994 391 936 399 886 417 C 836 435 789 452 747 470 C 705 487 663 501 623 512 C 583 522 547 528 516 528 C 465 528 429 518 408 499 C 387 480 377 458 377 432 L 381 399 L 236 399 Z M 236 860 C 230 888 227 915 227 940 C 227 1006 247 1064 287 1112 C 327 1160 390 1184 475 1184 C 541 1184 600 1174 650 1156 C 700 1137 746 1119 788 1101 C 830 1083 872 1069 912 1057 C 952 1045 988 1040 1020 1040 C 1070 1040 1106 1050 1127 1070 C 1148 1090 1159 1115 1159 1145 L 1155 1176 L 1300 1176 C 1306 1147 1309 1120 1309 1096 C 1309 1028 1288 971 1248 923 C 1208 875 1145 852 1061 852 C 994 852 936 860 886 877 C 836 894 789 911 747 929 C 705 947 663 961 623 971 C 583 981 547 987 516 987 C 465 987 429 977 408 959 C 387 941 377 919 377 893 L 381 860 L 236 860 Z" unicode="≈" />
<glyph horiz-adv-x="1536" d="M 213 977 L 213 1176 L 899 1176 L 995 1356 L 1167 1356 L 1072 1176 L 1327 1176 L 1327 977 L 967 977 L 769 604 L 1327 604 L 1327 403 L 663 403 L 549 188 L 373 188 L 487 403 L 213 403 L 213 604 L 594 604 L 793 977 L 213 977 Z" unicode="≠" />
<glyph horiz-adv-x="1536" d="M 1348 236 L 209 709 L 209 872 L 1348 1343 L 1348 1128 L 449 793 L 1348 453 L 1348 236 Z M 213 25 L 213 215 L 1348 215 L 1348 25 L 213 25 Z" unicode="≤" />
<glyph horiz-adv-x="1536" d="M 213 236 L 213 453 L 1112 793 L 213 1128 L 213 1343 L 1352 872 L 1352 709 L 213 236 Z M 213 25 L 213 215 L 1348 215 L 1348 25 L 213 25 Z" unicode="≥" />
<glyph horiz-adv-x="1151" d="M 471 -47 L 68 756 L 471 1561 L 655 1561 L 1083 756 L 655 -47 L 471 -47 Z M 555 152 L 877 768 L 571 1356 L 252 739 L 555 152 Z" unicode="◊" />
<glyph horiz-adv-x="1495" d="M 625 1372 L 625 1495 L 870 1495 L 870 1372 L 625 1372 Z M 1372 625 L 1372 870 L 1495 870 L 1495 625 L 1372 625 Z M 625 625 L 625 870 L 870 870 L 870 625 L 625 625 Z M 0 625 L 0 870 L 123 870 L 123 625 L 0 625 Z M 625 0 L 625 123 L 870 123 L 870 0 L 625 0 Z" unicode="" />
<glyph horiz-adv-x="946" d="M 766 713 L 766 0 L 633 0 L 633 713 L 498 713 L 498 836 L 633 836 L 633 1311 C 633 1369 650 1415 685 1448 C 720 1480 766 1497 823 1497 L 864 1497 L 907 1495 L 907 1374 L 861 1377 L 846 1376 C 818 1374 797 1365 785 1347 C 772 1329 766 1303 766 1270 L 766 836 L 909 836 L 909 713 L 766 713 Z M 293 713 L 293 0 L 160 0 L 160 713 L 25 713 L 25 836 L 160 836 L 160 1311 C 160 1369 177 1415 212 1448 C 247 1480 293 1497 350 1497 L 391 1497 L 434 1495 L 434 1374 L 388 1377 L 373 1376 C 345 1374 324 1365 312 1347 C 299 1329 293 1303 293 1270 L 293 836 L 436 836 L 436 713 L 293 713 Z" unicode="ﬀ" />
<glyph horiz-adv-x="862" d="M 293 713 L 293 0 L 160 0 L 160 713 L 25 713 L 25 836 L 160 836 L 160 1311 C 160 1369 177 1415 212 1448 C 247 1480 293 1497 350 1497 L 391 1497 L 434 1495 L 434 1374 L 388 1377 L 373 1376 C 345 1374 324 1365 312 1347 C 299 1329 293 1303 293 1270 L 293 836 L 436 836 L 436 713 L 293 713 Z M 600 0 L 600 836 L 733 836 L 733 0 L 600 0 Z M 600 1049 L 600 1245 L 733 1245 L 733 1049 L 600 1049 Z" unicode="ﬁ" />
<glyph horiz-adv-x="862" d="M 293 713 L 293 0 L 160 0 L 160 713 L 25 713 L 25 836 L 160 836 L 160 1311 C 160 1369 177 1415 212 1448 C 247 1480 293 1497 350 1497 L 391 1497 L 434 1495 L 434 1374 L 388 1377 L 373 1376 C 345 1374 324 1365 312 1347 C 299 1329 293 1303 293 1270 L 293 836 L 436 836 L 436 713 L 293 713 Z M 600 0 L 600 1495 L 733 1495 L 733 0 L 600 0 Z" unicode="ﬂ" />
<glyph horiz-adv-x="1337" d="M 766 713 L 766 0 L 633 0 L 633 713 L 498 713 L 498 836 L 633 836 L 633 1311 C 633 1369 650 1415 685 1448 C 720 1480 766 1497 823 1497 L 864 1497 L 907 1495 L 907 1374 L 861 1377 L 846 1376 C 818 1374 797 1365 785 1347 C 772 1329 766 1303 766 1270 L 766 836 L 909 836 L 909 713 L 766 713 Z M 293 713 L 293 0 L 160 0 L 160 713 L 25 713 L 25 836 L 160 836 L 160 1311 C 160 1369 177 1415 212 1448 C 247 1480 293 1497 350 1497 L 391 1497 L 434 1495 L 434 1374 L 388 1377 L 373 1376 C 345 1374 324 1365 312 1347 C 299 1329 293 1303 293 1270 L 293 836 L 436 836 L 436 713 L 293 713 Z M 1075 0 L 1075 836 L 1208 836 L 1208 0 L 1075 0 Z M 1075 1049 L 1075 1245 L 1208 1245 L 1208 1049 L 1075 1049 Z" unicode="ﬃ" />
<glyph horiz-adv-x="1337" d="M 766 713 L 766 0 L 633 0 L 633 713 L 498 713 L 498 836 L 633 836 L 633 1311 C 633 1369 650 1415 685 1448 C 720 1480 766 1497 823 1497 L 864 1497 L 907 1495 L 907 1374 L 861 1377 L 846 1376 C 818 1374 797 1365 785 1347 C 772 1329 766 1303 766 1270 L 766 836 L 909 836 L 909 713 L 766 713 Z M 293 713 L 293 0 L 160 0 L 160 713 L 25 713 L 25 836 L 160 836 L 160 1311 C 160 1369 177 1415 212 1448 C 247 1480 293 1497 350 1497 L 391 1497 L 434 1495 L 434 1374 L 388 1377 L 373 1376 C 345 1374 324 1365 312 1347 C 299 1329 293 1303 293 1270 L 293 836 L 436 836 L 436 713 L 293 713 Z M 1075 0 L 1075 1495 L 1208 1495 L 1208 0 L 1075 0 Z" unicode="ﬄ" />
</font>
</defs>
</svg>
