<?xml version="1.0" encoding="utf-8" ?><svg version="1.1" xmlns = 'http://www.w3.org/2000/svg'><defs><font id='web' horiz-adv-x="1000">
<font-face font-family="web" descent="-391" cap-height="1495" units-per-em="2048" bbox="-223,-432,2363,1897" x-height="821" ascent="1638" />
<missing-glyph horiz-adv-x="1024" d="" /><glyph horiz-adv-x="399" d="" unicode=" " />
<glyph horiz-adv-x="387" d="M 215 614 L 133 264 L 82 264 L 123 614 L 279 1495 L 371 1495 L 215 614 Z M 106 0 L 14 0 L 45 172 L 137 172 L 106 0 Z" unicode="!" />
<glyph horiz-adv-x="573" d="M 549 1317 L 498 1133 L 446 1133 L 457 1317 L 489 1495 L 582 1495 L 549 1317 Z M 313 1317 L 262 1133 L 211 1133 L 221 1317 L 254 1495 L 346 1495 L 313 1317 Z" unicode="&#x22;" />
<glyph horiz-adv-x="1200" d="M 1176 967 L 928 967 L 813 535 L 1100 535 L 1087 465 L 795 465 L 672 0 L 586 0 L 709 465 L 340 465 L 217 0 L 131 0 L 254 465 L 10 465 L 23 535 L 272 535 L 387 967 L 98 967 L 111 1036 L 406 1036 L 526 1495 L 612 1495 L 492 1036 L 860 1036 L 981 1495 L 1067 1495 L 946 1036 L 1188 1036 L 1176 967 Z M 473 967 L 358 535 L 727 535 L 842 967 L 473 967 Z" unicode="#" />
<glyph horiz-adv-x="987" d="M 887 1264 C 855 1311 820 1346 780 1368 C 740 1390 695 1405 645 1411 L 541 811 C 593 777 638 745 676 716 C 714 686 745 656 770 625 C 794 593 812 560 824 525 C 836 489 842 449 842 403 C 842 343 830 288 806 239 C 782 190 749 148 709 113 C 669 78 622 51 568 31 C 514 11 457 0 397 -2 L 373 -141 L 295 -141 L 319 0 C 285 3 253 10 221 20 C 189 30 159 42 131 57 C 102 72 75 89 51 109 C 26 128 4 149 -14 172 L 57 233 C 91 195 131 162 178 135 C 225 108 277 91 334 84 L 453 754 C 413 778 377 803 344 828 C 311 853 282 880 258 909 C 233 938 214 970 200 1005 C 186 1040 180 1080 180 1124 C 180 1178 190 1227 211 1272 C 231 1317 260 1356 296 1389 C 332 1422 375 1448 424 1468 C 473 1487 526 1497 584 1499 L 602 1608 L 680 1608 L 659 1495 C 793 1483 895 1424 967 1319 L 887 1264 Z M 567 1413 C 527 1411 489 1403 454 1390 C 419 1376 389 1358 363 1334 C 337 1310 316 1282 301 1248 C 286 1214 279 1175 279 1133 C 279 1106 282 1081 289 1058 C 296 1034 307 1012 323 990 C 338 968 358 946 382 924 C 406 902 436 880 471 856 L 567 1413 Z M 741 389 C 741 421 737 451 729 479 C 721 506 708 532 690 558 C 672 583 650 608 622 632 C 594 656 561 682 522 709 L 412 82 C 458 84 501 93 541 109 C 581 124 615 145 645 171 C 675 197 698 229 715 266 C 732 302 741 343 741 389 Z" unicode="$" />
<glyph horiz-adv-x="1495" d="M 760 1231 C 760 1164 750 1101 730 1043 C 710 984 683 933 650 889 C 617 845 579 811 536 786 C 493 760 449 748 403 748 C 363 748 328 755 298 769 C 268 783 243 803 223 829 C 203 854 187 884 177 920 C 167 955 162 994 162 1036 C 162 1102 171 1165 191 1224 C 211 1282 237 1334 270 1378 C 303 1422 341 1456 384 1482 C 427 1507 472 1520 518 1520 C 558 1520 593 1512 623 1498 C 653 1484 679 1464 699 1438 C 719 1412 734 1382 744 1347 C 754 1311 760 1273 760 1231 Z M 156 0 L 55 0 L 1337 1495 L 1438 1495 L 156 0 Z M 1331 459 C 1331 392 1321 329 1301 271 C 1281 212 1254 161 1221 117 C 1188 73 1150 38 1108 13 C 1065 -12 1021 -25 975 -25 C 935 -25 899 -17 869 -3 C 839 10 814 30 794 56 C 774 82 758 112 748 148 C 738 183 733 222 733 264 C 733 330 743 393 763 452 C 783 510 809 562 842 606 C 875 650 913 684 956 710 C 999 735 1044 748 1090 748 C 1130 748 1165 740 1195 726 C 1225 712 1250 692 1270 666 C 1290 640 1305 610 1315 575 C 1325 539 1331 501 1331 459 Z M 670 1225 C 670 1257 666 1286 659 1313 C 651 1340 641 1363 627 1383 C 613 1402 596 1417 576 1428 C 556 1438 533 1444 508 1444 C 473 1444 440 1433 409 1412 C 378 1390 351 1361 328 1325 C 304 1289 286 1246 272 1197 C 258 1148 252 1096 252 1042 C 252 1010 255 980 263 953 C 270 926 280 903 294 884 C 308 864 325 849 345 839 C 365 828 388 823 414 823 C 448 823 481 833 512 855 C 543 876 570 905 594 942 C 617 978 635 1021 649 1070 C 663 1118 670 1170 670 1225 Z M 1241 453 C 1241 485 1237 514 1230 541 C 1222 568 1212 591 1198 611 C 1184 630 1168 645 1148 656 C 1128 666 1105 672 1079 672 C 1044 672 1011 661 980 640 C 949 618 922 589 899 553 C 875 516 857 473 843 425 C 829 376 823 324 823 270 C 823 238 826 208 834 181 C 841 154 852 131 866 112 C 880 92 897 77 917 67 C 937 56 959 51 985 51 C 1019 51 1052 61 1083 83 C 1114 104 1141 133 1165 169 C 1188 205 1206 248 1220 297 C 1234 345 1241 397 1241 453 Z" unicode="%" />
<glyph horiz-adv-x="1290" d="M 1137 412 C 1107 382 1078 353 1050 326 C 1022 298 993 272 965 248 L 1139 0 L 1026 0 L 895 188 C 854 155 814 125 774 99 C 734 73 693 50 653 32 C 612 14 571 0 529 -10 C 487 -20 445 -25 403 -25 C 345 -25 294 -16 250 2 C 205 20 167 44 137 75 C 106 106 83 142 67 184 C 51 225 43 269 43 317 C 43 413 76 503 143 588 C 209 673 311 753 449 827 L 391 911 C 358 958 334 1003 318 1047 C 302 1090 295 1138 295 1192 C 295 1238 304 1281 323 1321 C 341 1361 367 1395 399 1425 C 431 1454 467 1477 509 1494 C 551 1511 595 1520 641 1520 C 683 1520 723 1513 759 1499 C 795 1485 827 1466 854 1442 C 880 1417 901 1388 916 1355 C 930 1321 938 1285 938 1247 C 938 1203 929 1161 912 1123 C 895 1084 871 1047 840 1011 C 808 975 770 941 724 908 C 678 875 627 843 571 811 L 920 313 C 972 361 1027 415 1085 475 L 1137 412 Z M 844 1239 C 844 1271 838 1299 828 1323 C 817 1347 802 1368 783 1385 C 763 1401 740 1414 714 1423 C 688 1431 659 1436 627 1436 C 594 1436 563 1429 534 1417 C 505 1405 480 1388 459 1366 C 437 1344 420 1319 408 1289 C 395 1259 389 1226 389 1190 C 389 1148 396 1108 410 1068 C 424 1028 443 992 467 958 L 528 870 C 626 924 704 982 760 1043 C 816 1104 844 1169 844 1239 Z M 492 766 C 430 731 377 696 333 661 C 289 625 252 590 224 554 C 195 518 174 481 161 444 C 147 406 141 368 141 330 C 141 294 146 259 157 227 C 168 194 185 165 207 140 C 229 115 256 95 290 81 C 323 66 362 59 408 59 C 484 59 558 76 629 110 C 700 144 774 192 850 254 L 492 766 Z" unicode="&#x26;" />
<glyph horiz-adv-x="338" d="M 313 1317 L 262 1133 L 211 1133 L 221 1317 L 254 1495 L 346 1495 L 313 1317 Z" unicode="'" />
<glyph horiz-adv-x="600" d="M 709 1524 C 635 1466 563 1397 494 1316 C 425 1234 364 1145 311 1047 C 258 949 216 844 184 734 C 152 623 137 510 137 395 C 137 335 141 272 149 208 C 157 144 171 80 190 16 C 209 -48 234 -110 265 -171 C 295 -232 333 -290 377 -344 L 367 -399 C 309 -343 260 -284 219 -224 C 177 -163 143 -100 117 -36 C 90 27 70 94 58 162 C 45 230 39 300 39 371 C 39 496 55 617 88 735 C 121 852 167 962 227 1066 C 287 1170 358 1265 442 1352 C 525 1439 617 1515 719 1581 L 709 1524 Z" unicode="(" />
<glyph horiz-adv-x="600" d="M 504 813 C 504 687 487 566 454 449 C 421 331 375 221 315 117 C 255 13 183 -81 100 -169 C 16 -256 -75 -332 -176 -397 L -166 -340 C -116 -302 -68 -258 -20 -209 C 27 -160 72 -107 114 -49 C 156 9 195 70 231 136 C 267 202 298 270 324 341 C 350 412 370 485 384 560 C 398 635 406 711 406 788 C 406 848 401 910 393 974 C 384 1038 370 1103 351 1167 C 332 1231 307 1293 277 1355 C 247 1416 210 1474 166 1528 L 176 1583 C 233 1527 282 1468 324 1408 C 365 1347 399 1284 426 1220 C 452 1156 472 1089 485 1021 C 497 953 504 883 504 813 Z" unicode=")" />
<glyph horiz-adv-x="805" d="M 768 1087 L 508 1180 L 516 901 L 442 901 L 451 1180 L 186 1087 L 162 1157 L 428 1237 L 260 1456 L 319 1501 L 477 1274 L 635 1499 L 696 1458 L 526 1237 L 793 1157 L 768 1087 Z" unicode="*" />
<glyph horiz-adv-x="1028" d="M 936 635 L 539 635 L 471 256 L 381 256 L 449 635 L 51 635 L 66 717 L 463 717 L 530 1100 L 621 1100 L 553 717 L 950 717 L 936 635 Z" unicode="+" />
<glyph horiz-adv-x="338" d="M 82 0 C 76 -33 67 -64 56 -93 C 45 -122 32 -149 18 -175 C 3 -200 -13 -223 -31 -245 C -49 -266 -67 -285 -86 -303 L -143 -303 C -123 -280 -105 -257 -91 -234 C -77 -211 -64 -187 -54 -163 C -44 -138 -35 -112 -28 -84 C -20 -56 -14 -26 -8 6 L 20 172 L 113 172 L 82 0 Z" unicode="," />
<glyph horiz-adv-x="676" d="M 494 422 L 63 422 L 78 504 L 508 504 L 494 422 Z" unicode="-" />
<glyph horiz-adv-x="338" d="M 82 0 L -10 0 L 20 172 L 113 172 L 82 0 Z" unicode="." />
<glyph horiz-adv-x="762" d="M 41 0 L -51 0 L 719 1495 L 811 1495 L 41 0 Z" unicode="/" />
<glyph horiz-adv-x="1233" d="M 1174 946 C 1174 866 1166 786 1152 707 C 1138 627 1117 552 1090 480 C 1062 408 1029 342 990 280 C 951 218 907 165 858 120 C 808 74 754 39 696 13 C 637 -12 574 -25 508 -25 C 437 -25 374 -12 318 12 C 262 37 215 74 177 123 C 139 171 109 231 89 303 C 69 374 59 456 59 549 C 59 629 66 708 80 788 C 94 867 115 942 143 1014 C 170 1086 203 1152 242 1214 C 281 1276 325 1329 375 1375 C 424 1420 478 1455 537 1481 C 595 1507 658 1520 725 1520 C 795 1520 858 1507 914 1482 C 970 1457 1017 1420 1055 1372 C 1093 1323 1123 1263 1143 1192 C 1163 1120 1174 1038 1174 946 Z M 1073 946 C 1073 1026 1064 1096 1048 1157 C 1032 1218 1008 1269 977 1311 C 946 1352 909 1383 865 1404 C 821 1425 771 1436 715 1436 C 660 1436 608 1424 559 1401 C 510 1378 465 1346 424 1305 C 383 1264 346 1216 314 1160 C 281 1104 253 1044 230 978 C 207 912 190 843 178 770 C 166 697 160 623 160 549 C 160 469 168 398 184 337 C 200 276 224 225 255 184 C 286 142 324 111 368 90 C 412 69 462 59 518 59 C 572 59 624 70 673 93 C 722 116 767 148 808 189 C 849 230 886 278 919 334 C 951 390 979 450 1002 516 C 1025 582 1043 651 1055 724 C 1067 797 1073 871 1073 946 Z" unicode="0" />
<glyph horiz-adv-x="528" d="M 248 0 L 156 0 L 389 1319 C 373 1299 353 1281 331 1265 C 308 1248 284 1233 258 1220 C 232 1206 206 1195 178 1186 C 150 1177 124 1171 98 1167 L 115 1249 C 143 1252 173 1261 204 1276 C 234 1290 264 1309 293 1332 C 321 1354 348 1380 372 1408 C 396 1436 416 1465 432 1495 L 512 1495 L 248 0 Z" unicode="1" />
<glyph horiz-adv-x="1055" d="M 1020 1155 C 1020 1113 1015 1074 1005 1038 C 995 1001 979 965 958 929 C 937 893 910 856 878 818 C 845 780 806 740 760 696 L 125 90 L 850 90 L 834 0 L -88 0 L 700 754 C 735 788 766 821 794 853 C 822 885 845 917 864 949 C 883 981 897 1013 907 1046 C 917 1078 922 1113 922 1149 C 922 1189 915 1226 901 1261 C 887 1295 868 1325 843 1351 C 817 1377 786 1397 749 1412 C 711 1426 669 1434 623 1434 C 523 1434 441 1408 378 1358 C 315 1308 266 1231 231 1128 L 137 1128 C 154 1188 178 1242 209 1290 C 239 1338 276 1380 318 1414 C 360 1448 407 1474 460 1492 C 513 1510 571 1520 635 1520 C 691 1520 742 1511 790 1493 C 837 1475 878 1450 912 1418 C 946 1386 972 1347 991 1303 C 1010 1258 1020 1209 1020 1155 Z" unicode="2" />
<glyph horiz-adv-x="1122" d="M 1044 1198 C 1044 1146 1036 1099 1020 1057 C 1004 1015 981 977 952 944 C 923 911 889 882 849 858 C 809 833 765 813 717 797 C 755 787 789 771 821 751 C 853 731 880 706 903 678 C 926 650 944 617 957 581 C 970 545 977 505 977 463 C 977 394 963 330 937 271 C 911 211 874 160 828 116 C 781 72 726 37 662 12 C 598 -12 528 -25 453 -25 C 393 -25 337 -18 285 -6 C 233 6 185 24 142 48 C 99 72 61 100 27 133 C -6 166 -34 203 -57 244 L 18 299 C 45 257 74 221 104 191 C 134 161 166 136 201 116 C 236 96 275 82 317 73 C 359 63 405 59 457 59 C 521 59 580 69 632 89 C 684 109 728 136 765 172 C 801 208 829 250 849 298 C 869 346 879 399 879 457 C 879 501 870 542 852 580 C 834 618 809 650 776 677 C 743 703 703 724 655 739 C 607 754 554 762 494 762 L 389 762 L 403 844 L 514 844 C 582 844 642 852 696 869 C 749 885 794 908 831 938 C 868 968 896 1003 916 1044 C 936 1085 946 1130 946 1178 C 946 1217 938 1252 924 1284 C 910 1315 889 1342 863 1364 C 837 1386 805 1402 768 1414 C 731 1426 690 1432 645 1432 C 565 1432 495 1417 435 1387 C 375 1357 322 1317 276 1268 L 209 1323 C 274 1390 343 1439 416 1471 C 489 1502 569 1518 657 1518 C 713 1518 765 1510 813 1495 C 860 1479 901 1458 935 1430 C 969 1402 996 1368 1015 1329 C 1034 1289 1044 1246 1044 1198 Z" unicode="3" />
<glyph horiz-adv-x="1104" d="M 1001 401 L 762 401 L 690 0 L 598 0 L 670 401 L -18 401 L -8 467 L 899 1495 L 954 1495 L 776 483 L 1016 483 L 1001 401 Z M 111 483 L 684 483 L 827 1298 L 111 483 Z" unicode="4" />
<glyph horiz-adv-x="1182" d="M 1079 1413 L 397 1413 L 272 891 C 318 930 369 962 423 987 C 477 1011 536 1024 600 1024 C 668 1024 728 1012 782 989 C 836 966 881 935 919 896 C 956 856 984 810 1004 757 C 1024 703 1034 646 1034 586 C 1034 498 1018 417 988 343 C 957 268 915 203 862 149 C 809 94 747 51 676 21 C 605 -9 529 -25 449 -25 C 395 -25 345 -18 299 -5 C 252 7 209 24 170 46 C 131 67 96 92 65 120 C 34 148 8 178 -14 209 L 59 268 C 83 236 110 208 138 183 C 166 157 196 136 229 118 C 262 100 298 86 336 76 C 374 66 415 61 461 61 C 525 61 586 73 644 97 C 701 121 751 156 795 202 C 838 247 872 301 898 365 C 923 429 936 500 936 580 C 936 628 928 674 913 718 C 897 761 875 799 845 832 C 815 864 779 890 735 909 C 691 928 642 938 586 938 C 546 938 509 932 474 922 C 439 912 406 897 376 879 C 346 860 317 838 290 812 C 263 786 238 757 215 725 L 152 758 L 324 1495 L 1094 1495 L 1079 1413 Z" unicode="5" />
<glyph horiz-adv-x="1159" d="M 1044 569 C 1044 517 1037 466 1023 416 C 1009 366 990 320 965 276 C 940 232 910 191 875 154 C 840 117 801 85 758 59 C 715 33 669 12 620 -2 C 570 -17 519 -25 465 -25 C 402 -25 344 -15 290 3 C 236 21 190 49 150 85 C 110 121 79 165 57 219 C 34 272 23 333 23 403 C 23 469 32 536 52 604 C 72 672 99 739 133 806 C 167 872 206 938 252 1002 C 298 1066 346 1127 398 1186 C 450 1245 503 1301 558 1353 C 613 1405 667 1452 721 1495 L 852 1495 C 812 1465 771 1433 731 1398 C 690 1363 650 1326 611 1288 C 572 1250 534 1211 498 1171 C 461 1131 427 1091 396 1051 C 364 1011 336 973 310 936 C 284 898 263 863 246 831 C 296 877 352 914 415 941 C 478 967 548 981 625 981 C 686 981 742 971 794 952 C 845 932 889 905 926 869 C 963 833 992 790 1013 739 C 1033 688 1044 631 1044 569 Z M 946 563 C 946 613 938 658 922 700 C 906 741 884 776 854 805 C 824 834 787 857 744 873 C 701 889 652 897 598 897 C 535 897 475 884 418 858 C 360 832 310 797 266 753 C 222 709 186 657 160 599 C 134 540 121 478 121 414 C 121 360 129 311 145 268 C 161 225 185 189 216 159 C 246 129 284 107 329 91 C 373 75 424 68 481 68 C 549 68 611 81 668 108 C 725 135 774 171 815 217 C 856 262 888 315 911 375 C 934 435 946 497 946 563 Z" unicode="6" />
<glyph horiz-adv-x="1034" d="M 102 0 L -2 0 L 942 1411 L 199 1411 L 215 1495 L 1100 1495 L 102 0 Z" unicode="7" />
<glyph horiz-adv-x="1233" d="M 1143 1184 C 1143 1131 1133 1083 1115 1040 C 1096 996 1072 958 1042 924 C 1012 890 978 862 941 839 C 903 816 866 798 829 786 C 867 774 902 758 935 738 C 967 717 996 692 1020 663 C 1044 633 1063 600 1077 563 C 1091 525 1098 484 1098 440 C 1098 373 1083 312 1054 256 C 1024 200 984 151 933 110 C 882 69 822 37 753 14 C 683 -8 608 -20 528 -20 C 454 -20 385 -11 323 7 C 260 25 206 51 160 85 C 114 119 79 161 53 210 C 27 259 14 315 14 377 C 14 421 23 467 41 513 C 59 559 86 603 121 643 C 155 683 197 718 247 748 C 297 778 353 799 416 811 C 358 839 312 878 278 928 C 244 977 227 1038 227 1112 C 227 1169 239 1222 265 1272 C 291 1322 326 1365 371 1402 C 415 1438 468 1467 529 1488 C 590 1509 656 1520 727 1520 C 789 1520 846 1511 897 1494 C 948 1476 992 1453 1028 1423 C 1064 1393 1093 1357 1113 1316 C 1133 1275 1143 1231 1143 1184 Z M 1044 1174 C 1044 1214 1036 1250 1021 1282 C 1006 1314 984 1341 956 1363 C 927 1385 892 1403 850 1415 C 808 1427 761 1434 707 1434 C 645 1434 590 1425 542 1407 C 494 1389 454 1366 422 1336 C 390 1306 365 1271 349 1232 C 332 1192 324 1151 324 1108 C 324 1068 330 1032 344 999 C 357 966 378 937 406 913 C 434 889 469 870 512 856 C 554 842 605 836 664 836 C 720 836 771 844 817 860 C 863 876 903 899 937 929 C 971 958 997 993 1016 1035 C 1034 1077 1044 1123 1044 1174 Z M 1001 436 C 1001 484 991 527 973 566 C 955 604 928 637 893 665 C 857 693 814 714 763 730 C 712 746 654 754 590 756 C 516 756 450 747 392 729 C 333 710 283 684 242 650 C 200 616 168 576 146 530 C 124 483 113 433 113 379 C 113 327 124 282 146 243 C 168 203 198 170 236 144 C 274 117 318 97 368 83 C 418 69 472 63 528 63 C 600 63 665 72 723 91 C 781 110 830 136 872 170 C 913 203 945 242 967 288 C 989 333 1001 382 1001 436 Z" unicode="8" />
<glyph horiz-adv-x="1159" d="M 1114 1083 C 1114 1009 1103 935 1082 862 C 1060 788 1031 716 995 646 C 959 575 917 507 870 441 C 822 375 773 312 721 254 C 669 196 616 142 563 93 C 509 43 459 0 412 -37 L 352 35 C 404 72 456 114 506 160 C 556 206 603 254 648 304 C 693 354 735 404 774 456 C 812 508 847 558 877 608 C 775 519 656 475 520 475 C 464 475 410 484 358 504 C 306 524 261 553 222 591 C 183 629 152 675 129 731 C 105 786 94 850 94 922 C 94 1008 110 1088 143 1161 C 175 1233 219 1296 273 1349 C 327 1402 388 1443 457 1473 C 526 1503 597 1518 670 1518 C 738 1518 800 1507 855 1485 C 910 1463 957 1432 995 1394 C 1033 1355 1063 1309 1083 1256 C 1103 1203 1114 1145 1114 1083 Z M 1016 1075 C 1016 1129 1007 1179 991 1223 C 975 1267 951 1304 920 1335 C 888 1365 850 1389 805 1405 C 759 1421 707 1430 649 1430 C 584 1430 524 1416 469 1390 C 413 1363 365 1327 324 1282 C 283 1236 251 1183 228 1123 C 204 1062 193 998 193 930 C 193 868 202 814 220 768 C 238 722 264 683 296 653 C 328 623 365 600 409 585 C 452 570 499 563 549 563 C 617 563 679 575 736 601 C 793 627 842 662 884 708 C 926 754 958 808 981 870 C 1004 932 1016 1001 1016 1075 Z" unicode="9" />
<glyph horiz-adv-x="338" d="M 205 698 L 113 698 L 143 870 L 236 870 L 205 698 Z M 82 0 L -10 0 L 20 172 L 113 172 L 82 0 Z" unicode=":" />
<glyph horiz-adv-x="338" d="M 205 698 L 113 698 L 143 870 L 236 870 L 205 698 Z M 82 0 C 76 -33 67 -64 56 -93 C 45 -122 32 -149 18 -175 C 3 -200 -13 -223 -31 -245 C -49 -266 -67 -285 -86 -303 L -143 -303 C -123 -280 -105 -257 -91 -234 C -77 -211 -64 -187 -54 -163 C -44 -138 -35 -112 -28 -84 C -20 -56 -14 -26 -8 6 L 20 172 L 113 172 L 82 0 Z" unicode=";" />
<glyph horiz-adv-x="717" d="M 678 1012 L 137 666 L 555 317 L 537 209 L 53 621 L 70 709 L 696 1116 L 678 1012 Z" unicode="&#x3C;" />
<glyph horiz-adv-x="987" d="M 860 795 L 139 795 L 154 877 L 874 877 L 860 795 Z M 807 487 L 86 487 L 100 569 L 821 569 L 807 487 Z" unicode="=" />
<glyph horiz-adv-x="717" d="M 614 616 L -12 209 L 6 313 L 547 659 L 129 1008 L 147 1116 L 631 705 L 614 616 Z" unicode="&#x3E;" />
<glyph horiz-adv-x="895" d="M 877 1208 C 877 1168 871 1131 861 1096 C 850 1061 834 1026 812 990 C 790 954 762 916 729 878 C 696 839 658 796 614 750 C 580 714 550 679 524 647 C 498 615 475 583 456 551 C 437 519 421 487 409 454 C 397 421 387 386 381 350 L 367 268 L 274 268 L 289 350 C 295 392 305 431 318 467 C 331 503 348 538 369 574 C 390 609 416 645 446 682 C 476 719 511 760 553 805 C 595 851 631 891 660 926 C 688 961 711 994 729 1024 C 746 1054 758 1082 765 1110 C 772 1138 776 1167 776 1198 C 776 1231 770 1262 758 1291 C 746 1319 729 1344 707 1366 C 685 1387 658 1404 627 1416 C 596 1428 562 1434 524 1434 C 464 1434 410 1421 361 1395 C 311 1369 266 1329 225 1274 L 166 1329 C 190 1363 217 1392 246 1416 C 274 1440 304 1460 336 1476 C 367 1491 399 1502 432 1509 C 465 1516 498 1520 532 1520 C 584 1520 631 1511 674 1495 C 716 1479 753 1457 783 1429 C 813 1401 836 1368 852 1330 C 868 1292 877 1251 877 1208 Z M 319 0 L 227 0 L 258 172 L 350 172 L 319 0 Z" unicode="?" />
<glyph horiz-adv-x="1729" d="M 1636 809 C 1636 728 1625 658 1603 599 C 1581 539 1552 490 1518 451 C 1484 412 1445 383 1403 364 C 1360 345 1318 336 1278 336 C 1256 336 1236 338 1218 344 C 1200 350 1183 358 1169 368 C 1154 378 1142 391 1132 406 C 1122 420 1116 437 1114 455 C 1096 439 1077 424 1055 410 C 1033 396 1009 383 983 372 C 957 361 930 352 901 346 C 871 339 841 336 809 336 C 768 336 730 341 694 352 C 658 363 627 380 601 402 C 574 424 553 451 537 483 C 521 515 514 552 514 594 C 514 640 523 681 543 717 C 562 753 590 783 627 807 C 663 831 708 850 762 862 C 815 874 876 881 944 881 L 1112 881 L 1112 948 C 1112 986 1105 1017 1091 1041 C 1077 1064 1060 1082 1038 1095 C 1016 1108 991 1117 963 1121 C 935 1125 907 1128 879 1128 C 828 1128 782 1123 742 1114 C 702 1104 665 1089 631 1069 L 596 1139 C 634 1160 676 1176 723 1188 C 770 1200 822 1206 879 1206 C 934 1206 982 1200 1022 1188 C 1062 1176 1094 1159 1120 1137 C 1146 1115 1165 1088 1177 1058 C 1189 1027 1196 993 1196 956 L 1196 510 C 1196 474 1204 448 1222 433 C 1239 417 1264 410 1296 410 C 1326 410 1356 418 1388 435 C 1420 451 1449 476 1475 510 C 1501 543 1522 584 1539 634 C 1556 684 1565 741 1565 807 C 1565 890 1549 970 1518 1048 C 1486 1125 1441 1193 1381 1253 C 1321 1312 1248 1359 1161 1395 C 1074 1430 975 1448 864 1448 C 799 1448 737 1439 677 1423 C 617 1406 562 1382 510 1352 C 458 1321 410 1284 368 1242 C 325 1199 288 1152 258 1100 C 227 1048 203 992 187 932 C 170 872 162 809 162 745 C 162 682 170 621 187 563 C 204 504 228 449 258 397 C 288 345 325 297 368 254 C 411 210 459 173 511 142 C 563 110 618 86 678 69 C 738 51 800 43 864 43 C 905 43 949 47 996 55 C 1042 63 1093 79 1147 104 L 1176 43 C 1119 17 1065 0 1013 -10 C 961 -20 911 -25 864 -25 C 793 -25 725 -15 659 2 C 593 20 531 46 474 80 C 417 114 365 154 318 201 C 271 248 231 300 197 358 C 163 415 137 476 119 542 C 101 608 92 676 92 748 C 92 818 101 887 119 953 C 137 1019 163 1080 197 1137 C 231 1194 271 1246 318 1293 C 365 1340 417 1380 474 1414 C 531 1448 592 1474 658 1492 C 724 1510 792 1520 864 1520 C 942 1520 1015 1511 1083 1494 C 1151 1477 1214 1453 1271 1423 C 1328 1392 1379 1355 1425 1312 C 1470 1268 1508 1220 1539 1168 C 1570 1115 1594 1058 1611 998 C 1627 937 1636 874 1636 809 Z M 1112 807 L 952 807 C 840 807 754 790 693 757 C 632 724 602 671 602 598 C 602 569 607 543 618 521 C 628 498 643 479 662 463 C 680 447 702 434 728 426 C 753 418 780 414 809 414 C 839 414 868 417 897 425 C 925 432 953 441 979 453 C 1005 465 1029 478 1051 493 C 1073 508 1094 523 1112 539 L 1112 807 Z" unicode="@" />
<glyph horiz-adv-x="1282" d="M 989 0 L 887 573 L 334 573 L 27 0 L -72 0 L 752 1520 L 803 1520 L 1087 0 L 989 0 Z M 750 1350 L 377 655 L 872 655 L 750 1350 Z" unicode="A" />
<glyph horiz-adv-x="1165" d="M 1047 1169 C 1047 1123 1039 1079 1023 1039 C 1007 999 984 962 956 930 C 928 897 894 868 854 844 C 814 820 771 800 725 786 C 766 778 804 765 839 747 C 873 729 903 707 928 679 C 952 651 971 618 985 580 C 999 542 1006 498 1006 449 C 1006 372 990 305 960 249 C 929 193 888 146 836 109 C 784 72 725 45 657 27 C 589 9 517 0 442 0 L 31 0 L 295 1495 L 639 1495 C 707 1495 767 1486 818 1470 C 869 1454 912 1431 946 1402 C 980 1373 1005 1339 1022 1299 C 1038 1259 1047 1216 1047 1169 Z M 950 1165 C 950 1202 943 1236 930 1267 C 917 1297 897 1323 871 1345 C 845 1367 811 1383 771 1395 C 730 1407 682 1413 627 1413 L 373 1413 L 268 827 L 541 827 C 603 827 659 835 709 853 C 759 871 802 895 838 925 C 874 955 901 991 921 1032 C 940 1073 950 1117 950 1165 Z M 909 440 C 909 537 877 612 815 664 C 752 716 659 743 535 743 L 254 743 L 137 82 L 457 82 C 523 82 583 89 639 104 C 694 118 742 140 782 170 C 822 200 853 237 875 282 C 897 327 909 380 909 440 Z" unicode="B" />
<glyph horiz-adv-x="1462" d="M 1364 1204 C 1314 1276 1251 1332 1175 1374 C 1099 1415 1011 1436 911 1436 C 843 1436 779 1425 717 1405 C 655 1385 597 1356 543 1320 C 489 1283 440 1240 396 1190 C 352 1140 314 1086 283 1027 C 251 967 227 905 210 839 C 192 773 184 707 184 639 C 184 553 197 475 223 404 C 249 333 287 272 335 221 C 383 170 442 131 510 103 C 578 75 653 61 737 61 C 786 61 832 65 876 75 C 919 84 961 97 1001 115 C 1041 133 1079 154 1117 180 C 1155 206 1193 235 1231 268 L 1286 213 C 1252 181 1215 150 1175 121 C 1135 92 1091 67 1044 45 C 997 23 946 6 892 -6 C 838 -18 780 -25 719 -25 C 633 -25 551 -9 474 22 C 397 53 330 97 272 155 C 214 212 169 281 135 362 C 101 442 84 532 84 631 C 84 709 94 786 114 861 C 134 935 162 1005 199 1071 C 235 1137 279 1197 331 1252 C 382 1307 439 1354 502 1394 C 564 1434 632 1465 704 1487 C 776 1509 852 1520 930 1520 C 985 1520 1038 1513 1090 1501 C 1141 1488 1189 1470 1233 1447 C 1277 1423 1316 1395 1352 1363 C 1388 1331 1418 1295 1442 1257 L 1364 1204 Z" unicode="C" />
<glyph horiz-adv-x="1339" d="M 1257 883 C 1257 789 1245 702 1222 622 C 1198 542 1166 469 1124 403 C 1082 337 1032 280 974 230 C 916 180 852 137 782 103 C 712 69 638 43 559 26 C 479 8 398 0 315 0 L 31 0 L 295 1495 L 571 1495 C 672 1495 765 1481 849 1453 C 933 1425 1006 1384 1066 1332 C 1126 1279 1173 1215 1207 1139 C 1240 1063 1257 978 1257 883 Z M 1159 860 C 1159 949 1145 1028 1117 1097 C 1089 1165 1050 1223 998 1270 C 946 1317 883 1353 809 1377 C 735 1401 651 1413 559 1413 L 373 1413 L 137 82 L 322 82 C 396 82 468 90 538 106 C 608 122 675 145 737 175 C 799 205 855 243 907 288 C 959 332 1003 383 1041 441 C 1078 499 1107 563 1128 633 C 1148 703 1159 778 1159 860 Z" unicode="D" />
<glyph horiz-adv-x="1063" d="M 1036 1413 L 373 1413 L 268 829 L 866 829 L 852 748 L 254 748 L 137 82 L 840 82 L 825 0 L 31 0 L 295 1495 L 1051 1495 L 1036 1413 Z" unicode="E" />
<glyph horiz-adv-x="913" d="M 948 1413 L 373 1413 L 268 821 L 788 821 L 774 739 L 254 739 L 123 0 L 31 0 L 295 1495 L 963 1495 L 948 1413 Z" unicode="F" />
<glyph horiz-adv-x="1651" d="M 1550 602 C 1529 512 1494 429 1445 353 C 1396 277 1336 211 1265 155 C 1194 99 1114 55 1025 23 C 936 -9 841 -25 741 -25 C 649 -25 563 -9 483 21 C 403 52 333 96 274 153 C 215 210 169 279 135 359 C 101 439 84 528 84 627 C 84 711 95 792 117 869 C 139 946 171 1018 211 1084 C 251 1150 298 1210 353 1264 C 408 1317 469 1363 535 1401 C 601 1439 671 1468 745 1489 C 819 1509 895 1520 973 1520 C 1039 1520 1100 1513 1156 1500 C 1211 1486 1261 1468 1306 1445 C 1350 1421 1390 1394 1426 1362 C 1461 1330 1492 1296 1520 1260 L 1446 1200 C 1418 1238 1387 1272 1355 1302 C 1323 1332 1287 1356 1247 1376 C 1207 1396 1163 1411 1114 1421 C 1065 1431 1010 1436 950 1436 C 881 1436 814 1426 750 1408 C 685 1389 624 1362 568 1328 C 511 1294 459 1252 412 1204 C 365 1156 325 1102 291 1043 C 257 983 230 919 212 850 C 193 781 184 709 184 635 C 184 549 197 470 224 400 C 251 329 290 268 340 218 C 390 167 450 128 520 100 C 590 72 669 59 756 59 C 828 59 899 69 968 89 C 1037 109 1101 139 1161 178 C 1220 217 1273 265 1320 322 C 1366 379 1404 444 1432 518 L 901 518 L 915 602 L 1550 602 Z" unicode="G" />
<glyph horiz-adv-x="1378" d="M 1083 0 L 991 0 L 1122 741 L 254 741 L 123 0 L 31 0 L 295 1495 L 387 1495 L 268 823 L 1137 823 L 1255 1495 L 1348 1495 L 1083 0 Z" unicode="H" />
<glyph horiz-adv-x="420" d="M 123 0 L 31 0 L 295 1495 L 387 1495 L 123 0 Z" unicode="I" />
<glyph horiz-adv-x="692" d="M 475 395 C 462 323 441 262 413 211 C 385 159 351 117 311 84 C 271 51 227 27 178 11 C 128 -4 77 -12 23 -12 L -82 -12 L -68 70 L 39 70 C 85 70 127 77 165 93 C 203 108 236 130 266 158 C 295 186 319 221 339 262 C 359 302 373 348 383 399 L 578 1495 L 670 1495 L 475 395 Z" unicode="J" />
<glyph horiz-adv-x="1126" d="M 434 854 L 934 0 L 823 0 L 362 786 L 244 680 L 123 0 L 31 0 L 295 1495 L 387 1495 L 264 805 L 1016 1495 L 1137 1495 L 434 854 Z" unicode="K" />
<glyph horiz-adv-x="991" d="M 805 0 L 31 0 L 295 1495 L 387 1495 L 137 82 L 819 82 L 805 0 Z" unicode="L" />
<glyph horiz-adv-x="1595" d="M 1298 0 L 1206 0 L 1446 1364 L 795 569 L 733 569 L 362 1360 L 123 0 L 31 0 L 295 1495 L 401 1495 L 782 680 L 1446 1495 L 1563 1495 L 1298 0 Z" unicode="M" />
<glyph horiz-adv-x="1493" d="M 1196 0 L 1094 0 L 365 1370 L 123 0 L 31 0 L 293 1495 L 403 1495 L 1126 131 L 1366 1495 L 1458 1495 L 1196 0 Z" unicode="N" />
<glyph horiz-adv-x="1659" d="M 1575 868 C 1575 790 1565 713 1545 639 C 1525 564 1496 494 1459 428 C 1422 362 1378 301 1327 245 C 1275 189 1218 142 1156 102 C 1094 62 1027 30 955 8 C 883 -13 808 -25 731 -25 C 635 -25 547 -8 468 25 C 388 59 320 105 263 163 C 206 221 162 290 131 369 C 99 448 84 533 84 623 C 84 701 94 777 114 852 C 134 926 162 997 199 1064 C 236 1130 280 1191 332 1247 C 383 1303 440 1351 502 1391 C 564 1431 632 1463 704 1486 C 776 1508 850 1520 928 1520 C 1024 1520 1111 1503 1191 1469 C 1270 1435 1338 1388 1395 1329 C 1452 1270 1496 1201 1528 1122 C 1559 1042 1575 958 1575 868 Z M 1475 856 C 1475 941 1461 1019 1434 1091 C 1406 1162 1368 1223 1319 1274 C 1270 1325 1211 1365 1143 1393 C 1075 1421 1000 1436 918 1436 C 852 1436 788 1426 726 1406 C 664 1386 605 1359 551 1324 C 497 1288 447 1246 402 1197 C 357 1148 318 1094 286 1035 C 254 975 229 912 211 844 C 193 776 184 707 184 635 C 184 549 197 471 225 401 C 252 330 290 269 339 219 C 388 168 447 129 515 101 C 583 73 659 59 741 59 C 807 59 871 68 933 88 C 995 107 1053 134 1107 169 C 1161 204 1211 246 1256 295 C 1301 344 1340 398 1372 457 C 1404 516 1430 579 1448 647 C 1466 714 1475 784 1475 856 Z" unicode="O" />
<glyph horiz-adv-x="1071" d="M 1051 1133 C 1051 1065 1038 1001 1013 943 C 987 884 951 833 903 790 C 855 746 798 712 730 688 C 662 663 585 651 500 651 L 238 651 L 123 0 L 31 0 L 295 1495 L 584 1495 C 663 1495 732 1486 791 1468 C 849 1450 898 1426 936 1394 C 974 1362 1003 1324 1022 1280 C 1041 1236 1051 1187 1051 1133 Z M 952 1124 C 952 1170 944 1212 928 1248 C 912 1284 888 1314 856 1338 C 824 1362 782 1381 732 1394 C 682 1406 622 1413 553 1413 L 373 1413 L 252 733 L 520 733 C 592 733 655 743 709 764 C 763 785 808 813 844 849 C 880 885 907 926 925 974 C 943 1021 952 1071 952 1124 Z" unicode="P" />
<glyph horiz-adv-x="1659" d="M 1575 868 C 1575 792 1565 717 1546 645 C 1527 572 1500 503 1465 438 C 1430 373 1388 313 1339 258 C 1290 203 1236 155 1176 115 C 1200 96 1225 80 1250 68 C 1274 55 1297 46 1319 41 L 1233 -31 C 1185 -9 1136 21 1087 63 C 1033 34 977 12 917 -2 C 857 -17 795 -25 731 -25 C 635 -25 547 -8 468 25 C 388 59 320 105 263 163 C 206 221 162 290 131 369 C 99 448 84 533 84 623 C 84 701 94 777 114 852 C 134 926 162 997 199 1063 C 236 1129 280 1189 332 1245 C 383 1301 440 1349 502 1389 C 564 1429 632 1460 704 1482 C 776 1504 850 1516 928 1516 C 1024 1516 1111 1499 1191 1465 C 1270 1431 1338 1385 1395 1327 C 1452 1269 1496 1200 1528 1121 C 1559 1042 1575 958 1575 868 Z M 1475 856 C 1475 941 1461 1019 1434 1090 C 1406 1160 1368 1221 1319 1272 C 1270 1322 1211 1362 1143 1390 C 1075 1418 1000 1432 918 1432 C 852 1432 788 1422 726 1403 C 664 1383 605 1356 551 1321 C 497 1286 447 1244 402 1195 C 357 1146 318 1092 286 1033 C 254 974 229 911 211 844 C 193 776 184 707 184 635 C 184 549 197 471 225 401 C 252 330 290 269 339 219 C 388 168 447 129 515 101 C 583 73 659 59 741 59 C 791 59 840 64 888 76 C 936 87 982 103 1026 125 C 988 169 958 215 938 264 L 1012 309 C 1022 285 1035 262 1052 239 C 1069 215 1088 193 1110 172 C 1164 206 1213 248 1258 297 C 1302 345 1341 399 1373 458 C 1405 517 1430 580 1448 647 C 1466 714 1475 784 1475 856 Z" unicode="Q" />
<glyph horiz-adv-x="1110" d="M 1067 1133 C 1067 1065 1054 1001 1029 943 C 1003 885 967 834 919 791 C 871 748 814 714 746 690 C 678 665 601 653 516 653 L 410 653 L 883 0 L 770 0 L 250 717 L 123 0 L 31 0 L 295 1495 L 600 1495 C 679 1495 748 1486 807 1468 C 865 1450 914 1426 952 1394 C 990 1362 1019 1324 1038 1280 C 1057 1236 1067 1187 1067 1133 Z M 969 1124 C 969 1170 961 1212 945 1248 C 929 1284 905 1314 873 1338 C 841 1362 799 1381 749 1394 C 699 1406 639 1413 569 1413 L 373 1413 L 252 733 L 537 733 C 608 733 671 743 725 764 C 779 785 824 813 860 849 C 896 885 923 926 941 974 C 959 1021 969 1071 969 1124 Z" unicode="R" />
<glyph horiz-adv-x="987" d="M 891 1284 C 853 1339 810 1378 761 1400 C 711 1422 655 1434 592 1434 C 548 1434 508 1427 470 1413 C 432 1399 398 1380 369 1355 C 340 1329 317 1299 301 1263 C 284 1227 276 1187 276 1143 C 276 1112 280 1083 290 1056 C 300 1028 315 1001 337 975 C 358 949 386 922 420 894 C 454 866 497 837 547 805 C 597 773 640 742 678 712 C 716 682 747 651 772 619 C 796 587 815 552 827 516 C 839 479 846 438 846 393 C 846 330 832 273 806 222 C 780 170 745 126 701 90 C 657 53 606 25 548 5 C 490 -15 431 -25 369 -25 C 330 -25 292 -20 255 -12 C 218 -3 183 8 150 24 C 116 40 85 58 57 80 C 28 102 3 126 -18 152 L 53 213 C 72 191 93 171 117 153 C 141 134 166 118 194 104 C 222 90 251 80 282 72 C 312 64 345 61 379 61 C 429 61 476 68 520 84 C 564 99 603 120 637 148 C 670 176 696 209 716 248 C 735 287 745 331 745 379 C 745 415 739 449 729 480 C 719 511 702 541 680 570 C 657 599 628 628 592 657 C 556 685 512 716 461 748 C 421 772 383 798 349 825 C 315 851 285 880 259 911 C 233 941 213 975 199 1012 C 185 1048 178 1089 178 1135 C 178 1189 189 1240 211 1287 C 233 1334 263 1375 301 1409 C 339 1443 384 1470 436 1490 C 487 1510 542 1520 600 1520 C 682 1520 754 1505 816 1476 C 877 1446 929 1401 971 1339 L 891 1284 Z" unicode="S" />
<glyph horiz-adv-x="975" d="M 1030 1413 L 651 1413 L 401 0 L 309 0 L 559 1413 L 178 1413 L 193 1495 L 1044 1495 L 1030 1413 Z" unicode="T" />
<glyph horiz-adv-x="1374" d="M 1184 543 C 1168 454 1140 374 1102 304 C 1064 234 1018 174 964 126 C 910 77 851 40 785 14 C 719 -12 650 -25 580 -25 C 506 -25 437 -11 374 15 C 310 41 257 80 214 131 C 171 182 141 245 123 319 C 105 393 105 477 123 573 L 285 1495 L 377 1495 L 215 573 C 201 491 200 418 213 355 C 226 291 250 238 284 194 C 318 150 361 117 413 95 C 465 72 522 61 586 61 C 648 61 706 72 762 94 C 817 116 867 148 912 191 C 956 233 994 286 1026 349 C 1058 411 1081 483 1096 565 L 1260 1495 L 1352 1495 L 1184 543 Z" unicode="U" />
<glyph horiz-adv-x="1346" d="M 193 1495 L 287 1495 L 569 166 L 1317 1495 L 1415 1495 L 528 -59 L 193 1495 Z" unicode="V" />
<glyph horiz-adv-x="1901" d="M 1251 0 L 1182 0 L 1055 1296 L 463 0 L 393 0 L 193 1495 L 291 1495 L 459 180 L 1053 1495 L 1118 1495 L 1253 182 L 1874 1495 L 1970 1495 L 1251 0 Z" unicode="W" />
<glyph horiz-adv-x="1386" d="M 754 811 L 1188 0 L 1085 0 L 690 739 L 41 0 L -68 0 L 649 815 L 287 1495 L 389 1495 L 713 889 L 1247 1495 L 1356 1495 L 754 811 Z" unicode="X" />
<glyph horiz-adv-x="1286" d="M 678 713 L 553 0 L 461 0 L 588 715 L 188 1495 L 291 1495 L 649 799 L 1247 1495 L 1360 1495 L 678 713 Z" unicode="Y" />
<glyph horiz-adv-x="1284" d="M 135 82 L 1059 82 L 1044 0 L -43 0 L 1128 1413 L 313 1413 L 328 1495 L 1305 1495 L 135 82 Z" unicode="Z" />
<glyph horiz-adv-x="522" d="M 578 1419 L 358 1419 L 57 -291 L 276 -291 L 262 -367 L -45 -367 L 285 1495 L 592 1495 L 578 1419 Z" unicode="[" />
<glyph horiz-adv-x="762" d="M 459 0 L 213 1495 L 301 1495 L 547 0 L 459 0 Z" unicode="\" />
<glyph horiz-adv-x="522" d="M 170 -367 L -137 -367 L -123 -291 L 96 -291 L 397 1419 L 178 1419 L 193 1495 L 500 1495 L 170 -367 Z" unicode="]" />
<glyph horiz-adv-x="952" d="M 780 756 L 584 1403 L 160 756 L 68 756 L 561 1495 L 639 1495 L 870 756 L 780 756 Z" unicode="^" />
<glyph horiz-adv-x="1024" d="M -176 -211 L -162 -129 L 874 -129 L 860 -211 L -176 -211 Z" unicode="_" />
<glyph horiz-adv-x="891" d="M 475 995 L 295 1270 L 385 1270 L 559 995 L 475 995 Z" unicode="`" />
<glyph horiz-adv-x="872" d="M 621 0 L 537 0 L 553 94 C 533 78 511 63 487 49 C 463 35 437 22 409 11 C 381 0 352 -8 322 -15 C 292 -21 261 -25 229 -25 C 193 -25 159 -19 129 -9 C 98 0 71 15 49 35 C 27 54 9 78 -3 106 C -16 134 -23 167 -23 203 C -23 251 -12 294 9 333 C 30 372 61 405 102 433 C 143 461 194 482 254 497 C 314 512 383 520 461 520 L 629 520 L 637 567 C 649 637 638 688 603 720 C 567 752 512 768 438 768 C 388 768 342 762 301 751 C 259 740 220 725 182 705 L 158 778 C 200 799 245 816 294 828 C 343 840 396 846 453 846 C 508 846 554 838 592 824 C 629 810 658 790 680 766 C 701 742 715 713 721 680 C 727 647 727 612 721 575 L 621 0 Z M 455 446 C 331 446 236 426 168 387 C 100 348 66 289 66 211 C 66 163 81 125 111 96 C 141 67 186 53 244 53 C 274 53 304 56 334 64 C 364 71 392 80 420 92 C 448 104 474 117 499 132 C 523 147 546 162 567 178 L 614 446 L 455 446 Z" unicode="a" />
<glyph horiz-adv-x="995" d="M 872 492 C 872 416 859 346 834 283 C 809 219 775 165 733 119 C 690 73 641 38 585 13 C 529 -12 471 -25 410 -25 C 373 -25 339 -20 309 -12 C 279 -4 251 7 226 22 C 201 37 179 54 159 74 C 139 94 123 115 109 139 L 84 0 L 0 0 L 264 1493 L 348 1493 L 199 651 C 215 676 234 700 258 724 C 282 747 308 768 338 786 C 367 804 399 818 433 829 C 467 840 503 846 541 846 C 591 846 636 836 677 818 C 717 800 752 775 781 743 C 810 711 832 673 848 630 C 864 587 872 541 872 492 Z M 782 479 C 782 527 775 569 763 605 C 751 641 733 671 711 695 C 688 719 661 737 630 749 C 598 761 564 768 526 768 C 480 768 436 758 395 739 C 354 720 317 694 285 662 C 252 629 224 591 202 547 C 180 503 164 457 156 408 L 129 252 C 143 222 159 194 177 170 C 195 145 217 124 241 107 C 265 89 293 76 324 67 C 354 57 388 53 426 53 C 478 53 525 64 569 87 C 613 109 650 140 682 179 C 714 218 738 263 756 315 C 773 366 782 421 782 479 Z" unicode="b" />
<glyph horiz-adv-x="877" d="M 723 621 C 693 665 659 700 619 727 C 579 754 528 768 467 768 C 410 768 358 755 312 731 C 265 707 225 675 192 637 C 159 598 133 554 115 506 C 97 457 88 408 88 360 C 88 317 94 277 107 240 C 120 202 138 170 162 142 C 186 114 214 93 247 77 C 279 61 316 53 356 53 C 388 53 418 56 446 62 C 474 68 500 78 525 91 C 550 103 574 119 597 138 C 620 157 643 179 666 205 L 723 158 C 675 103 621 59 561 25 C 500 -8 430 -25 352 -25 C 306 -25 261 -16 219 0 C 177 16 139 41 107 73 C 74 105 48 144 29 192 C 9 239 0 294 0 356 C 0 396 5 435 16 475 C 26 515 41 553 61 589 C 81 625 105 659 133 691 C 161 722 192 749 226 772 C 260 795 297 813 337 826 C 377 839 419 846 463 846 C 511 846 552 840 588 830 C 623 820 654 806 680 790 C 706 773 728 754 747 733 C 766 712 783 691 799 670 L 723 621 Z" unicode="c" />
<glyph horiz-adv-x="995" d="M 727 -2 L 643 -2 L 674 168 C 658 142 638 118 614 95 C 590 71 563 51 534 33 C 504 15 472 0 438 -10 C 404 -21 368 -27 332 -27 C 282 -27 236 -17 195 0 C 154 18 119 44 90 76 C 61 108 39 145 23 188 C 7 231 0 278 0 328 C 0 404 12 473 37 536 C 62 599 96 653 139 699 C 181 745 231 780 287 806 C 343 831 401 844 463 844 C 499 844 532 839 563 831 C 593 823 621 811 646 796 C 671 781 693 764 713 744 C 733 724 750 702 764 680 L 909 1495 L 993 1495 L 727 -2 Z M 743 567 C 715 627 678 676 630 712 C 582 748 520 766 446 766 C 394 766 346 754 302 732 C 258 709 221 678 190 639 C 158 600 134 555 116 504 C 98 452 90 398 90 340 C 90 292 96 251 109 215 C 121 179 139 148 161 124 C 183 100 210 81 242 69 C 273 57 308 51 346 51 C 392 51 435 60 476 79 C 517 98 554 124 587 157 C 619 189 647 227 670 271 C 692 315 708 362 717 412 L 743 567 Z" unicode="d" />
<glyph horiz-adv-x="909" d="M 797 502 C 797 488 796 474 796 459 C 795 443 794 431 793 422 L 92 422 C 90 411 89 400 89 390 C 88 380 88 369 88 358 C 88 313 94 272 106 235 C 118 197 137 165 162 138 C 187 111 218 90 256 75 C 293 60 337 53 387 53 C 443 53 494 62 542 81 C 589 99 632 124 672 156 L 723 100 C 705 85 685 70 661 55 C 637 40 610 27 580 15 C 550 3 518 -6 483 -14 C 447 -21 409 -25 369 -25 C 313 -25 263 -16 217 1 C 171 18 132 43 100 75 C 67 107 42 147 24 193 C 6 239 -2 290 -2 348 C -2 418 10 484 34 545 C 58 605 90 658 132 703 C 174 747 223 782 279 808 C 335 833 395 846 459 846 C 517 846 567 836 610 817 C 652 797 687 772 715 740 C 743 708 763 671 777 630 C 790 588 797 546 797 502 Z M 705 496 C 705 534 700 569 690 603 C 680 636 665 665 645 689 C 624 713 598 733 566 747 C 534 761 497 768 453 768 C 411 768 372 761 336 749 C 299 736 266 718 236 694 C 206 670 179 642 157 608 C 135 574 118 537 106 496 L 705 496 Z" unicode="e" />
<glyph horiz-adv-x="416" d="M 510 1417 L 446 1417 C 419 1417 396 1408 378 1392 C 359 1376 346 1345 338 1300 L 254 821 L 406 821 L 391 748 L 240 748 L 43 -367 L -41 -367 L 156 748 L 12 748 L 27 821 L 170 821 L 256 1315 C 262 1347 271 1374 283 1397 C 295 1419 310 1438 328 1452 C 346 1466 365 1477 387 1484 C 408 1491 431 1495 455 1495 L 524 1495 L 510 1417 Z" unicode="f" />
<glyph horiz-adv-x="995" d="M 729 -4 C 718 -66 700 -121 674 -169 C 648 -217 615 -257 577 -290 C 539 -323 495 -348 446 -365 C 397 -382 345 -391 289 -391 C 213 -391 145 -377 85 -351 C 25 -324 -26 -283 -68 -229 L 0 -178 C 37 -223 79 -257 127 -279 C 174 -301 231 -313 297 -313 C 341 -313 383 -306 421 -293 C 459 -280 494 -261 524 -235 C 554 -209 579 -178 599 -140 C 619 -102 634 -59 643 -10 L 676 170 C 660 144 640 120 616 97 C 592 73 565 53 536 35 C 506 17 474 2 440 -8 C 406 -19 370 -25 334 -25 C 284 -25 238 -15 197 2 C 156 20 121 46 92 78 C 63 110 41 147 25 190 C 9 233 2 280 2 330 C 2 406 14 475 39 538 C 64 601 98 655 141 701 C 183 747 233 782 289 808 C 345 833 403 846 465 846 C 501 846 534 841 565 833 C 595 825 623 813 648 798 C 673 783 695 766 715 746 C 735 726 752 704 766 682 L 791 821 L 874 821 L 729 -4 Z M 745 569 C 731 599 714 626 696 651 C 678 675 656 696 632 714 C 608 731 580 744 550 754 C 520 763 486 768 449 768 C 397 768 349 756 305 734 C 261 711 223 680 192 641 C 160 602 136 557 118 506 C 100 454 92 400 92 342 C 92 294 98 253 111 217 C 123 181 141 150 163 126 C 185 102 212 83 244 71 C 275 59 310 53 348 53 C 394 53 437 62 478 81 C 519 100 556 126 589 159 C 621 191 649 229 672 273 C 694 317 710 364 719 414 L 745 569 Z" unicode="g" />
<glyph horiz-adv-x="918" d="M 666 0 L 582 0 L 672 512 C 678 550 679 585 674 617 C 669 649 659 676 643 699 C 627 722 605 740 578 753 C 551 765 519 772 481 772 C 443 772 406 763 372 747 C 337 731 306 710 278 684 C 250 658 227 630 209 598 C 190 566 178 535 172 504 L 84 0 L 0 0 L 264 1495 L 348 1495 L 205 686 C 221 708 239 729 261 749 C 282 769 305 786 331 800 C 356 814 383 826 412 834 C 440 842 470 846 500 846 C 552 846 596 837 632 821 C 668 804 696 781 718 752 C 739 723 753 689 759 650 C 765 611 765 569 758 524 L 666 0 Z" unicode="h" />
<glyph horiz-adv-x="350" d="M 268 1051 L 184 1051 L 215 1214 L 299 1214 L 268 1051 Z M 84 0 L 0 0 L 145 821 L 229 821 L 84 0 Z" unicode="i" />
<glyph horiz-adv-x="350" d="M 268 1051 L 184 1051 L 215 1214 L 299 1214 L 268 1051 Z M 37 -268 C 29 -306 11 -335 -17 -355 C -45 -375 -79 -385 -119 -385 C -137 -385 -154 -384 -169 -382 C -183 -380 -196 -378 -207 -375 L -211 -301 C -200 -305 -187 -308 -173 -310 C -158 -312 -143 -313 -129 -313 C -107 -313 -89 -308 -73 -298 C -57 -288 -47 -270 -43 -246 L 145 821 L 229 821 L 37 -268 Z" unicode="j" />
<glyph horiz-adv-x="844" d="M 330 467 L 676 0 L 567 0 L 264 414 L 139 315 L 84 0 L 0 0 L 264 1495 L 348 1495 L 158 420 L 649 821 L 774 821 L 330 467 Z" unicode="k" />
<glyph horiz-adv-x="350" d="M 84 0 L 0 0 L 264 1495 L 348 1495 L 84 0 Z" unicode="l" />
<glyph horiz-adv-x="1430" d="M 1178 0 L 1094 0 L 1184 512 C 1190 550 1192 585 1190 617 C 1188 649 1180 676 1168 699 C 1155 722 1137 740 1113 753 C 1089 765 1058 772 1020 772 C 982 772 946 763 912 747 C 878 731 847 710 821 684 C 794 658 772 630 754 598 C 736 566 724 535 719 504 L 631 0 L 547 0 L 637 512 C 643 550 646 585 644 617 C 642 649 634 676 622 699 C 609 722 590 740 566 753 C 542 765 511 772 473 772 C 435 772 399 763 365 747 C 331 731 301 710 274 684 C 247 658 225 630 207 598 C 189 566 178 535 172 504 L 84 0 L 0 0 L 145 821 L 229 821 L 205 686 C 237 733 278 771 327 801 C 376 831 431 846 492 846 C 526 846 556 841 582 833 C 607 825 629 813 647 798 C 665 782 679 764 691 742 C 703 720 712 696 719 670 C 738 694 759 717 782 739 C 804 761 829 779 855 795 C 881 811 910 823 940 832 C 970 841 1003 846 1038 846 C 1086 846 1127 837 1161 821 C 1194 805 1220 782 1239 753 C 1258 724 1270 690 1275 651 C 1279 612 1278 570 1270 524 L 1178 0 Z" unicode="m" />
<glyph horiz-adv-x="918" d="M 666 0 L 582 0 L 672 512 C 678 550 679 585 674 617 C 669 649 659 676 643 699 C 627 722 605 740 578 753 C 551 765 519 772 481 772 C 443 772 406 763 372 747 C 337 731 306 710 278 684 C 250 658 227 630 209 598 C 190 566 178 535 172 504 L 84 0 L 0 0 L 145 821 L 229 821 L 205 686 C 221 708 239 729 261 749 C 282 769 305 786 331 800 C 356 814 383 826 412 834 C 440 842 470 846 500 846 C 552 846 596 837 632 821 C 668 804 696 781 718 752 C 739 723 753 689 759 650 C 765 611 765 569 758 524 L 666 0 Z" unicode="n" />
<glyph horiz-adv-x="1004" d="M 879 479 C 879 408 866 342 840 281 C 814 219 778 166 733 121 C 688 75 636 40 576 14 C 516 -12 453 -25 387 -25 C 333 -25 282 -16 236 2 C 189 20 148 45 114 77 C 80 109 53 148 33 193 C 13 238 4 288 4 342 C 4 412 17 478 43 540 C 69 601 104 654 149 700 C 193 745 245 781 305 807 C 365 833 428 846 496 846 C 550 846 600 837 647 819 C 693 801 734 775 768 743 C 802 711 829 672 849 627 C 869 582 879 533 879 479 Z M 788 467 C 788 507 781 546 768 583 C 754 619 735 651 710 679 C 684 706 653 728 615 744 C 577 760 535 768 487 768 C 431 768 379 757 331 735 C 283 713 241 684 206 646 C 171 608 144 564 124 514 C 104 464 94 410 94 354 C 94 312 100 273 114 237 C 127 201 146 169 172 142 C 198 114 229 93 267 77 C 304 61 347 53 395 53 C 451 53 504 64 552 86 C 600 108 641 137 676 175 C 711 212 738 256 758 306 C 778 356 788 410 788 467 Z" unicode="o" />
<glyph horiz-adv-x="995" d="M 872 492 C 872 416 859 346 834 283 C 809 219 775 165 733 119 C 690 73 641 38 585 13 C 529 -12 471 -25 410 -25 C 373 -25 339 -20 309 -12 C 279 -4 251 7 226 22 C 201 37 179 54 159 74 C 139 94 123 115 109 139 L 18 -367 L -66 -367 L 145 821 L 229 821 L 199 651 C 215 676 234 700 258 724 C 282 747 308 768 338 786 C 367 804 399 818 433 829 C 467 840 503 846 541 846 C 591 846 636 836 677 818 C 717 800 752 775 781 743 C 810 711 832 673 848 630 C 864 587 872 541 872 492 Z M 782 479 C 782 527 775 569 763 605 C 751 641 733 671 711 695 C 688 719 661 737 630 749 C 598 761 564 768 526 768 C 480 768 436 758 395 739 C 354 720 317 694 285 662 C 252 629 224 591 202 547 C 180 503 164 457 156 408 L 129 252 C 143 222 159 194 177 170 C 195 145 217 124 241 107 C 265 89 293 76 324 67 C 354 57 388 53 426 53 C 478 53 525 64 569 87 C 613 109 650 140 682 179 C 714 218 738 263 756 315 C 773 366 782 421 782 479 Z" unicode="p" />
<glyph horiz-adv-x="995" d="M 664 -367 L 580 -367 L 676 170 C 660 144 640 120 616 97 C 592 73 565 53 536 35 C 506 17 474 2 440 -8 C 406 -19 370 -25 334 -25 C 284 -25 238 -15 197 2 C 156 20 121 46 92 78 C 63 110 41 147 25 190 C 9 233 2 280 2 330 C 2 406 14 475 39 538 C 64 601 98 655 141 701 C 183 747 233 782 289 808 C 345 833 403 846 465 846 C 501 846 534 841 565 833 C 595 825 623 813 648 798 C 673 783 695 766 715 746 C 735 726 752 704 766 682 L 791 821 L 874 821 L 664 -367 Z M 745 569 C 731 599 714 626 696 651 C 678 675 656 696 632 714 C 608 731 580 744 550 754 C 520 763 486 768 449 768 C 397 768 349 756 305 734 C 261 711 223 680 192 641 C 160 602 136 557 118 506 C 100 454 92 400 92 342 C 92 294 98 253 111 217 C 123 181 141 150 163 126 C 185 102 212 83 244 71 C 275 59 310 53 348 53 C 394 53 437 62 478 81 C 519 100 556 126 589 159 C 621 191 649 229 672 273 C 694 317 710 364 719 414 L 745 569 Z" unicode="q" />
<glyph horiz-adv-x="616" d="M 539 721 C 524 737 508 750 490 759 C 472 767 451 772 426 772 C 398 772 371 763 343 747 C 315 731 290 710 266 684 C 242 658 222 628 206 596 C 189 564 178 532 172 500 L 84 0 L 0 0 L 145 821 L 229 821 L 207 698 C 219 718 234 737 252 755 C 269 773 288 788 309 802 C 329 815 351 826 375 834 C 399 842 423 846 449 846 C 481 846 509 841 533 832 C 557 823 579 807 600 784 L 539 721 Z" unicode="r" />
<glyph horiz-adv-x="733" d="M 565 678 C 535 706 501 728 465 744 C 429 760 389 768 346 768 C 318 768 293 764 270 757 C 247 750 227 740 210 728 C 193 716 180 701 170 683 C 160 665 156 646 156 625 C 156 607 159 590 165 576 C 171 561 182 547 196 535 C 210 523 228 511 250 500 C 272 488 300 477 332 465 C 370 451 403 436 432 421 C 460 406 484 389 503 371 C 522 352 536 331 546 307 C 556 283 561 255 561 223 C 561 183 552 149 534 119 C 516 89 492 63 463 43 C 434 23 401 7 365 -2 C 329 -12 292 -18 256 -18 C 195 -18 141 -8 93 11 C 45 31 3 55 -33 84 L 16 152 C 51 124 89 100 130 82 C 171 64 214 55 258 55 C 287 55 315 58 341 65 C 367 72 389 82 409 96 C 429 109 444 125 456 145 C 467 164 473 186 473 211 C 473 232 470 251 464 268 C 458 284 447 300 431 314 C 415 328 395 341 369 355 C 343 368 310 382 270 397 C 242 407 216 418 192 431 C 168 443 147 458 129 476 C 111 493 96 513 86 536 C 75 558 70 585 70 616 C 70 650 77 682 93 710 C 108 738 129 761 155 780 C 181 799 212 814 247 824 C 281 834 318 840 356 840 C 464 840 554 805 625 737 L 565 678 Z" unicode="s" />
<glyph horiz-adv-x="463" d="M 389 748 L 231 748 L 131 172 C 129 160 129 148 131 136 C 133 124 138 114 145 105 C 152 95 162 88 174 82 C 186 76 202 74 221 74 L 293 74 L 240 0 L 201 0 C 173 0 148 4 127 13 C 105 21 88 33 75 49 C 61 65 52 83 47 104 C 42 125 42 148 47 174 L 147 748 L 18 748 L 33 821 L 162 821 L 219 1145 L 313 1206 L 246 821 L 403 821 L 389 748 Z" unicode="t" />
<glyph horiz-adv-x="918" d="M 651 0 L 567 0 L 592 135 C 576 111 557 90 536 71 C 514 51 491 34 466 20 C 440 6 413 -5 385 -13 C 356 -21 327 -25 297 -25 C 245 -25 201 -16 165 0 C 129 16 100 39 79 68 C 57 97 43 131 37 170 C 30 209 31 251 39 297 L 131 821 L 215 821 L 125 309 C 118 271 117 236 122 204 C 126 172 137 144 153 121 C 169 98 190 80 217 68 C 244 55 277 49 315 49 C 353 49 389 57 424 73 C 459 89 490 110 518 136 C 546 162 569 190 588 222 C 606 254 619 285 625 317 L 713 821 L 797 821 L 651 0 Z" unicode="u" />
<glyph horiz-adv-x="825" d="M 272 -47 L 47 821 L 133 821 L 305 137 L 711 821 L 803 821 L 272 -47 Z" unicode="v" />
<glyph horiz-adv-x="1284" d="M 766 -47 L 618 606 L 244 -47 L 47 821 L 137 821 L 283 160 L 657 831 L 805 166 L 1169 821 L 1262 821 L 766 -47 Z" unicode="w" />
<glyph horiz-adv-x="829" d="M 403 442 L 655 0 L 559 0 L 348 383 L 8 0 L -92 0 L 311 449 L 102 821 L 195 821 L 367 508 L 645 821 L 748 821 L 403 442 Z" unicode="x" />
<glyph horiz-adv-x="811" d="M 195 -219 C 181 -243 166 -266 150 -286 C 134 -306 116 -324 97 -339 C 78 -354 58 -366 36 -374 C 14 -382 -9 -387 -35 -387 C -84 -387 -123 -378 -152 -362 L -137 -281 C -123 -291 -108 -298 -92 -303 C -76 -308 -57 -311 -35 -311 C -16 -311 1 -307 17 -300 C 33 -292 48 -282 62 -270 C 76 -258 89 -243 101 -227 C 113 -210 125 -192 135 -174 L 240 10 L 47 821 L 133 821 L 299 102 L 696 821 L 788 821 L 195 -219 Z" unicode="y" />
<glyph horiz-adv-x="856" d="M 88 76 L 643 76 L 629 0 L -90 0 L 631 745 L 119 745 L 133 821 L 811 821 L 88 76 Z" unicode="z" />
<glyph horiz-adv-x="555" d="M 655 1458 C 610 1436 573 1412 544 1388 C 515 1364 491 1335 472 1302 C 452 1268 436 1228 424 1182 C 412 1136 400 1080 389 1014 C 378 952 367 898 357 850 C 347 802 334 760 318 724 C 302 688 283 659 260 636 C 236 612 206 595 170 584 C 208 571 235 549 249 518 C 263 487 270 448 270 401 C 270 373 267 341 262 305 C 257 268 252 230 246 192 C 240 154 234 116 228 79 C 222 41 219 8 219 -20 C 216 -57 216 -89 220 -117 C 223 -144 230 -168 240 -189 C 250 -209 263 -228 281 -245 C 298 -261 320 -278 346 -295 L 334 -365 C 292 -347 258 -327 231 -305 C 204 -283 183 -258 169 -230 C 154 -202 144 -170 140 -134 C 136 -98 135 -58 139 -12 C 139 22 142 57 147 93 C 152 129 158 164 164 200 C 170 235 176 269 181 303 C 186 336 189 367 190 395 C 190 419 187 441 183 461 C 179 480 171 496 160 509 C 149 522 135 532 117 539 C 99 545 76 549 49 549 L 61 623 C 103 623 138 631 165 648 C 192 664 214 688 231 720 C 248 751 262 789 272 834 C 282 879 293 930 303 987 C 318 1075 334 1149 352 1209 C 370 1269 392 1319 419 1360 C 445 1401 479 1435 519 1462 C 559 1488 609 1512 670 1534 L 655 1458 Z" unicode="{" />
<glyph horiz-adv-x="416" d="M 53 -367 L -35 -367 L 295 1495 L 383 1495 L 53 -367 Z" unicode="|" />
<glyph horiz-adv-x="555" d="M 449 547 C 405 547 370 538 343 521 C 316 504 294 480 277 449 C 260 417 247 379 237 334 C 227 289 217 238 207 182 C 191 94 175 20 157 -40 C 139 -100 117 -150 91 -191 C 64 -232 31 -266 -8 -293 C -48 -319 -98 -343 -158 -365 L -145 -289 C -100 -267 -63 -244 -34 -220 C -5 -196 18 -167 38 -133 C 57 -99 73 -59 86 -13 C 98 33 111 90 123 156 C 133 216 143 270 153 318 C 163 366 176 408 192 444 C 207 480 226 509 250 533 C 273 557 303 574 340 586 C 320 592 304 600 291 611 C 278 622 268 635 260 651 C 252 667 247 685 244 705 C 241 725 240 746 240 770 C 240 802 243 838 249 880 C 255 922 261 964 269 1008 C 276 1051 283 1093 289 1135 C 295 1176 297 1213 297 1245 C 297 1274 294 1299 289 1320 C 284 1341 276 1360 266 1377 C 256 1393 242 1408 225 1422 C 208 1436 188 1450 164 1464 L 176 1534 C 212 1516 243 1498 269 1480 C 294 1461 315 1440 331 1417 C 347 1394 359 1368 367 1339 C 374 1310 378 1277 379 1241 C 379 1201 376 1161 370 1119 C 364 1077 357 1036 350 995 C 343 954 337 914 331 876 C 325 837 322 802 322 770 C 322 722 331 686 351 660 C 371 634 407 621 461 621 L 449 547 Z" unicode="}" />
<glyph horiz-adv-x="942" d="M 823 889 C 816 838 806 795 794 760 C 781 724 766 696 749 674 C 731 652 712 636 690 626 C 668 616 645 612 621 612 C 603 612 585 615 569 621 C 552 627 536 636 521 646 C 506 656 492 667 478 679 C 464 691 450 703 438 715 L 402 750 C 390 762 378 772 366 782 C 354 791 341 798 328 804 C 314 810 301 813 287 813 C 269 813 253 808 241 798 C 228 788 217 774 209 757 C 200 740 193 720 188 696 C 182 672 178 647 176 621 L 90 621 C 95 661 102 697 112 731 C 121 764 134 793 150 817 C 166 841 186 859 210 873 C 234 886 263 893 297 893 C 315 893 332 889 348 883 C 364 876 380 867 396 857 C 411 846 426 834 440 822 C 454 809 467 796 481 784 C 493 772 505 761 517 750 C 529 739 541 729 553 721 C 565 712 577 705 590 700 C 602 694 615 692 629 692 C 641 692 652 695 664 703 C 675 710 685 722 695 738 C 704 754 712 774 719 799 C 726 824 731 854 735 889 L 823 889 Z" unicode="~" />
<glyph horiz-adv-x="399" d="" unicode=" " />
<glyph horiz-adv-x="387" d="M 340 1323 L 248 1323 L 279 1495 L 371 1495 L 340 1323 Z M 262 881 L 106 0 L 14 0 L 170 881 L 252 1231 L 303 1231 L 262 881 Z" unicode="¡" />
<glyph horiz-adv-x="901" d="M 729 641 C 703 680 673 712 639 737 C 605 762 563 778 514 784 L 389 74 C 446 78 497 92 541 118 C 585 143 628 179 670 225 L 727 178 C 681 126 630 83 573 50 C 515 17 449 0 375 -4 L 352 -141 L 279 -141 L 303 0 C 262 6 224 18 188 37 C 152 56 120 81 93 113 C 65 145 44 183 28 227 C 12 271 4 321 4 377 C 4 435 15 493 38 551 C 61 609 93 661 133 707 C 173 753 221 790 276 819 C 331 848 391 864 455 866 L 485 1034 L 559 1034 L 528 862 C 565 858 598 850 626 839 C 654 827 679 814 701 798 C 722 782 741 765 757 746 C 773 727 789 708 803 690 L 729 641 Z M 442 786 C 389 782 341 767 298 742 C 255 716 218 685 188 647 C 157 609 133 566 117 520 C 100 474 92 427 92 381 C 92 342 97 305 108 271 C 118 237 133 206 153 180 C 173 153 196 131 224 113 C 252 95 283 83 317 78 L 442 786 Z" unicode="¢" />
<glyph horiz-adv-x="1110" d="M 975 1147 C 976 1151 977 1155 978 1161 C 978 1167 979 1174 979 1184 C 979 1220 973 1253 962 1285 C 950 1316 933 1343 910 1366 C 887 1389 858 1407 824 1420 C 790 1433 750 1440 705 1440 C 647 1440 596 1431 552 1413 C 507 1395 469 1370 438 1338 C 406 1305 382 1266 366 1220 C 350 1174 342 1123 342 1067 C 342 1037 345 1009 351 983 C 357 956 366 930 377 904 C 387 878 399 852 413 826 C 427 800 441 774 457 748 L 854 748 L 844 692 L 487 692 C 502 663 515 635 527 607 C 538 579 547 552 553 526 L 815 526 L 805 469 L 561 469 C 562 465 563 460 563 455 L 563 440 C 563 392 556 346 544 303 C 531 259 514 219 494 182 C 513 164 531 148 548 133 C 564 118 581 105 598 94 C 614 83 631 74 648 68 C 664 62 682 59 702 59 C 732 59 757 65 779 78 C 801 91 819 109 833 131 C 847 153 859 179 867 209 C 875 239 881 270 885 303 L 969 303 C 963 257 954 215 942 175 C 930 135 913 100 891 70 C 869 40 843 17 811 0 C 779 -16 740 -25 696 -25 C 669 -25 644 -21 622 -13 C 600 -5 579 5 559 18 C 539 31 519 46 501 64 C 482 81 463 99 444 119 C 409 75 369 40 325 14 C 280 -12 232 -25 182 -25 C 157 -25 134 -21 112 -14 C 90 -7 70 2 53 16 C 36 30 23 47 13 67 C 3 87 -2 110 -2 137 C -2 164 3 189 15 211 C 26 233 41 251 61 267 C 80 282 103 294 129 302 C 155 310 183 315 213 315 C 249 315 286 307 324 293 C 362 278 397 257 430 229 C 444 258 456 289 464 321 C 472 353 477 386 477 420 C 477 428 476 436 476 445 C 475 453 474 461 473 469 L 141 469 L 152 526 L 457 526 C 449 553 439 580 427 608 C 414 635 399 663 383 692 L 182 692 L 190 748 L 352 748 C 321 802 296 853 277 903 C 257 952 248 1005 248 1063 C 248 1129 258 1190 280 1246 C 301 1302 332 1350 372 1391 C 412 1431 460 1463 518 1486 C 576 1508 641 1520 713 1520 C 769 1520 819 1512 863 1497 C 907 1481 944 1460 975 1432 C 1006 1404 1030 1372 1046 1334 C 1062 1296 1071 1254 1071 1208 C 1071 1196 1070 1184 1069 1173 C 1067 1161 1066 1153 1065 1147 L 975 1147 Z M 391 166 C 361 191 329 211 297 225 C 264 239 233 246 203 246 C 165 246 134 236 110 218 C 86 199 74 174 74 143 C 74 129 76 115 81 103 C 86 91 93 80 103 70 C 113 60 125 53 140 47 C 155 41 173 39 193 39 C 211 39 229 42 247 48 C 265 54 282 63 300 75 C 317 87 333 100 349 116 C 365 131 379 148 391 166 Z" unicode="£" />
<glyph horiz-adv-x="1161" d="M 1104 1208 C 1092 1238 1079 1267 1063 1295 C 1047 1323 1027 1347 1005 1368 C 982 1388 955 1405 925 1417 C 895 1429 859 1436 819 1436 C 757 1436 700 1421 647 1392 C 593 1363 545 1323 501 1273 C 457 1223 419 1164 387 1097 C 354 1029 327 957 307 881 L 838 881 L 829 823 L 295 823 C 287 794 281 765 277 735 C 273 705 270 676 268 647 L 799 647 L 791 588 L 264 588 L 264 535 C 263 470 268 409 280 351 C 292 293 310 243 335 200 C 360 157 392 123 432 98 C 471 73 519 61 575 61 C 615 61 652 66 687 78 C 722 89 755 105 786 125 C 817 145 846 170 874 199 C 901 227 927 259 952 293 L 1026 248 C 964 160 897 93 823 46 C 749 -1 664 -25 567 -25 C 501 -25 444 -11 394 16 C 344 43 302 81 269 130 C 235 179 210 237 193 305 C 176 373 168 447 168 528 L 168 588 L 16 588 L 25 647 L 172 647 C 176 707 184 765 197 823 L 55 823 L 63 881 L 211 881 C 234 973 265 1058 305 1136 C 344 1214 390 1281 442 1338 C 494 1395 551 1440 615 1472 C 679 1504 747 1520 819 1520 C 870 1520 915 1513 955 1500 C 995 1486 1029 1467 1059 1443 C 1089 1419 1114 1390 1134 1357 C 1154 1323 1171 1287 1184 1247 L 1104 1208 Z" unicode="¤" />
<glyph horiz-adv-x="1247" d="M 430 0 L 475 250 L 98 250 L 109 305 L 483 305 L 514 483 L 139 483 L 150 539 L 524 539 L 557 721 L 160 1495 L 258 1495 L 602 829 L 612 805 L 635 829 L 1212 1495 L 1313 1495 L 645 725 L 612 539 L 973 539 L 963 483 L 602 483 L 571 305 L 932 305 L 922 250 L 561 250 L 518 0 L 430 0 Z" unicode="¥" />
<glyph horiz-adv-x="416" d="M 305 1495 L 393 1495 L 256 719 L 168 719 L 305 1495 Z M 63 -367 L -25 -367 L 113 410 L 201 410 L 63 -367 Z" unicode="¦" />
<glyph horiz-adv-x="1282" d="M 1147 1300 C 1128 1318 1106 1335 1081 1352 C 1056 1368 1028 1383 997 1396 C 965 1409 930 1420 892 1428 C 854 1436 812 1440 768 1440 C 715 1440 666 1433 622 1421 C 578 1409 540 1392 508 1370 C 476 1348 451 1321 433 1291 C 415 1261 406 1228 406 1192 C 406 1166 411 1144 421 1124 C 431 1104 445 1085 464 1069 C 482 1052 505 1037 531 1023 C 557 1009 587 995 621 983 C 634 977 654 969 682 959 C 710 949 739 938 770 927 C 801 915 831 904 860 894 C 889 883 912 874 928 868 C 966 852 1000 834 1031 815 C 1061 795 1087 773 1109 749 C 1131 725 1148 697 1160 667 C 1172 636 1178 601 1178 563 C 1178 514 1169 468 1151 426 C 1133 383 1109 344 1079 308 C 1049 272 1014 239 974 209 C 934 179 893 153 850 131 C 874 109 894 85 908 57 C 922 29 930 -1 930 -37 C 930 -92 917 -141 892 -184 C 867 -227 833 -263 791 -293 C 748 -322 698 -344 640 -360 C 582 -375 521 -383 457 -383 C 406 -383 359 -378 317 -370 C 274 -361 235 -349 201 -335 C 166 -320 135 -303 108 -285 C 80 -266 57 -247 37 -227 L 94 -164 C 112 -182 134 -199 159 -216 C 183 -232 211 -247 243 -260 C 275 -273 310 -283 348 -291 C 386 -299 427 -303 473 -303 C 525 -303 573 -296 617 -284 C 661 -272 700 -255 732 -233 C 764 -211 790 -184 808 -154 C 826 -124 836 -91 836 -55 C 836 -31 831 -9 822 10 C 813 29 800 47 784 63 C 767 79 746 93 722 107 C 698 121 671 134 641 147 C 601 162 555 179 503 198 C 451 216 394 237 332 260 C 285 276 245 297 211 321 C 177 345 149 371 127 400 C 105 429 88 460 78 493 C 68 525 63 559 63 594 C 63 632 69 669 83 707 C 96 744 116 780 144 816 C 171 851 205 885 247 917 C 288 949 337 978 393 1006 C 368 1027 348 1051 333 1079 C 318 1107 311 1138 311 1174 C 311 1229 323 1278 348 1321 C 373 1364 407 1400 450 1430 C 492 1459 542 1481 600 1497 C 657 1512 718 1520 784 1520 C 834 1520 881 1515 924 1507 C 966 1498 1005 1486 1040 1472 C 1074 1457 1105 1440 1133 1422 C 1160 1403 1184 1384 1204 1364 L 1147 1300 Z M 1085 545 C 1085 576 1079 604 1069 629 C 1059 654 1044 677 1026 697 C 1007 717 984 735 958 751 C 931 767 902 781 870 795 C 854 801 834 809 811 817 C 787 825 763 834 737 844 C 711 853 685 862 659 871 C 633 880 610 889 590 897 C 564 906 540 916 517 926 C 493 936 474 946 459 956 C 355 910 279 857 230 798 C 180 739 156 674 156 604 C 156 539 173 486 207 444 C 241 402 294 368 365 344 C 389 335 420 324 458 311 C 495 298 534 284 574 270 C 614 255 652 240 690 224 C 727 208 758 194 782 180 C 822 200 861 222 898 247 C 935 272 967 300 995 331 C 1022 361 1044 394 1060 430 C 1076 465 1085 503 1085 545 Z" unicode="§" />
<glyph horiz-adv-x="891" d="M 696 995 L 610 995 L 645 1182 L 729 1182 L 696 995 Z M 354 995 L 268 995 L 303 1182 L 387 1182 L 354 995 Z" unicode="¨" />
<glyph horiz-adv-x="1729" d="M 1636 748 C 1636 677 1626 609 1608 543 C 1590 477 1564 415 1530 358 C 1496 300 1456 248 1409 201 C 1362 154 1310 114 1253 80 C 1196 46 1135 20 1069 2 C 1003 -15 934 -25 864 -25 C 793 -25 725 -15 659 2 C 593 20 531 46 474 80 C 417 114 365 154 318 201 C 271 248 231 300 197 358 C 163 415 137 476 119 542 C 101 608 92 676 92 748 C 92 818 101 887 119 953 C 137 1019 163 1080 197 1137 C 231 1194 271 1246 318 1293 C 365 1340 417 1380 474 1414 C 531 1448 592 1474 658 1492 C 724 1510 792 1520 864 1520 C 934 1520 1003 1510 1069 1492 C 1135 1474 1196 1448 1253 1414 C 1310 1380 1362 1340 1409 1293 C 1456 1246 1496 1194 1530 1137 C 1564 1080 1590 1019 1608 953 C 1626 887 1636 818 1636 748 Z M 1567 745 C 1567 809 1558 872 1542 932 C 1525 992 1501 1048 1471 1100 C 1441 1152 1404 1200 1362 1244 C 1319 1287 1272 1324 1220 1355 C 1168 1385 1112 1409 1052 1426 C 992 1443 929 1452 864 1452 C 798 1452 736 1443 676 1426 C 616 1409 560 1385 508 1355 C 456 1324 408 1287 366 1244 C 324 1200 287 1152 257 1100 C 227 1048 203 992 187 932 C 170 872 162 809 162 745 C 162 680 170 618 187 558 C 203 498 227 443 257 391 C 287 339 324 291 366 249 C 408 206 456 169 508 139 C 560 108 616 84 676 68 C 736 51 798 43 864 43 C 929 43 992 51 1052 68 C 1112 84 1168 108 1220 139 C 1272 169 1319 206 1362 249 C 1404 291 1441 339 1471 391 C 1501 443 1525 498 1542 558 C 1558 618 1567 680 1567 745 Z M 1200 444 C 1184 426 1166 407 1144 389 C 1122 371 1096 354 1068 339 C 1040 324 1008 312 974 303 C 940 293 903 289 864 289 C 802 289 745 300 692 324 C 638 347 592 379 553 421 C 514 462 483 511 461 568 C 439 624 428 686 428 752 C 428 814 438 873 459 929 C 480 985 510 1034 548 1076 C 586 1118 631 1152 683 1177 C 735 1201 793 1214 856 1214 C 889 1214 921 1210 953 1204 C 985 1198 1015 1189 1043 1177 C 1071 1165 1096 1150 1120 1133 C 1144 1115 1164 1096 1182 1075 L 1124 1022 C 1092 1058 1054 1085 1012 1105 C 970 1125 922 1135 868 1135 C 814 1135 766 1125 723 1105 C 679 1085 642 1057 611 1023 C 580 989 556 949 539 903 C 522 857 514 808 514 756 C 514 702 522 651 540 604 C 557 557 581 516 612 481 C 643 446 680 419 723 399 C 765 379 812 369 862 369 C 894 369 923 371 949 377 C 975 383 1000 391 1023 402 C 1045 413 1066 426 1086 442 C 1105 458 1124 476 1143 496 L 1200 444 Z" unicode="©" />
<glyph horiz-adv-x="834" d="M 694 819 L 621 819 L 635 899 C 617 886 598 874 578 862 C 558 850 536 839 513 830 C 490 820 466 813 440 807 C 414 801 388 799 360 799 C 330 799 303 803 277 811 C 251 819 229 832 210 848 C 191 864 176 884 166 908 C 155 932 150 959 150 989 C 150 1027 158 1063 175 1095 C 192 1127 218 1154 252 1177 C 286 1200 328 1218 378 1230 C 428 1242 487 1249 555 1249 L 696 1249 C 696 1258 697 1266 699 1274 C 699 1280 700 1286 701 1292 C 701 1298 702 1301 702 1303 C 710 1354 700 1392 671 1418 C 641 1443 596 1456 535 1456 C 493 1456 453 1451 417 1441 C 380 1431 348 1418 322 1403 L 301 1460 C 315 1468 331 1476 349 1484 C 367 1491 387 1497 409 1503 C 430 1508 452 1512 476 1515 C 499 1518 523 1520 547 1520 C 593 1520 631 1514 663 1502 C 694 1490 719 1475 737 1455 C 755 1435 767 1411 773 1385 C 779 1358 779 1330 774 1300 L 694 819 Z M 682 621 L 125 621 L 135 688 L 692 688 L 682 621 Z M 549 1186 C 498 1186 453 1182 413 1174 C 373 1166 339 1155 311 1139 C 283 1123 261 1104 247 1080 C 232 1056 225 1029 225 997 C 225 979 227 961 233 945 C 239 929 248 915 260 903 C 272 891 287 881 305 874 C 323 867 345 864 371 864 C 397 864 423 867 449 874 C 475 880 499 889 523 899 C 547 909 569 921 590 934 C 610 946 629 959 647 971 L 684 1186 L 549 1186 Z" unicode="ª" />
<glyph horiz-adv-x="635" d="M 569 604 L 326 416 L 500 238 L 485 141 L 240 381 L 254 459 L 590 698 L 569 604 Z M 315 604 L 70 416 L 244 238 L 229 141 L -14 381 L -2 459 L 334 698 L 315 604 Z" unicode="«" />
<glyph horiz-adv-x="1536" d="M 1116 352 L 1116 727 L 213 727 L 213 920 L 1296 920 L 1296 352 L 1116 352 Z" unicode="¬" />
<glyph horiz-adv-x="676" d="M 494 422 L 63 422 L 78 504 L 508 504 L 494 422 Z" unicode="­" />
<glyph horiz-adv-x="1729" d="M 1636 748 C 1636 677 1626 609 1608 543 C 1590 477 1564 415 1530 358 C 1496 300 1456 248 1409 201 C 1362 154 1310 114 1253 80 C 1196 46 1135 20 1069 2 C 1003 -15 934 -25 864 -25 C 793 -25 725 -15 659 2 C 593 20 531 46 474 80 C 417 114 365 154 318 201 C 271 248 231 300 197 358 C 163 415 137 476 119 542 C 101 608 92 676 92 748 C 92 818 101 887 119 953 C 137 1019 163 1080 197 1137 C 231 1194 271 1246 318 1293 C 365 1340 417 1380 474 1414 C 531 1448 592 1474 658 1492 C 724 1510 792 1520 864 1520 C 934 1520 1003 1510 1069 1492 C 1135 1474 1196 1448 1253 1414 C 1310 1380 1362 1340 1409 1293 C 1456 1246 1496 1194 1530 1137 C 1564 1080 1590 1019 1608 953 C 1626 887 1636 818 1636 748 Z M 1567 745 C 1567 809 1558 872 1542 932 C 1525 992 1501 1048 1471 1100 C 1441 1152 1404 1200 1362 1244 C 1319 1287 1272 1324 1220 1355 C 1168 1385 1112 1409 1052 1426 C 992 1443 929 1452 864 1452 C 798 1452 736 1443 676 1426 C 616 1409 560 1385 508 1355 C 456 1324 408 1287 366 1244 C 324 1200 287 1152 257 1100 C 227 1048 203 992 187 932 C 170 872 162 809 162 745 C 162 680 170 618 187 558 C 203 498 227 443 257 391 C 287 339 324 291 366 249 C 408 206 456 169 508 139 C 560 108 616 84 676 68 C 736 51 798 43 864 43 C 929 43 992 51 1052 68 C 1112 84 1168 108 1220 139 C 1272 169 1319 206 1362 249 C 1404 291 1441 339 1471 391 C 1501 443 1525 498 1542 558 C 1558 618 1567 680 1567 745 Z M 1073 317 L 705 737 L 705 317 L 625 317 L 625 1214 L 868 1214 C 906 1214 943 1208 977 1197 C 1011 1185 1042 1169 1068 1148 C 1094 1127 1114 1101 1130 1071 C 1145 1040 1153 1005 1153 967 C 1153 923 1144 886 1128 854 C 1112 822 1090 795 1062 774 C 1034 753 1002 738 966 728 C 930 718 892 713 852 713 L 823 713 L 1178 317 L 1073 317 Z M 1069 967 C 1069 993 1064 1017 1054 1039 C 1044 1060 1030 1078 1012 1093 C 994 1108 973 1119 949 1127 C 924 1135 897 1139 868 1139 L 705 1139 L 705 784 L 856 784 C 888 784 917 788 943 796 C 969 804 991 815 1010 831 C 1028 847 1043 866 1053 889 C 1063 911 1069 937 1069 967 Z" unicode="®" />
<glyph horiz-adv-x="895" d="M 758 1018 L 201 1018 L 207 1087 L 764 1087 L 758 1018 Z" unicode="¯" />
<glyph horiz-adv-x="766" d="M 754 1198 C 754 1153 745 1111 728 1072 C 711 1033 688 999 659 970 C 630 941 596 918 557 902 C 518 885 476 877 432 877 C 387 877 345 885 306 902 C 267 918 233 941 204 970 C 175 999 152 1033 136 1072 C 119 1111 111 1153 111 1198 C 111 1242 119 1284 136 1323 C 152 1362 175 1396 204 1425 C 233 1454 267 1477 306 1494 C 345 1511 387 1520 432 1520 C 476 1520 518 1511 557 1494 C 596 1477 630 1454 659 1425 C 688 1396 711 1362 728 1323 C 745 1284 754 1242 754 1198 Z M 674 1198 C 674 1232 667 1263 655 1293 C 642 1322 625 1347 603 1369 C 581 1391 556 1408 527 1421 C 497 1433 466 1440 432 1440 C 398 1440 366 1433 337 1421 C 307 1408 282 1391 260 1369 C 238 1347 221 1322 209 1293 C 196 1263 190 1232 190 1198 C 190 1164 196 1132 209 1103 C 221 1073 238 1048 260 1026 C 282 1004 307 987 337 975 C 366 962 398 956 432 956 C 466 956 497 962 527 975 C 556 987 581 1004 603 1026 C 625 1048 642 1073 655 1103 C 667 1132 674 1164 674 1198 Z" unicode="°" />
<glyph horiz-adv-x="1536" d="M 672 352 L 672 764 L 201 764 L 201 936 L 672 936 L 672 1352 L 864 1352 L 864 936 L 1339 936 L 1339 764 L 864 764 L 864 352 L 672 352 Z M 205 25 L 205 215 L 1335 215 L 1335 25 L 205 25 Z" unicode="±" />
<glyph horiz-adv-x="862" d="M 698 803 L 684 721 L 162 721 L 588 1128 C 622 1162 647 1193 665 1221 C 683 1249 692 1281 692 1315 C 692 1351 680 1380 658 1403 C 635 1426 603 1438 561 1438 C 517 1438 480 1426 451 1402 C 421 1378 397 1340 379 1286 L 293 1286 C 316 1361 350 1418 396 1458 C 442 1498 499 1518 567 1518 C 597 1518 626 1513 652 1503 C 678 1493 700 1480 719 1462 C 737 1444 752 1423 762 1399 C 772 1374 778 1347 778 1317 C 778 1295 775 1275 770 1255 C 765 1235 757 1216 747 1197 C 736 1178 722 1159 705 1139 C 688 1119 667 1097 643 1075 L 362 803 L 698 803 Z" unicode="²" />
<glyph horiz-adv-x="825" d="M 586 1135 C 609 1130 629 1122 646 1111 C 663 1100 677 1087 688 1073 C 698 1058 706 1042 711 1024 C 716 1006 719 987 719 969 C 719 931 712 897 698 865 C 684 833 664 805 639 781 C 613 757 583 739 549 725 C 514 711 476 705 436 705 C 372 705 316 718 269 746 C 222 773 184 812 156 864 L 223 918 C 239 894 254 873 270 856 C 286 839 302 825 319 815 C 336 805 354 797 374 793 C 393 788 414 786 438 786 C 467 786 493 790 517 799 C 541 808 561 821 577 837 C 593 853 606 871 615 893 C 624 915 629 939 629 965 C 629 1005 613 1037 583 1062 C 552 1087 510 1100 457 1100 L 381 1100 L 393 1176 L 467 1176 C 529 1176 577 1190 612 1218 C 646 1246 664 1281 664 1325 C 664 1359 651 1385 627 1404 C 603 1422 571 1432 532 1432 C 496 1432 463 1424 435 1409 C 406 1393 377 1371 348 1341 L 287 1397 C 329 1441 369 1471 409 1489 C 449 1507 492 1516 539 1516 C 570 1516 599 1511 625 1503 C 651 1494 674 1482 693 1466 C 712 1450 727 1430 738 1408 C 748 1386 754 1361 754 1335 C 754 1311 750 1289 744 1267 C 737 1245 727 1226 713 1208 C 699 1190 682 1175 661 1163 C 639 1150 614 1141 586 1135 Z" unicode="³" />
<glyph horiz-adv-x="891" d="M 467 995 L 377 995 L 580 1270 L 676 1270 L 467 995 Z" unicode="´" />
<glyph horiz-adv-x="1407" d="M 252 -424 C 215 -424 187 -413 168 -392 C 148 -370 139 -333 139 -281 C 139 -168 144 -41 156 100 C 166 234 172 310 172 328 L 176 356 L 176 1176 L 369 1176 L 369 319 C 369 257 396 210 450 176 C 504 142 564 125 629 125 C 716 125 792 146 858 190 C 923 234 973 297 1008 381 L 1008 1176 L 1200 1176 L 1200 307 L 1221 0 L 1057 0 L 1020 176 C 974 104 913 49 836 13 C 759 -22 671 -41 571 -41 C 537 -41 494 -32 444 -14 C 394 3 354 27 324 59 C 324 0 333 -57 352 -113 C 371 -169 381 -219 381 -264 C 381 -370 338 -424 252 -424 Z" unicode="µ" />
<glyph horiz-adv-x="1264" d="M 918 -367 L 829 -367 L 1145 1417 L 973 1417 L 657 -367 L 569 -367 L 725 506 L 629 506 C 547 506 474 516 408 536 C 342 556 286 585 240 623 C 194 661 158 706 133 760 C 108 813 96 872 96 938 C 96 1018 111 1092 143 1160 C 174 1228 217 1286 273 1336 C 329 1386 394 1425 470 1453 C 546 1481 628 1495 717 1495 L 1247 1495 L 918 -367 Z M 702 1417 C 629 1417 561 1405 499 1382 C 436 1359 382 1327 336 1287 C 290 1246 253 1197 227 1141 C 201 1085 188 1024 188 958 C 188 836 227 743 307 679 C 386 615 503 584 659 584 L 737 584 L 885 1417 L 702 1417 Z" unicode="¶" />
<glyph horiz-adv-x="338" d="M 197 649 L 104 649 L 135 821 L 227 821 L 197 649 Z" unicode="·" />
<glyph horiz-adv-x="895" d="M 571 -203 C 571 -229 565 -253 555 -273 C 544 -293 529 -311 511 -325 C 492 -339 470 -349 445 -356 C 419 -363 392 -367 362 -367 C 325 -367 292 -361 262 -349 C 232 -337 204 -320 180 -299 L 219 -260 C 237 -277 259 -290 285 -298 C 310 -306 337 -311 367 -311 C 383 -311 399 -309 415 -305 C 431 -301 445 -294 457 -286 C 469 -278 479 -267 487 -255 C 494 -243 498 -228 498 -211 C 498 -170 464 -150 397 -150 C 383 -150 368 -150 353 -152 C 338 -153 322 -156 305 -160 L 289 -133 L 406 8 L 479 8 L 383 -104 C 389 -102 396 -101 404 -101 C 412 -100 422 -100 432 -100 C 450 -100 467 -102 484 -106 C 500 -110 515 -117 528 -125 C 541 -133 551 -144 559 -157 C 567 -170 571 -185 571 -203 Z" unicode="¸" />
<glyph horiz-adv-x="627" d="M 279 700 L 393 1348 C 385 1340 375 1332 363 1325 C 351 1317 339 1311 326 1305 C 313 1299 300 1294 286 1290 C 272 1286 260 1284 248 1284 L 264 1362 C 302 1370 335 1386 363 1410 C 391 1434 413 1462 430 1495 L 508 1495 L 369 700 L 279 700 Z" unicode="¹" />
<glyph horiz-adv-x="905" d="M 877 1212 C 877 1154 866 1099 844 1049 C 822 998 793 954 756 917 C 719 879 676 850 627 829 C 578 807 526 797 471 797 C 419 797 373 805 335 823 C 296 840 264 863 238 892 C 212 920 192 953 179 991 C 166 1028 160 1067 160 1108 C 160 1162 170 1213 190 1263 C 210 1313 237 1357 273 1395 C 309 1433 351 1464 401 1487 C 451 1510 505 1522 565 1522 C 616 1522 661 1513 700 1496 C 739 1478 772 1455 798 1426 C 824 1397 843 1364 857 1327 C 870 1289 877 1251 877 1212 Z M 758 621 L 123 621 L 135 688 L 768 688 L 758 621 Z M 801 1206 C 801 1238 795 1269 785 1299 C 775 1329 759 1355 739 1378 C 719 1401 693 1419 663 1433 C 633 1447 597 1454 557 1454 C 510 1454 467 1444 428 1426 C 388 1408 354 1383 325 1352 C 296 1321 273 1285 257 1244 C 241 1203 233 1160 233 1114 C 233 1082 238 1050 248 1020 C 258 990 274 963 295 940 C 315 917 341 899 371 885 C 401 871 437 864 477 864 C 523 864 566 873 606 891 C 646 909 680 934 709 966 C 737 997 760 1033 776 1075 C 792 1116 801 1160 801 1206 Z" unicode="º" />
<glyph horiz-adv-x="635" d="M 541 383 L 205 141 L 225 238 L 471 428 L 297 604 L 309 700 L 555 461 L 541 383 Z M 285 383 L -51 141 L -31 238 L 215 428 L 41 604 L 53 700 L 299 461 L 285 383 Z" unicode="»" />
<glyph horiz-adv-x="1520" d="M 184 700 L 299 1348 C 291 1340 281 1332 269 1325 C 257 1317 245 1311 232 1305 C 219 1299 206 1294 192 1290 C 178 1286 166 1284 154 1284 L 170 1362 C 208 1370 241 1386 269 1410 C 297 1434 319 1462 336 1495 L 414 1495 L 274 700 L 184 700 Z M 86 0 L -14 0 L 1272 1495 L 1372 1495 L 86 0 Z M 1108 0 L 1022 0 L 1057 201 L 715 201 L 725 260 L 1190 788 L 1247 788 L 1157 283 L 1278 283 L 1264 201 L 1143 201 L 1108 0 Z M 844 283 L 1071 283 L 1128 604 L 844 283 Z" unicode="¼" />
<glyph horiz-adv-x="1520" d="M 184 700 L 299 1348 C 291 1340 281 1332 269 1325 C 257 1317 245 1311 232 1305 C 219 1299 206 1294 192 1290 C 178 1286 166 1284 154 1284 L 170 1362 C 208 1370 241 1386 269 1410 C 297 1434 319 1462 336 1495 L 414 1495 L 274 700 L 184 700 Z M 86 0 L -14 0 L 1272 1495 L 1372 1495 L 86 0 Z M 1307 82 L 1292 0 L 770 0 L 1196 408 C 1230 441 1255 472 1273 500 C 1291 528 1300 560 1300 594 C 1300 630 1288 659 1266 682 C 1243 705 1211 717 1169 717 C 1125 717 1088 705 1059 681 C 1029 657 1005 619 987 565 L 901 565 C 924 640 958 697 1004 737 C 1050 777 1107 797 1176 797 C 1206 797 1234 792 1260 782 C 1286 772 1308 759 1327 741 C 1345 723 1360 702 1370 678 C 1380 653 1386 626 1386 596 C 1386 574 1383 554 1379 534 C 1374 514 1366 495 1356 476 C 1345 457 1331 438 1314 418 C 1296 398 1275 376 1251 354 L 971 82 L 1307 82 Z" unicode="½" />
<glyph horiz-adv-x="1520" d="M 518 1135 C 541 1130 561 1122 578 1111 C 595 1100 609 1087 620 1073 C 630 1058 638 1042 643 1024 C 648 1006 651 987 651 969 C 651 931 644 897 630 865 C 616 833 596 805 571 781 C 546 757 516 739 482 725 C 447 711 409 705 369 705 C 305 705 249 718 202 746 C 154 773 116 812 88 864 L 156 918 C 172 894 187 873 203 856 C 218 839 234 825 251 815 C 268 805 286 797 306 793 C 325 788 347 786 371 786 C 399 786 425 790 449 799 C 473 808 493 821 509 837 C 525 853 538 871 547 893 C 556 915 561 939 561 965 C 561 1005 545 1037 515 1062 C 485 1087 443 1100 389 1100 L 313 1100 L 326 1176 L 399 1176 C 461 1176 509 1190 544 1218 C 578 1246 596 1281 596 1325 C 596 1359 584 1385 560 1404 C 536 1422 504 1432 465 1432 C 429 1432 396 1424 367 1409 C 338 1393 309 1371 281 1341 L 219 1397 C 261 1441 302 1471 342 1489 C 382 1507 425 1516 471 1516 C 502 1516 531 1511 557 1503 C 583 1494 606 1482 625 1466 C 644 1450 659 1430 670 1408 C 680 1386 686 1361 686 1335 C 686 1311 682 1289 676 1267 C 669 1245 659 1226 645 1208 C 631 1190 614 1175 593 1163 C 572 1150 547 1141 518 1135 Z M 233 0 L 133 0 L 1419 1495 L 1520 1495 L 233 0 Z M 1255 0 L 1169 0 L 1204 201 L 862 201 L 872 260 L 1337 788 L 1395 788 L 1305 283 L 1425 283 L 1411 201 L 1290 201 L 1255 0 Z M 991 283 L 1219 283 L 1276 604 L 991 283 Z" unicode="¾" />
<glyph horiz-adv-x="895" d="M 637 1323 L 545 1323 L 575 1495 L 668 1495 L 637 1323 Z M 729 166 C 704 132 677 102 649 78 C 620 54 590 34 559 19 C 527 3 495 -7 462 -14 C 428 -21 395 -25 362 -25 C 310 -25 262 -16 220 0 C 178 15 142 38 112 66 C 82 94 58 127 42 165 C 26 203 18 243 18 287 C 18 326 23 363 34 398 C 44 433 61 469 83 505 C 105 541 132 578 165 617 C 198 655 237 698 281 745 C 315 781 344 815 370 847 C 396 879 418 911 437 943 C 456 975 472 1007 485 1040 C 497 1072 507 1107 514 1145 L 528 1227 L 621 1227 L 606 1145 C 598 1103 588 1064 576 1028 C 563 992 546 956 525 921 C 504 885 479 849 449 812 C 419 775 383 734 342 690 C 298 644 262 603 234 568 C 206 533 183 501 166 471 C 148 441 136 412 129 384 C 122 356 119 327 119 297 C 119 263 125 232 137 204 C 149 175 166 150 188 129 C 210 107 236 91 267 79 C 298 67 333 61 371 61 C 430 61 484 73 534 99 C 583 125 628 165 670 221 L 729 166 Z" unicode="¿" />
<glyph horiz-adv-x="1282" d="M 989 0 L 887 573 L 334 573 L 27 0 L -72 0 L 752 1520 L 803 1520 L 1087 0 L 989 0 Z M 750 1350 L 377 655 L 872 655 L 750 1350 Z M 725 1622 L 545 1897 L 635 1897 L 809 1622 L 725 1622 Z" unicode="À" />
<glyph horiz-adv-x="1282" d="M 989 0 L 887 573 L 334 573 L 27 0 L -72 0 L 752 1520 L 803 1520 L 1087 0 L 989 0 Z M 750 1350 L 377 655 L 872 655 L 750 1350 Z M 848 1622 L 758 1622 L 961 1897 L 1057 1897 L 848 1622 Z" unicode="Á" />
<glyph horiz-adv-x="1282" d="M 989 0 L 887 573 L 334 573 L 27 0 L -72 0 L 752 1520 L 803 1520 L 1087 0 L 989 0 Z M 750 1350 L 377 655 L 872 655 L 750 1350 Z M 946 1613 L 821 1814 L 624 1613 L 532 1613 L 788 1882 L 868 1882 L 1032 1613 L 946 1613 Z" unicode="Â" />
<glyph horiz-adv-x="1282" d="M 989 0 L 887 573 L 334 573 L 27 0 L -72 0 L 752 1520 L 803 1520 L 1087 0 L 989 0 Z M 750 1350 L 377 655 L 872 655 L 750 1350 Z M 1106 1821 C 1094 1753 1074 1701 1044 1666 C 1014 1631 977 1614 932 1614 C 918 1614 904 1616 892 1621 C 879 1626 867 1633 856 1641 C 844 1649 833 1657 823 1667 C 813 1677 803 1686 793 1696 C 776 1711 759 1724 743 1736 C 727 1747 708 1753 687 1753 C 663 1753 643 1740 628 1715 C 613 1690 602 1659 596 1622 L 521 1622 C 525 1651 533 1678 543 1703 C 553 1728 565 1750 580 1768 C 594 1786 611 1801 631 1811 C 650 1821 671 1827 695 1827 C 722 1827 747 1819 770 1804 C 793 1789 814 1773 834 1757 C 851 1739 868 1723 886 1709 C 904 1695 922 1688 940 1688 C 963 1688 982 1699 997 1722 C 1012 1744 1023 1777 1031 1821 L 1106 1821 Z" unicode="Ã" />
<glyph horiz-adv-x="1282" d="M 1077 1309 L 991 1309 L 1026 1495 L 1110 1495 L 1077 1309 Z M 485 1309 L 399 1309 L 434 1495 L 518 1495 L 485 1309 Z M 989 0 L 887 573 L 334 573 L 27 0 L -72 0 L 752 1520 L 803 1520 L 1087 0 L 989 0 Z M 750 1350 L 377 655 L 872 655 L 750 1350 Z" unicode="Ä" />
<glyph horiz-adv-x="1282" d="M 1087 0 L 989 0 L 887 573 L 334 573 L 27 0 L -72 0 L 725 1468 C 705 1474 687 1482 671 1494 C 655 1505 641 1518 629 1534 C 617 1550 607 1567 600 1587 C 593 1606 590 1627 590 1649 C 590 1677 595 1705 607 1731 C 618 1757 633 1779 653 1799 C 673 1818 695 1833 721 1845 C 747 1856 774 1862 803 1862 C 828 1862 852 1857 875 1847 C 898 1837 918 1824 935 1807 C 952 1790 966 1770 976 1747 C 986 1724 991 1699 991 1673 C 991 1646 986 1621 977 1598 C 967 1574 955 1553 939 1535 C 923 1516 904 1500 882 1488 C 860 1476 837 1468 813 1464 L 1087 0 Z M 926 1671 C 926 1688 922 1704 916 1720 C 910 1735 901 1748 890 1760 C 879 1772 866 1781 851 1788 C 836 1794 820 1798 803 1798 C 783 1798 765 1794 747 1787 C 729 1779 714 1769 700 1756 C 686 1743 675 1728 667 1710 C 659 1692 655 1673 655 1653 C 655 1635 658 1618 664 1602 C 670 1586 679 1573 690 1561 C 701 1549 714 1540 728 1534 C 742 1527 758 1524 774 1524 C 796 1524 817 1528 836 1536 C 855 1544 871 1555 884 1569 C 897 1583 907 1598 915 1616 C 922 1634 926 1652 926 1671 Z M 750 1350 L 377 655 L 872 655 L 750 1350 Z" unicode="Å" />
<glyph horiz-adv-x="1769" d="M 1800 1413 L 1130 1413 L 1026 829 L 1626 829 L 1612 752 L 1012 752 L 893 82 L 1604 82 L 1589 0 L 797 0 L 899 575 L 459 575 L 23 0 L -76 0 L 1053 1495 L 1815 1495 L 1800 1413 Z M 514 655 L 913 655 L 1042 1366 L 514 655 Z" unicode="Æ" />
<glyph horiz-adv-x="1462" d="M 664 -23 C 584 -16 508 4 438 38 C 368 72 306 117 254 173 C 201 229 159 296 129 374 C 99 451 84 537 84 631 C 84 707 94 783 114 857 C 134 931 162 1000 199 1066 C 235 1132 279 1192 331 1248 C 382 1304 439 1352 502 1392 C 564 1432 632 1463 704 1486 C 776 1508 852 1520 930 1520 C 985 1520 1038 1513 1090 1501 C 1141 1488 1189 1470 1233 1447 C 1277 1423 1316 1395 1352 1363 C 1388 1331 1418 1295 1442 1257 L 1364 1204 C 1314 1276 1251 1332 1175 1374 C 1099 1415 1011 1436 911 1436 C 843 1436 779 1425 717 1405 C 655 1385 597 1356 543 1320 C 489 1283 440 1240 396 1190 C 352 1140 314 1086 283 1027 C 251 967 227 905 210 839 C 192 773 184 707 184 639 C 184 553 197 475 223 404 C 249 333 287 272 335 221 C 383 170 442 131 510 103 C 578 75 653 61 737 61 C 786 61 832 65 876 75 C 919 84 961 97 1001 115 C 1041 133 1079 154 1117 180 C 1155 206 1193 235 1231 268 L 1286 213 C 1252 181 1216 150 1177 122 C 1137 94 1095 69 1049 48 C 1003 26 954 9 902 -3 C 849 -16 793 -23 733 -25 L 666 -104 C 672 -102 679 -101 687 -101 C 695 -100 704 -100 715 -100 C 733 -100 750 -102 767 -106 C 783 -110 798 -117 811 -125 C 824 -133 834 -144 842 -157 C 850 -170 854 -185 854 -203 C 854 -229 848 -253 838 -273 C 827 -293 812 -311 794 -325 C 775 -339 753 -349 728 -356 C 702 -363 675 -367 645 -367 C 607 -367 574 -361 544 -349 C 514 -337 487 -320 463 -299 L 502 -260 C 520 -277 542 -290 568 -298 C 593 -306 620 -311 649 -311 C 665 -311 682 -309 698 -305 C 714 -301 728 -294 740 -286 C 752 -278 761 -267 769 -255 C 776 -243 780 -228 780 -211 C 780 -170 746 -150 680 -150 C 665 -150 650 -150 636 -152 C 621 -153 605 -156 588 -160 L 571 -133 L 664 -23 Z" unicode="Ç" />
<glyph horiz-adv-x="1063" d="M 1036 1413 L 373 1413 L 268 829 L 866 829 L 852 748 L 254 748 L 137 82 L 840 82 L 825 0 L 31 0 L 295 1495 L 1051 1495 L 1036 1413 Z M 727 1622 L 547 1897 L 637 1897 L 811 1622 L 727 1622 Z" unicode="È" />
<glyph horiz-adv-x="1063" d="M 1036 1413 L 373 1413 L 268 829 L 866 829 L 852 748 L 254 748 L 137 82 L 840 82 L 825 0 L 31 0 L 295 1495 L 1051 1495 L 1036 1413 Z M 606 1622 L 516 1622 L 719 1897 L 815 1897 L 606 1622 Z" unicode="É" />
<glyph horiz-adv-x="1063" d="M 1036 1413 L 373 1413 L 268 829 L 866 829 L 852 748 L 254 748 L 137 82 L 840 82 L 825 0 L 31 0 L 295 1495 L 1051 1495 L 1036 1413 Z M 827 1622 L 702 1823 L 505 1622 L 413 1622 L 669 1891 L 749 1891 L 913 1622 L 827 1622 Z" unicode="Ê" />
<glyph horiz-adv-x="1063" d="M 1036 1413 L 373 1413 L 268 829 L 866 829 L 852 748 L 254 748 L 137 82 L 840 82 L 825 0 L 31 0 L 295 1495 L 1051 1495 L 1036 1413 Z M 886 1622 L 800 1622 L 835 1809 L 919 1809 L 886 1622 Z M 544 1622 L 458 1622 L 493 1809 L 577 1809 L 544 1622 Z" unicode="Ë" />
<glyph horiz-adv-x="420" d="M 123 0 L 31 0 L 295 1495 L 387 1495 L 123 0 Z M 304 1622 L 124 1897 L 214 1897 L 388 1622 L 304 1622 Z" unicode="Ì" />
<glyph horiz-adv-x="420" d="M 123 0 L 31 0 L 295 1495 L 387 1495 L 123 0 Z M 400 1622 L 310 1622 L 513 1897 L 609 1897 L 400 1622 Z" unicode="Í" />
<glyph horiz-adv-x="420" d="M 123 0 L 31 0 L 295 1495 L 387 1495 L 123 0 Z M 515 1601 L 390 1802 L 193 1601 L 101 1601 L 357 1870 L 437 1870 L 601 1601 L 515 1601 Z" unicode="Î" />
<glyph horiz-adv-x="420" d="M 123 0 L 31 0 L 295 1495 L 387 1495 L 123 0 Z M 564 1622 L 478 1622 L 513 1809 L 597 1809 L 564 1622 Z M 222 1622 L 136 1622 L 171 1809 L 255 1809 L 222 1622 Z" unicode="Ï" />
<glyph horiz-adv-x="1356" d="M 51 723 L 66 809 L 188 809 L 311 1495 L 588 1495 C 690 1495 783 1480 868 1452 C 952 1424 1025 1383 1086 1330 C 1146 1276 1193 1212 1227 1136 C 1261 1060 1278 974 1278 879 C 1278 785 1266 699 1243 619 C 1219 539 1187 466 1145 401 C 1103 336 1053 279 995 229 C 937 179 873 137 803 103 C 733 69 659 43 581 26 C 502 8 421 0 338 0 L 45 0 L 174 723 L 51 723 Z M 657 809 L 643 723 L 264 723 L 152 82 L 340 82 C 418 82 493 90 565 106 C 637 122 704 146 766 177 C 828 208 885 246 937 292 C 988 337 1032 388 1069 446 C 1105 504 1134 568 1154 638 C 1174 708 1184 783 1184 864 C 1184 948 1169 1024 1141 1092 C 1113 1160 1073 1217 1021 1265 C 969 1312 905 1348 831 1374 C 757 1400 674 1413 582 1413 L 387 1413 L 281 809 L 657 809 Z" unicode="Ð" />
<glyph horiz-adv-x="1493" d="M 1196 0 L 1094 0 L 365 1370 L 123 0 L 31 0 L 293 1495 L 403 1495 L 1126 131 L 1366 1495 L 1458 1495 L 1196 0 Z M 1192 1800 C 1180 1732 1160 1680 1130 1645 C 1100 1610 1063 1593 1018 1593 C 1004 1593 990 1595 978 1600 C 965 1605 953 1612 942 1620 C 930 1628 919 1636 909 1646 C 899 1656 889 1665 879 1675 C 862 1690 845 1703 829 1715 C 813 1726 794 1732 773 1732 C 749 1732 729 1719 714 1694 C 699 1669 688 1638 682 1601 L 607 1601 C 611 1630 619 1657 629 1682 C 639 1707 651 1729 666 1747 C 680 1765 697 1780 717 1790 C 736 1800 757 1806 781 1806 C 808 1806 833 1798 856 1783 C 879 1768 900 1752 920 1736 C 937 1718 954 1702 972 1688 C 990 1674 1008 1667 1026 1667 C 1049 1667 1068 1678 1083 1701 C 1098 1723 1109 1756 1117 1800 L 1192 1800 Z" unicode="Ñ" />
<glyph horiz-adv-x="1659" d="M 1575 868 C 1575 790 1565 713 1545 639 C 1525 564 1496 494 1459 428 C 1422 362 1378 301 1327 245 C 1275 189 1218 142 1156 102 C 1094 62 1027 30 955 8 C 883 -13 808 -25 731 -25 C 635 -25 547 -8 468 25 C 388 59 320 105 263 163 C 206 221 162 290 131 369 C 99 448 84 533 84 623 C 84 701 94 777 114 852 C 134 926 162 997 199 1064 C 236 1130 280 1191 332 1247 C 383 1303 440 1351 502 1391 C 564 1431 632 1463 704 1486 C 776 1508 850 1520 928 1520 C 1024 1520 1111 1503 1191 1469 C 1270 1435 1338 1388 1395 1329 C 1452 1270 1496 1201 1528 1122 C 1559 1042 1575 958 1575 868 Z M 1475 856 C 1475 941 1461 1019 1434 1091 C 1406 1162 1368 1223 1319 1274 C 1270 1325 1211 1365 1143 1393 C 1075 1421 1000 1436 918 1436 C 852 1436 788 1426 726 1406 C 664 1386 605 1359 551 1324 C 497 1288 447 1246 402 1197 C 357 1148 318 1094 286 1035 C 254 975 229 912 211 844 C 193 776 184 707 184 635 C 184 549 197 471 225 401 C 252 330 290 269 339 219 C 388 168 447 129 515 101 C 583 73 659 59 741 59 C 807 59 871 68 933 88 C 995 107 1053 134 1107 169 C 1161 204 1211 246 1256 295 C 1301 344 1340 398 1372 457 C 1404 516 1430 579 1448 647 C 1466 714 1475 784 1475 856 Z M 911 1622 L 731 1897 L 821 1897 L 995 1622 L 911 1622 Z" unicode="Ò" />
<glyph horiz-adv-x="1659" d="M 1575 868 C 1575 790 1565 713 1545 639 C 1525 564 1496 494 1459 428 C 1422 362 1378 301 1327 245 C 1275 189 1218 142 1156 102 C 1094 62 1027 30 955 8 C 883 -13 808 -25 731 -25 C 635 -25 547 -8 468 25 C 388 59 320 105 263 163 C 206 221 162 290 131 369 C 99 448 84 533 84 623 C 84 701 94 777 114 852 C 134 926 162 997 199 1064 C 236 1130 280 1191 332 1247 C 383 1303 440 1351 502 1391 C 564 1431 632 1463 704 1486 C 776 1508 850 1520 928 1520 C 1024 1520 1111 1503 1191 1469 C 1270 1435 1338 1388 1395 1329 C 1452 1270 1496 1201 1528 1122 C 1559 1042 1575 958 1575 868 Z M 1475 856 C 1475 941 1461 1019 1434 1091 C 1406 1162 1368 1223 1319 1274 C 1270 1325 1211 1365 1143 1393 C 1075 1421 1000 1436 918 1436 C 852 1436 788 1426 726 1406 C 664 1386 605 1359 551 1324 C 497 1288 447 1246 402 1197 C 357 1148 318 1094 286 1035 C 254 975 229 912 211 844 C 193 776 184 707 184 635 C 184 549 197 471 225 401 C 252 330 290 269 339 219 C 388 168 447 129 515 101 C 583 73 659 59 741 59 C 807 59 871 68 933 88 C 995 107 1053 134 1107 169 C 1161 204 1211 246 1256 295 C 1301 344 1340 398 1372 457 C 1404 516 1430 579 1448 647 C 1466 714 1475 784 1475 856 Z M 952 1622 L 862 1622 L 1065 1897 L 1161 1897 L 952 1622 Z" unicode="Ó" />
<glyph horiz-adv-x="1659" d="M 1575 868 C 1575 790 1565 713 1545 639 C 1525 564 1496 494 1459 428 C 1422 362 1378 301 1327 245 C 1275 189 1218 142 1156 102 C 1094 62 1027 30 955 8 C 883 -13 808 -25 731 -25 C 635 -25 547 -8 468 25 C 388 59 320 105 263 163 C 206 221 162 290 131 369 C 99 448 84 533 84 623 C 84 701 94 777 114 852 C 134 926 162 997 199 1064 C 236 1130 280 1191 332 1247 C 383 1303 440 1351 502 1391 C 564 1431 632 1463 704 1486 C 776 1508 850 1520 928 1520 C 1024 1520 1111 1503 1191 1469 C 1270 1435 1338 1388 1395 1329 C 1452 1270 1496 1201 1528 1122 C 1559 1042 1575 958 1575 868 Z M 1475 856 C 1475 941 1461 1019 1434 1091 C 1406 1162 1368 1223 1319 1274 C 1270 1325 1211 1365 1143 1393 C 1075 1421 1000 1436 918 1436 C 852 1436 788 1426 726 1406 C 664 1386 605 1359 551 1324 C 497 1288 447 1246 402 1197 C 357 1148 318 1094 286 1035 C 254 975 229 912 211 844 C 193 776 184 707 184 635 C 184 549 197 471 225 401 C 252 330 290 269 339 219 C 388 168 447 129 515 101 C 583 73 659 59 741 59 C 807 59 871 68 933 88 C 995 107 1053 134 1107 169 C 1161 204 1211 246 1256 295 C 1301 344 1340 398 1372 457 C 1404 516 1430 579 1448 647 C 1466 714 1475 784 1475 856 Z M 1100 1622 L 975 1823 L 778 1622 L 686 1622 L 942 1891 L 1022 1891 L 1186 1622 L 1100 1622 Z" unicode="Ô" />
<glyph horiz-adv-x="1659" d="M 1575 868 C 1575 790 1565 713 1545 639 C 1525 564 1496 494 1459 428 C 1422 362 1378 301 1327 245 C 1275 189 1218 142 1156 102 C 1094 62 1027 30 955 8 C 883 -13 808 -25 731 -25 C 635 -25 547 -8 468 25 C 388 59 320 105 263 163 C 206 221 162 290 131 369 C 99 448 84 533 84 623 C 84 701 94 777 114 852 C 134 926 162 997 199 1064 C 236 1130 280 1191 332 1247 C 383 1303 440 1351 502 1391 C 564 1431 632 1463 704 1486 C 776 1508 850 1520 928 1520 C 1024 1520 1111 1503 1191 1469 C 1270 1435 1338 1388 1395 1329 C 1452 1270 1496 1201 1528 1122 C 1559 1042 1575 958 1575 868 Z M 1475 856 C 1475 941 1461 1019 1434 1091 C 1406 1162 1368 1223 1319 1274 C 1270 1325 1211 1365 1143 1393 C 1075 1421 1000 1436 918 1436 C 852 1436 788 1426 726 1406 C 664 1386 605 1359 551 1324 C 497 1288 447 1246 402 1197 C 357 1148 318 1094 286 1035 C 254 975 229 912 211 844 C 193 776 184 707 184 635 C 184 549 197 471 225 401 C 252 330 290 269 339 219 C 388 168 447 129 515 101 C 583 73 659 59 741 59 C 807 59 871 68 933 88 C 995 107 1053 134 1107 169 C 1161 204 1211 246 1256 295 C 1301 344 1340 398 1372 457 C 1404 516 1430 579 1448 647 C 1466 714 1475 784 1475 856 Z M 1265 1821 C 1253 1753 1233 1701 1203 1666 C 1173 1631 1136 1614 1091 1614 C 1077 1614 1063 1616 1051 1621 C 1038 1626 1026 1633 1015 1641 C 1003 1649 992 1657 982 1667 C 972 1677 962 1686 952 1696 C 935 1711 918 1724 902 1736 C 886 1747 867 1753 846 1753 C 822 1753 802 1740 787 1715 C 772 1690 761 1659 755 1622 L 680 1622 C 684 1651 692 1678 702 1703 C 712 1728 724 1750 739 1768 C 753 1786 770 1801 790 1811 C 809 1821 830 1827 854 1827 C 881 1827 906 1819 929 1804 C 952 1789 973 1773 993 1757 C 1010 1739 1027 1723 1045 1709 C 1063 1695 1081 1688 1099 1688 C 1122 1688 1141 1699 1156 1722 C 1171 1744 1182 1777 1190 1821 L 1265 1821 Z" unicode="Õ" />
<glyph horiz-adv-x="1659" d="M 1608 1307 L 1520 1307 L 1552 1495 L 1640 1495 L 1608 1307 Z M 268 1307 L 180 1307 L 213 1495 L 301 1495 L 268 1307 Z M 1575 868 C 1575 790 1565 713 1545 639 C 1525 564 1496 494 1459 428 C 1422 362 1378 301 1327 245 C 1275 189 1218 142 1156 102 C 1094 62 1027 30 955 8 C 883 -13 808 -25 731 -25 C 635 -25 547 -8 468 25 C 388 59 320 105 263 163 C 206 221 162 290 131 369 C 99 448 84 533 84 623 C 84 701 94 777 114 852 C 134 926 162 997 199 1064 C 236 1130 280 1191 332 1247 C 383 1303 440 1351 502 1391 C 564 1431 632 1463 704 1486 C 776 1508 850 1520 928 1520 C 1024 1520 1111 1503 1191 1469 C 1270 1435 1338 1388 1395 1329 C 1452 1270 1496 1201 1528 1122 C 1559 1042 1575 958 1575 868 Z M 1475 856 C 1475 941 1461 1019 1434 1091 C 1406 1162 1368 1223 1319 1274 C 1270 1325 1211 1365 1143 1393 C 1075 1421 1000 1436 918 1436 C 852 1436 788 1426 726 1406 C 664 1386 605 1359 551 1324 C 497 1288 447 1246 402 1197 C 357 1148 318 1094 286 1035 C 254 975 229 912 211 844 C 193 776 184 707 184 635 C 184 549 197 471 225 401 C 252 330 290 269 339 219 C 388 168 447 129 515 101 C 583 73 659 59 741 59 C 807 59 871 68 933 88 C 995 107 1053 134 1107 169 C 1161 204 1211 246 1256 295 C 1301 344 1340 398 1372 457 C 1404 516 1430 579 1448 647 C 1466 714 1475 784 1475 856 Z" unicode="Ö" />
<glyph horiz-adv-x="995" d="M 485 608 L 471 596 C 462 588 450 577 435 564 C 419 551 402 536 382 519 C 362 502 342 485 322 468 L 158 328 L 104 391 L 434 672 L 199 956 L 264 1014 L 500 729 L 840 1016 L 893 952 L 553 666 L 782 385 L 717 328 L 485 608 Z" unicode="×" />
<glyph horiz-adv-x="1659" d="M 1571 879 C 1571 797 1561 717 1541 641 C 1521 564 1494 492 1458 426 C 1422 359 1378 298 1328 242 C 1278 186 1222 139 1160 100 C 1098 60 1032 30 961 8 C 890 -14 816 -25 739 -25 C 643 -25 556 -8 477 25 C 398 58 330 103 274 160 L 84 -23 L 35 29 L 225 211 C 181 267 148 329 125 397 C 101 465 90 539 90 618 C 90 701 99 781 119 859 C 139 936 167 1008 203 1075 C 239 1141 283 1202 334 1257 C 384 1311 440 1358 502 1397 C 564 1436 630 1466 702 1488 C 774 1509 848 1520 926 1520 C 1021 1520 1108 1503 1187 1469 C 1266 1435 1335 1389 1393 1331 L 1589 1520 L 1638 1468 L 1438 1278 C 1480 1222 1512 1160 1536 1092 C 1559 1024 1571 953 1571 879 Z M 1325 1266 C 1277 1319 1217 1361 1147 1391 C 1076 1421 997 1436 911 1436 C 838 1436 769 1425 705 1405 C 641 1384 581 1355 527 1318 C 473 1281 424 1237 382 1187 C 339 1136 303 1081 273 1022 C 243 962 220 900 204 834 C 188 768 180 701 180 633 C 180 565 189 501 209 441 C 229 381 257 326 293 276 L 1325 1266 Z M 1481 868 C 1481 932 1471 994 1453 1052 C 1434 1110 1407 1164 1372 1212 L 340 223 C 390 171 449 131 519 102 C 588 73 665 59 750 59 C 820 59 888 69 952 90 C 1016 110 1075 139 1129 176 C 1183 212 1231 256 1275 306 C 1318 356 1355 412 1386 472 C 1416 532 1440 595 1456 662 C 1472 729 1481 798 1481 868 Z" unicode="Ø" />
<glyph horiz-adv-x="1374" d="M 1184 543 C 1168 454 1140 374 1102 304 C 1064 234 1018 174 964 126 C 910 77 851 40 785 14 C 719 -12 650 -25 580 -25 C 506 -25 437 -11 374 15 C 310 41 257 80 214 131 C 171 182 141 245 123 319 C 105 393 105 477 123 573 L 285 1495 L 377 1495 L 215 573 C 201 491 200 418 213 355 C 226 291 250 238 284 194 C 318 150 361 117 413 95 C 465 72 522 61 586 61 C 648 61 706 72 762 94 C 817 116 867 148 912 191 C 956 233 994 286 1026 349 C 1058 411 1081 483 1096 565 L 1260 1495 L 1352 1495 L 1184 543 Z M 852 1620 L 672 1895 L 762 1895 L 936 1620 L 852 1620 Z" unicode="Ù" />
<glyph horiz-adv-x="1374" d="M 1184 543 C 1168 454 1140 374 1102 304 C 1064 234 1018 174 964 126 C 910 77 851 40 785 14 C 719 -12 650 -25 580 -25 C 506 -25 437 -11 374 15 C 310 41 257 80 214 131 C 171 182 141 245 123 319 C 105 393 105 477 123 573 L 285 1495 L 377 1495 L 215 573 C 201 491 200 418 213 355 C 226 291 250 238 284 194 C 318 150 361 117 413 95 C 465 72 522 61 586 61 C 648 61 706 72 762 94 C 817 116 867 148 912 191 C 956 233 994 286 1026 349 C 1058 411 1081 483 1096 565 L 1260 1495 L 1352 1495 L 1184 543 Z M 811 1620 L 721 1620 L 924 1895 L 1020 1895 L 811 1620 Z" unicode="Ú" />
<glyph horiz-adv-x="1374" d="M 1184 543 C 1168 454 1140 374 1102 304 C 1064 234 1018 174 964 126 C 910 77 851 40 785 14 C 719 -12 650 -25 580 -25 C 506 -25 437 -11 374 15 C 310 41 257 80 214 131 C 171 182 141 245 123 319 C 105 393 105 477 123 573 L 285 1495 L 377 1495 L 215 573 C 201 491 200 418 213 355 C 226 291 250 238 284 194 C 318 150 361 117 413 95 C 465 72 522 61 586 61 C 648 61 706 72 762 94 C 817 116 867 148 912 191 C 956 233 994 286 1026 349 C 1058 411 1081 483 1096 565 L 1260 1495 L 1352 1495 L 1184 543 Z M 999 1620 L 874 1821 L 677 1620 L 585 1620 L 841 1889 L 921 1889 L 1085 1620 L 999 1620 Z" unicode="Û" />
<glyph horiz-adv-x="1374" d="M 1184 543 C 1168 454 1140 374 1102 304 C 1064 234 1018 174 964 126 C 910 77 851 40 785 14 C 719 -12 650 -25 580 -25 C 506 -25 437 -11 374 15 C 310 41 257 80 214 131 C 171 182 141 245 123 319 C 105 393 105 477 123 573 L 285 1495 L 377 1495 L 215 573 C 201 491 200 418 213 355 C 226 291 250 238 284 194 C 318 150 361 117 413 95 C 465 72 522 61 586 61 C 648 61 706 72 762 94 C 817 116 867 148 912 191 C 956 233 994 286 1026 349 C 1058 411 1081 483 1096 565 L 1260 1495 L 1352 1495 L 1184 543 Z M 997 1308 L 911 1308 L 946 1495 L 1030 1495 L 997 1308 Z M 655 1308 L 569 1308 L 604 1495 L 688 1495 L 655 1308 Z" unicode="Ü" />
<glyph horiz-adv-x="1286" d="M 678 713 L 553 0 L 461 0 L 588 715 L 188 1495 L 291 1495 L 649 799 L 1247 1495 L 1360 1495 L 678 713 Z M 756 1622 L 666 1622 L 869 1897 L 965 1897 L 756 1622 Z" unicode="Ý" />
<glyph horiz-adv-x="1077" d="M 1010 836 C 1010 768 997 704 971 645 C 945 586 909 535 861 491 C 813 447 754 413 686 388 C 617 362 539 350 453 350 L 184 350 L 123 0 L 33 0 L 295 1495 L 385 1495 L 334 1200 L 545 1200 C 626 1200 696 1191 755 1174 C 813 1156 861 1132 899 1100 C 937 1068 965 1029 983 985 C 1001 940 1010 890 1010 836 Z M 918 829 C 918 873 910 913 894 949 C 878 985 854 1015 822 1040 C 789 1064 747 1083 697 1096 C 646 1109 586 1116 516 1116 L 317 1116 L 199 434 L 455 434 C 531 434 597 444 655 464 C 713 484 761 512 800 548 C 839 584 868 626 888 674 C 908 722 918 773 918 829 Z" unicode="Þ" />
<glyph horiz-adv-x="934" d="M 850 1264 C 850 1206 840 1154 820 1106 C 800 1058 775 1017 745 982 C 714 947 680 919 644 899 C 608 878 573 866 539 862 C 565 855 593 843 622 825 C 651 807 678 782 702 751 C 726 719 747 681 763 637 C 779 592 787 540 788 481 C 788 419 780 358 766 298 C 751 238 728 184 696 136 C 664 88 624 49 575 19 C 525 -10 466 -25 397 -25 C 363 -25 333 -21 309 -14 C 285 -6 262 2 242 14 L 268 90 C 285 80 305 71 328 64 C 350 56 376 53 406 53 C 454 53 496 64 533 87 C 569 110 600 141 625 179 C 649 217 668 260 681 309 C 693 358 700 409 700 461 C 700 513 693 561 680 605 C 666 649 647 688 622 721 C 597 754 566 781 530 801 C 494 821 452 832 406 834 L 393 834 L 403 899 L 430 899 C 472 899 514 908 554 926 C 594 944 629 968 660 1000 C 691 1031 716 1068 735 1110 C 754 1152 764 1198 764 1247 C 764 1309 746 1357 712 1393 C 678 1428 631 1446 571 1446 C 533 1446 499 1438 469 1424 C 438 1410 411 1390 388 1365 C 364 1339 345 1309 329 1275 C 313 1241 302 1203 295 1163 L 25 -367 L -59 -367 L 211 1159 C 220 1211 235 1260 255 1304 C 275 1348 300 1387 331 1419 C 362 1451 398 1475 440 1493 C 482 1511 529 1520 582 1520 C 622 1520 658 1513 691 1501 C 723 1488 751 1470 775 1448 C 799 1425 817 1398 830 1367 C 843 1335 850 1301 850 1264 Z" unicode="ß" />
<glyph horiz-adv-x="872" d="M 621 0 L 537 0 L 553 94 C 533 78 511 63 487 49 C 463 35 437 22 409 11 C 381 0 352 -8 322 -15 C 292 -21 261 -25 229 -25 C 193 -25 159 -19 129 -9 C 98 0 71 15 49 35 C 27 54 9 78 -3 106 C -16 134 -23 167 -23 203 C -23 251 -12 294 9 333 C 30 372 61 405 102 433 C 143 461 194 482 254 497 C 314 512 383 520 461 520 L 629 520 L 637 567 C 649 637 638 688 603 720 C 567 752 512 768 438 768 C 388 768 342 762 301 751 C 259 740 220 725 182 705 L 158 778 C 200 799 245 816 294 828 C 343 840 396 846 453 846 C 508 846 554 838 592 824 C 629 810 658 790 680 766 C 701 742 715 713 721 680 C 727 647 727 612 721 575 L 621 0 Z M 455 446 C 331 446 236 426 168 387 C 100 348 66 289 66 211 C 66 163 81 125 111 96 C 141 67 186 53 244 53 C 274 53 304 56 334 64 C 364 71 392 80 420 92 C 448 104 474 117 499 132 C 523 147 546 162 567 178 L 614 446 L 455 446 Z M 441 995 L 261 1270 L 351 1270 L 525 995 L 441 995 Z" unicode="à" />
<glyph horiz-adv-x="872" d="M 621 0 L 537 0 L 553 94 C 533 78 511 63 487 49 C 463 35 437 22 409 11 C 381 0 352 -8 322 -15 C 292 -21 261 -25 229 -25 C 193 -25 159 -19 129 -9 C 98 0 71 15 49 35 C 27 54 9 78 -3 106 C -16 134 -23 167 -23 203 C -23 251 -12 294 9 333 C 30 372 61 405 102 433 C 143 461 194 482 254 497 C 314 512 383 520 461 520 L 629 520 L 637 567 C 649 637 638 688 603 720 C 567 752 512 768 438 768 C 388 768 342 762 301 751 C 259 740 220 725 182 705 L 158 778 C 200 799 245 816 294 828 C 343 840 396 846 453 846 C 508 846 554 838 592 824 C 629 810 658 790 680 766 C 701 742 715 713 721 680 C 727 647 727 612 721 575 L 621 0 Z M 455 446 C 331 446 236 426 168 387 C 100 348 66 289 66 211 C 66 163 81 125 111 96 C 141 67 186 53 244 53 C 274 53 304 56 334 64 C 364 71 392 80 420 92 C 448 104 474 117 499 132 C 523 147 546 162 567 178 L 614 446 L 455 446 Z M 516 995 L 426 995 L 629 1270 L 725 1270 L 516 995 Z" unicode="á" />
<glyph horiz-adv-x="872" d="M 621 0 L 537 0 L 553 94 C 533 78 511 63 487 49 C 463 35 437 22 409 11 C 381 0 352 -8 322 -15 C 292 -21 261 -25 229 -25 C 193 -25 159 -19 129 -9 C 98 0 71 15 49 35 C 27 54 9 78 -3 106 C -16 134 -23 167 -23 203 C -23 251 -12 294 9 333 C 30 372 61 405 102 433 C 143 461 194 482 254 497 C 314 512 383 520 461 520 L 629 520 L 637 567 C 649 637 638 688 603 720 C 567 752 512 768 438 768 C 388 768 342 762 301 751 C 259 740 220 725 182 705 L 158 778 C 200 799 245 816 294 828 C 343 840 396 846 453 846 C 508 846 554 838 592 824 C 629 810 658 790 680 766 C 701 742 715 713 721 680 C 727 647 727 612 721 575 L 621 0 Z M 455 446 C 331 446 236 426 168 387 C 100 348 66 289 66 211 C 66 163 81 125 111 96 C 141 67 186 53 244 53 C 274 53 304 56 334 64 C 364 71 392 80 420 92 C 448 104 474 117 499 132 C 523 147 546 162 567 178 L 614 446 L 455 446 Z M 618 995 L 493 1196 L 296 995 L 204 995 L 460 1264 L 540 1264 L 704 995 L 618 995 Z" unicode="â" />
<glyph horiz-adv-x="872" d="M 621 0 L 537 0 L 553 94 C 533 78 511 63 487 49 C 463 35 437 22 409 11 C 381 0 352 -8 322 -15 C 292 -21 261 -25 229 -25 C 193 -25 159 -19 129 -9 C 98 0 71 15 49 35 C 27 54 9 78 -3 106 C -16 134 -23 167 -23 203 C -23 251 -12 294 9 333 C 30 372 61 405 102 433 C 143 461 194 482 254 497 C 314 512 383 520 461 520 L 629 520 L 637 567 C 649 637 638 688 603 720 C 567 752 512 768 438 768 C 388 768 342 762 301 751 C 259 740 220 725 182 705 L 158 778 C 200 799 245 816 294 828 C 343 840 396 846 453 846 C 508 846 554 838 592 824 C 629 810 658 790 680 766 C 701 742 715 713 721 680 C 727 647 727 612 721 575 L 621 0 Z M 455 446 C 331 446 236 426 168 387 C 100 348 66 289 66 211 C 66 163 81 125 111 96 C 141 67 186 53 244 53 C 274 53 304 56 334 64 C 364 71 392 80 420 92 C 448 104 474 117 499 132 C 523 147 546 162 567 178 L 614 446 L 455 446 Z M 767 1194 C 755 1126 735 1074 705 1039 C 675 1004 638 987 593 987 C 579 987 565 989 553 994 C 540 999 528 1006 517 1014 C 505 1022 494 1030 484 1040 C 474 1050 464 1059 454 1069 C 437 1084 420 1097 404 1109 C 388 1120 369 1126 348 1126 C 324 1126 304 1113 289 1088 C 274 1063 263 1032 257 995 L 182 995 C 186 1024 194 1051 204 1076 C 214 1101 226 1123 241 1141 C 255 1159 272 1174 292 1184 C 311 1194 332 1200 356 1200 C 383 1200 408 1192 431 1177 C 454 1162 475 1146 495 1130 C 512 1112 529 1096 547 1082 C 565 1068 583 1061 601 1061 C 624 1061 643 1072 658 1095 C 673 1117 684 1150 692 1194 L 767 1194 Z" unicode="ã" />
<glyph horiz-adv-x="872" d="M 621 0 L 537 0 L 553 94 C 533 78 511 63 487 49 C 463 35 437 22 409 11 C 381 0 352 -8 322 -15 C 292 -21 261 -25 229 -25 C 193 -25 159 -19 129 -9 C 98 0 71 15 49 35 C 27 54 9 78 -3 106 C -16 134 -23 167 -23 203 C -23 251 -12 294 9 333 C 30 372 61 405 102 433 C 143 461 194 482 254 497 C 314 512 383 520 461 520 L 629 520 L 637 567 C 649 637 638 688 603 720 C 567 752 512 768 438 768 C 388 768 342 762 301 751 C 259 740 220 725 182 705 L 158 778 C 200 799 245 816 294 828 C 343 840 396 846 453 846 C 508 846 554 838 592 824 C 629 810 658 790 680 766 C 701 742 715 713 721 680 C 727 647 727 612 721 575 L 621 0 Z M 455 446 C 331 446 236 426 168 387 C 100 348 66 289 66 211 C 66 163 81 125 111 96 C 141 67 186 53 244 53 C 274 53 304 56 334 64 C 364 71 392 80 420 92 C 448 104 474 117 499 132 C 523 147 546 162 567 178 L 614 446 L 455 446 Z M 674 995 L 588 995 L 623 1182 L 707 1182 L 674 995 Z M 332 995 L 246 995 L 281 1182 L 365 1182 L 332 995 Z" unicode="ä" />
<glyph horiz-adv-x="872" d="M 621 0 L 537 0 L 553 94 C 533 78 511 63 487 49 C 463 35 437 22 409 11 C 381 0 352 -8 322 -15 C 292 -21 261 -25 229 -25 C 193 -25 159 -19 129 -9 C 98 0 71 15 49 35 C 27 54 9 78 -3 106 C -16 134 -23 167 -23 203 C -23 251 -12 294 9 333 C 30 372 61 405 102 433 C 143 461 194 482 254 497 C 314 512 383 520 461 520 L 629 520 L 637 567 C 649 637 638 688 603 720 C 567 752 512 768 438 768 C 388 768 342 762 301 751 C 259 740 220 725 182 705 L 158 778 C 200 799 245 816 294 828 C 343 840 396 846 453 846 C 508 846 554 838 592 824 C 629 810 658 790 680 766 C 701 742 715 713 721 680 C 727 647 727 612 721 575 L 621 0 Z M 455 446 C 331 446 236 426 168 387 C 100 348 66 289 66 211 C 66 163 81 125 111 96 C 141 67 186 53 244 53 C 274 53 304 56 334 64 C 364 71 392 80 420 92 C 448 104 474 117 499 132 C 523 147 546 162 567 178 L 614 446 L 455 446 Z M 677 1196 C 677 1166 671 1138 660 1112 C 648 1086 633 1064 613 1045 C 593 1025 571 1010 545 999 C 519 988 491 983 462 983 C 436 983 412 987 390 997 C 367 1007 347 1020 330 1037 C 313 1054 300 1074 290 1097 C 280 1119 276 1144 276 1171 C 276 1200 281 1227 293 1253 C 304 1279 319 1301 339 1321 C 359 1340 381 1355 407 1367 C 433 1378 460 1384 489 1384 C 514 1384 538 1379 561 1369 C 584 1359 604 1346 621 1330 C 638 1313 652 1293 662 1270 C 672 1247 677 1222 677 1196 Z M 611 1194 C 611 1211 607 1227 601 1243 C 595 1258 586 1271 575 1283 C 564 1295 551 1304 537 1311 C 522 1317 506 1321 489 1321 C 469 1321 451 1317 433 1309 C 415 1301 400 1291 386 1278 C 372 1265 361 1250 353 1232 C 345 1214 341 1196 341 1176 C 341 1158 344 1141 350 1125 C 356 1109 365 1096 376 1084 C 387 1072 400 1063 414 1057 C 428 1050 444 1047 460 1047 C 482 1047 503 1051 522 1059 C 540 1067 556 1078 570 1092 C 583 1106 593 1121 600 1139 C 607 1157 611 1175 611 1194 Z" unicode="å" />
<glyph horiz-adv-x="1591" d="M 1446 494 C 1446 481 1446 468 1447 454 C 1447 440 1446 430 1442 424 L 700 424 C 698 413 697 401 696 387 C 694 373 694 359 694 344 C 694 301 700 262 712 226 C 724 190 743 160 768 134 C 792 108 823 87 861 73 C 898 58 942 51 993 51 C 1051 51 1103 60 1151 78 C 1199 96 1244 122 1286 156 L 1335 102 C 1317 86 1296 70 1273 55 C 1250 39 1224 26 1196 14 C 1168 2 1136 -7 1102 -14 C 1068 -21 1031 -25 991 -25 C 908 -25 838 -8 780 23 C 722 55 680 102 653 162 C 626 138 597 114 567 92 C 537 70 504 50 470 32 C 435 14 398 0 359 -9 C 320 -19 279 -25 236 -25 C 200 -25 167 -19 137 -9 C 106 0 79 15 57 35 C 35 54 17 78 5 106 C -7 134 -14 167 -14 203 C -14 249 -3 292 16 330 C 36 368 67 401 108 429 C 148 456 199 477 259 492 C 319 506 389 514 469 514 L 637 514 C 638 521 639 530 641 540 C 642 550 643 557 645 563 C 657 636 646 689 612 721 C 577 753 521 770 444 770 C 394 770 348 765 307 755 C 265 745 225 730 186 711 L 164 776 C 206 797 251 814 300 826 C 349 838 402 844 459 844 C 502 844 540 839 572 829 C 604 819 631 805 653 788 C 675 771 691 751 702 729 C 713 707 719 683 721 659 C 762 715 814 759 878 792 C 942 825 1013 842 1092 842 C 1150 842 1201 832 1245 812 C 1289 792 1326 766 1356 734 C 1386 701 1408 664 1423 622 C 1438 580 1446 538 1446 494 Z M 1362 492 C 1362 532 1356 569 1344 603 C 1332 637 1315 666 1292 690 C 1268 714 1239 733 1205 747 C 1171 761 1131 768 1085 768 C 1041 768 1000 761 962 748 C 923 734 888 715 856 691 C 824 667 796 638 772 604 C 748 570 729 532 717 492 L 1362 492 Z M 463 442 C 402 442 347 437 299 428 C 251 418 210 404 176 385 C 142 366 117 342 99 314 C 81 285 72 251 72 213 C 72 189 75 168 83 148 C 90 128 101 111 116 96 C 131 81 150 69 172 61 C 194 53 220 49 250 49 C 310 49 372 65 436 97 C 500 129 563 171 623 223 C 617 235 614 251 612 271 C 610 290 609 310 610 331 C 610 352 612 372 614 392 C 616 412 619 428 623 442 L 463 442 Z" unicode="æ" />
<glyph horiz-adv-x="877" d="M 307 -23 C 265 -17 226 -5 189 13 C 151 31 119 57 91 89 C 63 121 40 159 24 204 C 8 248 0 299 0 356 C 0 396 5 435 16 475 C 26 515 41 553 61 589 C 81 625 105 659 133 691 C 161 722 192 749 226 772 C 260 795 297 813 337 826 C 377 839 419 846 463 846 C 511 846 552 840 588 830 C 623 820 654 806 680 790 C 706 773 728 754 747 733 C 766 712 783 691 799 670 L 723 621 C 693 665 659 700 619 727 C 579 754 528 768 467 768 C 410 768 358 755 312 731 C 265 707 225 675 192 637 C 159 598 133 554 115 506 C 97 457 88 408 88 360 C 88 317 94 277 107 240 C 120 202 138 170 162 142 C 186 114 214 93 247 77 C 279 61 316 53 356 53 C 388 53 418 56 446 62 C 474 68 500 78 525 91 C 550 103 574 119 597 138 C 620 157 643 179 666 205 L 723 158 C 679 106 628 63 572 31 C 515 -1 451 -20 379 -25 L 309 -104 C 315 -102 323 -101 331 -101 C 339 -100 348 -100 358 -100 C 376 -100 393 -102 410 -106 C 426 -110 441 -117 454 -125 C 467 -133 478 -144 486 -157 C 494 -170 498 -185 498 -203 C 498 -229 492 -253 482 -273 C 471 -293 456 -311 438 -325 C 419 -339 397 -349 372 -356 C 346 -363 319 -367 289 -367 C 251 -367 218 -361 188 -349 C 158 -337 131 -320 106 -299 L 145 -260 C 163 -277 185 -290 211 -298 C 237 -306 264 -311 293 -311 C 309 -311 325 -309 341 -305 C 357 -301 371 -294 383 -286 C 395 -278 405 -267 413 -255 C 420 -243 424 -228 424 -211 C 424 -170 390 -150 324 -150 C 309 -150 294 -150 279 -152 C 264 -153 248 -156 231 -160 L 215 -133 L 307 -23 Z" unicode="ç" />
<glyph horiz-adv-x="909" d="M 797 502 C 797 488 796 474 796 459 C 795 443 794 431 793 422 L 92 422 C 90 411 89 400 89 390 C 88 380 88 369 88 358 C 88 313 94 272 106 235 C 118 197 137 165 162 138 C 187 111 218 90 256 75 C 293 60 337 53 387 53 C 443 53 494 62 542 81 C 589 99 632 124 672 156 L 723 100 C 705 85 685 70 661 55 C 637 40 610 27 580 15 C 550 3 518 -6 483 -14 C 447 -21 409 -25 369 -25 C 313 -25 263 -16 217 1 C 171 18 132 43 100 75 C 67 107 42 147 24 193 C 6 239 -2 290 -2 348 C -2 418 10 484 34 545 C 58 605 90 658 132 703 C 174 747 223 782 279 808 C 335 833 395 846 459 846 C 517 846 567 836 610 817 C 652 797 687 772 715 740 C 743 708 763 671 777 630 C 790 588 797 546 797 502 Z M 705 496 C 705 534 700 569 690 603 C 680 636 665 665 645 689 C 624 713 598 733 566 747 C 534 761 497 768 453 768 C 411 768 372 761 336 749 C 299 736 266 718 236 694 C 206 670 179 642 157 608 C 135 574 118 537 106 496 L 705 496 Z M 433 995 L 253 1270 L 343 1270 L 517 995 L 433 995 Z" unicode="è" />
<glyph horiz-adv-x="909" d="M 797 502 C 797 488 796 474 796 459 C 795 443 794 431 793 422 L 92 422 C 90 411 89 400 89 390 C 88 380 88 369 88 358 C 88 313 94 272 106 235 C 118 197 137 165 162 138 C 187 111 218 90 256 75 C 293 60 337 53 387 53 C 443 53 494 62 542 81 C 589 99 632 124 672 156 L 723 100 C 705 85 685 70 661 55 C 637 40 610 27 580 15 C 550 3 518 -6 483 -14 C 447 -21 409 -25 369 -25 C 313 -25 263 -16 217 1 C 171 18 132 43 100 75 C 67 107 42 147 24 193 C 6 239 -2 290 -2 348 C -2 418 10 484 34 545 C 58 605 90 658 132 703 C 174 747 223 782 279 808 C 335 833 395 846 459 846 C 517 846 567 836 610 817 C 652 797 687 772 715 740 C 743 708 763 671 777 630 C 790 588 797 546 797 502 Z M 705 496 C 705 534 700 569 690 603 C 680 636 665 665 645 689 C 624 713 598 733 566 747 C 534 761 497 768 453 768 C 411 768 372 761 336 749 C 299 736 266 718 236 694 C 206 670 179 642 157 608 C 135 574 118 537 106 496 L 705 496 Z M 498 995 L 408 995 L 611 1270 L 707 1270 L 498 995 Z" unicode="é" />
<glyph horiz-adv-x="909" d="M 797 502 C 797 488 796 474 796 459 C 795 443 794 431 793 422 L 92 422 C 90 411 89 400 89 390 C 88 380 88 369 88 358 C 88 313 94 272 106 235 C 118 197 137 165 162 138 C 187 111 218 90 256 75 C 293 60 337 53 387 53 C 443 53 494 62 542 81 C 589 99 632 124 672 156 L 723 100 C 705 85 685 70 661 55 C 637 40 610 27 580 15 C 550 3 518 -6 483 -14 C 447 -21 409 -25 369 -25 C 313 -25 263 -16 217 1 C 171 18 132 43 100 75 C 67 107 42 147 24 193 C 6 239 -2 290 -2 348 C -2 418 10 484 34 545 C 58 605 90 658 132 703 C 174 747 223 782 279 808 C 335 833 395 846 459 846 C 517 846 567 836 610 817 C 652 797 687 772 715 740 C 743 708 763 671 777 630 C 790 588 797 546 797 502 Z M 705 496 C 705 534 700 569 690 603 C 680 636 665 665 645 689 C 624 713 598 733 566 747 C 534 761 497 768 453 768 C 411 768 372 761 336 749 C 299 736 266 718 236 694 C 206 670 179 642 157 608 C 135 574 118 537 106 496 L 705 496 Z M 636 976 L 511 1177 L 314 976 L 222 976 L 478 1245 L 558 1245 L 722 976 L 636 976 Z" unicode="ê" />
<glyph horiz-adv-x="909" d="M 797 502 C 797 488 796 474 796 459 C 795 443 794 431 793 422 L 92 422 C 90 411 89 400 89 390 C 88 380 88 369 88 358 C 88 313 94 272 106 235 C 118 197 137 165 162 138 C 187 111 218 90 256 75 C 293 60 337 53 387 53 C 443 53 494 62 542 81 C 589 99 632 124 672 156 L 723 100 C 705 85 685 70 661 55 C 637 40 610 27 580 15 C 550 3 518 -6 483 -14 C 447 -21 409 -25 369 -25 C 313 -25 263 -16 217 1 C 171 18 132 43 100 75 C 67 107 42 147 24 193 C 6 239 -2 290 -2 348 C -2 418 10 484 34 545 C 58 605 90 658 132 703 C 174 747 223 782 279 808 C 335 833 395 846 459 846 C 517 846 567 836 610 817 C 652 797 687 772 715 740 C 743 708 763 671 777 630 C 790 588 797 546 797 502 Z M 705 496 C 705 534 700 569 690 603 C 680 636 665 665 645 689 C 624 713 598 733 566 747 C 534 761 497 768 453 768 C 411 768 372 761 336 749 C 299 736 266 718 236 694 C 206 670 179 642 157 608 C 135 574 118 537 106 496 L 705 496 Z M 693 995 L 607 995 L 642 1182 L 726 1182 L 693 995 Z M 351 995 L 265 995 L 300 1182 L 384 1182 L 351 995 Z" unicode="ë" />
<glyph horiz-adv-x="350" d="M 84 0 L 0 0 L 145 821 L 229 821 L 84 0 Z M 154 995 L -26 1270 L 64 1270 L 238 995 L 154 995 Z" unicode="ì" />
<glyph horiz-adv-x="350" d="M 84 0 L 0 0 L 145 821 L 229 821 L 84 0 Z M 273 995 L 183 995 L 386 1270 L 482 1270 L 273 995 Z" unicode="í" />
<glyph horiz-adv-x="350" d="M 84 0 L 0 0 L 145 821 L 229 821 L 84 0 Z M 359 976 L 234 1177 L 37 976 L -55 976 L 201 1245 L 281 1245 L 445 976 L 359 976 Z" unicode="î" />
<glyph horiz-adv-x="350" d="M 84 0 L 0 0 L 145 821 L 229 821 L 84 0 Z M 423 995 L 337 995 L 372 1182 L 456 1182 L 423 995 Z M 81 995 L -5 995 L 30 1182 L 114 1182 L 81 995 Z" unicode="ï" />
<glyph horiz-adv-x="971" d="M 874 528 C 874 436 860 356 833 287 C 806 218 770 160 726 114 C 682 68 631 33 573 10 C 515 -13 456 -25 395 -25 C 335 -25 281 -14 235 6 C 188 27 149 55 117 91 C 85 126 60 167 44 213 C 28 259 20 308 20 360 C 20 423 31 484 54 543 C 77 602 109 654 151 699 C 192 744 242 780 300 807 C 358 834 423 848 494 848 C 530 848 563 844 593 836 C 623 828 650 817 674 804 C 697 790 717 775 733 757 C 749 739 762 721 770 702 C 768 742 763 784 755 826 C 746 868 734 909 720 951 C 706 993 689 1033 670 1073 C 651 1113 630 1150 608 1186 L 348 1081 L 319 1157 L 565 1255 C 532 1298 498 1338 462 1376 C 426 1414 389 1449 352 1481 L 399 1534 C 444 1500 487 1462 528 1421 C 569 1380 607 1335 643 1286 L 811 1354 L 840 1278 L 688 1217 C 724 1159 755 1101 779 1042 C 803 983 822 924 836 865 C 850 806 859 748 865 691 C 871 634 874 580 874 528 Z M 774 471 C 774 527 766 573 751 611 C 736 649 716 679 691 702 C 665 724 636 740 603 750 C 570 759 536 764 500 764 C 444 764 393 753 346 733 C 298 712 257 684 223 648 C 189 612 162 570 142 522 C 122 474 113 423 113 369 C 113 326 119 286 132 248 C 144 210 163 176 188 148 C 212 119 243 96 279 80 C 315 63 358 55 406 55 C 460 55 509 66 555 88 C 600 110 639 141 671 179 C 703 217 729 261 747 311 C 765 361 774 415 774 471 Z" unicode="ð" />
<glyph horiz-adv-x="918" d="M 666 0 L 582 0 L 672 512 C 678 550 679 585 674 617 C 669 649 659 676 643 699 C 627 722 605 740 578 753 C 551 765 519 772 481 772 C 443 772 406 763 372 747 C 337 731 306 710 278 684 C 250 658 227 630 209 598 C 190 566 178 535 172 504 L 84 0 L 0 0 L 145 821 L 229 821 L 205 686 C 221 708 239 729 261 749 C 282 769 305 786 331 800 C 356 814 383 826 412 834 C 440 842 470 846 500 846 C 552 846 596 837 632 821 C 668 804 696 781 718 752 C 739 723 753 689 759 650 C 765 611 765 569 758 524 L 666 0 Z M 794 1194 C 782 1126 762 1074 732 1039 C 702 1004 665 987 620 987 C 606 987 592 989 580 994 C 567 999 555 1006 544 1014 C 532 1022 521 1030 511 1040 C 501 1050 491 1059 481 1069 C 464 1084 447 1097 431 1109 C 415 1120 396 1126 375 1126 C 351 1126 331 1113 316 1088 C 301 1063 290 1032 284 995 L 209 995 C 213 1024 221 1051 231 1076 C 241 1101 253 1123 268 1141 C 282 1159 299 1174 319 1184 C 338 1194 359 1200 383 1200 C 410 1200 435 1192 458 1177 C 481 1162 502 1146 522 1130 C 539 1112 556 1096 574 1082 C 592 1068 610 1061 628 1061 C 651 1061 670 1072 685 1095 C 700 1117 711 1150 719 1194 L 794 1194 Z" unicode="ñ" />
<glyph horiz-adv-x="1004" d="M 879 479 C 879 408 866 342 840 281 C 814 219 778 166 733 121 C 688 75 636 40 576 14 C 516 -12 453 -25 387 -25 C 333 -25 282 -16 236 2 C 189 20 148 45 114 77 C 80 109 53 148 33 193 C 13 238 4 288 4 342 C 4 412 17 478 43 540 C 69 601 104 654 149 700 C 193 745 245 781 305 807 C 365 833 428 846 496 846 C 550 846 600 837 647 819 C 693 801 734 775 768 743 C 802 711 829 672 849 627 C 869 582 879 533 879 479 Z M 788 467 C 788 507 781 546 768 583 C 754 619 735 651 710 679 C 684 706 653 728 615 744 C 577 760 535 768 487 768 C 431 768 379 757 331 735 C 283 713 241 684 206 646 C 171 608 144 564 124 514 C 104 464 94 410 94 354 C 94 312 100 273 114 237 C 127 201 146 169 172 142 C 198 114 229 93 267 77 C 304 61 347 53 395 53 C 451 53 504 64 552 86 C 600 108 641 137 676 175 C 711 212 738 256 758 306 C 778 356 788 410 788 467 Z M 441 995 L 261 1270 L 351 1270 L 525 995 L 441 995 Z" unicode="ò" />
<glyph horiz-adv-x="1004" d="M 879 479 C 879 408 866 342 840 281 C 814 219 778 166 733 121 C 688 75 636 40 576 14 C 516 -12 453 -25 387 -25 C 333 -25 282 -16 236 2 C 189 20 148 45 114 77 C 80 109 53 148 33 193 C 13 238 4 288 4 342 C 4 412 17 478 43 540 C 69 601 104 654 149 700 C 193 745 245 781 305 807 C 365 833 428 846 496 846 C 550 846 600 837 647 819 C 693 801 734 775 768 743 C 802 711 829 672 849 627 C 869 582 879 533 879 479 Z M 788 467 C 788 507 781 546 768 583 C 754 619 735 651 710 679 C 684 706 653 728 615 744 C 577 760 535 768 487 768 C 431 768 379 757 331 735 C 283 713 241 684 206 646 C 171 608 144 564 124 514 C 104 464 94 410 94 354 C 94 312 100 273 114 237 C 127 201 146 169 172 142 C 198 114 229 93 267 77 C 304 61 347 53 395 53 C 451 53 504 64 552 86 C 600 108 641 137 676 175 C 711 212 738 256 758 306 C 778 356 788 410 788 467 Z M 533 995 L 443 995 L 646 1270 L 742 1270 L 533 995 Z" unicode="ó" />
<glyph horiz-adv-x="1004" d="M 879 479 C 879 408 866 342 840 281 C 814 219 778 166 733 121 C 688 75 636 40 576 14 C 516 -12 453 -25 387 -25 C 333 -25 282 -16 236 2 C 189 20 148 45 114 77 C 80 109 53 148 33 193 C 13 238 4 288 4 342 C 4 412 17 478 43 540 C 69 601 104 654 149 700 C 193 745 245 781 305 807 C 365 833 428 846 496 846 C 550 846 600 837 647 819 C 693 801 734 775 768 743 C 802 711 829 672 849 627 C 869 582 879 533 879 479 Z M 788 467 C 788 507 781 546 768 583 C 754 619 735 651 710 679 C 684 706 653 728 615 744 C 577 760 535 768 487 768 C 431 768 379 757 331 735 C 283 713 241 684 206 646 C 171 608 144 564 124 514 C 104 464 94 410 94 354 C 94 312 100 273 114 237 C 127 201 146 169 172 142 C 198 114 229 93 267 77 C 304 61 347 53 395 53 C 451 53 504 64 552 86 C 600 108 641 137 676 175 C 711 212 738 256 758 306 C 778 356 788 410 788 467 Z M 680 976 L 555 1177 L 358 976 L 266 976 L 522 1245 L 602 1245 L 766 976 L 680 976 Z" unicode="ô" />
<glyph horiz-adv-x="1004" d="M 879 479 C 879 408 866 342 840 281 C 814 219 778 166 733 121 C 688 75 636 40 576 14 C 516 -12 453 -25 387 -25 C 333 -25 282 -16 236 2 C 189 20 148 45 114 77 C 80 109 53 148 33 193 C 13 238 4 288 4 342 C 4 412 17 478 43 540 C 69 601 104 654 149 700 C 193 745 245 781 305 807 C 365 833 428 846 496 846 C 550 846 600 837 647 819 C 693 801 734 775 768 743 C 802 711 829 672 849 627 C 869 582 879 533 879 479 Z M 788 467 C 788 507 781 546 768 583 C 754 619 735 651 710 679 C 684 706 653 728 615 744 C 577 760 535 768 487 768 C 431 768 379 757 331 735 C 283 713 241 684 206 646 C 171 608 144 564 124 514 C 104 464 94 410 94 354 C 94 312 100 273 114 237 C 127 201 146 169 172 142 C 198 114 229 93 267 77 C 304 61 347 53 395 53 C 451 53 504 64 552 86 C 600 108 641 137 676 175 C 711 212 738 256 758 306 C 778 356 788 410 788 467 Z M 819 1194 C 807 1126 787 1074 757 1039 C 727 1004 690 987 645 987 C 631 987 617 989 605 994 C 592 999 580 1006 569 1014 C 557 1022 546 1030 536 1040 C 526 1050 516 1059 506 1069 C 489 1084 472 1097 456 1109 C 440 1120 421 1126 400 1126 C 376 1126 356 1113 341 1088 C 326 1063 315 1032 309 995 L 234 995 C 238 1024 246 1051 256 1076 C 266 1101 278 1123 293 1141 C 307 1159 324 1174 344 1184 C 363 1194 384 1200 408 1200 C 435 1200 460 1192 483 1177 C 506 1162 527 1146 547 1130 C 564 1112 581 1096 599 1082 C 617 1068 635 1061 653 1061 C 676 1061 695 1072 710 1095 C 725 1117 736 1150 744 1194 L 819 1194 Z" unicode="õ" />
<glyph horiz-adv-x="1004" d="M 879 479 C 879 408 866 342 840 281 C 814 219 778 166 733 121 C 688 75 636 40 576 14 C 516 -12 453 -25 387 -25 C 333 -25 282 -16 236 2 C 189 20 148 45 114 77 C 80 109 53 148 33 193 C 13 238 4 288 4 342 C 4 412 17 478 43 540 C 69 601 104 654 149 700 C 193 745 245 781 305 807 C 365 833 428 846 496 846 C 550 846 600 837 647 819 C 693 801 734 775 768 743 C 802 711 829 672 849 627 C 869 582 879 533 879 479 Z M 788 467 C 788 507 781 546 768 583 C 754 619 735 651 710 679 C 684 706 653 728 615 744 C 577 760 535 768 487 768 C 431 768 379 757 331 735 C 283 713 241 684 206 646 C 171 608 144 564 124 514 C 104 464 94 410 94 354 C 94 312 100 273 114 237 C 127 201 146 169 172 142 C 198 114 229 93 267 77 C 304 61 347 53 395 53 C 451 53 504 64 552 86 C 600 108 641 137 676 175 C 711 212 738 256 758 306 C 778 356 788 410 788 467 Z M 735 995 L 649 995 L 684 1182 L 768 1182 L 735 995 Z M 393 995 L 307 995 L 342 1182 L 426 1182 L 393 995 Z" unicode="ö" />
<glyph horiz-adv-x="1536" d="M 209 684 L 209 895 L 1327 895 L 1327 684 L 209 684 Z M 768 227 C 726 227 688 243 656 275 C 624 307 608 345 608 387 C 608 431 622 469 650 501 C 678 533 717 549 768 549 C 816 549 854 533 884 501 C 913 469 928 431 928 387 C 928 345 911 307 879 275 C 847 243 810 227 768 227 Z M 768 1028 C 726 1028 688 1044 656 1076 C 624 1108 608 1145 608 1188 C 608 1230 622 1267 650 1299 C 678 1331 717 1348 768 1348 C 816 1348 854 1331 884 1299 C 913 1267 928 1230 928 1188 C 928 1145 911 1108 879 1076 C 847 1044 810 1028 768 1028 Z" unicode="÷" />
<glyph horiz-adv-x="1010" d="M 803 698 C 826 666 844 630 856 591 C 868 552 874 513 874 473 C 874 402 861 336 836 276 C 810 215 776 162 733 118 C 689 73 638 38 579 13 C 520 -12 457 -25 391 -25 C 332 -25 280 -15 236 2 C 191 20 153 46 121 78 L 0 -31 L -43 14 L 80 125 C 57 157 40 191 29 228 C 17 265 12 304 12 346 C 12 410 24 472 48 532 C 72 592 105 645 148 691 C 191 737 242 773 302 801 C 361 828 426 842 498 842 C 555 842 605 833 649 815 C 693 797 730 773 762 743 L 887 854 L 928 809 L 803 698 Z M 702 686 C 676 709 646 728 611 743 C 576 758 535 766 489 766 C 433 766 381 754 333 732 C 285 710 244 680 209 642 C 174 604 147 561 127 511 C 107 461 98 409 98 354 C 98 294 114 239 147 188 L 702 686 Z M 788 465 C 788 495 783 525 775 555 C 767 585 754 612 737 637 L 182 137 C 206 111 236 91 272 76 C 308 60 349 53 397 53 C 452 53 503 64 551 86 C 599 108 640 137 675 175 C 710 213 738 256 758 306 C 778 356 788 409 788 465 Z" unicode="ø" />
<glyph horiz-adv-x="918" d="M 651 0 L 567 0 L 592 135 C 576 111 557 90 536 71 C 514 51 491 34 466 20 C 440 6 413 -5 385 -13 C 356 -21 327 -25 297 -25 C 245 -25 201 -16 165 0 C 129 16 100 39 79 68 C 57 97 43 131 37 170 C 30 209 31 251 39 297 L 131 821 L 215 821 L 125 309 C 118 271 117 236 122 204 C 126 172 137 144 153 121 C 169 98 190 80 217 68 C 244 55 277 49 315 49 C 353 49 389 57 424 73 C 459 89 490 110 518 136 C 546 162 569 190 588 222 C 606 254 619 285 625 317 L 713 821 L 797 821 L 651 0 Z M 466 976 L 286 1251 L 376 1251 L 550 976 L 466 976 Z" unicode="ù" />
<glyph horiz-adv-x="918" d="M 651 0 L 567 0 L 592 135 C 576 111 557 90 536 71 C 514 51 491 34 466 20 C 440 6 413 -5 385 -13 C 356 -21 327 -25 297 -25 C 245 -25 201 -16 165 0 C 129 16 100 39 79 68 C 57 97 43 131 37 170 C 30 209 31 251 39 297 L 131 821 L 215 821 L 125 309 C 118 271 117 236 122 204 C 126 172 137 144 153 121 C 169 98 190 80 217 68 C 244 55 277 49 315 49 C 353 49 389 57 424 73 C 459 89 490 110 518 136 C 546 162 569 190 588 222 C 606 254 619 285 625 317 L 713 821 L 797 821 L 651 0 Z M 485 976 L 395 976 L 598 1251 L 694 1251 L 485 976 Z" unicode="ú" />
<glyph horiz-adv-x="918" d="M 651 0 L 567 0 L 592 135 C 576 111 557 90 536 71 C 514 51 491 34 466 20 C 440 6 413 -5 385 -13 C 356 -21 327 -25 297 -25 C 245 -25 201 -16 165 0 C 129 16 100 39 79 68 C 57 97 43 131 37 170 C 30 209 31 251 39 297 L 131 821 L 215 821 L 125 309 C 118 271 117 236 122 204 C 126 172 137 144 153 121 C 169 98 190 80 217 68 C 244 55 277 49 315 49 C 353 49 389 57 424 73 C 459 89 490 110 518 136 C 546 162 569 190 588 222 C 606 254 619 285 625 317 L 713 821 L 797 821 L 651 0 Z M 639 976 L 514 1177 L 317 976 L 225 976 L 481 1245 L 561 1245 L 725 976 L 639 976 Z" unicode="û" />
<glyph horiz-adv-x="918" d="M 651 0 L 567 0 L 592 135 C 576 111 557 90 536 71 C 514 51 491 34 466 20 C 440 6 413 -5 385 -13 C 356 -21 327 -25 297 -25 C 245 -25 201 -16 165 0 C 129 16 100 39 79 68 C 57 97 43 131 37 170 C 30 209 31 251 39 297 L 131 821 L 215 821 L 125 309 C 118 271 117 236 122 204 C 126 172 137 144 153 121 C 169 98 190 80 217 68 C 244 55 277 49 315 49 C 353 49 389 57 424 73 C 459 89 490 110 518 136 C 546 162 569 190 588 222 C 606 254 619 285 625 317 L 713 821 L 797 821 L 651 0 Z M 698 976 L 612 976 L 647 1163 L 731 1163 L 698 976 Z M 356 976 L 270 976 L 305 1163 L 389 1163 L 356 976 Z" unicode="ü" />
<glyph horiz-adv-x="811" d="M 195 -219 C 181 -243 166 -266 150 -286 C 134 -306 116 -324 97 -339 C 78 -354 58 -366 36 -374 C 14 -382 -9 -387 -35 -387 C -84 -387 -123 -378 -152 -362 L -137 -281 C -123 -291 -108 -298 -92 -303 C -76 -308 -57 -311 -35 -311 C -16 -311 1 -307 17 -300 C 33 -292 48 -282 62 -270 C 76 -258 89 -243 101 -227 C 113 -210 125 -192 135 -174 L 240 10 L 47 821 L 133 821 L 299 102 L 696 821 L 788 821 L 195 -219 Z M 431 976 L 341 976 L 544 1251 L 640 1251 L 431 976 Z" unicode="ý" />
<glyph horiz-adv-x="997" d="M 877 492 C 877 414 864 344 838 280 C 812 216 778 161 735 115 C 692 69 642 34 586 9 C 530 -16 471 -29 410 -29 C 374 -29 340 -24 310 -16 C 280 -8 252 3 227 17 C 202 31 179 47 159 67 C 139 86 121 107 106 129 L 16 -367 L -70 -367 L 262 1495 L 350 1495 L 201 647 C 215 675 235 702 259 727 C 283 751 309 773 339 791 C 369 809 401 823 435 833 C 469 843 503 848 539 848 C 590 848 636 838 678 820 C 720 801 755 775 785 743 C 814 711 837 673 853 630 C 869 586 877 540 877 492 Z M 788 477 C 788 525 781 567 768 603 C 754 639 736 670 712 694 C 688 718 660 736 627 748 C 594 760 558 766 520 766 C 478 766 438 757 399 741 C 359 725 323 701 291 670 C 258 639 230 601 206 557 C 182 512 166 462 156 406 L 125 231 C 148 179 184 136 233 103 C 281 69 344 53 420 53 C 473 53 522 64 567 87 C 612 109 651 140 684 179 C 716 217 742 262 760 314 C 778 365 788 419 788 477 Z" unicode="þ" />
<glyph horiz-adv-x="811" d="M 195 -219 C 181 -243 166 -266 150 -286 C 134 -306 116 -324 97 -339 C 78 -354 58 -366 36 -374 C 14 -382 -9 -387 -35 -387 C -84 -387 -123 -378 -152 -362 L -137 -281 C -123 -291 -108 -298 -92 -303 C -76 -308 -57 -311 -35 -311 C -16 -311 1 -307 17 -300 C 33 -292 48 -282 62 -270 C 76 -258 89 -243 101 -227 C 113 -210 125 -192 135 -174 L 240 10 L 47 821 L 133 821 L 299 102 L 696 821 L 788 821 L 195 -219 Z M 652 976 L 566 976 L 601 1163 L 685 1163 L 652 976 Z M 310 976 L 224 976 L 259 1163 L 343 1163 L 310 976 Z" unicode="ÿ" />
<glyph horiz-adv-x="350" d="M 84 0 L 0 0 L 145 821 L 229 821 L 84 0 Z" unicode="ı" />
<glyph horiz-adv-x="991" d="M 295 1495 L 387 1495 L 256 750 L 580 864 L 606 786 L 240 655 L 137 82 L 819 82 L 805 0 L 31 0 L 141 621 L 8 573 L -20 651 L 158 715 L 295 1495 Z" unicode="Ł" />
<glyph horiz-adv-x="416" d="M 354 801 L 381 723 L 201 657 L 84 0 L 0 0 L 111 625 L -4 584 L -31 664 L 127 719 L 264 1495 L 348 1495 L 217 752 L 354 801 Z" unicode="ł" />
<glyph horiz-adv-x="2320" d="M 2351 1413 L 1681 1413 L 1577 829 L 2175 829 L 2161 752 L 1563 752 L 1444 82 L 2152 82 L 2138 0 L 1346 0 L 1413 379 C 1379 319 1338 265 1290 215 C 1242 165 1190 123 1133 87 C 1075 51 1013 24 947 4 C 880 -15 811 -25 739 -25 C 643 -25 555 -8 475 25 C 395 58 327 103 270 161 C 213 219 169 287 137 365 C 105 443 90 528 90 618 C 90 701 99 781 119 859 C 139 936 167 1008 203 1075 C 239 1141 283 1202 334 1257 C 384 1311 440 1358 502 1397 C 564 1436 630 1466 702 1488 C 774 1509 848 1520 926 1520 C 1004 1520 1077 1507 1145 1483 C 1213 1458 1273 1424 1326 1382 C 1379 1340 1423 1290 1459 1233 C 1495 1175 1519 1114 1532 1049 L 1610 1495 L 2363 1495 L 2351 1413 Z M 1481 868 C 1481 946 1467 1020 1440 1089 C 1413 1158 1375 1218 1325 1270 C 1275 1321 1215 1361 1145 1391 C 1075 1421 997 1436 911 1436 C 838 1436 769 1425 705 1405 C 641 1384 581 1355 527 1318 C 473 1281 424 1237 382 1187 C 339 1136 303 1081 273 1022 C 243 962 220 900 204 834 C 188 768 180 701 180 633 C 180 552 193 477 219 407 C 245 337 283 277 333 225 C 382 173 442 133 512 103 C 582 73 662 59 750 59 C 820 59 888 69 952 90 C 1016 110 1075 139 1129 176 C 1183 212 1231 256 1275 306 C 1318 356 1355 412 1386 472 C 1416 532 1440 595 1456 662 C 1472 729 1481 798 1481 868 Z" unicode="Œ" />
<glyph horiz-adv-x="1761" d="M 1616 494 C 1616 481 1615 468 1615 455 C 1614 442 1613 432 1612 424 L 870 424 C 868 413 867 402 867 391 C 866 380 866 368 866 356 C 866 315 872 276 886 239 C 899 202 918 170 944 142 C 969 114 1000 91 1038 75 C 1076 59 1119 51 1169 51 C 1225 51 1276 60 1323 78 C 1369 96 1414 122 1456 156 L 1505 102 C 1487 86 1466 70 1443 55 C 1420 39 1394 26 1366 14 C 1338 2 1307 -7 1273 -14 C 1239 -21 1203 -25 1165 -25 C 1116 -25 1072 -18 1032 -5 C 992 7 958 25 928 48 C 898 70 872 97 852 127 C 832 157 817 190 807 225 C 787 188 763 154 734 124 C 705 93 673 67 637 45 C 601 23 562 5 520 -6 C 478 -18 435 -25 391 -25 C 329 -25 275 -14 228 5 C 180 25 141 53 109 87 C 77 121 52 161 36 206 C 20 250 12 297 12 346 C 12 410 24 472 48 532 C 72 592 105 645 148 691 C 191 737 242 773 302 801 C 361 828 426 842 498 842 C 546 842 589 835 629 822 C 668 808 702 790 732 768 C 762 745 786 718 806 688 C 826 658 840 626 850 592 C 867 628 889 661 917 692 C 945 722 976 749 1012 771 C 1047 793 1086 811 1128 823 C 1170 835 1215 842 1262 842 C 1320 842 1371 832 1415 812 C 1459 792 1496 766 1526 734 C 1556 701 1578 664 1593 622 C 1608 580 1616 538 1616 494 Z M 1532 492 C 1532 532 1526 569 1514 603 C 1502 637 1485 666 1462 690 C 1438 714 1409 733 1375 747 C 1341 761 1301 768 1255 768 C 1211 768 1170 761 1132 748 C 1093 734 1058 715 1026 691 C 994 667 966 638 942 604 C 918 570 899 532 887 492 L 1532 492 Z M 788 465 C 788 504 781 542 769 578 C 756 614 737 646 712 674 C 687 702 656 724 619 741 C 581 757 538 766 489 766 C 433 766 381 754 333 732 C 285 710 244 680 209 642 C 174 604 147 561 127 511 C 107 461 98 409 98 354 C 98 314 104 276 117 240 C 129 204 148 172 174 144 C 199 116 230 94 267 78 C 304 61 347 53 397 53 C 452 53 503 64 551 86 C 599 108 640 137 675 175 C 710 213 738 256 758 306 C 778 356 788 409 788 465 Z" unicode="œ" />
<glyph horiz-adv-x="987" d="M 891 1284 C 853 1339 810 1378 761 1400 C 711 1422 655 1434 592 1434 C 548 1434 508 1427 470 1413 C 432 1399 398 1380 369 1355 C 340 1329 317 1299 301 1263 C 284 1227 276 1187 276 1143 C 276 1112 280 1083 290 1056 C 300 1028 315 1001 337 975 C 358 949 386 922 420 894 C 454 866 497 837 547 805 C 597 773 640 742 678 712 C 716 682 747 651 772 619 C 796 587 815 552 827 516 C 839 479 846 438 846 393 C 846 330 832 273 806 222 C 780 170 745 126 701 90 C 657 53 606 25 548 5 C 490 -15 431 -25 369 -25 C 330 -25 292 -20 255 -12 C 218 -3 183 8 150 24 C 116 40 85 58 57 80 C 28 102 3 126 -18 152 L 53 213 C 72 191 93 171 117 153 C 141 134 166 118 194 104 C 222 90 251 80 282 72 C 312 64 345 61 379 61 C 429 61 476 68 520 84 C 564 99 603 120 637 148 C 670 176 696 209 716 248 C 735 287 745 331 745 379 C 745 415 739 449 729 480 C 719 511 702 541 680 570 C 657 599 628 628 592 657 C 556 685 512 716 461 748 C 421 772 383 798 349 825 C 315 851 285 880 259 911 C 233 941 213 975 199 1012 C 185 1048 178 1089 178 1135 C 178 1189 189 1240 211 1287 C 233 1334 263 1375 301 1409 C 339 1443 384 1470 436 1490 C 487 1510 542 1520 600 1520 C 682 1520 754 1505 816 1476 C 877 1446 929 1401 971 1339 L 891 1284 Z M 658 1622 L 580 1622 L 416 1891 L 504 1891 L 631 1700 L 832 1891 L 918 1891 L 658 1622 Z" unicode="Š" />
<glyph horiz-adv-x="733" d="M 565 678 C 535 706 501 728 465 744 C 429 760 389 768 346 768 C 318 768 293 764 270 757 C 247 750 227 740 210 728 C 193 716 180 701 170 683 C 160 665 156 646 156 625 C 156 607 159 590 165 576 C 171 561 182 547 196 535 C 210 523 228 511 250 500 C 272 488 300 477 332 465 C 370 451 403 436 432 421 C 460 406 484 389 503 371 C 522 352 536 331 546 307 C 556 283 561 255 561 223 C 561 183 552 149 534 119 C 516 89 492 63 463 43 C 434 23 401 7 365 -2 C 329 -12 292 -18 256 -18 C 195 -18 141 -8 93 11 C 45 31 3 55 -33 84 L 16 152 C 51 124 89 100 130 82 C 171 64 214 55 258 55 C 287 55 315 58 341 65 C 367 72 389 82 409 96 C 429 109 444 125 456 145 C 467 164 473 186 473 211 C 473 232 470 251 464 268 C 458 284 447 300 431 314 C 415 328 395 341 369 355 C 343 368 310 382 270 397 C 242 407 216 418 192 431 C 168 443 147 458 129 476 C 111 493 96 513 86 536 C 75 558 70 585 70 616 C 70 650 77 682 93 710 C 108 738 129 761 155 780 C 181 799 212 814 247 824 C 281 834 318 840 356 840 C 464 840 554 805 625 737 L 565 678 Z M 409 976 L 331 976 L 167 1245 L 255 1245 L 382 1054 L 583 1245 L 669 1245 L 409 976 Z" unicode="š" />
<glyph horiz-adv-x="1286" d="M 678 713 L 553 0 L 461 0 L 588 715 L 188 1495 L 291 1495 L 649 799 L 1247 1495 L 1360 1495 L 678 713 Z M 970 1620 L 884 1620 L 919 1807 L 1003 1807 L 970 1620 Z M 628 1620 L 542 1620 L 577 1807 L 661 1807 L 628 1620 Z" unicode="Ÿ" />
<glyph horiz-adv-x="1284" d="M 135 82 L 1059 82 L 1044 0 L -43 0 L 1128 1413 L 313 1413 L 328 1495 L 1305 1495 L 135 82 Z M 832 1622 L 754 1622 L 590 1891 L 678 1891 L 805 1700 L 1006 1891 L 1092 1891 L 832 1622 Z" unicode="Ž" />
<glyph horiz-adv-x="856" d="M 88 76 L 643 76 L 629 0 L -90 0 L 631 745 L 119 745 L 133 821 L 811 821 L 88 76 Z M 494 971 L 416 971 L 252 1240 L 340 1240 L 467 1049 L 668 1240 L 754 1240 L 494 971 Z" unicode="ž" />
<glyph horiz-adv-x="518" d="M 573 1417 C 571 1417 568 1418 563 1418 C 557 1418 551 1419 545 1419 C 538 1419 532 1420 526 1420 C 520 1420 516 1421 514 1421 C 486 1421 463 1416 445 1408 C 427 1400 412 1388 400 1374 C 388 1360 379 1343 373 1323 C 367 1303 362 1281 358 1257 L 285 829 L 451 829 L 438 752 L 270 752 L 263 713 C 259 687 253 652 246 610 C 239 568 231 520 222 466 C 212 412 203 356 193 300 L 115 -152 C 107 -194 97 -228 84 -256 C 70 -283 54 -305 35 -322 C 15 -338 -6 -350 -30 -357 C -54 -363 -81 -367 -111 -367 C -120 -367 -130 -366 -141 -365 C -152 -364 -160 -362 -166 -360 L -152 -287 C -148 -288 -144 -289 -138 -290 C -132 -290 -126 -291 -121 -291 C -93 -291 -70 -287 -52 -281 C -34 -275 -20 -265 -9 -252 C 2 -238 11 -221 17 -201 C 23 -181 29 -157 35 -129 L 186 752 L 68 752 L 80 829 L 199 829 L 279 1280 C 292 1355 318 1410 357 1445 C 395 1479 444 1497 502 1497 C 506 1497 513 1496 521 1496 C 529 1496 538 1495 547 1495 C 556 1495 564 1494 572 1493 C 580 1492 585 1491 588 1491 L 573 1417 Z" unicode="ƒ" />
<glyph horiz-adv-x="895" d="M 637 995 L 512 1196 L 315 995 L 223 995 L 479 1264 L 559 1264 L 723 995 L 637 995 Z" unicode="ˆ" />
<glyph horiz-adv-x="895" d="M 494 995 L 416 995 L 252 1264 L 340 1264 L 467 1073 L 668 1264 L 754 1264 L 494 995 Z" unicode="ˇ" />
<glyph horiz-adv-x="895" d="M 758 1018 L 201 1018 L 207 1087 L 764 1087 L 758 1018 Z" unicode="ˉ" />
<glyph horiz-adv-x="895" d="M 774 1260 C 764 1216 749 1178 729 1144 C 708 1110 683 1082 655 1059 C 626 1035 594 1017 560 1005 C 526 993 491 987 455 987 C 418 987 385 993 355 1005 C 325 1017 299 1035 279 1059 C 259 1082 244 1110 236 1144 C 227 1178 226 1216 233 1260 L 311 1260 C 307 1232 307 1205 313 1181 C 319 1157 328 1136 342 1118 C 356 1100 373 1086 394 1076 C 415 1066 439 1061 465 1061 C 491 1061 517 1066 543 1076 C 568 1086 591 1101 612 1119 C 632 1137 650 1158 665 1182 C 679 1206 690 1232 696 1260 L 774 1260 Z" unicode="˘" />
<glyph horiz-adv-x="895" d="M 362 1038 L 274 1038 L 303 1194 L 391 1194 L 362 1038 Z" unicode="˙" />
<glyph horiz-adv-x="895" d="M 682 1196 C 682 1166 676 1138 665 1112 C 653 1086 638 1064 618 1045 C 598 1025 576 1010 550 999 C 524 988 496 983 467 983 C 441 983 417 987 395 997 C 372 1007 352 1020 335 1037 C 318 1054 305 1074 295 1097 C 285 1119 281 1144 281 1171 C 281 1200 286 1227 298 1253 C 309 1279 324 1301 344 1321 C 364 1340 386 1355 412 1367 C 438 1378 465 1384 494 1384 C 519 1384 543 1379 566 1369 C 589 1359 609 1346 626 1330 C 643 1313 657 1293 667 1270 C 677 1247 682 1222 682 1196 Z M 616 1194 C 616 1211 612 1227 606 1243 C 600 1258 591 1271 580 1283 C 569 1295 556 1304 542 1311 C 527 1317 511 1321 494 1321 C 474 1321 456 1317 438 1309 C 420 1301 405 1291 391 1278 C 377 1265 366 1250 358 1232 C 350 1214 346 1196 346 1176 C 346 1158 349 1141 355 1125 C 361 1109 370 1096 381 1084 C 392 1072 405 1063 419 1057 C 433 1050 449 1047 465 1047 C 487 1047 508 1051 527 1059 C 545 1067 561 1078 575 1092 C 588 1106 598 1121 605 1139 C 612 1157 616 1175 616 1194 Z" unicode="˚" />
<glyph horiz-adv-x="895" d="M 608 -307 C 578 -327 546 -343 513 -353 C 480 -363 448 -369 416 -369 C 390 -369 364 -365 339 -359 C 313 -353 291 -343 272 -330 C 252 -317 237 -301 225 -281 C 213 -261 207 -239 207 -213 C 207 -194 211 -174 219 -154 C 227 -133 240 -112 258 -92 C 276 -72 298 -52 326 -33 C 353 -13 386 4 424 20 L 514 20 C 440 -16 383 -54 345 -92 C 306 -130 287 -169 287 -209 C 287 -243 299 -268 325 -284 C 350 -300 382 -309 420 -309 C 446 -309 472 -305 498 -298 C 524 -290 550 -278 578 -262 L 608 -307 Z" unicode="˛" />
<glyph horiz-adv-x="895" d="M 784 1194 C 772 1126 752 1074 722 1039 C 692 1004 655 987 610 987 C 596 987 582 989 570 994 C 557 999 545 1006 534 1014 C 522 1022 511 1030 501 1040 C 491 1050 481 1059 471 1069 C 454 1084 437 1097 421 1109 C 405 1120 386 1126 365 1126 C 341 1126 321 1113 306 1088 C 291 1063 280 1032 274 995 L 199 995 C 203 1024 211 1051 221 1076 C 231 1101 243 1123 258 1141 C 272 1159 289 1174 309 1184 C 328 1194 349 1200 373 1200 C 400 1200 425 1192 448 1177 C 471 1162 492 1146 512 1130 C 529 1112 546 1096 564 1082 C 582 1068 600 1061 618 1061 C 641 1061 660 1072 675 1095 C 690 1117 701 1150 709 1194 L 784 1194 Z" unicode="˜" />
<glyph horiz-adv-x="895" d="M 567 995 L 485 995 L 653 1272 L 748 1272 L 567 995 Z M 287 995 L 205 995 L 373 1272 L 469 1272 L 287 995 Z" unicode="˝" />
<glyph horiz-adv-x="1536" d="M 76 0 L 651 1536 L 885 1536 L 1456 0 L 76 0 Z M 352 147 L 1163 147 L 752 1255 L 352 147 Z" unicode="Δ" />
<glyph horiz-adv-x="1663" d="M 831 1376 C 705 1376 598 1328 510 1234 C 421 1139 377 1006 377 836 C 377 673 406 538 465 432 C 523 325 610 241 725 180 L 725 0 L 88 0 L 88 197 L 537 197 C 456 225 378 295 304 405 C 230 515 193 663 193 848 C 193 1024 248 1184 358 1330 C 468 1475 626 1548 831 1548 C 1037 1548 1196 1478 1307 1338 C 1417 1198 1473 1034 1473 848 C 1473 663 1435 515 1360 405 C 1284 295 1207 225 1128 197 L 1577 197 L 1577 0 L 940 0 L 940 180 C 1054 241 1141 325 1200 432 C 1258 538 1288 673 1288 836 C 1288 974 1246 1099 1162 1210 C 1078 1320 967 1376 831 1376 Z" unicode="Ω" />
<glyph horiz-adv-x="1407" d="M 252 -424 C 215 -424 187 -413 168 -392 C 148 -370 139 -333 139 -281 C 139 -168 144 -41 156 100 C 166 234 172 310 172 328 L 176 356 L 176 1176 L 369 1176 L 369 319 C 369 257 396 210 450 176 C 504 142 564 125 629 125 C 716 125 792 146 858 190 C 923 234 973 297 1008 381 L 1008 1176 L 1200 1176 L 1200 307 L 1221 0 L 1057 0 L 1020 176 C 974 104 913 49 836 13 C 759 -22 671 -41 571 -41 C 537 -41 494 -32 444 -14 C 394 3 354 27 324 59 C 324 0 333 -57 352 -113 C 371 -169 381 -219 381 -264 C 381 -370 338 -424 252 -424 Z" unicode="μ" />
<glyph horiz-adv-x="1407" d="M 297 0 L 297 1028 L 12 1028 L 12 1176 L 1317 1176 L 1317 1028 L 995 1028 L 995 344 C 995 266 1010 212 1041 183 C 1071 153 1108 139 1151 139 C 1183 139 1210 139 1232 141 C 1253 142 1274 147 1296 156 L 1296 29 C 1263 12 1233 0 1205 -6 C 1177 -12 1137 -16 1087 -16 C 1003 -16 936 10 886 63 C 836 116 811 207 811 336 L 811 1028 L 483 1028 L 483 0 L 297 0 Z" unicode="π" />
<glyph horiz-adv-x="1024" d="" unicode=" " />
<glyph horiz-adv-x="2048" d="" unicode=" " />
<glyph horiz-adv-x="410" d="" unicode=" " />
<glyph horiz-adv-x="840" d="M 657 422 L 63 422 L 78 504 L 672 504 L 657 422 Z" unicode="–" />
<glyph horiz-adv-x="1167" d="M 985 422 L 63 422 L 78 504 L 999 504 L 985 422 Z" unicode="—" />
<glyph horiz-adv-x="338" d="M 395 1495 C 379 1477 367 1460 357 1443 C 347 1425 339 1408 333 1390 C 327 1372 322 1354 318 1336 C 314 1317 311 1298 307 1278 L 283 1133 L 190 1133 L 215 1274 C 217 1292 222 1312 230 1332 C 238 1352 247 1371 258 1391 C 268 1410 280 1429 294 1447 C 308 1465 322 1481 338 1495 L 395 1495 Z" unicode="‘" />
<glyph horiz-adv-x="338" d="M 322 1354 C 318 1335 312 1316 304 1296 C 296 1276 287 1256 277 1237 C 266 1217 254 1199 241 1181 C 227 1163 213 1147 199 1133 L 141 1133 C 155 1150 167 1167 177 1185 C 187 1202 195 1219 201 1237 C 207 1255 212 1273 216 1292 C 220 1310 223 1330 227 1350 L 254 1495 L 346 1495 L 322 1354 Z" unicode="’" />
<glyph horiz-adv-x="338" d="M 88 31 C 84 12 79 -7 71 -27 C 63 -47 54 -66 44 -86 C 34 -105 22 -124 8 -142 C -5 -160 -19 -176 -35 -190 L -92 -190 C -76 -172 -64 -155 -54 -138 C -44 -120 -37 -103 -31 -85 C -25 -67 -20 -49 -16 -31 C -12 -12 -9 7 -6 27 L 20 172 L 113 172 L 88 31 Z" unicode="‚" />
<glyph horiz-adv-x="573" d="M 631 1495 C 615 1477 603 1460 593 1443 C 583 1425 575 1408 569 1390 C 563 1372 558 1354 554 1336 C 550 1317 546 1298 543 1278 L 518 1133 L 426 1133 L 451 1274 C 453 1292 458 1312 466 1332 C 474 1352 483 1371 494 1391 C 504 1410 516 1429 530 1447 C 543 1465 557 1481 573 1495 L 631 1495 Z M 395 1495 C 379 1477 367 1460 357 1443 C 347 1425 339 1408 333 1390 C 327 1372 322 1354 318 1336 C 314 1317 311 1298 307 1278 L 283 1133 L 190 1133 L 215 1274 C 217 1292 222 1312 230 1332 C 238 1352 247 1371 258 1391 C 268 1410 280 1429 294 1447 C 308 1465 322 1481 338 1495 L 395 1495 Z" unicode="“" />
<glyph horiz-adv-x="573" d="M 557 1354 C 553 1335 548 1316 540 1296 C 532 1276 523 1256 513 1237 C 502 1217 490 1199 476 1181 C 462 1163 448 1147 434 1133 L 377 1133 C 391 1150 403 1167 413 1185 C 423 1202 431 1219 437 1237 C 443 1255 448 1273 452 1292 C 456 1310 459 1330 463 1350 L 489 1495 L 582 1495 L 557 1354 Z M 322 1354 C 318 1335 312 1316 304 1296 C 296 1276 287 1256 277 1237 C 266 1217 254 1199 241 1181 C 227 1163 213 1147 199 1133 L 141 1133 C 155 1150 167 1167 177 1185 C 187 1202 195 1219 201 1237 C 207 1255 212 1273 216 1292 C 220 1310 223 1330 227 1350 L 254 1495 L 346 1495 L 322 1354 Z" unicode="”" />
<glyph horiz-adv-x="573" d="M 324 31 C 320 12 314 -7 307 -27 C 299 -47 290 -66 280 -86 C 269 -105 257 -124 244 -142 C 230 -160 216 -176 201 -190 L 143 -190 C 158 -172 170 -155 180 -138 C 190 -120 198 -103 204 -85 C 210 -67 214 -49 218 -31 C 222 -12 225 7 229 27 L 256 172 L 348 172 L 324 31 Z M 88 31 C 84 12 79 -7 71 -27 C 63 -47 54 -66 44 -86 C 34 -105 22 -124 8 -142 C -5 -160 -19 -176 -35 -190 L -92 -190 C -76 -172 -64 -155 -54 -138 C -44 -120 -37 -103 -31 -85 C -25 -67 -20 -49 -16 -31 C -12 -12 -9 7 -6 27 L 20 172 L 113 172 L 88 31 Z" unicode="„" />
<glyph horiz-adv-x="1030" d="M 1001 823 L 569 823 L 358 -367 L 274 -367 L 485 823 L 53 823 L 66 897 L 498 897 L 604 1495 L 688 1495 L 582 897 L 1014 897 L 1001 823 Z" unicode="†" />
<glyph horiz-adv-x="1030" d="M 1001 823 L 569 823 L 483 332 L 915 332 L 901 258 L 469 258 L 358 -367 L 274 -367 L 385 258 L -47 258 L -33 332 L 399 332 L 485 823 L 53 823 L 66 897 L 498 897 L 604 1495 L 688 1495 L 582 897 L 1014 897 L 1001 823 Z" unicode="‡" />
<glyph horiz-adv-x="606" d="M 463 776 C 463 754 458 733 450 714 C 442 694 430 677 416 663 C 401 648 384 636 365 628 C 345 620 325 616 303 616 C 281 616 260 620 241 628 C 221 636 204 648 190 663 C 175 677 163 694 155 714 C 147 733 143 754 143 776 C 143 798 147 818 155 838 C 163 857 175 874 190 889 C 204 903 221 915 241 923 C 260 931 281 936 303 936 C 325 936 345 931 365 923 C 384 915 401 903 416 889 C 430 874 442 857 450 838 C 458 818 463 798 463 776 Z" unicode="•" />
<glyph horiz-adv-x="1044" d="M 803 0 L 713 0 L 745 186 L 836 186 L 803 0 Z M 442 0 L 352 0 L 385 186 L 475 186 L 442 0 Z M 82 0 L -8 0 L 27 186 L 115 186 L 82 0 Z" unicode="…" />
<glyph horiz-adv-x="2181" d="M 760 1231 C 760 1164 750 1101 730 1043 C 710 984 683 933 650 889 C 617 845 579 811 536 786 C 493 760 449 748 403 748 C 363 748 328 755 298 769 C 268 783 243 803 223 829 C 203 854 187 884 177 920 C 167 955 162 994 162 1036 C 162 1102 171 1165 191 1224 C 211 1282 237 1334 270 1378 C 303 1422 341 1456 384 1482 C 427 1507 472 1520 518 1520 C 558 1520 593 1512 623 1498 C 653 1484 679 1464 699 1438 C 719 1412 734 1382 744 1347 C 754 1311 760 1273 760 1231 Z M 156 0 L 55 0 L 1337 1495 L 1438 1495 L 156 0 Z M 2017 459 C 2017 392 2007 329 1987 271 C 1967 212 1940 161 1907 117 C 1874 73 1836 38 1794 13 C 1751 -12 1707 -25 1661 -25 C 1621 -25 1585 -17 1555 -3 C 1525 10 1500 30 1480 56 C 1460 82 1444 112 1434 148 C 1424 183 1419 222 1419 264 C 1419 330 1429 393 1449 452 C 1469 510 1495 562 1528 606 C 1561 650 1599 684 1642 710 C 1685 735 1730 748 1776 748 C 1816 748 1851 740 1881 726 C 1911 712 1936 692 1956 666 C 1976 640 1991 610 2001 575 C 2011 539 2017 501 2017 459 Z M 1331 459 C 1331 392 1321 329 1301 271 C 1281 212 1254 161 1221 117 C 1188 73 1150 38 1108 13 C 1065 -12 1021 -25 975 -25 C 935 -25 899 -17 869 -3 C 839 10 814 30 794 56 C 774 82 758 112 748 148 C 738 183 733 222 733 264 C 733 330 743 393 763 452 C 783 510 809 562 842 606 C 875 650 913 684 956 710 C 999 735 1044 748 1090 748 C 1130 748 1165 740 1195 726 C 1225 712 1250 692 1270 666 C 1290 640 1305 610 1315 575 C 1325 539 1331 501 1331 459 Z M 670 1225 C 670 1257 666 1286 659 1313 C 651 1340 641 1363 627 1383 C 613 1402 596 1417 576 1428 C 556 1438 533 1444 508 1444 C 473 1444 440 1433 409 1412 C 378 1390 351 1361 328 1325 C 304 1289 286 1246 272 1197 C 258 1148 252 1096 252 1042 C 252 1010 255 980 263 953 C 270 926 280 903 294 884 C 308 864 325 849 345 839 C 365 828 388 823 414 823 C 448 823 481 833 512 855 C 543 876 570 905 594 942 C 617 978 635 1021 649 1070 C 663 1118 670 1170 670 1225 Z M 1927 453 C 1927 485 1923 514 1916 541 C 1908 568 1898 591 1884 611 C 1870 630 1854 645 1834 656 C 1814 666 1791 672 1765 672 C 1730 672 1697 661 1666 640 C 1635 618 1608 589 1585 553 C 1561 516 1543 473 1529 425 C 1515 376 1509 324 1509 270 C 1509 238 1512 208 1520 181 C 1527 154 1538 131 1552 112 C 1566 92 1583 77 1603 67 C 1623 56 1645 51 1671 51 C 1705 51 1738 61 1769 83 C 1800 104 1827 133 1851 169 C 1874 205 1892 248 1906 297 C 1920 345 1927 397 1927 453 Z M 1241 453 C 1241 485 1237 514 1230 541 C 1222 568 1212 591 1198 611 C 1184 630 1168 645 1148 656 C 1128 666 1105 672 1079 672 C 1044 672 1011 661 980 640 C 949 618 922 589 899 553 C 875 516 857 473 843 425 C 829 376 823 324 823 270 C 823 238 826 208 834 181 C 841 154 852 131 866 112 C 880 92 897 77 917 67 C 937 56 959 51 985 51 C 1019 51 1052 61 1083 83 C 1114 104 1141 133 1165 169 C 1188 205 1206 248 1220 297 C 1234 345 1241 397 1241 453 Z" unicode="‰" />
<glyph horiz-adv-x="451" d="M 322 606 L 74 416 L 250 236 L 236 141 L -10 381 L 4 457 L 340 698 L 322 606 Z" unicode="‹" />
<glyph horiz-adv-x="451" d="M 358 385 L 23 143 L 43 236 L 291 428 L 115 606 L 127 698 L 373 461 L 358 385 Z" unicode="›" />
<glyph horiz-adv-x="782" d="M -127 0 L -223 0 L 907 1495 L 1004 1495 L -127 0 Z" unicode="⁄" />
<glyph horiz-adv-x="1161" d="M 1104 1208 C 1092 1238 1079 1267 1063 1295 C 1047 1323 1027 1347 1005 1368 C 982 1388 955 1405 925 1417 C 895 1429 859 1436 819 1436 C 757 1436 700 1421 647 1392 C 593 1363 545 1323 501 1273 C 457 1223 419 1164 387 1097 C 354 1029 327 957 307 881 L 838 881 L 829 823 L 295 823 C 287 794 281 765 277 735 C 273 705 270 676 268 647 L 799 647 L 791 588 L 264 588 L 264 535 C 263 470 268 409 280 351 C 292 293 310 243 335 200 C 360 157 392 123 432 98 C 471 73 519 61 575 61 C 615 61 652 66 687 78 C 722 89 755 105 786 125 C 817 145 846 170 874 199 C 901 227 927 259 952 293 L 1026 248 C 964 160 897 93 823 46 C 749 -1 664 -25 567 -25 C 501 -25 444 -11 394 16 C 344 43 302 81 269 130 C 235 179 210 237 193 305 C 176 373 168 447 168 528 L 168 588 L 16 588 L 25 647 L 172 647 C 176 707 184 765 197 823 L 55 823 L 63 881 L 211 881 C 234 973 265 1058 305 1136 C 344 1214 390 1281 442 1338 C 494 1395 551 1440 615 1472 C 679 1504 747 1520 819 1520 C 870 1520 915 1513 955 1500 C 995 1486 1029 1467 1059 1443 C 1089 1419 1114 1390 1134 1357 C 1154 1323 1171 1287 1184 1247 L 1104 1208 Z" unicode="€" />
<glyph horiz-adv-x="1729" d="M 1636 748 C 1636 677 1626 609 1608 543 C 1590 477 1564 415 1530 358 C 1496 300 1456 248 1409 201 C 1362 154 1310 114 1253 80 C 1196 46 1135 20 1069 2 C 1003 -15 934 -25 864 -25 C 793 -25 725 -15 659 2 C 593 20 531 46 474 80 C 417 114 365 154 318 201 C 271 248 231 300 197 358 C 163 415 137 476 119 542 C 101 608 92 676 92 748 C 92 818 101 887 119 953 C 137 1019 163 1080 197 1137 C 231 1194 271 1246 318 1293 C 365 1340 417 1380 474 1414 C 531 1448 592 1474 658 1492 C 724 1510 792 1520 864 1520 C 934 1520 1003 1510 1069 1492 C 1135 1474 1196 1448 1253 1414 C 1310 1380 1362 1340 1409 1293 C 1456 1246 1496 1194 1530 1137 C 1564 1080 1590 1019 1608 953 C 1626 887 1636 818 1636 748 Z M 1567 745 C 1567 809 1558 872 1542 932 C 1525 992 1501 1048 1471 1100 C 1441 1152 1404 1200 1362 1244 C 1319 1287 1272 1324 1220 1355 C 1168 1385 1112 1409 1052 1426 C 992 1443 929 1452 864 1452 C 798 1452 736 1443 676 1426 C 616 1409 560 1385 508 1355 C 456 1324 408 1287 366 1244 C 324 1200 287 1152 257 1100 C 227 1048 203 992 187 932 C 170 872 162 809 162 745 C 162 680 170 618 187 558 C 203 498 227 443 257 391 C 287 339 324 291 366 249 C 408 206 456 169 508 139 C 560 108 616 84 676 68 C 736 51 798 43 864 43 C 929 43 992 51 1052 68 C 1112 84 1168 108 1220 139 C 1272 169 1319 206 1362 249 C 1404 291 1441 339 1471 391 C 1501 443 1525 498 1542 558 C 1558 618 1567 680 1567 745 Z M 1182 940 C 1182 900 1174 864 1160 832 C 1146 800 1125 772 1099 749 C 1073 726 1041 708 1005 695 C 969 682 929 676 885 676 L 741 676 L 741 299 L 659 299 L 659 1196 L 885 1196 C 929 1196 970 1190 1007 1178 C 1043 1166 1075 1148 1101 1126 C 1127 1104 1147 1077 1161 1045 C 1175 1013 1182 978 1182 940 Z M 1098 938 C 1098 994 1079 1039 1042 1071 C 1004 1103 953 1120 887 1120 L 741 1120 L 741 752 L 872 752 C 912 752 947 757 976 767 C 1004 777 1028 790 1046 807 C 1064 824 1077 844 1085 866 C 1093 888 1098 912 1098 938 Z" unicode="℗" />
<glyph horiz-adv-x="1616" d="M 1434 598 L 1434 1391 L 1130 920 L 1094 920 L 791 1391 L 791 598 L 719 598 L 719 1495 L 803 1495 L 1112 1012 L 1419 1495 L 1505 1495 L 1505 598 L 1434 598 Z M 340 1430 L 340 598 L 268 598 L 268 1430 L 47 1430 L 47 1495 L 559 1495 L 559 1430 L 340 1430 Z" unicode="™" />
<glyph horiz-adv-x="1663" d="M 831 1376 C 705 1376 598 1328 510 1234 C 421 1139 377 1006 377 836 C 377 673 406 538 465 432 C 523 325 610 241 725 180 L 725 0 L 88 0 L 88 197 L 537 197 C 456 225 378 295 304 405 C 230 515 193 663 193 848 C 193 1024 248 1184 358 1330 C 468 1475 626 1548 831 1548 C 1037 1548 1196 1478 1307 1338 C 1417 1198 1473 1034 1473 848 C 1473 663 1435 515 1360 405 C 1284 295 1207 225 1128 197 L 1577 197 L 1577 0 L 940 0 L 940 180 C 1054 241 1141 325 1200 432 C 1258 538 1288 673 1288 836 C 1288 974 1246 1099 1162 1210 C 1078 1320 967 1376 831 1376 Z" unicode="Ω" />
<glyph horiz-adv-x="1280" d="M 475 -33 C 342 -33 239 4 165 80 C 91 155 55 248 55 360 C 55 506 108 636 214 750 C 320 863 450 920 604 920 C 668 920 733 908 801 886 C 869 863 923 839 965 815 C 973 871 977 927 977 983 C 977 1108 954 1206 908 1277 C 862 1348 800 1384 721 1384 C 635 1384 567 1374 518 1355 C 468 1336 419 1311 369 1280 L 324 1444 C 374 1474 429 1498 491 1518 C 553 1538 629 1548 721 1548 C 877 1548 991 1496 1063 1393 C 1135 1290 1171 1149 1171 969 C 1171 691 1103 455 967 260 C 831 64 667 -33 475 -33 Z M 487 127 C 717 127 870 312 944 684 C 922 706 881 727 823 748 C 764 769 705 780 647 780 C 520 780 424 738 360 654 C 296 570 264 476 264 373 C 264 300 282 241 318 195 C 354 149 411 127 487 127 Z" unicode="∂" />
<glyph horiz-adv-x="1536" d="M 76 0 L 651 1536 L 885 1536 L 1456 0 L 76 0 Z M 352 147 L 1163 147 L 752 1255 L 352 147 Z" unicode="∆" />
<glyph horiz-adv-x="1536" d="M 332 0 L 332 1348 L 80 1348 L 80 1524 L 1456 1524 L 1456 1348 L 1212 1348 L 1212 0 L 1004 0 L 1004 1356 L 541 1356 L 541 0 L 332 0 Z" unicode="∏" />
<glyph horiz-adv-x="1151" d="M 1083 1524 L 1083 1343 L 332 1343 L 797 784 L 303 188 L 1079 188 L 1079 0 L 41 0 L 41 172 L 559 788 L 68 1380 L 68 1524 L 1083 1524 Z" unicode="∑" />
<glyph horiz-adv-x="1030" d="M 76 717 L 954 717 L 940 635 L 61 635 L 76 717 Z" unicode="−" />
<glyph horiz-adv-x="782" d="M -127 0 L -223 0 L 907 1495 L 1004 1495 L -127 0 Z" unicode="∕" />
<glyph horiz-adv-x="338" d="M 197 649 L 104 649 L 135 821 L 227 821 L 197 649 Z" unicode="∙" />
<glyph horiz-adv-x="1026" d="M 281 -43 L 240 -43 L 10 647 L 104 647 L 266 145 L 279 111 L 293 143 L 1012 1495 L 1102 1495 L 281 -43 Z" unicode="√" />
<glyph horiz-adv-x="1536" d="M 1071 395 C 999 395 938 410 889 441 C 839 472 799 522 768 590 C 727 528 679 480 624 446 C 568 412 507 395 440 395 C 336 395 253 432 190 508 C 127 583 96 683 96 809 C 96 925 133 1022 207 1100 C 281 1178 369 1217 469 1217 C 541 1217 603 1202 655 1172 C 707 1142 749 1095 782 1031 C 852 1155 958 1217 1100 1217 C 1198 1217 1279 1182 1345 1112 C 1411 1042 1444 945 1444 819 C 1444 699 1409 598 1340 517 C 1271 435 1181 395 1071 395 Z M 1071 555 C 1127 555 1175 578 1217 625 C 1259 672 1280 735 1280 815 C 1280 881 1264 939 1234 988 C 1203 1036 1151 1061 1079 1061 C 1024 1061 980 1042 946 1005 C 912 968 880 901 850 803 C 858 701 882 634 924 602 C 966 570 1015 555 1071 555 Z M 471 1049 C 408 1049 356 1026 316 982 C 276 937 256 874 256 793 C 256 709 271 648 302 610 C 332 572 381 553 449 553 C 505 553 554 572 596 612 C 638 652 673 716 701 806 C 675 893 644 955 606 993 C 568 1030 523 1049 471 1049 Z" unicode="∞" />
<glyph horiz-adv-x="1151" d="M -8 -391 L 55 -260 C 71 -265 87 -270 103 -274 C 119 -278 139 -281 164 -281 C 196 -281 222 -269 242 -247 C 262 -224 277 -179 289 -113 L 516 1225 C 554 1437 676 1544 881 1544 C 981 1544 1071 1521 1151 1477 L 1087 1305 C 1058 1322 1025 1339 988 1355 C 950 1371 910 1380 868 1380 C 806 1380 760 1360 730 1322 C 699 1283 680 1238 672 1188 L 449 -223 C 435 -295 402 -348 350 -382 C 298 -415 240 -432 176 -432 C 136 -432 100 -428 66 -420 C 32 -412 8 -402 -8 -391 Z" unicode="∫" />
<glyph horiz-adv-x="1536" d="M 236 399 C 230 429 227 455 227 479 C 227 546 247 604 287 652 C 327 700 390 725 475 725 C 541 725 600 715 650 696 C 700 677 746 659 788 642 C 830 624 872 610 912 598 C 952 586 988 580 1020 580 C 1112 580 1159 614 1159 684 L 1155 717 L 1300 717 C 1306 687 1309 660 1309 637 C 1309 570 1288 512 1248 464 C 1208 415 1145 391 1061 391 C 994 391 936 399 886 417 C 836 435 789 452 747 470 C 705 487 663 501 623 512 C 583 522 547 528 516 528 C 465 528 429 518 408 499 C 387 480 377 458 377 432 L 381 399 L 236 399 Z M 236 860 C 230 888 227 915 227 940 C 227 1006 247 1064 287 1112 C 327 1160 390 1184 475 1184 C 541 1184 600 1174 650 1156 C 700 1137 746 1119 788 1101 C 830 1083 872 1069 912 1057 C 952 1045 988 1040 1020 1040 C 1070 1040 1106 1050 1127 1070 C 1148 1090 1159 1115 1159 1145 L 1155 1176 L 1300 1176 C 1306 1147 1309 1120 1309 1096 C 1309 1028 1288 971 1248 923 C 1208 875 1145 852 1061 852 C 994 852 936 860 886 877 C 836 894 789 911 747 929 C 705 947 663 961 623 971 C 583 981 547 987 516 987 C 465 987 429 977 408 959 C 387 941 377 919 377 893 L 381 860 L 236 860 Z" unicode="≈" />
<glyph horiz-adv-x="1536" d="M 213 977 L 213 1176 L 899 1176 L 995 1356 L 1167 1356 L 1072 1176 L 1327 1176 L 1327 977 L 967 977 L 769 604 L 1327 604 L 1327 403 L 663 403 L 549 188 L 373 188 L 487 403 L 213 403 L 213 604 L 594 604 L 793 977 L 213 977 Z" unicode="≠" />
<glyph horiz-adv-x="1536" d="M 1348 236 L 209 709 L 209 872 L 1348 1343 L 1348 1128 L 449 793 L 1348 453 L 1348 236 Z M 213 25 L 213 215 L 1348 215 L 1348 25 L 213 25 Z" unicode="≤" />
<glyph horiz-adv-x="1536" d="M 213 236 L 213 453 L 1112 793 L 213 1128 L 213 1343 L 1352 872 L 1352 709 L 213 236 Z M 213 25 L 213 215 L 1348 215 L 1348 25 L 213 25 Z" unicode="≥" />
<glyph horiz-adv-x="1151" d="M 471 -47 L 68 756 L 471 1561 L 655 1561 L 1083 756 L 655 -47 L 471 -47 Z M 555 152 L 877 768 L 571 1356 L 252 739 L 555 152 Z" unicode="◊" />
<glyph horiz-adv-x="1495" d="M 662 1409 L 662 1495 L 834 1495 L 834 1409 L 662 1409 Z M 1409 662 L 1409 834 L 1495 834 L 1495 662 L 1409 662 Z M 662 662 L 662 834 L 834 834 L 834 662 L 662 662 Z M 0 662 L 0 834 L 86 834 L 86 662 L 0 662 Z M 662 0 L 662 86 L 834 86 L 834 0 L 662 0 Z" unicode="" />
<glyph horiz-adv-x="831" d="M 926 1417 L 862 1417 C 835 1417 812 1408 794 1392 C 775 1376 762 1345 754 1300 L 670 821 L 821 821 L 807 748 L 655 748 L 459 -367 L 375 -367 L 571 748 L 240 748 L 43 -367 L -41 -367 L 156 748 L 12 748 L 27 821 L 170 821 L 256 1315 C 262 1347 271 1374 283 1397 C 295 1419 310 1438 328 1452 C 346 1466 365 1477 387 1484 C 408 1491 431 1495 455 1495 L 524 1495 L 510 1417 L 446 1417 C 419 1417 396 1408 378 1392 C 359 1376 346 1345 338 1300 L 254 821 L 586 821 L 672 1315 C 677 1347 686 1374 699 1397 C 711 1419 726 1438 744 1452 C 761 1466 780 1477 802 1484 C 824 1491 846 1495 870 1495 L 940 1495 L 926 1417 Z" unicode="ﬀ" />
<glyph horiz-adv-x="766" d="M 684 1051 L 600 1051 L 631 1214 L 715 1214 L 684 1051 Z M 510 1417 L 446 1417 C 419 1417 396 1408 378 1392 C 359 1376 346 1345 338 1300 L 254 821 L 406 821 L 391 748 L 240 748 L 43 -367 L -41 -367 L 156 748 L 12 748 L 27 821 L 170 821 L 256 1315 C 262 1347 271 1374 283 1397 C 295 1419 310 1438 328 1452 C 346 1466 365 1477 387 1484 C 408 1491 431 1495 455 1495 L 524 1495 L 510 1417 Z M 500 0 L 416 0 L 561 821 L 645 821 L 500 0 Z" unicode="ﬁ" />
<glyph horiz-adv-x="766" d="M 500 0 L 416 0 L 680 1495 L 764 1495 L 500 0 Z M 510 1417 L 446 1417 C 419 1417 396 1408 378 1392 C 359 1376 346 1345 338 1300 L 254 821 L 406 821 L 391 748 L 240 748 L 43 -367 L -41 -367 L 156 748 L 12 748 L 27 821 L 170 821 L 256 1315 C 262 1347 271 1374 283 1397 C 295 1419 310 1438 328 1452 C 346 1466 365 1477 387 1484 C 408 1491 431 1495 455 1495 L 524 1495 L 510 1417 Z" unicode="ﬂ" />
<glyph horiz-adv-x="1182" d="M 1100 1051 L 1016 1051 L 1047 1214 L 1130 1214 L 1100 1051 Z M 926 1417 L 862 1417 C 835 1417 812 1408 794 1392 C 775 1376 762 1345 754 1300 L 670 821 L 821 821 L 807 748 L 655 748 L 459 -367 L 375 -367 L 571 748 L 240 748 L 43 -367 L -41 -367 L 156 748 L 12 748 L 27 821 L 170 821 L 256 1315 C 262 1347 271 1374 283 1397 C 295 1419 310 1438 328 1452 C 346 1466 365 1477 387 1484 C 408 1491 431 1495 455 1495 L 524 1495 L 510 1417 L 446 1417 C 419 1417 396 1408 378 1392 C 359 1376 346 1345 338 1300 L 254 821 L 586 821 L 672 1315 C 677 1347 686 1374 699 1397 C 711 1419 726 1438 744 1452 C 761 1466 780 1477 802 1484 C 824 1491 846 1495 870 1495 L 940 1495 L 926 1417 Z M 915 0 L 831 0 L 977 821 L 1061 821 L 915 0 Z" unicode="ﬃ" />
<glyph horiz-adv-x="1182" d="M 915 0 L 831 0 L 1096 1495 L 1180 1495 L 915 0 Z M 926 1417 L 862 1417 C 835 1417 812 1408 794 1392 C 775 1376 762 1345 754 1300 L 670 821 L 821 821 L 807 748 L 655 748 L 459 -367 L 375 -367 L 571 748 L 240 748 L 43 -367 L -41 -367 L 156 748 L 12 748 L 27 821 L 170 821 L 256 1315 C 262 1347 271 1374 283 1397 C 295 1419 310 1438 328 1452 C 346 1466 365 1477 387 1484 C 408 1491 431 1495 455 1495 L 524 1495 L 510 1417 L 446 1417 C 419 1417 396 1408 378 1392 C 359 1376 346 1345 338 1300 L 254 821 L 586 821 L 672 1315 C 677 1347 686 1374 699 1397 C 711 1419 726 1438 744 1452 C 761 1466 780 1477 802 1484 C 824 1491 846 1495 870 1495 L 940 1495 L 926 1417 Z" unicode="ﬄ" />
</font>
</defs>
</svg>
