<?xml version="1.0" encoding="utf-8" ?><svg version="1.1" xmlns = 'http://www.w3.org/2000/svg'><defs><font id='web' horiz-adv-x="1000">
<font-face font-family="web" descent="-512" cap-height="1393" units-per-em="2048" bbox="-561,-510,2328,1806" x-height="991" ascent="1536" />
<missing-glyph horiz-adv-x="520" d="" /><glyph horiz-adv-x="479" d="" unicode=" " />
<glyph horiz-adv-x="719" d="M 461 242 C 496 242 526 229 551 204 C 575 179 588 149 588 113 C 588 77 575 46 550 22 C 525 -1 495 -14 459 -14 C 423 -14 392 -1 368 22 C 344 46 332 77 332 113 C 332 149 344 179 369 204 C 393 229 424 242 461 242 Z M 397 465 L 371 1393 L 545 1393 L 518 465 L 397 465 Z" unicode="!" />
<glyph horiz-adv-x="827" d="M 209 850 L 182 1393 L 365 1393 L 338 850 L 209 850 Z M 559 850 L 532 1393 L 715 1393 L 688 850 L 559 850 Z" unicode="&#x22;" />
<glyph horiz-adv-x="1073" d="M 248 39 L 299 406 L 96 406 L 119 559 L 322 559 L 356 809 L 154 809 L 174 963 L 377 963 L 426 1307 L 545 1307 L 498 963 L 690 963 L 737 1307 L 862 1307 L 813 963 L 1016 963 L 995 809 L 791 809 L 756 559 L 961 559 L 938 406 L 735 406 L 684 39 L 561 39 L 612 406 L 424 406 L 371 39 L 248 39 Z M 430 553 L 647 553 L 684 815 L 467 815 L 430 553 Z" unicode="#" />
<glyph horiz-adv-x="1047" d="M 494 119 L 494 664 L 440 686 C 376 711 331 731 304 747 C 276 763 252 781 231 803 C 203 833 182 867 168 903 C 154 939 147 979 147 1022 C 147 1121 177 1203 239 1267 C 300 1331 385 1372 494 1389 L 494 1536 L 604 1536 L 604 1393 C 675 1386 738 1365 792 1331 C 846 1296 887 1250 915 1192 L 809 1108 C 786 1152 757 1187 722 1214 C 687 1241 648 1258 604 1266 L 604 774 C 610 771 617 768 624 766 C 630 763 638 760 647 758 C 761 713 840 664 884 611 C 928 558 950 484 950 389 C 950 279 919 190 859 123 C 799 55 714 14 604 0 L 604 -203 L 494 -203 L 494 -2 C 406 0 331 19 268 54 C 204 89 150 141 104 209 L 215 295 C 247 241 287 198 335 168 C 383 138 436 121 494 119 Z M 494 819 L 494 1268 C 430 1255 382 1230 348 1192 C 314 1154 297 1105 297 1047 C 297 989 311 945 339 913 C 367 881 418 849 494 819 Z M 604 621 L 604 125 C 667 137 716 165 752 209 C 787 253 805 309 805 377 C 805 435 789 482 759 518 C 729 554 677 589 604 621 Z" unicode="$" />
<glyph horiz-adv-x="1569" d="M 1225 762 C 1310 762 1378 727 1429 658 C 1479 589 1505 497 1505 381 C 1505 319 1496 261 1479 206 C 1461 150 1438 105 1409 70 C 1384 42 1355 21 1321 8 C 1287 -5 1248 -12 1202 -12 C 1111 -12 1039 21 985 89 C 931 157 905 248 905 362 C 905 423 914 481 934 537 C 954 593 981 640 1016 678 C 1042 706 1073 727 1107 741 C 1141 755 1181 762 1225 762 Z M 410 1405 C 495 1405 563 1370 614 1301 C 664 1232 690 1140 690 1024 C 690 902 663 806 610 736 C 557 666 485 631 393 631 C 301 631 228 665 173 734 C 117 802 90 894 90 1010 C 90 1068 99 1125 119 1181 C 139 1236 166 1283 201 1321 C 227 1349 258 1370 292 1384 C 326 1398 366 1405 410 1405 Z M 397 1292 C 345 1292 304 1266 274 1215 C 244 1163 229 1093 229 1004 C 229 922 243 858 271 812 C 299 766 339 743 389 743 C 442 743 482 767 509 815 C 535 863 549 936 549 1034 C 549 1117 536 1181 510 1225 C 484 1269 446 1292 397 1292 Z M 1212 649 C 1160 649 1119 623 1089 572 C 1059 520 1044 450 1044 360 C 1044 280 1058 216 1086 170 C 1114 123 1153 100 1202 100 C 1256 100 1296 124 1323 173 C 1350 221 1364 294 1364 391 C 1364 475 1351 539 1325 583 C 1299 627 1262 649 1212 649 Z M 1143 1413 L 1255 1362 L 455 -20 L 342 31 L 1143 1413 Z" unicode="%" />
<glyph horiz-adv-x="1298" d="M 1212 -35 L 1081 129 C 1027 77 969 39 908 15 C 846 -8 775 -20 694 -20 C 518 -20 378 37 274 151 C 170 265 119 420 119 616 C 119 816 176 978 292 1103 C 408 1227 559 1290 745 1290 C 845 1290 928 1269 993 1229 C 1057 1188 1124 1114 1194 1008 L 809 733 L 1333 51 L 1212 -35 Z M 285 520 L 1001 1020 C 965 1072 926 1108 885 1130 C 843 1152 793 1163 733 1163 C 595 1163 484 1115 400 1019 C 316 923 274 795 274 637 C 274 614 274 594 276 577 C 277 560 280 541 285 520 Z M 1010 236 L 684 649 L 311 387 C 341 292 388 221 452 174 C 516 127 597 104 696 104 C 764 104 822 113 868 133 C 914 152 962 186 1010 236 Z" unicode="&#x26;" />
<glyph horiz-adv-x="477" d="M 209 850 L 182 1393 L 365 1393 L 338 850 L 209 850 Z" unicode="'" />
<glyph horiz-adv-x="696" d="M 649 -217 L 557 -297 C 416 -152 310 -1 239 157 C 168 315 133 479 133 649 C 133 818 168 982 239 1140 C 310 1298 416 1449 557 1593 L 649 1516 C 532 1371 445 1228 389 1086 C 333 944 305 799 305 649 C 305 498 333 352 389 211 C 445 70 532 -72 649 -217 Z" unicode="(" />
<glyph horiz-adv-x="711" d="M 76 1516 L 166 1593 C 308 1449 414 1298 485 1140 C 556 982 592 818 592 649 C 592 479 556 315 485 157 C 414 -1 308 -152 166 -297 L 76 -217 C 192 -73 279 69 335 211 C 391 352 420 498 420 649 C 420 799 391 944 335 1085 C 279 1226 192 1370 76 1516 Z" unicode=")" />
<glyph horiz-adv-x="768" d="M 373 1319 L 344 1546 L 471 1546 L 442 1319 L 623 1458 L 688 1348 L 477 1260 L 688 1171 L 623 1061 L 442 1200 L 471 973 L 344 973 L 373 1200 L 190 1061 L 127 1171 L 338 1260 L 127 1348 L 190 1458 L 373 1319 Z" unicode="*" />
<glyph horiz-adv-x="1081" d="M 635 625 L 635 236 L 477 236 L 477 625 L 141 625 L 141 760 L 477 760 L 477 1137 L 635 1137 L 635 760 L 971 760 L 971 625 L 635 625 Z" unicode="+" />
<glyph horiz-adv-x="547" d="M 246 254 L 424 219 L 236 -338 L 106 -285 L 246 254 Z" unicode="," />
<glyph horiz-adv-x="674" d="M 563 537 L 141 537 L 141 698 L 563 698 L 563 537 Z" unicode="-" />
<glyph horiz-adv-x="547" d="M 293 242 C 329 242 359 229 383 204 C 407 179 420 149 420 113 C 420 77 407 46 383 22 C 358 -1 327 -14 291 -14 C 255 -14 224 -1 200 22 C 176 46 164 77 164 113 C 164 149 176 179 201 204 C 225 229 256 242 293 242 Z" unicode="." />
<glyph horiz-adv-x="879" d="M 160 -352 L 20 -303 L 713 1524 L 852 1473 L 160 -352 Z" unicode="/" />
<glyph horiz-adv-x="1061" d="M 567 1380 C 694 1380 791 1321 857 1204 C 923 1086 956 915 956 690 C 956 456 922 280 855 162 C 787 44 687 -14 553 -14 C 417 -14 314 43 244 159 C 174 274 139 444 139 670 C 139 905 175 1082 247 1201 C 319 1320 425 1380 567 1380 Z M 543 1249 C 458 1249 395 1202 354 1109 C 313 1016 293 873 293 680 C 293 485 314 342 356 250 C 398 158 464 113 555 113 C 639 113 702 158 742 249 C 782 340 803 483 803 678 C 803 875 782 1019 740 1111 C 698 1203 632 1249 543 1249 Z" unicode="0" />
<glyph horiz-adv-x="934" d="M 692 0 L 543 0 L 543 1188 L 190 885 L 117 971 L 549 1366 L 692 1366 L 692 0 Z" unicode="1" />
<glyph horiz-adv-x="1061" d="M 969 125 L 969 0 L 172 0 L 172 127 C 202 155 255 209 330 288 C 404 366 467 434 518 492 C 616 600 688 697 734 783 C 780 869 803 948 803 1022 C 803 1097 784 1155 746 1197 C 708 1239 655 1260 586 1260 C 504 1260 442 1236 398 1190 C 354 1144 332 1078 332 993 C 332 982 332 970 334 958 C 335 946 337 929 340 909 L 195 881 C 192 897 190 911 189 925 C 188 939 188 953 188 969 C 188 1095 225 1196 299 1270 C 373 1344 472 1382 598 1382 C 710 1382 797 1352 859 1292 C 921 1232 952 1148 952 1040 C 952 953 926 859 875 758 C 823 656 749 554 651 451 L 344 125 L 969 125 Z" unicode="2" />
<glyph horiz-adv-x="1061" d="M 102 227 L 211 315 C 249 237 292 182 339 151 C 385 119 448 104 528 104 C 618 104 687 128 735 178 C 783 227 807 297 807 389 C 807 478 782 545 734 591 C 685 636 612 659 514 659 C 478 659 447 657 421 653 C 395 649 366 641 332 631 L 279 737 L 715 1241 L 215 1241 L 215 1366 L 879 1366 L 879 1233 L 465 756 C 493 760 516 763 533 765 C 550 767 569 768 590 768 C 706 768 796 735 860 670 C 924 604 956 512 956 393 C 956 265 917 165 841 92 C 764 18 658 -18 524 -18 C 420 -18 335 1 269 39 C 203 77 148 139 102 227 Z" unicode="3" />
<glyph horiz-adv-x="1061" d="M 805 0 L 664 0 L 664 324 L 111 324 L 111 446 L 616 1366 L 805 1366 L 805 449 L 975 449 L 975 324 L 805 324 L 805 0 Z M 664 449 L 664 1180 L 651 1180 L 262 449 L 664 449 Z" unicode="4" />
<glyph horiz-adv-x="1061" d="M 891 1366 L 891 1241 L 498 1241 L 334 762 C 378 782 419 797 456 805 C 492 813 536 817 586 817 C 706 817 799 782 866 714 C 933 645 967 549 967 426 C 967 290 929 182 853 102 C 777 22 673 -18 543 -18 C 449 -18 371 0 311 35 C 250 70 190 132 131 221 L 246 313 C 288 235 331 180 374 150 C 417 119 473 104 543 104 C 630 104 697 131 745 185 C 793 239 817 316 817 416 C 817 509 794 579 749 626 C 703 672 635 696 545 696 C 485 696 431 688 383 674 C 334 660 290 638 250 610 L 174 698 L 401 1366 L 891 1366 Z" unicode="5" />
<glyph horiz-adv-x="1061" d="M 680 1397 L 793 1313 C 690 1226 601 1136 526 1044 C 450 951 392 858 350 766 L 362 762 C 398 786 436 804 475 815 C 514 825 559 831 610 831 C 726 831 818 794 886 722 C 953 650 987 551 987 426 C 987 287 948 178 872 100 C 796 21 691 -18 557 -18 C 419 -18 314 21 240 99 C 166 177 129 290 129 436 C 129 591 175 749 267 910 C 359 1070 496 1233 680 1397 Z M 561 713 C 468 713 397 687 349 635 C 300 583 276 508 276 410 C 276 308 299 231 347 179 C 395 127 465 102 559 102 C 650 102 719 127 767 179 C 814 231 838 308 838 410 C 838 512 815 588 770 638 C 724 688 655 713 561 713 Z" unicode="6" />
<glyph horiz-adv-x="934" d="M 102 1241 L 102 1366 L 915 1366 L 915 1219 L 371 0 L 205 0 L 774 1241 L 102 1241 Z" unicode="7" />
<glyph horiz-adv-x="1061" d="M 332 715 L 332 723 C 274 745 230 782 199 832 C 167 882 152 942 152 1012 C 152 1124 189 1214 265 1282 C 340 1350 441 1384 569 1384 C 688 1384 781 1352 848 1289 C 914 1226 948 1138 948 1026 C 948 950 932 886 901 834 C 870 781 826 744 768 723 L 768 715 C 837 687 889 645 923 590 C 957 534 975 463 975 377 C 975 252 937 155 863 86 C 788 16 684 -18 551 -18 C 417 -18 312 15 238 82 C 164 148 127 242 127 362 C 127 445 144 517 180 579 C 216 641 266 686 332 715 Z M 547 657 C 462 657 396 632 348 582 C 300 532 276 463 276 375 C 276 287 300 220 348 172 C 396 124 464 100 551 100 C 639 100 707 124 754 172 C 801 220 825 288 825 377 C 825 467 801 537 753 585 C 705 633 636 657 547 657 Z M 551 1262 C 477 1262 418 1239 372 1194 C 326 1148 303 1089 303 1016 C 303 941 325 881 371 835 C 416 789 475 766 549 766 C 624 766 684 788 730 834 C 776 880 799 940 799 1016 C 799 1091 776 1151 732 1195 C 688 1239 627 1262 551 1262 Z" unicode="8" />
<glyph horiz-adv-x="1061" d="M 444 -53 L 328 33 C 432 117 523 212 601 317 C 679 422 733 523 764 621 L 756 627 C 716 595 678 573 643 561 C 608 549 564 543 510 543 C 393 543 301 577 234 647 C 166 716 133 811 133 932 C 133 998 144 1060 167 1118 C 189 1176 222 1226 264 1266 C 302 1302 346 1329 398 1347 C 450 1365 510 1374 580 1374 C 707 1374 803 1336 869 1260 C 934 1184 967 1072 967 924 C 967 754 921 584 831 416 C 741 248 612 91 444 -53 Z M 551 1251 C 468 1251 403 1224 355 1171 C 307 1118 283 1046 283 954 C 283 858 305 785 350 735 C 394 684 459 659 545 659 C 634 659 702 683 748 733 C 794 782 817 854 817 950 C 817 1049 794 1124 749 1175 C 704 1225 638 1251 551 1251 Z" unicode="9" />
<glyph horiz-adv-x="573" d="M 322 283 C 357 283 387 270 412 245 C 436 220 449 190 449 154 C 449 118 436 87 411 63 C 386 39 355 27 319 27 C 283 27 253 39 229 63 C 205 87 193 118 193 154 C 193 190 205 220 230 245 C 254 270 285 283 322 283 Z M 322 981 C 357 981 387 968 412 944 C 436 919 449 888 449 852 C 449 816 436 785 411 761 C 386 737 355 725 319 725 C 283 725 253 737 229 761 C 205 785 193 816 193 852 C 193 888 205 919 230 944 C 254 968 285 981 322 981 Z" unicode=":" />
<glyph horiz-adv-x="588" d="M 342 829 C 378 829 408 816 432 792 C 456 767 469 736 469 700 C 469 664 456 634 432 610 C 407 585 376 573 340 573 C 304 573 273 585 249 610 C 225 634 213 664 213 700 C 213 736 225 767 250 792 C 274 816 305 829 342 829 Z M 254 254 L 428 219 L 240 -338 L 115 -285 L 254 254 Z" unicode=";" />
<glyph horiz-adv-x="1081" d="M 127 752 L 913 1071 L 954 936 L 322 698 L 322 688 L 954 442 L 913 301 L 127 635 L 127 752 Z" unicode="&#x3C;" />
<glyph horiz-adv-x="1081" d="M 156 492 L 156 618 L 958 618 L 958 492 L 156 492 Z M 156 766 L 156 893 L 958 893 L 958 766 L 156 766 Z" unicode="=" />
<glyph horiz-adv-x="1081" d="M 975 621 L 186 301 L 147 436 L 780 674 L 780 686 L 147 930 L 186 1071 L 975 739 L 975 621 Z" unicode="&#x3E;" />
<glyph horiz-adv-x="928" d="M 309 1200 L 256 1319 C 306 1349 355 1372 402 1386 C 449 1400 497 1407 545 1407 C 637 1407 710 1381 763 1329 C 815 1277 842 1206 842 1116 C 842 1062 830 1012 808 966 C 785 920 747 872 694 821 C 618 747 572 694 557 660 C 541 626 532 561 530 465 L 410 465 C 405 488 402 510 400 530 C 398 550 397 568 397 584 C 397 628 408 670 430 711 C 452 751 493 804 553 868 C 610 930 647 976 663 1006 C 679 1036 688 1071 688 1112 C 688 1164 674 1203 648 1230 C 621 1256 582 1270 530 1270 C 492 1270 458 1265 428 1255 C 398 1245 358 1227 309 1200 Z M 467 242 C 503 242 533 229 557 204 C 581 179 594 149 594 113 C 594 77 581 46 557 22 C 532 -1 501 -14 465 -14 C 429 -14 398 -1 374 22 C 350 46 338 77 338 113 C 338 149 350 179 375 204 C 399 229 430 242 467 242 Z" unicode="?" />
<glyph horiz-adv-x="1901" d="M 1522 -43 L 1579 -154 C 1489 -208 1396 -248 1298 -274 C 1200 -300 1097 -313 989 -313 C 747 -313 545 -236 385 -84 C 225 68 145 261 145 494 C 145 722 225 916 387 1076 C 548 1235 745 1315 979 1315 C 1089 1315 1198 1296 1304 1260 C 1410 1223 1498 1173 1569 1110 C 1640 1046 1697 968 1739 874 C 1781 780 1802 687 1802 594 C 1802 442 1749 309 1644 196 C 1539 83 1416 27 1274 27 C 1232 27 1199 35 1176 53 C 1152 71 1141 97 1141 131 C 1141 140 1141 151 1143 164 C 1145 176 1147 189 1149 203 L 1137 203 C 1097 151 1054 113 1010 91 C 965 68 912 57 850 57 C 748 57 668 90 611 157 C 554 223 526 316 526 434 C 526 582 569 707 656 807 C 742 907 850 958 979 958 C 1038 958 1087 948 1125 929 C 1163 910 1195 880 1219 838 L 1231 838 L 1243 946 L 1395 946 L 1282 143 C 1326 143 1362 147 1388 155 C 1414 163 1440 175 1466 193 C 1526 232 1573 287 1607 357 C 1641 427 1659 503 1659 586 C 1659 756 1594 897 1464 1011 C 1334 1125 1171 1182 977 1182 C 785 1182 625 1116 497 985 C 369 854 305 691 305 496 C 305 402 321 315 354 233 C 386 151 434 78 496 14 C 561 -53 635 -102 718 -133 C 801 -164 900 -180 1016 -180 C 1111 -180 1196 -169 1270 -149 C 1344 -129 1428 -93 1522 -43 Z M 977 836 C 888 836 816 800 761 728 C 705 656 678 563 678 449 C 678 357 695 289 729 245 C 763 200 815 178 885 178 C 979 178 1054 216 1110 293 C 1166 369 1194 472 1194 602 C 1194 680 1175 739 1139 778 C 1103 816 1049 836 977 836 Z" unicode="@" />
<glyph horiz-adv-x="1260" d="M 229 0 L 70 0 L 549 1393 L 735 1393 L 1210 0 L 1042 0 L 903 430 L 367 430 L 229 0 Z M 633 1243 L 399 543 L 866 543 L 633 1243 Z" unicode="A" />
<glyph horiz-adv-x="1217" d="M 211 0 L 211 1393 L 551 1393 C 661 1393 742 1387 796 1376 C 849 1364 894 1343 930 1313 C 963 1284 988 1248 1006 1204 C 1023 1160 1032 1111 1032 1057 C 1032 978 1017 914 988 864 C 959 814 912 771 846 735 L 846 721 C 935 706 1003 671 1051 615 C 1098 559 1122 485 1122 393 C 1122 315 1105 247 1071 189 C 1037 130 988 85 924 55 C 881 34 832 20 776 12 C 720 4 645 0 551 0 L 211 0 Z M 362 117 L 553 117 C 635 117 698 120 741 126 C 784 132 821 144 852 162 C 888 182 916 212 936 252 C 956 291 967 337 967 389 C 967 444 956 491 934 531 C 912 571 880 600 838 618 C 808 631 775 640 739 644 C 703 648 644 651 561 651 L 362 651 L 362 117 Z M 362 766 L 563 766 C 665 766 743 789 795 835 C 847 881 874 948 874 1038 C 874 1078 867 1115 855 1148 C 843 1180 826 1206 805 1225 C 780 1243 748 1256 710 1264 C 671 1272 616 1276 545 1276 L 362 1276 L 362 766 Z" unicode="B" />
<glyph horiz-adv-x="1198" d="M 1057 281 L 1161 197 C 1104 121 1040 66 968 32 C 896 -2 812 -20 715 -20 C 526 -20 379 41 274 164 C 169 286 117 458 117 678 C 117 898 174 1076 290 1211 C 406 1345 558 1413 748 1413 C 836 1413 916 1394 987 1356 C 1058 1318 1115 1266 1157 1198 L 1047 1108 C 999 1172 951 1217 905 1243 C 858 1269 800 1282 731 1282 C 591 1282 480 1229 400 1123 C 319 1017 279 872 279 688 C 279 502 317 359 393 258 C 469 156 577 106 717 106 C 790 106 852 119 903 145 C 953 171 1005 217 1057 281 Z" unicode="C" />
<glyph horiz-adv-x="1368" d="M 211 0 L 211 1393 L 608 1393 C 718 1393 812 1382 889 1360 C 966 1338 1031 1304 1083 1257 C 1144 1202 1192 1125 1228 1026 C 1264 926 1282 818 1282 702 C 1282 566 1258 445 1211 339 C 1164 233 1099 153 1016 100 C 964 67 904 42 834 25 C 764 8 690 0 612 0 L 211 0 Z M 367 123 L 575 123 C 666 123 741 131 801 147 C 861 163 912 189 954 225 C 1006 269 1046 333 1076 417 C 1105 501 1120 595 1120 700 C 1120 804 1105 898 1076 982 C 1046 1065 1005 1130 952 1176 C 912 1209 863 1233 806 1248 C 748 1262 673 1270 580 1270 L 367 1270 L 367 123 Z" unicode="D" />
<glyph horiz-adv-x="1094" d="M 211 0 L 211 1393 L 918 1393 L 918 1264 L 365 1264 L 365 784 L 918 784 L 918 662 L 365 662 L 365 127 L 979 127 L 979 0 L 211 0 Z" unicode="E" />
<glyph horiz-adv-x="1042" d="M 369 621 L 369 0 L 211 0 L 211 1393 L 942 1393 L 942 1264 L 369 1264 L 369 743 L 928 743 L 928 621 L 369 621 Z" unicode="F" />
<glyph horiz-adv-x="1450" d="M 829 614 L 829 737 L 1296 737 L 1296 207 C 1222 125 1143 66 1061 30 C 979 -6 882 -25 772 -25 C 567 -25 407 37 291 163 C 175 289 117 462 117 682 C 117 902 179 1080 305 1215 C 430 1349 596 1417 803 1417 C 911 1417 1005 1398 1087 1360 C 1168 1322 1235 1265 1288 1190 L 1178 1102 C 1132 1164 1078 1210 1015 1241 C 951 1272 877 1288 793 1288 C 635 1288 509 1234 417 1127 C 325 1020 279 874 279 690 C 279 597 291 512 316 435 C 340 358 376 294 422 242 C 464 194 516 159 578 136 C 639 113 711 102 795 102 C 871 102 937 112 994 134 C 1050 156 1102 190 1149 236 L 1149 614 L 829 614 Z" unicode="G" />
<glyph horiz-adv-x="1380" d="M 367 0 L 211 0 L 211 1393 L 367 1393 L 367 799 L 1057 799 L 1057 1393 L 1212 1393 L 1212 0 L 1057 0 L 1057 676 L 367 676 L 367 0 Z" unicode="H" />
<glyph horiz-adv-x="580" d="M 389 0 L 233 0 L 233 1393 L 389 1393 L 389 0 Z" unicode="I" />
<glyph horiz-adv-x="729" d="M 420 1393 L 575 1393 L 575 578 C 580 374 541 224 459 128 C 376 32 245 -14 66 -14 L 43 -14 L 43 109 L 53 109 C 189 109 284 145 340 217 C 395 289 422 412 420 586 L 420 1393 Z" unicode="J" />
<glyph horiz-adv-x="1186" d="M 367 0 L 211 0 L 211 1393 L 367 1393 L 367 750 L 401 750 L 424 760 L 918 1393 L 1098 1393 L 573 729 L 1180 0 L 979 0 L 424 668 L 401 678 L 367 678 L 367 0 Z" unicode="K" />
<glyph horiz-adv-x="958" d="M 375 125 L 915 125 L 915 0 L 217 0 L 217 1393 L 375 1393 L 375 125 Z" unicode="L" />
<glyph horiz-adv-x="1837" d="M 350 0 L 199 0 L 272 1393 L 504 1393 L 946 240 L 1382 1393 L 1612 1393 L 1686 0 L 1530 0 L 1466 1198 L 1452 1198 L 1014 55 L 866 55 L 416 1198 L 401 1198 L 350 0 Z" unicode="M" />
<glyph horiz-adv-x="1395" d="M 360 0 L 211 0 L 211 1393 L 410 1393 L 1079 260 L 1079 1393 L 1229 1393 L 1229 0 L 1067 0 L 360 1171 L 360 0 Z" unicode="N" />
<glyph horiz-adv-x="1518" d="M 791 1417 C 981 1417 1136 1351 1254 1219 C 1372 1087 1432 916 1432 705 C 1432 593 1414 490 1379 395 C 1344 300 1295 219 1231 152 C 1173 92 1106 48 1030 19 C 954 -10 867 -25 770 -25 C 674 -25 588 -10 512 18 C 436 47 370 90 315 147 C 251 213 202 293 168 388 C 134 482 117 583 117 690 C 117 800 134 902 170 998 C 206 1094 257 1175 324 1241 C 384 1300 452 1344 528 1373 C 604 1402 691 1417 791 1417 Z M 762 1288 C 616 1288 499 1234 412 1128 C 324 1021 281 879 281 702 C 281 518 325 373 415 265 C 504 157 626 104 780 104 C 928 104 1047 157 1135 263 C 1223 369 1268 512 1268 692 C 1268 876 1222 1022 1132 1128 C 1042 1234 918 1288 762 1288 Z" unicode="O" />
<glyph horiz-adv-x="1135" d="M 369 0 L 211 0 L 211 1393 L 504 1393 C 610 1393 692 1389 748 1382 C 804 1374 853 1361 893 1343 C 951 1316 997 1271 1031 1209 C 1065 1146 1083 1075 1083 997 C 1083 912 1063 838 1025 775 C 987 711 933 663 864 631 C 825 612 783 599 738 592 C 693 585 634 582 561 582 L 369 582 L 369 0 Z M 369 702 L 561 702 C 685 702 777 725 837 773 C 896 821 926 894 926 993 C 926 1092 897 1163 841 1206 C 785 1248 692 1270 563 1270 L 369 1270 L 369 702 Z" unicode="P" />
<glyph horiz-adv-x="1513" d="M 1597 -217 L 1550 -338 C 1470 -337 1392 -310 1316 -256 C 1239 -202 1146 -109 1038 23 C 997 6 956 -5 914 -13 C 872 -21 826 -25 774 -25 C 676 -25 589 -10 512 18 C 435 47 369 90 313 147 C 251 213 202 293 168 388 C 134 482 117 584 117 692 C 117 906 178 1081 301 1215 C 424 1349 584 1417 782 1417 C 978 1417 1135 1352 1254 1222 C 1372 1092 1432 919 1432 705 C 1432 577 1409 461 1364 356 C 1319 251 1256 166 1174 100 C 1260 -6 1334 -81 1395 -127 C 1456 -172 1523 -202 1597 -217 Z M 762 1288 C 616 1288 499 1234 412 1128 C 324 1021 281 879 281 702 C 281 518 325 373 415 265 C 504 157 626 104 780 104 C 928 104 1047 157 1135 263 C 1223 369 1268 512 1268 692 C 1268 876 1222 1022 1132 1128 C 1042 1234 918 1288 762 1288 Z" unicode="Q" />
<glyph horiz-adv-x="1167" d="M 367 676 L 367 0 L 211 0 L 211 1393 L 547 1393 C 644 1393 717 1389 766 1381 C 815 1373 859 1358 897 1337 C 945 1309 982 1268 1009 1213 C 1035 1158 1049 1095 1049 1024 C 1049 909 1013 817 941 748 C 869 679 771 643 647 641 L 1133 0 L 940 0 L 434 666 L 412 676 L 367 676 Z M 367 750 L 547 750 C 663 750 749 771 806 815 C 862 859 891 925 891 1014 C 891 1104 865 1170 814 1210 C 762 1250 677 1270 559 1270 L 367 1270 L 367 750 Z" unicode="R" />
<glyph horiz-adv-x="1071" d="M 102 195 L 217 285 C 253 221 298 175 350 145 C 402 115 466 100 541 100 C 627 100 695 123 744 169 C 792 215 817 280 817 362 C 817 406 809 443 795 475 C 780 507 757 533 727 555 C 700 574 673 590 645 603 C 617 616 533 651 393 707 C 308 740 245 783 205 837 C 165 890 145 954 145 1030 C 145 1142 185 1234 266 1306 C 346 1377 450 1413 578 1413 C 660 1413 731 1395 792 1359 C 852 1323 900 1272 934 1204 L 827 1120 C 797 1176 760 1218 716 1246 C 671 1274 618 1288 557 1288 C 481 1288 420 1266 374 1224 C 328 1182 305 1126 305 1057 C 305 999 319 952 349 918 C 378 883 429 851 502 823 C 634 771 722 734 765 714 C 807 693 843 669 872 643 C 906 609 932 571 948 530 C 964 488 973 438 973 379 C 973 252 934 153 857 82 C 779 10 672 -25 535 -25 C 435 -25 351 -7 283 27 C 215 61 155 117 102 195 Z" unicode="S" />
<glyph horiz-adv-x="1042" d="M 623 0 L 465 0 L 465 1264 L 66 1264 L 66 1393 L 1022 1393 L 1022 1264 L 623 1264 L 623 0 Z" unicode="T" />
<glyph horiz-adv-x="1335" d="M 188 1393 L 346 1393 L 346 512 C 346 365 372 260 425 197 C 478 133 567 102 692 102 C 816 102 904 133 956 196 C 1008 259 1034 365 1034 514 L 1034 1393 L 1190 1393 L 1190 539 C 1190 434 1181 349 1164 285 C 1147 220 1119 165 1081 121 C 1037 69 983 32 919 9 C 855 -13 775 -25 678 -25 C 580 -25 500 -12 436 14 C 372 40 320 80 279 135 C 246 177 223 230 209 292 C 195 354 188 437 188 539 L 188 1393 Z" unicode="U" />
<glyph horiz-adv-x="1135" d="M 975 1393 L 1137 1393 L 680 0 L 496 0 L 37 1393 L 207 1393 L 596 168 L 975 1393 Z" unicode="V" />
<glyph horiz-adv-x="1853" d="M 422 0 L 57 1393 L 229 1393 L 526 186 L 862 1378 L 1042 1378 L 1380 186 L 1675 1393 L 1833 1393 L 1477 0 L 1280 0 L 944 1180 L 618 0 L 422 0 Z" unicode="W" />
<glyph horiz-adv-x="1130" d="M 260 0 L 82 0 L 498 715 L 109 1393 L 297 1393 L 594 834 L 885 1393 L 1063 1393 L 678 721 L 1092 0 L 903 0 L 580 604 L 260 0 Z" unicode="X" />
<glyph horiz-adv-x="1071" d="M 639 0 L 481 0 L 481 532 L 45 1393 L 227 1393 L 565 668 L 903 1393 L 1071 1393 L 639 532 L 639 0 Z" unicode="Y" />
<glyph horiz-adv-x="1087" d="M 1032 127 L 1032 0 L 100 0 L 100 127 L 829 1264 L 176 1264 L 176 1393 L 1010 1393 L 1010 1266 L 279 127 L 1032 127 Z" unicode="Z" />
<glyph horiz-adv-x="688" d="M 604 -125 L 604 -236 L 197 -236 L 197 1548 L 604 1548 L 604 1438 L 352 1438 L 352 -125 L 604 -125 Z" unicode="[" />
<glyph horiz-adv-x="899" d="M 756 -352 L 63 1470 L 211 1522 L 903 -303 L 756 -352 Z" unicode="\" />
<glyph horiz-adv-x="702" d="M 123 1438 L 123 1548 L 530 1548 L 530 -236 L 123 -236 L 123 -125 L 375 -125 L 375 1438 L 123 1438 Z" unicode="]" />
<glyph horiz-adv-x="872" d="M 539 1393 L 809 768 L 639 768 L 451 1233 L 266 768 L 104 768 L 377 1393 L 539 1393 Z" unicode="^" />
<glyph horiz-adv-x="1067" d="M 6 -190 L 1059 -190 L 1059 -289 L 6 -289 L 6 -190 Z" unicode="_" />
<glyph horiz-adv-x="561" d="M 459 1120 L 307 1120 L 102 1397 L 102 1405 L 299 1405 L 459 1120 Z" unicode="`" />
<glyph horiz-adv-x="1094" d="M 938 0 L 799 0 L 793 125 L 786 125 C 746 76 700 41 646 19 C 592 -3 525 -14 444 -14 C 333 -14 248 11 189 61 C 129 111 100 183 100 279 C 100 382 139 461 217 517 C 295 572 408 600 555 600 L 793 600 L 793 682 C 793 756 775 810 741 845 C 706 879 652 897 578 897 C 514 897 458 886 410 866 C 362 845 316 812 274 766 L 182 852 C 237 911 297 954 361 980 C 425 1006 501 1020 588 1020 C 653 1020 709 1011 755 995 C 801 978 838 953 868 920 C 896 888 914 852 924 812 C 933 772 938 709 938 623 L 938 0 Z M 793 492 L 553 492 C 450 492 373 474 323 440 C 273 405 248 353 248 283 C 248 221 266 174 304 144 C 342 113 399 98 477 98 C 579 98 657 122 711 170 C 765 218 793 288 793 379 L 793 492 Z" unicode="a" />
<glyph horiz-adv-x="1180" d="M 301 0 L 160 0 L 160 1489 L 309 1489 L 309 852 L 315 852 C 368 911 420 953 471 977 C 522 1001 583 1014 653 1014 C 785 1014 890 967 966 875 C 1042 783 1081 656 1081 496 C 1081 334 1041 207 962 115 C 883 23 774 -23 635 -23 C 563 -23 504 -12 458 9 C 411 31 363 69 313 123 L 307 123 L 301 0 Z M 612 891 C 513 891 436 856 381 786 C 326 716 299 620 299 496 C 299 370 327 273 384 203 C 440 133 518 98 618 98 C 717 98 793 132 847 201 C 901 269 928 367 928 494 C 928 623 901 721 847 789 C 793 857 714 891 612 891 Z" unicode="b" />
<glyph horiz-adv-x="965" d="M 920 803 L 815 723 C 779 786 742 830 704 855 C 666 880 618 893 559 893 C 463 893 389 858 336 788 C 282 718 256 619 256 492 C 256 364 280 267 330 199 C 380 131 453 98 549 98 C 614 98 668 110 712 134 C 756 158 798 200 838 258 L 932 180 C 886 110 831 58 769 26 C 707 -6 631 -23 543 -23 C 477 -23 419 -14 371 2 C 322 19 280 46 244 82 C 197 128 161 184 136 252 C 110 319 98 393 98 475 C 98 638 141 769 229 868 C 316 966 431 1016 573 1016 C 653 1016 723 998 781 962 C 839 926 886 873 920 803 Z" unicode="c" />
<glyph horiz-adv-x="1180" d="M 1020 0 L 879 0 L 872 131 L 866 131 C 823 75 777 36 728 12 C 678 -11 617 -23 543 -23 C 401 -23 291 20 213 108 C 135 196 96 319 96 477 C 96 638 138 768 224 866 C 309 964 421 1014 561 1014 C 629 1014 686 1003 732 982 C 778 961 821 925 862 874 L 870 874 L 870 1489 L 1020 1489 L 1020 0 Z M 559 891 C 459 891 383 856 330 786 C 276 716 250 617 250 489 C 250 359 276 262 329 196 C 382 130 461 98 565 98 C 667 98 746 131 801 199 C 855 267 883 365 883 494 C 883 624 855 723 800 790 C 745 857 665 891 559 891 Z" unicode="d" />
<glyph horiz-adv-x="1092" d="M 1001 485 L 244 485 C 244 428 245 388 248 366 C 250 344 258 317 270 287 C 298 219 337 168 389 135 C 440 102 506 86 588 86 C 656 86 713 97 759 121 C 805 145 849 184 889 240 L 985 162 C 936 96 879 47 814 17 C 749 -13 670 -29 578 -29 C 422 -29 302 15 218 103 C 134 191 92 316 92 479 C 92 646 136 778 225 876 C 314 973 436 1022 590 1022 C 679 1022 755 1003 819 966 C 883 928 931 874 963 803 C 975 771 985 733 991 691 C 997 649 1001 599 1001 541 L 1001 485 Z M 244 594 L 854 594 C 854 602 855 609 855 615 C 855 621 856 626 856 629 C 856 714 830 781 780 829 C 730 877 659 901 567 901 C 470 901 396 876 344 827 C 292 777 258 700 244 594 Z" unicode="e" />
<glyph horiz-adv-x="686" d="M 387 0 L 238 0 L 238 862 L 47 862 L 47 977 L 238 977 L 238 1040 C 238 1186 272 1298 340 1376 C 408 1454 505 1493 633 1493 C 655 1493 677 1491 698 1489 C 718 1486 745 1481 778 1475 L 739 1356 C 716 1358 694 1361 673 1363 C 652 1365 635 1366 621 1366 C 542 1366 483 1339 445 1287 C 406 1235 387 1155 387 1049 L 387 977 L 694 977 L 694 862 L 387 862 L 387 0 Z" unicode="f" />
<glyph horiz-adv-x="1139" d="M 223 -481 L 252 -350 C 294 -362 328 -371 355 -375 C 381 -379 412 -381 446 -381 C 580 -381 680 -342 748 -265 C 816 -187 850 -72 850 80 L 850 180 L 842 180 C 809 127 766 88 713 62 C 659 36 595 23 520 23 C 458 23 404 30 356 46 C 308 61 267 84 233 115 C 188 157 153 212 127 280 C 101 348 88 421 88 500 C 88 652 130 775 215 871 C 300 966 411 1014 547 1014 C 612 1014 668 1003 715 981 C 761 959 803 925 840 879 L 846 879 L 846 991 L 991 991 L 991 104 C 991 -94 944 -246 850 -352 C 756 -457 621 -510 444 -510 C 404 -510 369 -508 337 -504 C 305 -500 267 -492 223 -481 Z M 543 891 C 443 891 368 859 318 795 C 267 731 242 636 242 512 C 242 387 266 294 315 234 C 364 173 439 143 539 143 C 645 143 724 174 775 236 C 826 298 852 393 852 522 C 852 646 826 739 776 800 C 725 860 647 891 543 891 Z" unicode="g" />
<glyph horiz-adv-x="1128" d="M 309 0 L 160 0 L 160 1489 L 309 1489 L 309 848 L 315 848 C 363 905 414 947 470 975 C 525 1002 587 1016 655 1016 C 765 1016 847 985 900 924 C 952 862 979 768 979 641 L 979 0 L 829 0 L 829 616 C 829 718 814 789 785 829 C 756 869 704 889 629 889 C 522 889 442 858 389 798 C 335 738 309 647 309 526 L 309 0 Z" unicode="h" />
<glyph horiz-adv-x="510" d="M 256 1393 C 286 1393 312 1382 332 1361 C 352 1340 362 1314 362 1284 C 362 1253 352 1228 332 1208 C 312 1188 286 1178 256 1178 C 225 1178 199 1188 178 1209 C 157 1229 147 1254 147 1284 C 147 1316 157 1342 178 1362 C 199 1382 225 1393 256 1393 Z M 180 0 L 180 991 L 330 991 L 330 0 L 180 0 Z" unicode="i" />
<glyph horiz-adv-x="508" d="M 258 1393 C 287 1393 312 1382 333 1362 C 354 1341 365 1316 365 1286 C 365 1255 354 1229 333 1209 C 312 1188 286 1178 256 1178 C 225 1178 200 1188 180 1209 C 160 1229 150 1254 150 1284 C 150 1314 160 1340 180 1361 C 200 1382 226 1393 258 1393 Z M 182 991 L 332 991 L 332 55 C 336 -107 311 -236 257 -331 C 203 -425 120 -485 8 -510 L -43 -389 C 40 -371 99 -328 133 -258 C 167 -188 184 -78 182 70 L 182 991 Z" unicode="j" />
<glyph horiz-adv-x="1012" d="M 317 0 L 168 0 L 168 1489 L 317 1489 L 317 565 L 344 565 L 369 573 L 784 991 L 958 991 L 518 543 L 995 0 L 801 0 L 369 483 L 346 494 L 317 494 L 317 0 Z" unicode="k" />
<glyph horiz-adv-x="522" d="M 338 0 L 186 0 L 186 1489 L 338 1489 L 338 0 Z" unicode="l" />
<glyph horiz-adv-x="1751" d="M 313 0 L 164 0 L 164 991 L 309 991 L 309 848 L 317 848 C 362 902 412 944 468 972 C 524 1000 585 1014 653 1014 C 703 1014 749 1005 791 989 C 833 972 867 949 893 920 C 901 909 908 900 912 892 C 916 884 923 866 934 838 L 940 838 C 980 894 1030 937 1090 967 C 1150 997 1214 1012 1282 1012 C 1341 1012 1393 1001 1438 981 C 1483 961 1518 931 1544 893 C 1561 866 1573 833 1581 793 C 1589 753 1593 700 1593 635 L 1593 0 L 1444 0 L 1444 616 C 1444 716 1429 785 1401 825 C 1372 865 1321 885 1249 885 C 1196 885 1149 875 1107 856 C 1065 836 1032 808 1008 772 C 989 745 975 712 967 672 C 958 632 954 582 954 520 L 954 0 L 805 0 L 805 604 C 805 708 790 781 760 823 C 730 864 676 885 600 885 C 554 885 513 877 477 863 C 441 848 409 825 383 795 C 356 765 338 732 328 696 C 318 660 313 611 313 549 L 313 0 Z" unicode="m" />
<glyph horiz-adv-x="1128" d="M 309 0 L 160 0 L 160 991 L 309 991 L 309 848 L 315 848 C 363 905 414 947 470 974 C 525 1000 587 1014 655 1014 C 765 1014 847 983 900 922 C 952 861 979 767 979 641 L 979 0 L 829 0 L 829 614 C 829 716 814 787 785 827 C 756 867 704 887 629 887 C 522 887 442 857 389 797 C 335 737 309 646 309 526 L 309 0 Z" unicode="n" />
<glyph horiz-adv-x="1145" d="M 588 1022 C 725 1022 837 973 924 877 C 1011 781 1055 656 1055 504 C 1055 422 1041 345 1015 273 C 988 201 951 140 903 92 C 862 51 814 21 760 1 C 705 -19 642 -29 571 -29 C 501 -29 437 -18 381 1 C 325 21 277 51 238 90 C 192 136 155 195 129 266 C 103 337 90 411 90 489 C 90 648 135 777 227 875 C 319 973 439 1022 588 1022 Z M 571 899 C 468 899 387 863 329 791 C 271 719 242 620 242 494 C 242 368 271 270 329 199 C 387 127 468 92 571 92 C 675 92 756 127 815 198 C 873 268 903 367 903 494 C 903 621 873 720 815 792 C 756 863 675 899 571 899 Z" unicode="o" />
<glyph horiz-adv-x="1178" d="M 309 -481 L 160 -481 L 160 991 L 305 991 L 305 850 L 313 850 C 357 906 406 947 462 974 C 518 1000 581 1014 653 1014 C 785 1014 889 968 965 877 C 1041 786 1079 662 1079 504 C 1079 342 1040 215 962 124 C 884 33 776 -12 639 -12 C 564 -12 502 -2 453 17 C 403 36 357 69 315 115 L 309 115 L 309 -481 Z M 621 891 C 519 891 438 856 380 787 C 322 717 293 622 293 500 C 293 373 321 276 377 209 C 433 142 513 109 618 109 C 718 109 795 141 847 207 C 899 273 926 370 926 500 C 926 627 900 724 848 791 C 796 857 720 891 621 891 Z" unicode="p" />
<glyph horiz-adv-x="1178" d="M 1018 -481 L 868 -481 L 868 127 L 860 127 C 824 75 780 37 729 13 C 677 -11 615 -23 541 -23 C 403 -23 294 22 216 114 C 137 205 98 330 98 489 C 98 645 141 771 228 868 C 315 965 429 1014 571 1014 C 636 1014 692 1002 738 980 C 784 958 826 922 864 872 L 870 872 L 870 991 L 1018 991 L 1018 -481 Z M 561 891 C 464 891 388 856 334 786 C 279 716 252 620 252 496 C 252 366 278 268 331 200 C 383 132 460 98 561 98 C 663 98 742 131 797 199 C 851 267 879 365 879 494 C 879 622 851 721 796 789 C 741 857 663 891 561 891 Z" unicode="q" />
<glyph horiz-adv-x="713" d="M 322 0 L 172 0 L 172 991 L 317 991 L 317 825 L 326 825 C 368 883 414 926 463 955 C 512 984 564 999 618 999 C 626 999 637 998 649 997 C 661 995 675 993 692 991 L 692 856 C 677 858 663 859 649 860 C 635 861 625 862 618 862 C 520 862 447 831 397 770 C 347 708 322 618 322 498 L 322 0 Z" unicode="r" />
<glyph horiz-adv-x="934" d="M 86 147 L 190 231 C 230 181 273 145 319 124 C 364 102 419 92 483 92 C 550 92 602 105 638 132 C 674 159 692 198 692 250 C 692 279 685 304 673 326 C 661 348 642 366 618 381 C 600 391 579 401 557 409 C 534 417 464 440 348 477 C 272 500 215 532 178 573 C 141 614 123 665 123 727 C 123 813 156 883 223 937 C 289 991 377 1018 485 1018 C 561 1018 626 1006 679 983 C 732 959 780 922 823 870 L 721 788 C 685 826 648 854 612 870 C 576 886 532 895 481 895 C 413 895 360 882 324 856 C 288 830 270 793 270 745 C 270 705 282 674 306 653 C 330 632 377 610 449 588 C 550 555 618 532 654 518 C 689 504 718 489 741 473 C 773 447 798 417 814 383 C 830 349 838 310 838 266 C 838 173 806 101 744 50 C 681 -1 593 -27 481 -27 C 391 -27 316 -13 254 13 C 192 40 136 85 86 147 Z" unicode="s" />
<glyph horiz-adv-x="713" d="M 41 862 L 41 977 L 238 977 L 246 1337 L 389 1337 L 381 977 L 672 977 L 672 862 L 375 862 L 375 369 C 375 273 390 206 421 168 C 451 130 504 111 580 111 C 594 111 607 111 618 113 C 629 114 642 116 657 119 L 657 6 C 639 1 622 -2 606 -4 C 590 -6 570 -8 547 -8 C 436 -8 356 20 306 77 C 256 134 231 226 231 354 L 231 862 L 41 862 Z" unicode="t" />
<glyph horiz-adv-x="1116" d="M 803 991 L 952 991 L 952 0 L 815 0 L 809 123 L 803 123 C 775 75 736 39 685 15 C 634 -8 571 -20 496 -20 C 374 -20 286 9 230 68 C 174 126 147 220 147 350 L 147 991 L 297 991 L 297 391 C 297 282 313 206 345 164 C 377 121 434 100 518 100 C 620 100 693 127 737 183 C 781 239 803 333 803 467 L 803 991 Z" unicode="u" />
<glyph horiz-adv-x="946" d="M 395 0 L 29 991 L 195 991 L 485 141 L 780 991 L 930 991 L 563 0 L 395 0 Z" unicode="v" />
<glyph horiz-adv-x="1538" d="M 342 0 L 35 991 L 197 991 L 424 180 L 432 180 L 702 975 L 866 975 L 1130 180 L 1139 180 L 1372 991 L 1518 991 L 1210 0 L 1055 0 L 776 817 L 498 0 L 342 0 Z" unicode="w" />
<glyph horiz-adv-x="961" d="M 219 0 L 53 0 L 395 502 L 63 991 L 250 991 L 487 604 L 731 991 L 895 991 L 569 512 L 907 0 L 725 0 L 471 414 L 219 0 Z" unicode="x" />
<glyph horiz-adv-x="944" d="M 33 991 L 203 991 L 506 170 L 780 991 L 932 991 L 618 113 C 530 -137 460 -301 408 -377 C 356 -453 283 -497 190 -510 L 156 -383 C 188 -378 216 -369 239 -356 C 261 -342 283 -322 305 -295 C 333 -260 358 -215 380 -160 C 401 -105 412 -58 412 -20 C 412 -2 408 20 402 46 C 396 72 387 100 375 129 L 33 991 Z" unicode="y" />
<glyph horiz-adv-x="915" d="M 842 119 L 842 0 L 94 0 L 94 115 L 662 872 L 129 872 L 129 991 L 829 991 L 829 879 L 262 119 L 842 119 Z" unicode="z" />
<glyph horiz-adv-x="664" d="M 700 -352 L 508 -352 C 426 -351 368 -334 333 -302 C 297 -270 278 -216 276 -141 L 276 399 C 277 454 260 498 224 530 C 188 562 133 584 59 598 L 59 625 C 127 633 181 655 221 691 C 261 727 279 771 276 823 L 276 1364 C 278 1439 297 1493 333 1525 C 368 1557 426 1574 508 1575 L 700 1575 L 700 1487 L 623 1483 C 543 1481 491 1465 467 1435 C 442 1405 428 1341 426 1243 L 426 795 C 425 741 412 699 386 670 C 360 641 318 618 258 602 L 258 598 C 316 586 358 567 385 541 C 411 514 425 476 426 428 L 426 -20 C 428 -119 442 -183 467 -213 C 491 -242 543 -258 623 -260 L 700 -264 L 700 -352 Z" unicode="{" />
<glyph horiz-adv-x="705" d="M 457 1604 L 457 -379 L 299 -379 L 299 1604 L 457 1604 Z" unicode="|" />
<glyph horiz-adv-x="664" d="M 31 1575 L 223 1575 C 304 1574 362 1557 398 1525 C 434 1493 453 1439 455 1364 L 455 823 C 454 768 471 724 507 692 C 542 660 597 637 672 625 L 672 598 C 604 590 550 567 510 531 C 470 495 452 451 455 399 L 455 -141 C 453 -216 434 -270 398 -302 C 362 -334 304 -351 223 -352 L 31 -352 L 31 -264 L 109 -260 C 188 -258 240 -242 264 -212 C 288 -182 302 -118 305 -20 L 305 428 C 305 482 318 523 344 552 C 370 581 413 604 473 621 L 473 625 C 415 635 372 654 346 681 C 319 707 305 745 305 795 L 305 1243 C 302 1342 288 1406 264 1436 C 240 1465 188 1481 109 1483 L 31 1487 L 31 1575 Z" unicode="}" />
<glyph horiz-adv-x="1081" d="M 266 539 L 154 602 C 193 696 231 761 267 798 C 303 835 346 854 397 854 C 427 854 455 847 479 835 C 503 822 550 789 621 735 C 645 716 666 703 684 695 C 701 687 718 684 735 684 C 761 684 783 695 800 717 C 817 739 837 782 860 848 L 975 788 C 947 697 915 631 878 590 C 840 548 795 528 741 528 C 709 528 678 535 647 551 C 616 566 579 593 537 631 C 508 655 484 673 464 683 C 444 693 426 698 408 698 C 381 698 361 690 347 675 C 333 660 306 615 266 539 Z" unicode="~" />
<glyph horiz-adv-x="520" d="" unicode=" " />
<glyph horiz-adv-x="719" d="M 314 1151 C 278 1151 248 1163 224 1188 C 199 1213 187 1244 187 1280 C 187 1316 199 1346 224 1370 C 249 1394 280 1406 316 1406 C 352 1406 382 1394 406 1370 C 430 1346 443 1316 443 1280 C 443 1244 430 1213 406 1188 C 381 1163 350 1151 314 1151 Z M 378 928 L 404 0 L 230 0 L 257 928 L 378 928 Z" unicode="¡" />
<glyph horiz-adv-x="956" d="M 614 322 L 614 -14 L 504 -14 L 504 319 C 457 322 418 328 387 338 C 356 347 326 361 297 381 C 235 423 186 482 152 558 C 117 634 100 720 100 817 C 100 965 136 1086 208 1182 C 280 1278 378 1335 504 1354 L 504 1522 L 614 1522 L 614 1356 C 681 1352 742 1330 798 1292 C 854 1254 895 1205 922 1145 L 817 1065 C 789 1117 761 1155 731 1180 C 701 1204 662 1221 614 1231 L 614 444 C 656 449 695 465 732 493 C 768 520 800 557 827 604 L 913 520 C 880 463 837 417 785 382 C 733 346 676 326 614 322 Z M 504 444 L 504 1231 C 423 1213 362 1171 320 1105 C 278 1039 258 950 258 838 C 258 720 278 628 320 562 C 362 496 423 456 504 444 Z" unicode="¢" />
<glyph horiz-adv-x="1159" d="M 362 694 L 184 694 L 184 797 L 362 797 L 362 938 C 362 1029 369 1101 383 1154 C 397 1206 422 1252 457 1290 C 493 1330 537 1361 589 1382 C 641 1402 700 1413 764 1413 C 848 1413 918 1394 974 1357 C 1030 1319 1071 1264 1098 1190 L 987 1106 C 958 1173 926 1220 891 1247 C 856 1274 810 1288 754 1288 C 710 1288 671 1280 638 1264 C 604 1248 578 1224 559 1194 C 541 1167 529 1136 523 1101 C 517 1065 514 1015 514 950 L 514 797 L 834 797 L 834 694 L 514 694 L 514 508 C 514 415 503 346 483 302 C 463 258 423 218 365 182 L 365 172 C 432 152 495 138 554 130 C 613 121 675 117 739 117 C 809 117 864 130 903 157 C 941 183 976 231 1006 299 L 1120 229 C 1089 146 1043 86 982 48 C 920 10 839 -8 739 -8 C 649 -8 557 0 461 18 C 365 36 268 62 170 98 L 170 201 C 237 203 286 232 318 286 C 350 340 364 421 362 530 L 362 694 Z" unicode="£" />
<glyph horiz-adv-x="1069" d="M 485 362 L 203 362 L 203 469 L 485 469 L 485 532 L 457 588 L 162 588 L 162 688 L 406 688 L 49 1393 L 231 1393 L 569 668 L 907 1393 L 1073 1393 L 721 688 L 963 688 L 963 588 L 672 588 L 643 532 L 643 469 L 922 469 L 922 362 L 643 362 L 643 0 L 485 0 L 485 362 Z" unicode="¥" />
<glyph horiz-adv-x="745" d="M 471 520 L 471 -379 L 313 -379 L 313 520 L 471 520 Z M 471 1604 L 471 702 L 313 702 L 313 1604 L 471 1604 Z" unicode="¦" />
<glyph horiz-adv-x="1135" d="M 989 1204 L 883 1116 C 848 1176 811 1218 771 1243 C 731 1267 681 1280 621 1280 C 538 1280 475 1262 431 1228 C 387 1194 365 1144 365 1079 C 365 1051 369 1026 378 1003 C 386 979 399 959 416 942 C 435 921 454 906 474 897 C 494 888 540 872 612 850 L 760 803 C 860 772 933 730 979 676 C 1025 622 1049 554 1049 471 C 1049 397 1033 337 1001 290 C 969 243 921 206 856 180 L 856 172 C 909 141 947 105 971 63 C 994 21 1006 -32 1006 -98 C 1006 -206 970 -290 899 -351 C 827 -411 728 -442 602 -442 C 498 -442 410 -422 340 -384 C 270 -346 208 -284 154 -199 L 260 -113 C 310 -193 360 -247 409 -275 C 457 -303 524 -317 610 -317 C 691 -317 752 -299 794 -263 C 835 -227 856 -173 856 -102 C 856 -38 838 10 803 45 C 768 80 706 112 616 141 L 479 184 C 361 222 277 267 227 319 C 177 371 152 439 152 524 C 152 589 168 647 201 697 C 234 747 282 787 344 817 L 344 823 C 300 851 267 885 247 924 C 227 962 217 1009 217 1063 C 217 1163 254 1246 329 1310 C 404 1374 501 1407 621 1407 C 705 1407 779 1390 841 1356 C 903 1322 952 1271 989 1204 Z M 502 729 C 442 729 394 710 358 673 C 321 635 303 587 303 528 C 303 487 312 452 331 424 C 349 395 379 369 420 346 C 462 322 510 303 564 287 C 618 271 664 264 702 264 C 760 264 807 282 843 320 C 879 358 897 407 897 467 C 897 509 886 545 866 575 C 846 605 814 632 772 655 C 729 676 682 694 632 708 C 581 722 538 729 502 729 Z" unicode="§" />
<glyph horiz-adv-x="899" d="M 211 1393 C 241 1393 267 1382 287 1361 C 307 1340 317 1314 317 1284 C 317 1253 307 1228 287 1208 C 267 1188 241 1178 211 1178 C 180 1178 154 1188 133 1209 C 112 1229 102 1254 102 1284 C 102 1316 112 1342 133 1362 C 154 1382 180 1393 211 1393 Z M 688 1393 C 718 1393 744 1382 764 1361 C 784 1340 795 1314 795 1284 C 795 1253 784 1228 764 1208 C 744 1188 718 1178 688 1178 C 657 1178 631 1188 611 1209 C 590 1229 580 1254 580 1284 C 580 1316 590 1342 611 1362 C 631 1382 657 1393 688 1393 Z" unicode="¨" />
<glyph horiz-adv-x="1819" d="M 1178 481 L 1296 395 C 1254 321 1204 266 1148 232 C 1092 197 1023 180 942 180 C 801 180 689 227 607 322 C 524 416 483 545 483 709 C 483 877 526 1011 612 1111 C 698 1211 814 1262 958 1262 C 1032 1262 1096 1246 1149 1215 C 1201 1183 1250 1133 1294 1063 L 1169 965 C 1135 1023 1103 1062 1073 1084 C 1042 1105 1002 1116 952 1116 C 861 1116 789 1080 737 1009 C 685 938 659 841 659 719 C 659 593 684 497 736 429 C 788 361 860 328 954 328 C 1009 328 1053 339 1086 361 C 1118 383 1149 423 1178 481 Z M 942 1538 C 1162 1538 1352 1457 1511 1296 C 1669 1135 1749 943 1749 719 C 1749 490 1669 296 1509 137 C 1349 -22 1156 -102 930 -102 C 700 -102 506 -22 347 138 C 188 298 109 493 109 725 C 109 951 189 1143 351 1301 C 512 1459 709 1538 942 1538 Z M 918 1419 C 734 1419 576 1350 444 1212 C 312 1074 246 910 246 719 C 246 525 312 360 445 222 C 578 84 739 16 928 16 C 1118 16 1280 84 1413 222 C 1545 359 1612 526 1612 723 C 1612 917 1544 1082 1410 1217 C 1275 1351 1111 1419 918 1419 Z" unicode="©" />
<glyph horiz-adv-x="731" d="M 641 891 L 537 891 L 532 961 L 516 961 C 485 931 456 910 430 899 C 403 888 368 883 326 883 C 264 883 214 899 178 933 C 141 967 123 1013 123 1073 C 123 1134 145 1181 190 1214 C 234 1247 297 1264 379 1264 L 528 1264 L 528 1307 C 528 1340 517 1365 497 1383 C 477 1400 448 1409 410 1409 C 374 1409 343 1403 317 1393 C 291 1383 264 1365 236 1339 L 174 1417 C 214 1449 253 1473 291 1487 C 329 1501 371 1509 418 1509 C 449 1509 478 1505 505 1498 C 531 1491 554 1480 573 1466 C 599 1448 616 1424 626 1396 C 636 1367 641 1324 641 1266 L 641 891 Z M 526 1176 L 381 1176 C 337 1176 303 1167 281 1150 C 259 1132 248 1107 248 1073 C 248 1039 258 1015 278 1000 C 298 984 331 977 375 977 C 423 977 461 989 487 1013 C 513 1037 526 1072 526 1118 L 526 1176 Z M 125 676 L 125 782 L 649 782 L 649 676 L 125 676 Z" unicode="ª" />
<glyph horiz-adv-x="1026" d="M 375 940 L 518 940 L 315 582 L 520 231 L 375 231 L 127 578 L 375 940 Z M 760 940 L 905 940 L 694 582 L 907 231 L 760 231 L 514 578 L 760 940 Z" unicode="«" />
<glyph horiz-adv-x="1081" d="M 150 618 L 150 766 L 987 766 L 901 268 L 774 268 L 864 618 L 150 618 Z" unicode="¬" />
<glyph horiz-adv-x="674" d="M 563 537 L 141 537 L 141 698 L 563 698 L 563 537 Z" unicode="­" />
<glyph horiz-adv-x="940" d="M 494 905 C 530 905 565 911 598 924 C 631 936 661 954 687 977 L 584 977 L 446 1194 L 432 1194 L 432 977 L 348 977 L 348 1464 L 477 1464 C 545 1464 593 1453 622 1433 C 651 1413 666 1379 666 1333 C 666 1293 655 1261 634 1237 C 613 1213 583 1198 543 1194 L 688 977 C 720 1005 746 1040 766 1082 C 785 1124 795 1169 795 1217 C 795 1302 765 1374 706 1433 C 647 1492 575 1522 489 1522 C 409 1522 340 1491 282 1430 C 224 1369 195 1297 195 1214 C 195 1128 224 1055 282 995 C 340 935 411 905 494 905 Z M 500 1591 C 606 1591 696 1553 772 1479 C 847 1405 885 1316 885 1214 C 885 1109 847 1020 771 946 C 695 872 602 836 494 836 C 385 836 293 873 217 947 C 141 1021 104 1111 104 1217 C 104 1321 142 1410 219 1482 C 296 1554 390 1591 500 1591 Z M 432 1241 L 479 1241 C 513 1241 538 1247 554 1260 C 570 1273 578 1293 578 1321 C 578 1348 570 1367 556 1379 C 541 1391 517 1397 483 1397 L 432 1397 L 432 1241 Z" unicode="®" />
<glyph horiz-adv-x="729" d="M 102 1196 L 102 1321 L 627 1321 L 627 1196 L 102 1196 Z" unicode="¯" />
<glyph horiz-adv-x="791" d="M 426 1423 C 510 1423 583 1393 644 1333 C 704 1273 735 1202 735 1120 C 735 1035 704 963 643 904 C 582 844 508 815 422 815 C 335 815 261 844 200 904 C 139 964 109 1036 109 1122 C 109 1205 140 1276 202 1335 C 264 1393 338 1423 426 1423 Z M 420 1296 C 373 1296 333 1278 300 1244 C 266 1209 250 1168 250 1120 C 250 1071 267 1029 301 995 C 335 961 375 944 422 944 C 470 944 510 961 544 995 C 577 1029 594 1072 594 1122 C 594 1171 577 1212 543 1246 C 509 1279 468 1296 420 1296 Z" unicode="°" />
<glyph horiz-adv-x="1081" d="M 637 723 L 637 395 L 483 395 L 483 723 L 195 723 L 195 852 L 483 852 L 483 1165 L 637 1165 L 637 852 L 928 852 L 928 723 L 637 723 Z M 195 154 L 195 287 L 928 287 L 928 154 L 195 154 Z" unicode="±" />
<glyph horiz-adv-x="608" d="M 689 702 L 689 587 L 194 587 L 194 691 C 334 837 426 942 472 1005 C 517 1068 540 1125 540 1175 C 540 1211 532 1239 517 1257 C 501 1275 478 1285 448 1285 C 413 1285 386 1275 367 1255 C 348 1235 339 1208 339 1173 C 339 1163 339 1153 340 1141 C 341 1129 342 1117 343 1105 L 212 1070 C 208 1089 205 1105 204 1117 C 202 1129 202 1142 202 1154 C 202 1230 225 1291 272 1335 C 319 1379 382 1402 462 1402 C 530 1402 583 1383 621 1347 C 659 1310 679 1259 679 1193 C 679 1129 656 1061 610 989 C 564 917 484 822 368 702 L 689 702 Z" unicode="²" />
<glyph horiz-adv-x="608" d="M 165 747 L 269 829 C 287 779 308 744 330 725 C 352 705 384 696 425 696 C 465 696 495 707 515 730 C 535 752 546 786 546 831 C 546 873 534 905 511 925 C 488 945 453 956 407 956 C 387 956 370 954 355 952 C 339 950 322 945 304 939 L 265 1031 L 480 1265 L 224 1265 L 224 1392 L 648 1392 L 648 1273 L 454 1064 C 530 1063 588 1042 628 1002 C 668 962 689 904 689 829 C 689 750 665 688 618 643 C 570 597 506 575 425 575 C 359 575 307 588 267 614 C 227 640 193 685 165 747 Z" unicode="³" />
<glyph horiz-adv-x="557" d="M 102 1120 L 262 1405 L 455 1405 L 455 1397 L 248 1120 L 102 1120 Z" unicode="´" />
<glyph horiz-adv-x="1167" d="M 860 991 L 1010 991 L 1010 324 C 1012 253 1018 196 1027 154 C 1035 111 1049 69 1069 27 L 940 -29 C 921 9 908 39 900 61 C 892 83 885 111 879 145 L 864 145 C 833 92 795 53 750 29 C 705 4 650 -8 584 -8 C 532 -8 489 -1 455 13 C 420 27 384 52 346 88 L 332 88 L 332 -379 L 154 -379 L 207 207 L 195 991 L 346 991 L 346 432 C 346 321 365 242 404 194 C 442 146 507 123 598 123 C 692 123 760 150 800 204 C 840 258 860 349 860 477 L 860 991 Z" unicode="µ" />
<glyph horiz-adv-x="997" d="M 700 1198 L 522 1198 L 522 416 C 456 416 403 423 363 437 C 322 451 282 477 242 514 C 197 556 163 608 139 669 C 115 729 104 796 104 868 C 104 949 118 1023 148 1089 C 178 1155 220 1207 274 1245 C 308 1269 348 1289 395 1305 C 441 1321 484 1329 522 1329 L 700 1329 L 700 1407 L 850 1407 L 850 -29 L 700 -29 L 700 1198 Z" unicode="¶" />
<glyph horiz-adv-x="623" d="M 336 842 C 376 842 411 827 440 798 C 468 769 483 734 483 692 C 483 650 468 614 440 586 C 411 557 376 543 334 543 C 292 543 256 557 227 586 C 198 614 184 650 184 692 C 184 734 198 770 227 799 C 255 827 292 842 336 842 Z" unicode="·" />
<glyph horiz-adv-x="616" d="M 137 -233 L 102 -137 C 136 -109 167 -90 196 -79 C 224 -68 259 -63 299 -63 C 364 -63 416 -81 455 -117 C 494 -153 514 -200 514 -260 C 514 -320 494 -368 455 -404 C 416 -440 364 -459 299 -459 C 259 -459 224 -453 196 -442 C 167 -431 136 -412 102 -385 L 137 -289 C 161 -313 184 -331 206 -341 C 227 -351 253 -356 283 -356 C 316 -356 342 -347 362 -330 C 381 -312 391 -289 391 -260 C 391 -231 381 -208 362 -191 C 342 -174 316 -166 283 -166 C 253 -166 227 -170 206 -180 C 184 -190 161 -207 137 -233 Z" unicode="¸" />
<glyph horiz-adv-x="545" d="M 542 587 L 405 587 L 405 1212 L 228 1076 L 151 1152 L 415 1392 L 542 1392 L 542 587 Z" unicode="¹" />
<glyph horiz-adv-x="731" d="M 395 1518 C 477 1518 545 1488 599 1428 C 653 1368 680 1293 680 1202 C 680 1108 652 1031 597 971 C 542 911 471 881 385 881 C 298 881 227 910 173 969 C 119 1027 92 1102 92 1194 C 92 1289 120 1367 176 1427 C 232 1487 305 1518 395 1518 Z M 383 1414 C 331 1414 289 1395 259 1357 C 228 1319 213 1267 213 1202 C 213 1134 228 1080 258 1042 C 288 1004 331 985 387 985 C 440 985 482 1003 513 1041 C 543 1079 559 1130 559 1194 C 559 1263 543 1317 513 1356 C 482 1394 439 1414 383 1414 Z M 123 676 L 123 782 L 647 782 L 647 676 L 123 676 Z" unicode="º" />
<glyph horiz-adv-x="1026" d="M 299 231 L 156 231 L 367 590 L 154 940 L 299 940 L 547 594 L 299 231 Z M 686 231 L 541 231 L 745 590 L 541 940 L 686 940 L 934 594 L 686 231 Z" unicode="»" />
<glyph horiz-adv-x="1460" d="M 432 587 L 295 587 L 295 1212 L 118 1076 L 41 1152 L 305 1392 L 432 1392 L 432 587 Z M 1126 1413 L 1238 1362 L 437 -20 L 325 31 L 1126 1413 Z M 1285 0 L 1150 0 L 1150 182 L 845 182 L 845 287 L 1132 805 L 1285 805 L 1285 297 L 1376 297 L 1376 182 L 1285 182 L 1285 0 Z M 1150 297 L 1150 578 L 1138 578 L 993 297 L 1150 297 Z" unicode="¼" />
<glyph horiz-adv-x="1460" d="M 432 587 L 295 587 L 295 1212 L 118 1076 L 41 1152 L 305 1392 L 432 1392 L 432 587 Z M 1091 1413 L 1203 1362 L 402 -20 L 290 31 L 1091 1413 Z M 1388 115 L 1388 0 L 893 0 L 893 104 C 1033 250 1125 355 1171 418 C 1216 481 1239 538 1239 588 C 1239 624 1231 652 1216 670 C 1200 688 1177 698 1147 698 C 1112 698 1085 688 1066 668 C 1047 648 1038 621 1038 586 C 1038 576 1038 566 1039 554 C 1040 542 1041 530 1042 518 L 911 483 C 907 502 904 518 903 530 C 901 542 901 555 901 567 C 901 643 924 704 971 748 C 1018 792 1081 815 1161 815 C 1229 815 1282 796 1320 760 C 1358 723 1378 672 1378 606 C 1378 542 1355 474 1309 402 C 1263 330 1183 235 1067 115 L 1388 115 Z" unicode="½" />
<glyph horiz-adv-x="1460" d="M 25 747 L 129 829 C 147 779 168 744 190 725 C 212 705 244 696 285 696 C 325 696 355 707 375 730 C 395 752 406 786 406 831 C 406 873 394 905 371 925 C 348 945 313 956 267 956 C 247 956 230 954 215 952 C 199 950 182 945 164 939 L 125 1031 L 340 1265 L 84 1265 L 84 1392 L 508 1392 L 508 1273 L 314 1064 C 390 1063 448 1042 488 1002 C 528 962 549 904 549 829 C 549 750 525 688 478 643 C 430 597 366 575 285 575 C 219 575 167 588 127 614 C 87 640 53 685 25 747 Z M 1141 1413 L 1253 1362 L 452 -20 L 340 31 L 1141 1413 Z M 1141 1413 L 1253 1362 L 452 -20 L 340 31 L 1141 1413 Z M 1285 0 L 1150 0 L 1150 182 L 845 182 L 845 287 L 1132 805 L 1285 805 L 1285 297 L 1376 297 L 1376 182 L 1285 182 L 1285 0 Z M 1150 297 L 1150 578 L 1138 578 L 993 297 L 1150 297 Z" unicode="¾" />
<glyph horiz-adv-x="928" d="M 656 185 L 709 66 C 658 35 609 13 562 0 C 515 -14 468 -21 420 -21 C 327 -21 254 3 202 55 C 149 107 123 178 123 269 C 123 323 134 372 157 418 C 179 464 217 512 271 564 C 347 637 392 690 408 724 C 423 758 432 823 435 920 L 555 920 C 559 896 563 874 565 854 C 567 834 568 816 568 801 C 568 757 556 714 534 674 C 512 633 471 581 412 517 C 354 455 317 409 301 379 C 285 349 277 313 277 273 C 277 221 290 181 317 155 C 343 128 383 115 435 115 C 473 115 507 119 537 129 C 567 139 606 157 656 185 Z M 498 1143 C 462 1143 431 1155 407 1180 C 383 1205 371 1236 371 1272 C 371 1308 383 1338 408 1362 C 432 1386 463 1398 500 1398 C 536 1398 566 1386 590 1362 C 614 1338 627 1308 627 1272 C 627 1236 614 1205 590 1180 C 565 1155 534 1143 498 1143 Z" unicode="¿" />
<glyph horiz-adv-x="1260" d="M 229 0 L 70 0 L 549 1393 L 735 1393 L 1210 0 L 1042 0 L 903 430 L 367 430 L 229 0 Z M 633 1243 L 399 543 L 866 543 L 633 1243 Z M 749 1470 L 577 1470 L 312 1669 L 312 1679 L 566 1679 L 749 1481 L 749 1470 Z" unicode="À" />
<glyph horiz-adv-x="1260" d="M 229 0 L 70 0 L 549 1393 L 735 1393 L 1210 0 L 1042 0 L 903 430 L 367 430 L 229 0 Z M 633 1243 L 399 543 L 866 543 L 633 1243 Z M 544 1470 L 544 1481 L 727 1679 L 981 1679 L 981 1669 L 710 1470 L 544 1470 Z" unicode="Á" />
<glyph horiz-adv-x="1260" d="M 229 0 L 70 0 L 549 1393 L 735 1393 L 1210 0 L 1042 0 L 903 430 L 367 430 L 229 0 Z M 633 1243 L 399 543 L 866 543 L 633 1243 Z M 512 1477 L 362 1477 L 362 1485 L 637 1767 L 917 1485 L 917 1477 L 754 1477 L 635 1593 L 512 1477 Z" unicode="Â" />
<glyph horiz-adv-x="1260" d="M 229 0 L 70 0 L 549 1393 L 735 1393 L 1210 0 L 1042 0 L 903 430 L 367 430 L 229 0 Z M 633 1243 L 399 543 L 866 543 L 633 1243 Z M 374 1458 L 296 1532 C 320 1596 349 1643 381 1674 C 413 1704 450 1720 493 1720 C 520 1720 546 1715 572 1706 C 597 1697 636 1677 690 1647 C 709 1635 726 1627 741 1622 C 756 1616 770 1614 784 1614 C 811 1614 832 1621 847 1637 C 861 1652 880 1685 903 1737 L 980 1665 C 959 1605 932 1560 899 1528 C 866 1496 828 1481 786 1481 C 762 1481 737 1485 709 1495 C 681 1505 650 1521 614 1544 C 587 1560 566 1572 550 1578 C 534 1584 518 1587 503 1587 C 475 1587 452 1577 432 1557 C 412 1537 392 1504 374 1458 Z" unicode="Ã" />
<glyph horiz-adv-x="1260" d="M 229 0 L 70 0 L 549 1393 L 735 1393 L 1210 0 L 1042 0 L 903 430 L 367 430 L 229 0 Z M 633 1243 L 399 543 L 866 543 L 633 1243 Z M 378 1688 C 410 1688 438 1676 461 1653 C 483 1630 495 1602 495 1569 C 495 1535 483 1506 461 1484 C 438 1461 410 1450 376 1450 C 342 1450 314 1461 291 1484 C 268 1506 257 1535 257 1569 C 257 1602 268 1630 292 1653 C 315 1676 344 1688 378 1688 Z M 904 1688 C 936 1688 964 1676 987 1653 C 1009 1630 1021 1602 1021 1569 C 1021 1535 1009 1506 987 1484 C 964 1461 936 1450 902 1450 C 868 1450 840 1461 817 1484 C 794 1506 783 1535 783 1569 C 783 1602 794 1630 818 1653 C 841 1676 870 1688 904 1688 Z" unicode="Ä" />
<glyph horiz-adv-x="1260" d="M 229 0 L 70 0 L 549 1393 L 735 1393 L 1210 0 L 1042 0 L 903 430 L 367 430 L 229 0 Z M 633 1243 L 399 543 L 866 543 L 633 1243 Z M 643 1806 C 703 1806 752 1788 791 1752 C 829 1716 849 1670 849 1616 C 849 1560 829 1515 790 1480 C 750 1444 700 1427 638 1427 C 576 1427 525 1444 486 1480 C 447 1516 428 1562 428 1618 C 428 1674 447 1719 487 1754 C 527 1788 579 1806 643 1806 Z M 638 1704 C 610 1704 588 1696 572 1680 C 556 1664 548 1643 548 1616 C 548 1588 556 1567 572 1552 C 588 1536 610 1529 638 1529 C 666 1529 689 1536 706 1552 C 722 1567 731 1588 731 1616 C 731 1643 722 1664 706 1680 C 689 1696 666 1704 638 1704 Z" unicode="Å" />
<glyph horiz-adv-x="1741" d="M 227 0 L 66 0 L 621 1393 L 1532 1393 L 1532 1264 L 895 1264 L 999 799 L 1532 799 L 1532 676 L 1024 676 L 1143 125 L 1669 125 L 1669 0 L 1016 0 L 924 430 L 387 430 L 227 0 Z M 715 1276 L 428 543 L 901 543 L 739 1276 L 715 1276 Z" unicode="Æ" />
<glyph horiz-adv-x="1198" d="M 1057 281 L 1161 197 C 1104 121 1040 66 968 32 C 896 -2 812 -20 715 -20 C 526 -20 379 41 274 164 C 169 286 117 458 117 678 C 117 898 174 1076 290 1211 C 406 1345 558 1413 748 1413 C 836 1413 916 1394 987 1356 C 1058 1318 1115 1266 1157 1198 L 1047 1108 C 999 1172 951 1217 905 1243 C 858 1269 800 1282 731 1282 C 591 1282 480 1229 400 1123 C 319 1017 279 872 279 688 C 279 502 317 359 393 258 C 469 156 577 106 717 106 C 790 106 852 119 903 145 C 953 171 1005 217 1057 281 Z M 542 -233 L 507 -137 C 541 -109 572 -90 601 -79 C 629 -68 664 -63 704 -63 C 769 -63 821 -81 860 -117 C 899 -153 919 -200 919 -260 C 919 -320 899 -368 860 -404 C 821 -440 769 -459 704 -459 C 664 -459 629 -453 601 -442 C 572 -431 541 -412 507 -385 L 542 -289 C 566 -313 589 -331 611 -341 C 632 -351 658 -356 688 -356 C 721 -356 747 -347 767 -330 C 786 -312 796 -289 796 -260 C 796 -231 786 -208 767 -191 C 747 -174 721 -166 688 -166 C 658 -166 632 -170 611 -180 C 589 -190 566 -207 542 -233 Z" unicode="Ç" />
<glyph horiz-adv-x="1094" d="M 211 0 L 211 1393 L 918 1393 L 918 1264 L 365 1264 L 365 784 L 918 784 L 918 662 L 365 662 L 365 127 L 979 127 L 979 0 L 211 0 Z M 745 1470 L 573 1470 L 308 1669 L 308 1679 L 562 1679 L 745 1481 L 745 1470 Z" unicode="È" />
<glyph horiz-adv-x="1094" d="M 211 0 L 211 1393 L 918 1393 L 918 1264 L 365 1264 L 365 784 L 918 784 L 918 662 L 365 662 L 365 127 L 979 127 L 979 0 L 211 0 Z M 484 1470 L 484 1481 L 667 1679 L 921 1679 L 921 1669 L 650 1470 L 484 1470 Z" unicode="É" />
<glyph horiz-adv-x="1094" d="M 211 0 L 211 1393 L 918 1393 L 918 1264 L 365 1264 L 365 784 L 918 784 L 918 662 L 365 662 L 365 127 L 979 127 L 979 0 L 211 0 Z M 467 1483 L 317 1483 L 317 1491 L 592 1773 L 872 1491 L 872 1483 L 709 1483 L 590 1599 L 467 1483 Z" unicode="Ê" />
<glyph horiz-adv-x="1094" d="M 211 0 L 211 1393 L 918 1393 L 918 1264 L 365 1264 L 365 784 L 918 784 L 918 662 L 365 662 L 365 127 L 979 127 L 979 0 L 211 0 Z M 417 1688 C 449 1688 477 1676 500 1653 C 522 1630 534 1602 534 1569 C 534 1535 522 1506 500 1484 C 477 1461 449 1450 415 1450 C 381 1450 353 1461 330 1484 C 307 1506 296 1535 296 1569 C 296 1602 307 1630 331 1653 C 354 1676 383 1688 417 1688 Z M 763 1688 C 795 1688 823 1676 846 1653 C 868 1630 880 1602 880 1569 C 880 1535 868 1506 846 1484 C 823 1461 795 1450 761 1450 C 727 1450 699 1461 676 1484 C 653 1506 642 1535 642 1569 C 642 1602 653 1630 677 1653 C 700 1676 729 1688 763 1688 Z" unicode="Ë" />
<glyph horiz-adv-x="580" d="M 389 0 L 233 0 L 233 1393 L 389 1393 L 389 0 Z M 421 1470 L 249 1470 L -16 1669 L -16 1679 L 238 1679 L 421 1481 L 421 1470 Z" unicode="Ì" />
<glyph horiz-adv-x="580" d="M 389 0 L 233 0 L 233 1393 L 389 1393 L 389 0 Z M 202 1470 L 202 1481 L 385 1679 L 639 1679 L 639 1669 L 368 1470 L 202 1470 Z" unicode="Í" />
<glyph horiz-adv-x="580" d="M 389 0 L 233 0 L 233 1393 L 389 1393 L 389 0 Z M 185 1477 L 35 1477 L 35 1485 L 310 1767 L 590 1485 L 590 1477 L 427 1477 L 308 1593 L 185 1477 Z" unicode="Î" />
<glyph horiz-adv-x="580" d="M 389 0 L 233 0 L 233 1393 L 389 1393 L 389 0 Z M 135 1688 C 167 1688 195 1676 218 1653 C 240 1630 252 1602 252 1569 C 252 1535 240 1506 218 1484 C 195 1461 167 1450 133 1450 C 99 1450 71 1461 48 1484 C 25 1506 14 1535 14 1569 C 14 1602 25 1630 49 1653 C 72 1676 101 1688 135 1688 Z M 495 1688 C 527 1688 555 1676 578 1653 C 600 1630 612 1602 612 1569 C 612 1535 600 1506 578 1484 C 555 1461 527 1450 493 1450 C 459 1450 431 1461 408 1484 C 385 1506 374 1535 374 1569 C 374 1602 385 1630 409 1653 C 432 1676 461 1688 495 1688 Z" unicode="Ï" />
<glyph horiz-adv-x="1409" d="M 252 662 L 88 662 L 88 786 L 252 786 L 252 1393 L 647 1393 C 759 1393 853 1382 929 1360 C 1005 1338 1069 1304 1122 1257 C 1184 1202 1232 1125 1268 1027 C 1303 928 1321 821 1321 705 C 1321 568 1297 446 1250 340 C 1203 233 1138 153 1055 100 C 1005 67 944 42 874 25 C 804 8 730 0 653 0 L 252 0 L 252 662 Z M 408 662 L 408 123 L 616 123 C 706 123 780 131 840 147 C 900 163 951 189 993 225 C 1045 269 1085 333 1115 417 C 1144 501 1159 595 1159 700 C 1159 804 1144 898 1115 982 C 1085 1066 1044 1130 991 1176 C 952 1209 904 1233 846 1248 C 788 1262 712 1270 618 1270 L 408 1270 L 408 786 L 694 786 L 694 662 L 408 662 Z" unicode="Ð" />
<glyph horiz-adv-x="1395" d="M 360 0 L 211 0 L 211 1393 L 410 1393 L 1079 260 L 1079 1393 L 1229 1393 L 1229 0 L 1067 0 L 360 1171 L 360 0 Z M 483 1458 L 405 1532 C 429 1596 458 1643 490 1674 C 522 1704 559 1720 602 1720 C 629 1720 655 1715 681 1706 C 706 1697 745 1677 799 1647 C 818 1635 835 1627 850 1622 C 865 1616 879 1614 893 1614 C 920 1614 941 1621 956 1637 C 970 1652 989 1685 1012 1737 L 1089 1665 C 1068 1605 1041 1560 1008 1528 C 975 1496 937 1481 895 1481 C 871 1481 846 1485 818 1495 C 790 1505 759 1521 723 1544 C 696 1560 675 1572 659 1578 C 643 1584 627 1587 612 1587 C 584 1587 561 1577 541 1557 C 521 1537 501 1504 483 1458 Z" unicode="Ñ" />
<glyph horiz-adv-x="1518" d="M 791 1417 C 981 1417 1136 1351 1254 1219 C 1372 1087 1432 916 1432 705 C 1432 593 1414 490 1379 395 C 1344 300 1295 219 1231 152 C 1173 92 1106 48 1030 19 C 954 -10 867 -25 770 -25 C 674 -25 588 -10 512 18 C 436 47 370 90 315 147 C 251 213 202 293 168 388 C 134 482 117 583 117 690 C 117 800 134 902 170 998 C 206 1094 257 1175 324 1241 C 384 1300 452 1344 528 1373 C 604 1402 691 1417 791 1417 Z M 762 1288 C 616 1288 499 1234 412 1128 C 324 1021 281 879 281 702 C 281 518 325 373 415 265 C 504 157 626 104 780 104 C 928 104 1047 157 1135 263 C 1223 369 1268 512 1268 692 C 1268 876 1222 1022 1132 1128 C 1042 1234 918 1288 762 1288 Z M 909 1482 L 737 1482 L 472 1681 L 472 1691 L 726 1691 L 909 1493 L 909 1482 Z" unicode="Ò" />
<glyph horiz-adv-x="1518" d="M 791 1417 C 981 1417 1136 1351 1254 1219 C 1372 1087 1432 916 1432 705 C 1432 593 1414 490 1379 395 C 1344 300 1295 219 1231 152 C 1173 92 1106 48 1030 19 C 954 -10 867 -25 770 -25 C 674 -25 588 -10 512 18 C 436 47 370 90 315 147 C 251 213 202 293 168 388 C 134 482 117 583 117 690 C 117 800 134 902 170 998 C 206 1094 257 1175 324 1241 C 384 1300 452 1344 528 1373 C 604 1402 691 1417 791 1417 Z M 762 1288 C 616 1288 499 1234 412 1128 C 324 1021 281 879 281 702 C 281 518 325 373 415 265 C 504 157 626 104 780 104 C 928 104 1047 157 1135 263 C 1223 369 1268 512 1268 692 C 1268 876 1222 1022 1132 1128 C 1042 1234 918 1288 762 1288 Z M 650 1482 L 650 1493 L 833 1691 L 1087 1691 L 1087 1681 L 816 1482 L 650 1482 Z" unicode="Ó" />
<glyph horiz-adv-x="1518" d="M 791 1417 C 981 1417 1136 1351 1254 1219 C 1372 1087 1432 916 1432 705 C 1432 593 1414 490 1379 395 C 1344 300 1295 219 1231 152 C 1173 92 1106 48 1030 19 C 954 -10 867 -25 770 -25 C 674 -25 588 -10 512 18 C 436 47 370 90 315 147 C 251 213 202 293 168 388 C 134 482 117 583 117 690 C 117 800 134 902 170 998 C 206 1094 257 1175 324 1241 C 384 1300 452 1344 528 1373 C 604 1402 691 1417 791 1417 Z M 762 1288 C 616 1288 499 1234 412 1128 C 324 1021 281 879 281 702 C 281 518 325 373 415 265 C 504 157 626 104 780 104 C 928 104 1047 157 1135 263 C 1223 369 1268 512 1268 692 C 1268 876 1222 1022 1132 1128 C 1042 1234 918 1288 762 1288 Z M 645 1477 L 495 1477 L 495 1485 L 770 1767 L 1050 1485 L 1050 1477 L 887 1477 L 768 1593 L 645 1477 Z" unicode="Ô" />
<glyph horiz-adv-x="1518" d="M 791 1417 C 981 1417 1136 1351 1254 1219 C 1372 1087 1432 916 1432 705 C 1432 593 1414 490 1379 395 C 1344 300 1295 219 1231 152 C 1173 92 1106 48 1030 19 C 954 -10 867 -25 770 -25 C 674 -25 588 -10 512 18 C 436 47 370 90 315 147 C 251 213 202 293 168 388 C 134 482 117 583 117 690 C 117 800 134 902 170 998 C 206 1094 257 1175 324 1241 C 384 1300 452 1344 528 1373 C 604 1402 691 1417 791 1417 Z M 762 1288 C 616 1288 499 1234 412 1128 C 324 1021 281 879 281 702 C 281 518 325 373 415 265 C 504 157 626 104 780 104 C 928 104 1047 157 1135 263 C 1223 369 1268 512 1268 692 C 1268 876 1222 1022 1132 1128 C 1042 1234 918 1288 762 1288 Z M 515 1458 L 437 1532 C 461 1596 490 1643 522 1674 C 554 1704 591 1720 634 1720 C 661 1720 687 1715 713 1706 C 738 1697 777 1677 831 1647 C 850 1635 867 1627 882 1622 C 897 1616 911 1614 925 1614 C 952 1614 973 1621 988 1637 C 1002 1652 1021 1685 1044 1737 L 1121 1665 C 1100 1605 1073 1560 1040 1528 C 1007 1496 969 1481 927 1481 C 903 1481 878 1485 850 1495 C 822 1505 791 1521 755 1544 C 728 1560 707 1572 691 1578 C 675 1584 659 1587 644 1587 C 616 1587 593 1577 573 1557 C 553 1537 533 1504 515 1458 Z" unicode="Õ" />
<glyph horiz-adv-x="1518" d="M 791 1417 C 981 1417 1136 1351 1254 1219 C 1372 1087 1432 916 1432 705 C 1432 593 1414 490 1379 395 C 1344 300 1295 219 1231 152 C 1173 92 1106 48 1030 19 C 954 -10 867 -25 770 -25 C 674 -25 588 -10 512 18 C 436 47 370 90 315 147 C 251 213 202 293 168 388 C 134 482 117 583 117 690 C 117 800 134 902 170 998 C 206 1094 257 1175 324 1241 C 384 1300 452 1344 528 1373 C 604 1402 691 1417 791 1417 Z M 762 1288 C 616 1288 499 1234 412 1128 C 324 1021 281 879 281 702 C 281 518 325 373 415 265 C 504 157 626 104 780 104 C 928 104 1047 157 1135 263 C 1223 369 1268 512 1268 692 C 1268 876 1222 1022 1132 1128 C 1042 1234 918 1288 762 1288 Z M 472 1688 C 504 1688 532 1676 555 1653 C 577 1630 589 1602 589 1569 C 589 1535 577 1506 555 1484 C 532 1461 504 1450 470 1450 C 436 1450 408 1461 385 1484 C 362 1506 351 1535 351 1569 C 351 1602 362 1630 386 1653 C 409 1676 438 1688 472 1688 Z M 1081 1688 C 1113 1688 1141 1676 1164 1653 C 1186 1630 1198 1602 1198 1569 C 1198 1535 1186 1506 1164 1484 C 1141 1461 1113 1450 1079 1450 C 1045 1450 1017 1461 994 1484 C 971 1506 960 1535 960 1569 C 960 1602 971 1630 995 1653 C 1018 1676 1047 1688 1081 1688 Z" unicode="Ö" />
<glyph horiz-adv-x="1081" d="M 653 696 L 897 444 L 788 342 L 553 594 L 313 336 L 211 432 L 459 690 L 215 942 L 324 1044 L 559 791 L 799 1049 L 901 952 L 653 696 Z" unicode="×" />
<glyph horiz-adv-x="1518" d="M 1249 1513 L 1143 1319 C 1238 1249 1310 1162 1359 1060 C 1407 958 1432 840 1432 707 C 1432 596 1414 492 1379 395 C 1343 297 1294 216 1231 150 C 1175 92 1109 49 1032 19 C 954 -10 867 -25 770 -25 C 725 -25 686 -22 654 -17 C 621 -11 581 -2 535 10 L 432 -207 L 313 -152 L 426 61 C 325 127 248 214 196 322 C 143 430 117 554 117 694 C 117 804 135 907 173 1004 C 211 1101 264 1183 332 1249 C 390 1305 457 1347 533 1375 C 609 1403 695 1417 793 1417 C 839 1417 878 1413 912 1407 C 946 1401 987 1389 1036 1372 L 1128 1569 L 1249 1513 Z M 487 193 L 979 1247 C 937 1264 901 1275 872 1281 C 843 1287 808 1290 768 1290 C 618 1290 499 1236 411 1130 C 323 1024 279 881 279 702 C 279 589 295 491 329 408 C 363 325 415 253 487 193 Z M 1081 1182 L 592 135 C 628 122 660 113 688 108 C 715 102 746 100 782 100 C 930 100 1049 153 1137 261 C 1225 368 1270 512 1270 694 C 1270 798 1254 890 1223 971 C 1191 1051 1144 1122 1081 1182 Z" unicode="Ø" />
<glyph horiz-adv-x="1335" d="M 188 1393 L 346 1393 L 346 512 C 346 365 372 260 425 197 C 478 133 567 102 692 102 C 816 102 904 133 956 196 C 1008 259 1034 365 1034 514 L 1034 1393 L 1190 1393 L 1190 539 C 1190 434 1181 349 1164 285 C 1147 220 1119 165 1081 121 C 1037 69 983 32 919 9 C 855 -13 775 -25 678 -25 C 580 -25 500 -12 436 14 C 372 40 320 80 279 135 C 246 177 223 230 209 292 C 195 354 188 437 188 539 L 188 1393 Z M 852 1470 L 680 1470 L 415 1669 L 415 1679 L 669 1679 L 852 1481 L 852 1470 Z" unicode="Ù" />
<glyph horiz-adv-x="1335" d="M 188 1393 L 346 1393 L 346 512 C 346 365 372 260 425 197 C 478 133 567 102 692 102 C 816 102 904 133 956 196 C 1008 259 1034 365 1034 514 L 1034 1393 L 1190 1393 L 1190 539 C 1190 434 1181 349 1164 285 C 1147 220 1119 165 1081 121 C 1037 69 983 32 919 9 C 855 -13 775 -25 678 -25 C 580 -25 500 -12 436 14 C 372 40 320 80 279 135 C 246 177 223 230 209 292 C 195 354 188 437 188 539 L 188 1393 Z M 593 1470 L 593 1481 L 776 1679 L 1030 1679 L 1030 1669 L 759 1470 L 593 1470 Z" unicode="Ú" />
<glyph horiz-adv-x="1335" d="M 188 1393 L 346 1393 L 346 512 C 346 365 372 260 425 197 C 478 133 567 102 692 102 C 816 102 904 133 956 196 C 1008 259 1034 365 1034 514 L 1034 1393 L 1190 1393 L 1190 539 C 1190 434 1181 349 1164 285 C 1147 220 1119 165 1081 121 C 1037 69 983 32 919 9 C 855 -13 775 -25 678 -25 C 580 -25 500 -12 436 14 C 372 40 320 80 279 135 C 246 177 223 230 209 292 C 195 354 188 437 188 539 L 188 1393 Z M 565 1477 L 415 1477 L 415 1485 L 690 1767 L 970 1485 L 970 1477 L 807 1477 L 688 1593 L 565 1477 Z" unicode="Û" />
<glyph horiz-adv-x="1335" d="M 188 1393 L 346 1393 L 346 512 C 346 365 372 260 425 197 C 478 133 567 102 692 102 C 816 102 904 133 956 196 C 1008 259 1034 365 1034 514 L 1034 1393 L 1190 1393 L 1190 539 C 1190 434 1181 349 1164 285 C 1147 220 1119 165 1081 121 C 1037 69 983 32 919 9 C 855 -13 775 -25 678 -25 C 580 -25 500 -12 436 14 C 372 40 320 80 279 135 C 246 177 223 230 209 292 C 195 354 188 437 188 539 L 188 1393 Z M 476 1688 C 508 1688 536 1676 559 1653 C 581 1630 593 1602 593 1569 C 593 1535 581 1506 559 1484 C 536 1461 508 1450 474 1450 C 440 1450 412 1461 389 1484 C 366 1506 355 1535 355 1569 C 355 1602 366 1630 390 1653 C 413 1676 442 1688 476 1688 Z M 907 1688 C 939 1688 967 1676 990 1653 C 1012 1630 1024 1602 1024 1569 C 1024 1535 1012 1506 990 1484 C 967 1461 939 1450 905 1450 C 871 1450 843 1461 820 1484 C 797 1506 786 1535 786 1569 C 786 1602 797 1630 821 1653 C 844 1676 873 1688 907 1688 Z" unicode="Ü" />
<glyph horiz-adv-x="1071" d="M 639 0 L 481 0 L 481 532 L 45 1393 L 227 1393 L 565 668 L 903 1393 L 1071 1393 L 639 532 L 639 0 Z M 462 1470 L 462 1481 L 645 1679 L 899 1679 L 899 1669 L 628 1470 L 462 1470 Z" unicode="Ý" />
<glyph horiz-adv-x="1163" d="M 369 0 L 211 0 L 211 1393 L 369 1393 L 369 1174 L 504 1174 C 610 1174 691 1170 747 1163 C 803 1155 852 1142 893 1124 C 951 1097 997 1052 1031 990 C 1065 928 1083 857 1083 778 C 1083 696 1064 624 1028 561 C 991 498 939 450 872 418 C 834 398 791 385 745 377 C 699 369 637 365 561 365 L 369 365 L 369 0 Z M 369 485 L 561 485 C 685 485 777 508 837 555 C 896 601 926 674 926 774 C 926 873 897 944 841 987 C 785 1029 692 1051 563 1051 L 369 1051 L 369 485 Z" unicode="Þ" />
<glyph horiz-adv-x="1141" d="M 309 0 L 160 0 L 160 1049 C 160 1197 195 1308 265 1384 C 335 1459 440 1497 578 1497 C 692 1497 779 1469 838 1415 C 896 1361 926 1279 926 1171 C 926 1087 907 1018 871 962 C 835 906 785 869 721 852 L 721 844 C 773 837 815 827 847 815 C 878 803 907 784 934 760 C 968 727 995 684 1015 630 C 1034 576 1044 518 1044 455 C 1044 368 1025 290 988 220 C 950 150 898 97 831 61 C 791 38 746 22 696 13 C 646 4 579 0 496 0 L 483 0 L 483 119 L 500 119 C 556 119 599 121 631 126 C 663 131 694 140 725 154 C 779 179 820 217 848 268 C 876 318 891 379 891 451 C 891 531 873 598 837 652 C 801 706 752 743 688 762 C 660 768 636 773 616 775 C 596 777 556 778 498 778 L 498 887 C 546 889 584 893 610 899 C 636 905 660 917 682 934 C 712 957 736 988 752 1027 C 768 1066 776 1111 776 1161 C 776 1233 758 1288 724 1326 C 690 1363 639 1382 573 1382 C 477 1382 409 1354 369 1299 C 329 1243 309 1149 309 1016 L 309 0 Z" unicode="ß" />
<glyph horiz-adv-x="1094" d="M 938 0 L 799 0 L 793 125 L 786 125 C 746 76 700 41 646 19 C 592 -3 525 -14 444 -14 C 333 -14 248 11 189 61 C 129 111 100 183 100 279 C 100 382 139 461 217 517 C 295 572 408 600 555 600 L 793 600 L 793 682 C 793 756 775 810 741 845 C 706 879 652 897 578 897 C 514 897 458 886 410 866 C 362 845 316 812 274 766 L 182 852 C 237 911 297 954 361 980 C 425 1006 501 1020 588 1020 C 653 1020 709 1011 755 995 C 801 978 838 953 868 920 C 896 888 914 852 924 812 C 933 772 938 709 938 623 L 938 0 Z M 793 492 L 553 492 C 450 492 373 474 323 440 C 273 405 248 353 248 283 C 248 221 266 174 304 144 C 342 113 399 98 477 98 C 579 98 657 122 711 170 C 765 218 793 288 793 379 L 793 492 Z M 657 1120 L 505 1120 L 300 1397 L 300 1405 L 497 1405 L 657 1120 Z" unicode="à" />
<glyph horiz-adv-x="1094" d="M 938 0 L 799 0 L 793 125 L 786 125 C 746 76 700 41 646 19 C 592 -3 525 -14 444 -14 C 333 -14 248 11 189 61 C 129 111 100 183 100 279 C 100 382 139 461 217 517 C 295 572 408 600 555 600 L 793 600 L 793 682 C 793 756 775 810 741 845 C 706 879 652 897 578 897 C 514 897 458 886 410 866 C 362 845 316 812 274 766 L 182 852 C 237 911 297 954 361 980 C 425 1006 501 1020 588 1020 C 653 1020 709 1011 755 995 C 801 978 838 953 868 920 C 896 888 914 852 924 812 C 933 772 938 709 938 623 L 938 0 Z M 793 492 L 553 492 C 450 492 373 474 323 440 C 273 405 248 353 248 283 C 248 221 266 174 304 144 C 342 113 399 98 477 98 C 579 98 657 122 711 170 C 765 218 793 288 793 379 L 793 492 Z M 452 1120 L 612 1405 L 805 1405 L 805 1397 L 598 1120 L 452 1120 Z" unicode="á" />
<glyph horiz-adv-x="1094" d="M 938 0 L 799 0 L 793 125 L 786 125 C 746 76 700 41 646 19 C 592 -3 525 -14 444 -14 C 333 -14 248 11 189 61 C 129 111 100 183 100 279 C 100 382 139 461 217 517 C 295 572 408 600 555 600 L 793 600 L 793 682 C 793 756 775 810 741 845 C 706 879 652 897 578 897 C 514 897 458 886 410 866 C 362 845 316 812 274 766 L 182 852 C 237 911 297 954 361 980 C 425 1006 501 1020 588 1020 C 653 1020 709 1011 755 995 C 801 978 838 953 868 920 C 896 888 914 852 924 812 C 933 772 938 709 938 623 L 938 0 Z M 793 492 L 553 492 C 450 492 373 474 323 440 C 273 405 248 353 248 283 C 248 221 266 174 304 144 C 342 113 399 98 477 98 C 579 98 657 122 711 170 C 765 218 793 288 793 379 L 793 492 Z M 425 1120 L 294 1120 L 294 1128 L 561 1462 L 823 1128 L 823 1120 L 681 1120 L 557 1270 L 425 1120 Z" unicode="â" />
<glyph horiz-adv-x="1094" d="M 938 0 L 799 0 L 793 125 L 786 125 C 746 76 700 41 646 19 C 592 -3 525 -14 444 -14 C 333 -14 248 11 189 61 C 129 111 100 183 100 279 C 100 382 139 461 217 517 C 295 572 408 600 555 600 L 793 600 L 793 682 C 793 756 775 810 741 845 C 706 879 652 897 578 897 C 514 897 458 886 410 866 C 362 845 316 812 274 766 L 182 852 C 237 911 297 954 361 980 C 425 1006 501 1020 588 1020 C 653 1020 709 1011 755 995 C 801 978 838 953 868 920 C 896 888 914 852 924 812 C 933 772 938 709 938 623 L 938 0 Z M 793 492 L 553 492 C 450 492 373 474 323 440 C 273 405 248 353 248 283 C 248 221 266 174 304 144 C 342 113 399 98 477 98 C 579 98 657 122 711 170 C 765 218 793 288 793 379 L 793 492 Z M 313 1139 L 239 1208 C 263 1270 289 1316 319 1346 C 349 1376 384 1391 424 1391 C 450 1391 475 1386 498 1377 C 521 1367 558 1348 608 1319 C 626 1307 643 1299 657 1295 C 671 1290 685 1288 698 1288 C 722 1288 742 1295 756 1311 C 770 1326 787 1358 809 1407 L 882 1339 C 864 1282 839 1238 807 1207 C 775 1176 740 1161 700 1161 C 677 1161 653 1166 627 1176 C 601 1186 572 1201 538 1223 C 513 1237 493 1248 479 1254 C 465 1260 450 1264 436 1264 C 409 1264 386 1254 367 1235 C 348 1215 330 1183 313 1139 Z" unicode="ã" />
<glyph horiz-adv-x="1094" d="M 938 0 L 799 0 L 793 125 L 786 125 C 746 76 700 41 646 19 C 592 -3 525 -14 444 -14 C 333 -14 248 11 189 61 C 129 111 100 183 100 279 C 100 382 139 461 217 517 C 295 572 408 600 555 600 L 793 600 L 793 682 C 793 756 775 810 741 845 C 706 879 652 897 578 897 C 514 897 458 886 410 866 C 362 845 316 812 274 766 L 182 852 C 237 911 297 954 361 980 C 425 1006 501 1020 588 1020 C 653 1020 709 1011 755 995 C 801 978 838 953 868 920 C 896 888 914 852 924 812 C 933 772 938 709 938 623 L 938 0 Z M 793 492 L 553 492 C 450 492 373 474 323 440 C 273 405 248 353 248 283 C 248 221 266 174 304 144 C 342 113 399 98 477 98 C 579 98 657 122 711 170 C 765 218 793 288 793 379 L 793 492 Z M 321 1393 C 351 1393 377 1382 397 1361 C 417 1340 427 1314 427 1284 C 427 1253 417 1228 397 1208 C 377 1188 351 1178 321 1178 C 290 1178 264 1188 243 1209 C 222 1229 212 1254 212 1284 C 212 1316 222 1342 243 1362 C 264 1382 290 1393 321 1393 Z M 759 1393 C 789 1393 815 1382 835 1361 C 855 1340 865 1314 865 1284 C 865 1253 855 1228 835 1208 C 815 1188 789 1178 759 1178 C 728 1178 702 1188 681 1209 C 660 1229 650 1254 650 1284 C 650 1316 660 1342 681 1362 C 702 1382 728 1393 759 1393 Z" unicode="ä" />
<glyph horiz-adv-x="1094" d="M 938 0 L 799 0 L 793 125 L 786 125 C 746 76 700 41 646 19 C 592 -3 525 -14 444 -14 C 333 -14 248 11 189 61 C 129 111 100 183 100 279 C 100 382 139 461 217 517 C 295 572 408 600 555 600 L 793 600 L 793 682 C 793 756 775 810 741 845 C 706 879 652 897 578 897 C 514 897 458 886 410 866 C 362 845 316 812 274 766 L 182 852 C 237 911 297 954 361 980 C 425 1006 501 1020 588 1020 C 653 1020 709 1011 755 995 C 801 978 838 953 868 920 C 896 888 914 852 924 812 C 933 772 938 709 938 623 L 938 0 Z M 793 492 L 553 492 C 450 492 373 474 323 440 C 273 405 248 353 248 283 C 248 221 266 174 304 144 C 342 113 399 98 477 98 C 579 98 657 122 711 170 C 765 218 793 288 793 379 L 793 492 Z M 556 1454 C 614 1454 661 1437 699 1403 C 736 1369 755 1326 755 1274 C 755 1220 736 1176 699 1142 C 661 1108 613 1092 554 1092 C 494 1092 445 1108 407 1142 C 369 1176 351 1220 351 1274 C 351 1328 370 1371 408 1404 C 446 1437 496 1454 556 1454 Z M 552 1360 C 525 1360 504 1352 488 1336 C 472 1320 464 1299 464 1272 C 464 1245 471 1224 487 1209 C 503 1193 525 1186 554 1186 C 582 1186 604 1193 620 1209 C 636 1225 644 1246 644 1274 C 644 1300 635 1321 619 1337 C 603 1352 580 1360 552 1360 Z" unicode="å" />
<glyph horiz-adv-x="1733" d="M 909 0 L 795 0 L 795 131 L 786 131 C 750 80 705 43 651 20 C 597 -2 528 -14 446 -14 C 335 -14 249 11 189 62 C 128 112 98 185 98 281 C 98 382 136 460 214 514 C 291 568 403 596 549 596 L 778 596 L 778 694 C 778 762 760 813 724 847 C 688 881 633 899 561 899 C 503 899 452 889 406 870 C 360 851 314 820 266 776 L 172 850 C 218 906 276 948 345 977 C 414 1005 494 1020 584 1020 C 667 1020 734 1005 784 977 C 834 948 868 904 887 844 L 895 844 C 933 902 981 946 1040 976 C 1099 1006 1167 1022 1243 1022 C 1372 1022 1471 983 1539 905 C 1607 827 1642 715 1642 567 L 1642 485 L 928 485 C 927 476 926 468 926 461 C 926 454 926 448 926 444 C 926 335 954 250 1011 190 C 1068 130 1148 100 1251 100 C 1314 100 1367 110 1409 131 C 1451 152 1494 188 1536 240 L 1628 164 C 1578 100 1523 55 1465 27 C 1407 0 1335 -14 1251 -14 C 1171 -14 1105 -2 1053 19 C 1001 41 956 79 918 131 L 909 131 L 909 0 Z M 778 485 L 588 485 C 463 485 375 469 324 437 C 273 405 248 351 248 274 C 248 213 266 168 303 139 C 339 110 396 96 473 96 C 569 96 643 121 697 171 C 751 221 778 289 778 377 L 778 485 Z M 928 596 L 1493 596 L 1493 643 C 1492 723 1468 787 1421 833 C 1373 879 1310 903 1231 903 C 1137 903 1066 878 1018 830 C 970 782 940 704 928 596 Z" unicode="æ" />
<glyph horiz-adv-x="965" d="M 920 803 L 815 723 C 779 786 742 830 704 855 C 666 880 618 893 559 893 C 463 893 389 858 336 788 C 282 718 256 619 256 492 C 256 364 280 267 330 199 C 380 131 453 98 549 98 C 614 98 668 110 712 134 C 756 158 798 200 838 258 L 932 180 C 886 110 831 58 769 26 C 707 -6 631 -23 543 -23 C 477 -23 419 -14 371 2 C 322 19 280 46 244 82 C 197 128 161 184 136 252 C 110 319 98 393 98 475 C 98 638 141 769 229 868 C 316 966 431 1016 573 1016 C 653 1016 723 998 781 962 C 839 926 886 873 920 803 Z M 370 -245 L 335 -149 C 369 -121 400 -102 429 -91 C 457 -80 492 -75 532 -75 C 597 -75 649 -93 688 -129 C 727 -165 747 -212 747 -272 C 747 -332 727 -380 688 -416 C 649 -452 597 -471 532 -471 C 492 -471 457 -465 429 -454 C 400 -443 369 -424 335 -397 L 370 -301 C 394 -325 417 -343 439 -353 C 460 -363 486 -368 516 -368 C 549 -368 575 -359 595 -342 C 614 -324 624 -301 624 -272 C 624 -243 614 -220 595 -203 C 575 -186 549 -178 516 -178 C 486 -178 460 -182 439 -192 C 417 -202 394 -219 370 -245 Z" unicode="ç" />
<glyph horiz-adv-x="1092" d="M 1001 485 L 244 485 C 244 428 245 388 248 366 C 250 344 258 317 270 287 C 298 219 337 168 389 135 C 440 102 506 86 588 86 C 656 86 713 97 759 121 C 805 145 849 184 889 240 L 985 162 C 936 96 879 47 814 17 C 749 -13 670 -29 578 -29 C 422 -29 302 15 218 103 C 134 191 92 316 92 479 C 92 646 136 778 225 876 C 314 973 436 1022 590 1022 C 679 1022 755 1003 819 966 C 883 928 931 874 963 803 C 975 771 985 733 991 691 C 997 649 1001 599 1001 541 L 1001 485 Z M 244 594 L 854 594 C 854 602 855 609 855 615 C 855 621 856 626 856 629 C 856 714 830 781 780 829 C 730 877 659 901 567 901 C 470 901 396 876 344 827 C 292 777 258 700 244 594 Z M 663 1120 L 511 1120 L 306 1397 L 306 1405 L 503 1405 L 663 1120 Z" unicode="è" />
<glyph horiz-adv-x="1092" d="M 1001 485 L 244 485 C 244 428 245 388 248 366 C 250 344 258 317 270 287 C 298 219 337 168 389 135 C 440 102 506 86 588 86 C 656 86 713 97 759 121 C 805 145 849 184 889 240 L 985 162 C 936 96 879 47 814 17 C 749 -13 670 -29 578 -29 C 422 -29 302 15 218 103 C 134 191 92 316 92 479 C 92 646 136 778 225 876 C 314 973 436 1022 590 1022 C 679 1022 755 1003 819 966 C 883 928 931 874 963 803 C 975 771 985 733 991 691 C 997 649 1001 599 1001 541 L 1001 485 Z M 244 594 L 854 594 C 854 602 855 609 855 615 C 855 621 856 626 856 629 C 856 714 830 781 780 829 C 730 877 659 901 567 901 C 470 901 396 876 344 827 C 292 777 258 700 244 594 Z M 466 1120 L 626 1405 L 819 1405 L 819 1397 L 612 1120 L 466 1120 Z" unicode="é" />
<glyph horiz-adv-x="1092" d="M 1001 485 L 244 485 C 244 428 245 388 248 366 C 250 344 258 317 270 287 C 298 219 337 168 389 135 C 440 102 506 86 588 86 C 656 86 713 97 759 121 C 805 145 849 184 889 240 L 985 162 C 936 96 879 47 814 17 C 749 -13 670 -29 578 -29 C 422 -29 302 15 218 103 C 134 191 92 316 92 479 C 92 646 136 778 225 876 C 314 973 436 1022 590 1022 C 679 1022 755 1003 819 966 C 883 928 931 874 963 803 C 975 771 985 733 991 691 C 997 649 1001 599 1001 541 L 1001 485 Z M 244 594 L 854 594 C 854 602 855 609 855 615 C 855 621 856 626 856 629 C 856 714 830 781 780 829 C 730 877 659 901 567 901 C 470 901 396 876 344 827 C 292 777 258 700 244 594 Z M 433 1120 L 302 1120 L 302 1128 L 569 1462 L 831 1128 L 831 1120 L 689 1120 L 565 1270 L 433 1120 Z" unicode="ê" />
<glyph horiz-adv-x="1092" d="M 1001 485 L 244 485 C 244 428 245 388 248 366 C 250 344 258 317 270 287 C 298 219 337 168 389 135 C 440 102 506 86 588 86 C 656 86 713 97 759 121 C 805 145 849 184 889 240 L 985 162 C 936 96 879 47 814 17 C 749 -13 670 -29 578 -29 C 422 -29 302 15 218 103 C 134 191 92 316 92 479 C 92 646 136 778 225 876 C 314 973 436 1022 590 1022 C 679 1022 755 1003 819 966 C 883 928 931 874 963 803 C 975 771 985 733 991 691 C 997 649 1001 599 1001 541 L 1001 485 Z M 244 594 L 854 594 C 854 602 855 609 855 615 C 855 621 856 626 856 629 C 856 714 830 781 780 829 C 730 877 659 901 567 901 C 470 901 396 876 344 827 C 292 777 258 700 244 594 Z M 380 1393 C 410 1393 436 1382 456 1361 C 476 1340 486 1314 486 1284 C 486 1253 476 1228 456 1208 C 436 1188 410 1178 380 1178 C 349 1178 323 1188 302 1209 C 281 1229 271 1254 271 1284 C 271 1316 281 1342 302 1362 C 323 1382 349 1393 380 1393 Z M 731 1393 C 761 1393 787 1382 807 1361 C 827 1340 837 1314 837 1284 C 837 1253 827 1228 807 1208 C 787 1188 761 1178 731 1178 C 700 1178 674 1188 653 1209 C 632 1229 622 1254 622 1284 C 622 1316 632 1342 653 1362 C 674 1382 700 1393 731 1393 Z" unicode="ë" />
<glyph horiz-adv-x="510" d="M 180 0 L 180 991 L 330 991 L 330 0 L 180 0 Z M 406 1120 L 254 1120 L 49 1397 L 49 1405 L 246 1405 L 406 1120 Z" unicode="ì" />
<glyph horiz-adv-x="510" d="M 180 0 L 180 991 L 330 991 L 330 0 L 180 0 Z M 92 1120 L 252 1405 L 445 1405 L 445 1397 L 238 1120 L 92 1120 Z" unicode="í" />
<glyph horiz-adv-x="510" d="M 180 0 L 180 991 L 330 991 L 330 0 L 180 0 Z M 123 1120 L -8 1120 L -8 1128 L 259 1462 L 521 1128 L 521 1120 L 379 1120 L 255 1270 L 123 1120 Z" unicode="î" />
<glyph horiz-adv-x="510" d="M 180 0 L 180 991 L 330 991 L 330 0 L 180 0 Z M 115 1393 C 145 1393 171 1382 191 1361 C 211 1340 221 1314 221 1284 C 221 1253 211 1228 191 1208 C 171 1188 145 1178 115 1178 C 84 1178 58 1188 37 1209 C 16 1229 6 1254 6 1284 C 6 1316 16 1342 37 1362 C 58 1382 84 1393 115 1393 Z M 399 1393 C 429 1393 455 1382 475 1361 C 495 1340 505 1314 505 1284 C 505 1253 495 1228 475 1208 C 455 1188 429 1178 399 1178 C 368 1178 342 1188 321 1209 C 300 1229 290 1254 290 1284 C 290 1316 300 1342 321 1362 C 342 1382 368 1393 399 1393 Z" unicode="ï" />
<glyph horiz-adv-x="1145" d="M 219 1090 L 158 1190 L 336 1276 L 186 1411 L 330 1489 L 471 1354 L 676 1456 L 735 1354 L 561 1268 L 780 1063 C 876 974 945 885 989 795 C 1033 705 1055 606 1055 498 C 1055 419 1041 344 1015 272 C 988 200 951 140 903 92 C 862 51 814 21 760 1 C 705 -19 642 -29 571 -29 C 501 -29 437 -18 381 1 C 325 21 277 51 238 90 C 192 136 155 195 129 266 C 103 337 90 411 90 489 C 90 648 136 776 228 874 C 320 971 441 1020 592 1020 L 590 1040 L 422 1194 L 219 1090 Z M 582 899 C 474 899 390 863 331 793 C 271 722 242 622 242 494 C 242 368 271 270 329 199 C 387 127 468 92 571 92 C 675 92 757 127 815 198 C 873 268 903 367 903 494 C 903 625 875 725 820 795 C 765 864 686 899 582 899 Z" unicode="ð" />
<glyph horiz-adv-x="1128" d="M 309 0 L 160 0 L 160 991 L 309 991 L 309 848 L 315 848 C 363 905 414 947 470 974 C 525 1000 587 1014 655 1014 C 765 1014 847 983 900 922 C 952 861 979 767 979 641 L 979 0 L 829 0 L 829 614 C 829 716 814 787 785 827 C 756 867 704 887 629 887 C 522 887 442 857 389 797 C 335 737 309 646 309 526 L 309 0 Z M 341 1139 L 267 1208 C 291 1270 317 1316 347 1346 C 377 1376 412 1391 452 1391 C 478 1391 503 1386 526 1377 C 549 1367 586 1348 636 1319 C 654 1307 671 1299 685 1295 C 699 1290 713 1288 726 1288 C 750 1288 770 1295 784 1311 C 798 1326 815 1358 837 1407 L 910 1339 C 892 1282 867 1238 835 1207 C 803 1176 768 1161 728 1161 C 705 1161 681 1166 655 1176 C 629 1186 600 1201 566 1223 C 541 1237 521 1248 507 1254 C 493 1260 478 1264 464 1264 C 437 1264 414 1254 395 1235 C 376 1215 358 1183 341 1139 Z" unicode="ñ" />
<glyph horiz-adv-x="1145" d="M 588 1022 C 725 1022 837 973 924 877 C 1011 781 1055 656 1055 504 C 1055 422 1041 345 1015 273 C 988 201 951 140 903 92 C 862 51 814 21 760 1 C 705 -19 642 -29 571 -29 C 501 -29 437 -18 381 1 C 325 21 277 51 238 90 C 192 136 155 195 129 266 C 103 337 90 411 90 489 C 90 648 135 777 227 875 C 319 973 439 1022 588 1022 Z M 571 899 C 468 899 387 863 329 791 C 271 719 242 620 242 494 C 242 368 271 270 329 199 C 387 127 468 92 571 92 C 675 92 756 127 815 198 C 873 268 903 367 903 494 C 903 621 873 720 815 792 C 756 863 675 899 571 899 Z M 676 1120 L 524 1120 L 319 1397 L 319 1405 L 516 1405 L 676 1120 Z" unicode="ò" />
<glyph horiz-adv-x="1145" d="M 588 1022 C 725 1022 837 973 924 877 C 1011 781 1055 656 1055 504 C 1055 422 1041 345 1015 273 C 988 201 951 140 903 92 C 862 51 814 21 760 1 C 705 -19 642 -29 571 -29 C 501 -29 437 -18 381 1 C 325 21 277 51 238 90 C 192 136 155 195 129 266 C 103 337 90 411 90 489 C 90 648 135 777 227 875 C 319 973 439 1022 588 1022 Z M 571 899 C 468 899 387 863 329 791 C 271 719 242 620 242 494 C 242 368 271 270 329 199 C 387 127 468 92 571 92 C 675 92 756 127 815 198 C 873 268 903 367 903 494 C 903 621 873 720 815 792 C 756 863 675 899 571 899 Z M 476 1120 L 636 1405 L 829 1405 L 829 1397 L 622 1120 L 476 1120 Z" unicode="ó" />
<glyph horiz-adv-x="1145" d="M 588 1022 C 725 1022 837 973 924 877 C 1011 781 1055 656 1055 504 C 1055 422 1041 345 1015 273 C 988 201 951 140 903 92 C 862 51 814 21 760 1 C 705 -19 642 -29 571 -29 C 501 -29 437 -18 381 1 C 325 21 277 51 238 90 C 192 136 155 195 129 266 C 103 337 90 411 90 489 C 90 648 135 777 227 875 C 319 973 439 1022 588 1022 Z M 571 899 C 468 899 387 863 329 791 C 271 719 242 620 242 494 C 242 368 271 270 329 199 C 387 127 468 92 571 92 C 675 92 756 127 815 198 C 873 268 903 367 903 494 C 903 621 873 720 815 792 C 756 863 675 899 571 899 Z M 439 1120 L 308 1120 L 308 1128 L 575 1462 L 837 1128 L 837 1120 L 695 1120 L 571 1270 L 439 1120 Z" unicode="ô" />
<glyph horiz-adv-x="1145" d="M 588 1022 C 725 1022 837 973 924 877 C 1011 781 1055 656 1055 504 C 1055 422 1041 345 1015 273 C 988 201 951 140 903 92 C 862 51 814 21 760 1 C 705 -19 642 -29 571 -29 C 501 -29 437 -18 381 1 C 325 21 277 51 238 90 C 192 136 155 195 129 266 C 103 337 90 411 90 489 C 90 648 135 777 227 875 C 319 973 439 1022 588 1022 Z M 571 899 C 468 899 387 863 329 791 C 271 719 242 620 242 494 C 242 368 271 270 329 199 C 387 127 468 92 571 92 C 675 92 756 127 815 198 C 873 268 903 367 903 494 C 903 621 873 720 815 792 C 756 863 675 899 571 899 Z M 325 1139 L 251 1208 C 275 1270 301 1316 331 1346 C 361 1376 396 1391 436 1391 C 462 1391 487 1386 510 1377 C 533 1367 570 1348 620 1319 C 638 1307 655 1299 669 1295 C 683 1290 697 1288 710 1288 C 734 1288 754 1295 768 1311 C 782 1326 799 1358 821 1407 L 894 1339 C 876 1282 851 1238 819 1207 C 787 1176 752 1161 712 1161 C 689 1161 665 1166 639 1176 C 613 1186 584 1201 550 1223 C 525 1237 505 1248 491 1254 C 477 1260 462 1264 448 1264 C 421 1264 398 1254 379 1235 C 360 1215 342 1183 325 1139 Z" unicode="õ" />
<glyph horiz-adv-x="1145" d="M 588 1022 C 725 1022 837 973 924 877 C 1011 781 1055 656 1055 504 C 1055 422 1041 345 1015 273 C 988 201 951 140 903 92 C 862 51 814 21 760 1 C 705 -19 642 -29 571 -29 C 501 -29 437 -18 381 1 C 325 21 277 51 238 90 C 192 136 155 195 129 266 C 103 337 90 411 90 489 C 90 648 135 777 227 875 C 319 973 439 1022 588 1022 Z M 571 899 C 468 899 387 863 329 791 C 271 719 242 620 242 494 C 242 368 271 270 329 199 C 387 127 468 92 571 92 C 675 92 756 127 815 198 C 873 268 903 367 903 494 C 903 621 873 720 815 792 C 756 863 675 899 571 899 Z M 354 1393 C 384 1393 410 1382 430 1361 C 450 1340 460 1314 460 1284 C 460 1253 450 1228 430 1208 C 410 1188 384 1178 354 1178 C 323 1178 297 1188 276 1209 C 255 1229 245 1254 245 1284 C 245 1316 255 1342 276 1362 C 297 1382 323 1393 354 1393 Z M 792 1393 C 822 1393 848 1382 868 1361 C 888 1340 898 1314 898 1284 C 898 1253 888 1228 868 1208 C 848 1188 822 1178 792 1178 C 761 1178 735 1188 714 1209 C 693 1229 683 1254 683 1284 C 683 1316 693 1342 714 1362 C 735 1382 761 1393 792 1393 Z" unicode="ö" />
<glyph horiz-adv-x="1081" d="M 559 434 C 595 434 625 421 649 397 C 673 372 686 341 686 305 C 686 269 673 238 649 214 C 624 190 593 178 557 178 C 521 178 490 190 466 214 C 442 238 430 269 430 305 C 430 341 442 372 467 397 C 491 421 522 434 559 434 Z M 559 1212 C 595 1212 625 1199 649 1175 C 673 1150 686 1119 686 1083 C 686 1047 673 1017 649 993 C 624 968 593 956 557 956 C 521 956 490 968 466 993 C 442 1017 430 1047 430 1083 C 430 1119 442 1150 467 1175 C 491 1199 522 1212 559 1212 Z M 164 625 L 164 760 L 952 760 L 952 625 L 164 625 Z" unicode="÷" />
<glyph horiz-adv-x="1145" d="M 756 987 L 831 1149 L 932 1102 L 850 940 C 917 892 968 830 1003 756 C 1037 681 1055 595 1055 498 C 1055 336 1011 207 924 111 C 836 15 719 -33 571 -33 C 547 -33 522 -31 495 -28 C 468 -24 439 -19 408 -12 L 324 -190 L 223 -143 L 311 31 C 239 77 184 139 146 217 C 108 295 90 383 90 483 C 90 641 136 769 228 868 C 320 966 439 1016 586 1016 C 619 1016 646 1014 666 1011 C 686 1007 716 999 756 987 Z M 793 815 L 459 100 C 481 93 501 88 518 85 C 535 81 555 80 578 80 C 679 80 759 115 817 187 C 875 259 905 358 905 485 C 905 547 897 605 881 660 C 865 715 844 757 819 786 C 810 795 804 801 802 804 C 800 806 797 810 793 815 Z M 367 152 L 702 870 C 682 880 662 888 643 892 C 624 896 602 899 578 899 C 472 899 389 862 329 790 C 269 718 240 617 240 489 C 240 411 249 347 269 296 C 288 244 321 196 367 152 Z" unicode="ø" />
<glyph horiz-adv-x="1116" d="M 803 991 L 952 991 L 952 0 L 815 0 L 809 123 L 803 123 C 775 75 736 39 685 15 C 634 -8 571 -20 496 -20 C 374 -20 286 9 230 68 C 174 126 147 220 147 350 L 147 991 L 297 991 L 297 391 C 297 282 313 206 345 164 C 377 121 434 100 518 100 C 620 100 693 127 737 183 C 781 239 803 333 803 467 L 803 991 Z M 674 1120 L 522 1120 L 317 1397 L 317 1405 L 514 1405 L 674 1120 Z" unicode="ù" />
<glyph horiz-adv-x="1116" d="M 803 991 L 952 991 L 952 0 L 815 0 L 809 123 L 803 123 C 775 75 736 39 685 15 C 634 -8 571 -20 496 -20 C 374 -20 286 9 230 68 C 174 126 147 220 147 350 L 147 991 L 297 991 L 297 391 C 297 282 313 206 345 164 C 377 121 434 100 518 100 C 620 100 693 127 737 183 C 781 239 803 333 803 467 L 803 991 Z M 454 1120 L 614 1405 L 807 1405 L 807 1397 L 600 1120 L 454 1120 Z" unicode="ú" />
<glyph horiz-adv-x="1116" d="M 803 991 L 952 991 L 952 0 L 815 0 L 809 123 L 803 123 C 775 75 736 39 685 15 C 634 -8 571 -20 496 -20 C 374 -20 286 9 230 68 C 174 126 147 220 147 350 L 147 991 L 297 991 L 297 391 C 297 282 313 206 345 164 C 377 121 434 100 518 100 C 620 100 693 127 737 183 C 781 239 803 333 803 467 L 803 991 Z M 423 1120 L 292 1120 L 292 1128 L 559 1462 L 821 1128 L 821 1120 L 679 1120 L 555 1270 L 423 1120 Z" unicode="û" />
<glyph horiz-adv-x="1116" d="M 803 991 L 952 991 L 952 0 L 815 0 L 809 123 L 803 123 C 775 75 736 39 685 15 C 634 -8 571 -20 496 -20 C 374 -20 286 9 230 68 C 174 126 147 220 147 350 L 147 991 L 297 991 L 297 391 C 297 282 313 206 345 164 C 377 121 434 100 518 100 C 620 100 693 127 737 183 C 781 239 803 333 803 467 L 803 991 Z M 366 1393 C 396 1393 422 1382 442 1361 C 462 1340 472 1314 472 1284 C 472 1253 462 1228 442 1208 C 422 1188 396 1178 366 1178 C 335 1178 309 1188 288 1209 C 267 1229 257 1254 257 1284 C 257 1316 267 1342 288 1362 C 309 1382 335 1393 366 1393 Z M 747 1393 C 777 1393 803 1382 823 1361 C 843 1340 853 1314 853 1284 C 853 1253 843 1228 823 1208 C 803 1188 777 1178 747 1178 C 716 1178 690 1188 669 1209 C 648 1229 638 1254 638 1284 C 638 1316 648 1342 669 1362 C 690 1382 716 1393 747 1393 Z" unicode="ü" />
<glyph horiz-adv-x="944" d="M 33 991 L 203 991 L 506 170 L 780 991 L 932 991 L 618 113 C 530 -137 460 -301 408 -377 C 356 -453 283 -497 190 -510 L 156 -383 C 188 -378 216 -369 239 -356 C 261 -342 283 -322 305 -295 C 333 -260 358 -215 380 -160 C 401 -105 412 -58 412 -20 C 412 -2 408 20 402 46 C 396 72 387 100 375 129 L 33 991 Z M 401 1120 L 561 1405 L 754 1405 L 754 1397 L 547 1120 L 401 1120 Z" unicode="ý" />
<glyph horiz-adv-x="1178" d="M 309 -481 L 160 -481 L 160 1489 L 305 1489 L 305 852 L 313 852 C 357 907 406 948 462 974 C 518 1000 581 1014 653 1014 C 785 1014 889 968 965 877 C 1041 786 1079 662 1079 504 C 1079 342 1040 215 962 124 C 884 33 776 -12 639 -12 C 564 -12 502 -2 453 17 C 403 36 357 69 315 115 L 309 115 L 309 -481 Z M 621 891 C 519 891 438 856 380 787 C 322 717 293 622 293 500 C 293 373 321 276 377 209 C 433 142 513 109 618 109 C 718 109 795 141 847 207 C 899 273 926 370 926 500 C 926 627 900 724 848 791 C 796 857 720 891 621 891 Z" unicode="þ" />
<glyph horiz-adv-x="944" d="M 33 991 L 203 991 L 506 170 L 780 991 L 932 991 L 618 113 C 530 -137 460 -301 408 -377 C 356 -453 283 -497 190 -510 L 156 -383 C 188 -378 216 -369 239 -356 C 261 -342 283 -322 305 -295 C 333 -260 358 -215 380 -160 C 401 -105 412 -58 412 -20 C 412 -2 408 20 402 46 C 396 72 387 100 375 129 L 33 991 Z M 284 1393 C 314 1393 340 1382 360 1361 C 380 1340 390 1314 390 1284 C 390 1253 380 1228 360 1208 C 340 1188 314 1178 284 1178 C 253 1178 227 1188 206 1209 C 185 1229 175 1254 175 1284 C 175 1316 185 1342 206 1362 C 227 1382 253 1393 284 1393 Z M 694 1393 C 724 1393 750 1382 770 1361 C 790 1340 800 1314 800 1284 C 800 1253 790 1228 770 1208 C 750 1188 724 1178 694 1178 C 663 1178 637 1188 616 1209 C 595 1229 585 1254 585 1284 C 585 1316 595 1342 616 1362 C 637 1382 663 1393 694 1393 Z" unicode="ÿ" />
<glyph horiz-adv-x="1260" d="M 229 0 L 70 0 L 549 1393 L 735 1393 L 1210 0 L 1042 0 L 903 430 L 367 430 L 229 0 Z M 633 1243 L 399 543 L 866 543 L 633 1243 Z M 376 1491 L 376 1630 L 901 1630 L 901 1491 L 376 1491 Z" unicode="Ā" />
<glyph horiz-adv-x="1094" d="M 938 0 L 799 0 L 793 125 L 786 125 C 746 76 700 41 646 19 C 592 -3 525 -14 444 -14 C 333 -14 248 11 189 61 C 129 111 100 183 100 279 C 100 382 139 461 217 517 C 295 572 408 600 555 600 L 793 600 L 793 682 C 793 756 775 810 741 845 C 706 879 652 897 578 897 C 514 897 458 886 410 866 C 362 845 316 812 274 766 L 182 852 C 237 911 297 954 361 980 C 425 1006 501 1020 588 1020 C 653 1020 709 1011 755 995 C 801 978 838 953 868 920 C 896 888 914 852 924 812 C 933 772 938 709 938 623 L 938 0 Z M 793 492 L 553 492 C 450 492 373 474 323 440 C 273 405 248 353 248 283 C 248 221 266 174 304 144 C 342 113 399 98 477 98 C 579 98 657 122 711 170 C 765 218 793 288 793 379 L 793 492 Z M 296 1196 L 296 1321 L 821 1321 L 821 1196 L 296 1196 Z" unicode="ā" />
<glyph horiz-adv-x="1260" d="M 229 0 L 70 0 L 549 1393 L 735 1393 L 1210 0 L 1042 0 L 903 430 L 367 430 L 229 0 Z M 633 1243 L 399 543 L 866 543 L 633 1243 Z M 800 1763 L 905 1716 C 887 1624 857 1557 815 1515 C 773 1473 714 1452 639 1452 C 564 1452 505 1473 463 1515 C 420 1557 390 1624 374 1716 L 479 1763 C 496 1697 518 1650 544 1621 C 570 1591 602 1577 641 1577 C 679 1577 710 1591 736 1621 C 762 1650 783 1697 800 1763 Z" unicode="Ă" />
<glyph horiz-adv-x="1094" d="M 938 0 L 799 0 L 793 125 L 786 125 C 746 76 700 41 646 19 C 592 -3 525 -14 444 -14 C 333 -14 248 11 189 61 C 129 111 100 183 100 279 C 100 382 139 461 217 517 C 295 572 408 600 555 600 L 793 600 L 793 682 C 793 756 775 810 741 845 C 706 879 652 897 578 897 C 514 897 458 886 410 866 C 362 845 316 812 274 766 L 182 852 C 237 911 297 954 361 980 C 425 1006 501 1020 588 1020 C 653 1020 709 1011 755 995 C 801 978 838 953 868 920 C 896 888 914 852 924 812 C 933 772 938 709 938 623 L 938 0 Z M 793 492 L 553 492 C 450 492 373 474 323 440 C 273 405 248 353 248 283 C 248 221 266 174 304 144 C 342 113 399 98 477 98 C 579 98 657 122 711 170 C 765 218 793 288 793 379 L 793 492 Z M 708 1421 L 810 1376 C 794 1289 765 1226 724 1186 C 682 1146 625 1126 552 1126 C 480 1126 423 1146 382 1186 C 341 1226 312 1289 296 1376 L 399 1421 C 415 1359 435 1314 459 1286 C 482 1258 512 1245 548 1245 C 582 1245 607 1250 623 1261 C 639 1272 656 1294 673 1327 C 681 1342 688 1356 693 1370 C 698 1383 703 1400 708 1421 Z" unicode="ă" />
<glyph horiz-adv-x="1260" d="M 1210 0 L 1116 0 C 1052 -56 1008 -101 982 -136 C 956 -171 944 -203 944 -233 C 944 -263 952 -286 969 -301 C 986 -316 1012 -324 1047 -324 C 1078 -324 1106 -319 1130 -311 C 1154 -303 1181 -289 1212 -270 L 1251 -377 C 1215 -398 1178 -414 1139 -426 C 1099 -438 1060 -444 1020 -444 C 950 -444 895 -429 855 -399 C 815 -369 795 -328 795 -276 C 795 -227 810 -185 842 -150 C 874 -115 940 -65 1042 0 L 903 430 L 367 430 L 229 0 L 70 0 L 549 1393 L 735 1393 L 1210 0 Z M 633 1243 L 399 543 L 866 543 L 633 1243 Z" unicode="Ą" />
<glyph horiz-adv-x="1094" d="M 938 0 L 872 0 C 808 -55 763 -100 737 -136 C 711 -171 698 -203 698 -233 C 698 -263 706 -286 723 -301 C 740 -316 767 -324 803 -324 C 833 -324 861 -319 886 -311 C 910 -303 938 -289 969 -270 L 1008 -377 C 973 -398 935 -414 895 -426 C 855 -438 814 -444 774 -444 C 704 -444 649 -429 609 -399 C 569 -369 549 -328 549 -276 C 549 -227 565 -185 598 -149 C 631 -113 698 -63 799 0 L 793 125 L 786 125 C 746 76 700 41 646 19 C 592 -3 525 -14 444 -14 C 333 -14 248 11 189 61 C 129 111 100 183 100 279 C 100 382 139 461 217 517 C 295 572 408 600 555 600 L 793 600 L 793 682 C 793 756 775 810 741 845 C 706 879 652 897 578 897 C 514 897 458 886 410 866 C 362 845 316 812 274 766 L 182 852 C 237 911 297 954 361 980 C 425 1006 501 1020 588 1020 C 653 1020 709 1011 755 995 C 801 978 838 953 868 920 C 896 888 914 852 924 812 C 933 772 938 709 938 623 L 938 0 Z M 793 492 L 553 492 C 450 492 373 474 323 440 C 273 405 248 353 248 283 C 248 221 266 174 304 144 C 342 113 399 98 477 98 C 579 98 657 122 711 170 C 765 218 793 288 793 379 L 793 492 Z" unicode="ą" />
<glyph horiz-adv-x="1198" d="M 1057 281 L 1161 197 C 1104 121 1040 66 968 32 C 896 -2 812 -20 715 -20 C 526 -20 379 41 274 164 C 169 286 117 458 117 678 C 117 898 174 1076 290 1211 C 406 1345 558 1413 748 1413 C 836 1413 916 1394 987 1356 C 1058 1318 1115 1266 1157 1198 L 1047 1108 C 999 1172 951 1217 905 1243 C 858 1269 800 1282 731 1282 C 591 1282 480 1229 400 1123 C 319 1017 279 872 279 688 C 279 502 317 359 393 258 C 469 156 577 106 717 106 C 790 106 852 119 903 145 C 953 171 1005 217 1057 281 Z M 583 1482 L 583 1493 L 766 1691 L 1020 1691 L 1020 1681 L 749 1482 L 583 1482 Z" unicode="Ć" />
<glyph horiz-adv-x="965" d="M 920 803 L 815 723 C 779 786 742 830 704 855 C 666 880 618 893 559 893 C 463 893 389 858 336 788 C 282 718 256 619 256 492 C 256 364 280 267 330 199 C 380 131 453 98 549 98 C 614 98 668 110 712 134 C 756 158 798 200 838 258 L 932 180 C 886 110 831 58 769 26 C 707 -6 631 -23 543 -23 C 477 -23 419 -14 371 2 C 322 19 280 46 244 82 C 197 128 161 184 136 252 C 110 319 98 393 98 475 C 98 638 141 769 229 868 C 316 966 431 1016 573 1016 C 653 1016 723 998 781 962 C 839 926 886 873 920 803 Z M 433 1120 L 593 1405 L 786 1405 L 786 1397 L 579 1120 L 433 1120 Z" unicode="ć" />
<glyph horiz-adv-x="1198" d="M 1057 281 L 1161 197 C 1104 121 1040 66 968 32 C 896 -2 812 -20 715 -20 C 526 -20 379 41 274 164 C 169 286 117 458 117 678 C 117 898 174 1076 290 1211 C 406 1345 558 1413 748 1413 C 836 1413 916 1394 987 1356 C 1058 1318 1115 1266 1157 1198 L 1047 1108 C 999 1172 951 1217 905 1243 C 858 1269 800 1282 731 1282 C 591 1282 480 1229 400 1123 C 319 1017 279 872 279 688 C 279 502 317 359 393 258 C 469 156 577 106 717 106 C 790 106 852 119 903 145 C 953 171 1005 217 1057 281 Z M 835 1741 L 982 1741 L 982 1733 L 710 1450 L 427 1733 L 427 1741 L 591 1741 L 710 1610 L 835 1741 Z" unicode="Č" />
<glyph horiz-adv-x="965" d="M 920 803 L 815 723 C 779 786 742 830 704 855 C 666 880 618 893 559 893 C 463 893 389 858 336 788 C 282 718 256 619 256 492 C 256 364 280 267 330 199 C 380 131 453 98 549 98 C 614 98 668 110 712 134 C 756 158 798 200 838 258 L 932 180 C 886 110 831 58 769 26 C 707 -6 631 -23 543 -23 C 477 -23 419 -14 371 2 C 322 19 280 46 244 82 C 197 128 161 184 136 252 C 110 319 98 393 98 475 C 98 638 141 769 229 868 C 316 966 431 1016 573 1016 C 653 1016 723 998 781 962 C 839 926 886 873 920 803 Z M 676 1434 L 807 1434 L 807 1425 L 541 1092 L 278 1425 L 278 1434 L 420 1434 L 545 1270 L 676 1434 Z" unicode="č" />
<glyph horiz-adv-x="1368" d="M 211 0 L 211 1393 L 608 1393 C 718 1393 812 1382 889 1360 C 966 1338 1031 1304 1083 1257 C 1144 1202 1192 1125 1228 1026 C 1264 926 1282 818 1282 702 C 1282 566 1258 445 1211 339 C 1164 233 1099 153 1016 100 C 964 67 904 42 834 25 C 764 8 690 0 612 0 L 211 0 Z M 367 123 L 575 123 C 666 123 741 131 801 147 C 861 163 912 189 954 225 C 1006 269 1046 333 1076 417 C 1105 501 1120 595 1120 700 C 1120 804 1105 898 1076 982 C 1046 1065 1005 1130 952 1176 C 912 1209 863 1233 806 1248 C 748 1262 673 1270 580 1270 L 367 1270 L 367 123 Z M 794 1741 L 941 1741 L 941 1733 L 669 1450 L 386 1733 L 386 1741 L 550 1741 L 669 1610 L 794 1741 Z" unicode="Ď" />
<glyph horiz-adv-x="1221" d="M 1020 0 L 879 0 L 872 131 L 866 131 C 823 75 777 36 728 12 C 678 -11 617 -23 543 -23 C 401 -23 291 20 213 108 C 135 196 96 319 96 477 C 96 638 138 768 224 866 C 309 964 421 1014 561 1014 C 629 1014 686 1003 732 982 C 778 961 821 925 862 874 L 870 874 L 870 1489 L 1020 1489 L 1020 0 Z M 559 891 C 459 891 383 856 330 786 C 276 716 250 617 250 489 C 250 359 276 262 329 196 C 382 130 461 98 565 98 C 667 98 746 131 801 199 C 855 267 883 365 883 494 C 883 624 855 723 800 790 C 745 857 665 891 559 891 Z M 1193 1393 L 1357 1393 L 1226 995 L 1107 1036 L 1193 1393 Z" unicode="ď" />
<glyph horiz-adv-x="1409" d="M 252 662 L 88 662 L 88 786 L 252 786 L 252 1393 L 647 1393 C 759 1393 853 1382 929 1360 C 1005 1338 1069 1304 1122 1257 C 1184 1202 1232 1125 1268 1027 C 1303 928 1321 821 1321 705 C 1321 568 1297 446 1250 340 C 1203 233 1138 153 1055 100 C 1005 67 944 42 874 25 C 804 8 730 0 653 0 L 252 0 L 252 662 Z M 408 662 L 408 123 L 616 123 C 706 123 780 131 840 147 C 900 163 951 189 993 225 C 1045 269 1085 333 1115 417 C 1144 501 1159 595 1159 700 C 1159 804 1144 898 1115 982 C 1085 1066 1044 1130 991 1176 C 952 1209 904 1233 846 1248 C 788 1262 712 1270 618 1270 L 408 1270 L 408 786 L 694 786 L 694 662 L 408 662 Z" unicode="Đ" />
<glyph horiz-adv-x="1180" d="M 870 1317 L 870 1489 L 1020 1489 L 1020 1317 L 1180 1317 L 1180 1200 L 1020 1200 L 1020 0 L 879 0 L 872 131 L 866 131 C 823 75 777 36 728 12 C 678 -11 617 -23 543 -23 C 402 -23 293 20 215 108 C 137 196 98 319 98 477 C 98 638 140 768 226 866 C 311 964 423 1014 563 1014 C 631 1014 687 1003 733 981 C 779 959 822 924 862 874 L 870 874 L 870 1200 L 655 1200 L 655 1317 L 870 1317 Z M 561 891 C 461 891 385 856 332 786 C 278 716 252 617 252 489 C 252 359 278 262 331 196 C 384 130 463 98 567 98 C 669 98 747 131 801 199 C 855 267 883 365 883 494 C 883 624 855 723 800 790 C 745 857 665 891 561 891 Z" unicode="đ" />
<glyph horiz-adv-x="1094" d="M 211 0 L 211 1393 L 918 1393 L 918 1264 L 365 1264 L 365 784 L 918 784 L 918 662 L 365 662 L 365 127 L 979 127 L 979 0 L 211 0 Z M 331 1497 L 331 1636 L 856 1636 L 856 1497 L 331 1497 Z" unicode="Ē" />
<glyph horiz-adv-x="1092" d="M 1001 485 L 244 485 C 244 428 245 388 248 366 C 250 344 258 317 270 287 C 298 219 337 168 389 135 C 440 102 506 86 588 86 C 656 86 713 97 759 121 C 805 145 849 184 889 240 L 985 162 C 936 96 879 47 814 17 C 749 -13 670 -29 578 -29 C 422 -29 302 15 218 103 C 134 191 92 316 92 479 C 92 646 136 778 225 876 C 314 973 436 1022 590 1022 C 679 1022 755 1003 819 966 C 883 928 931 874 963 803 C 975 771 985 733 991 691 C 997 649 1001 599 1001 541 L 1001 485 Z M 244 594 L 854 594 C 854 602 855 609 855 615 C 855 621 856 626 856 629 C 856 714 830 781 780 829 C 730 877 659 901 567 901 C 470 901 396 876 344 827 C 292 777 258 700 244 594 Z M 304 1196 L 304 1321 L 829 1321 L 829 1196 L 304 1196 Z" unicode="ē" />
<glyph horiz-adv-x="1094" d="M 211 0 L 211 1393 L 918 1393 L 918 1264 L 365 1264 L 365 784 L 918 784 L 918 662 L 365 662 L 365 127 L 979 127 L 979 0 L 211 0 Z M 597 1704 C 631 1704 661 1691 685 1667 C 709 1643 722 1613 722 1577 C 722 1541 709 1510 685 1486 C 661 1462 631 1450 595 1450 C 559 1450 529 1462 505 1486 C 480 1510 468 1541 468 1577 C 468 1613 480 1644 505 1668 C 530 1692 561 1704 597 1704 Z" unicode="Ė" />
<glyph horiz-adv-x="1092" d="M 1001 485 L 244 485 C 244 428 245 388 248 366 C 250 344 258 317 270 287 C 298 219 337 168 389 135 C 440 102 506 86 588 86 C 656 86 713 97 759 121 C 805 145 849 184 889 240 L 985 162 C 936 96 879 47 814 17 C 749 -13 670 -29 578 -29 C 422 -29 302 15 218 103 C 134 191 92 316 92 479 C 92 646 136 778 225 876 C 314 973 436 1022 590 1022 C 679 1022 755 1003 819 966 C 883 928 931 874 963 803 C 975 771 985 733 991 691 C 997 649 1001 599 1001 541 L 1001 485 Z M 244 594 L 854 594 C 854 602 855 609 855 615 C 855 621 856 626 856 629 C 856 714 830 781 780 829 C 730 877 659 901 567 901 C 470 901 396 876 344 827 C 292 777 258 700 244 594 Z M 575 1393 C 605 1393 631 1382 651 1361 C 671 1340 681 1314 681 1284 C 681 1253 671 1228 651 1208 C 631 1188 605 1178 575 1178 C 544 1178 518 1188 497 1209 C 476 1229 466 1254 466 1284 C 466 1316 476 1342 497 1362 C 518 1382 544 1393 575 1393 Z" unicode="ė" />
<glyph horiz-adv-x="1094" d="M 979 0 L 874 0 C 812 -55 767 -100 741 -136 C 715 -171 702 -203 702 -233 C 702 -263 710 -286 727 -301 C 744 -316 770 -324 805 -324 C 836 -324 864 -319 888 -311 C 912 -303 940 -289 971 -270 L 1010 -377 C 974 -399 936 -416 897 -427 C 858 -438 818 -444 778 -444 C 708 -444 653 -429 613 -399 C 573 -369 553 -328 553 -276 C 553 -227 569 -185 602 -149 C 635 -113 702 -63 803 0 L 211 0 L 211 1393 L 918 1393 L 918 1264 L 365 1264 L 365 784 L 918 784 L 918 662 L 365 662 L 365 127 L 979 127 L 979 0 Z" unicode="Ę" />
<glyph horiz-adv-x="1092" d="M 922 -270 L 963 -377 C 927 -398 889 -414 850 -426 C 810 -438 771 -444 731 -444 C 661 -444 606 -429 566 -399 C 526 -369 506 -328 506 -276 C 506 -230 521 -189 553 -153 C 584 -117 643 -72 731 -18 L 731 -6 C 700 -14 673 -20 651 -24 C 628 -27 601 -29 571 -29 C 419 -29 301 15 217 104 C 133 193 92 318 92 479 C 92 646 136 778 225 876 C 314 973 436 1022 590 1022 C 679 1022 755 1003 819 966 C 883 928 931 874 963 803 C 975 771 985 733 991 691 C 997 649 1001 599 1001 541 L 1001 485 L 244 485 C 244 429 245 389 248 367 C 250 344 258 317 270 287 C 298 219 338 170 390 138 C 442 106 510 90 594 90 C 660 90 714 101 758 124 C 801 147 845 188 889 246 L 987 166 C 968 139 952 119 940 105 C 928 91 907 72 879 49 C 804 -14 748 -69 711 -116 C 673 -163 655 -202 655 -233 C 655 -263 663 -286 680 -301 C 697 -316 723 -324 758 -324 C 788 -324 816 -319 840 -311 C 864 -303 892 -289 922 -270 Z M 244 594 L 854 594 C 854 602 855 609 855 615 C 855 621 856 626 856 629 C 856 714 830 781 780 829 C 730 877 659 901 567 901 C 470 901 396 876 344 827 C 292 777 258 700 244 594 Z" unicode="ę" />
<glyph horiz-adv-x="1094" d="M 211 0 L 211 1393 L 918 1393 L 918 1264 L 365 1264 L 365 784 L 918 784 L 918 662 L 365 662 L 365 127 L 979 127 L 979 0 L 211 0 Z M 725 1741 L 872 1741 L 872 1733 L 600 1450 L 317 1733 L 317 1741 L 481 1741 L 600 1610 L 725 1741 Z" unicode="Ě" />
<glyph horiz-adv-x="1092" d="M 1001 485 L 244 485 C 244 428 245 388 248 366 C 250 344 258 317 270 287 C 298 219 337 168 389 135 C 440 102 506 86 588 86 C 656 86 713 97 759 121 C 805 145 849 184 889 240 L 985 162 C 936 96 879 47 814 17 C 749 -13 670 -29 578 -29 C 422 -29 302 15 218 103 C 134 191 92 316 92 479 C 92 646 136 778 225 876 C 314 973 436 1022 590 1022 C 679 1022 755 1003 819 966 C 883 928 931 874 963 803 C 975 771 985 733 991 691 C 997 649 1001 599 1001 541 L 1001 485 Z M 244 594 L 854 594 C 854 602 855 609 855 615 C 855 621 856 626 856 629 C 856 714 830 781 780 829 C 730 877 659 901 567 901 C 470 901 396 876 344 827 C 292 777 258 700 244 594 Z M 694 1434 L 825 1434 L 825 1425 L 559 1092 L 296 1425 L 296 1434 L 438 1434 L 563 1270 L 694 1434 Z" unicode="ě" />
<glyph horiz-adv-x="1450" d="M 829 614 L 829 737 L 1296 737 L 1296 207 C 1222 125 1143 66 1061 30 C 979 -6 882 -25 772 -25 C 567 -25 407 37 291 163 C 175 289 117 462 117 682 C 117 902 179 1080 305 1215 C 430 1349 596 1417 803 1417 C 911 1417 1005 1398 1087 1360 C 1168 1322 1235 1265 1288 1190 L 1178 1102 C 1132 1164 1078 1210 1015 1241 C 951 1272 877 1288 793 1288 C 635 1288 509 1234 417 1127 C 325 1020 279 874 279 690 C 279 597 291 512 316 435 C 340 358 376 294 422 242 C 464 194 516 159 578 136 C 639 113 711 102 795 102 C 871 102 937 112 994 134 C 1050 156 1102 190 1149 236 L 1149 614 L 829 614 Z M 931 1783 L 1036 1736 C 1018 1644 988 1577 946 1535 C 904 1493 845 1472 770 1472 C 695 1472 636 1493 594 1535 C 551 1577 521 1644 505 1736 L 610 1783 C 627 1717 649 1670 675 1641 C 701 1611 733 1597 772 1597 C 810 1597 841 1611 867 1641 C 893 1670 914 1717 931 1783 Z" unicode="Ğ" />
<glyph horiz-adv-x="1139" d="M 223 -481 L 252 -350 C 294 -362 328 -371 355 -375 C 381 -379 412 -381 446 -381 C 580 -381 680 -342 748 -265 C 816 -187 850 -72 850 80 L 850 180 L 842 180 C 809 127 766 88 713 62 C 659 36 595 23 520 23 C 458 23 404 30 356 46 C 308 61 267 84 233 115 C 188 157 153 212 127 280 C 101 348 88 421 88 500 C 88 652 130 775 215 871 C 300 966 411 1014 547 1014 C 612 1014 668 1003 715 981 C 761 959 803 925 840 879 L 846 879 L 846 991 L 991 991 L 991 104 C 991 -94 944 -246 850 -352 C 756 -457 621 -510 444 -510 C 404 -510 369 -508 337 -504 C 305 -500 267 -492 223 -481 Z M 543 891 C 443 891 368 859 318 795 C 267 731 242 636 242 512 C 242 387 266 294 315 234 C 364 173 439 143 539 143 C 645 143 724 174 775 236 C 826 298 852 393 852 522 C 852 646 826 739 776 800 C 725 860 647 891 543 891 Z M 700 1421 L 802 1376 C 786 1289 757 1226 716 1186 C 674 1146 617 1126 544 1126 C 472 1126 415 1146 374 1186 C 333 1226 304 1289 288 1376 L 391 1421 C 407 1359 427 1314 451 1286 C 474 1258 504 1245 540 1245 C 574 1245 599 1250 615 1261 C 631 1272 648 1294 665 1327 C 673 1342 680 1356 685 1370 C 690 1383 695 1400 700 1421 Z" unicode="ğ" />
<glyph horiz-adv-x="1450" d="M 829 614 L 829 737 L 1296 737 L 1296 207 C 1222 125 1143 66 1061 30 C 979 -6 882 -25 772 -25 C 567 -25 407 37 291 163 C 175 289 117 462 117 682 C 117 902 179 1080 305 1215 C 430 1349 596 1417 803 1417 C 911 1417 1005 1398 1087 1360 C 1168 1322 1235 1265 1288 1190 L 1178 1102 C 1132 1164 1078 1210 1015 1241 C 951 1272 877 1288 793 1288 C 635 1288 509 1234 417 1127 C 325 1020 279 874 279 690 C 279 597 291 512 316 435 C 340 358 376 294 422 242 C 464 194 516 159 578 136 C 639 113 711 102 795 102 C 871 102 937 112 994 134 C 1050 156 1102 190 1149 236 L 1149 614 L 829 614 Z M 673 -81 L 858 -81 L 712 -495 L 589 -448 L 673 -81 Z" unicode="Ģ" />
<glyph horiz-adv-x="1139" d="M 223 -481 L 252 -350 C 294 -362 328 -371 355 -375 C 381 -379 412 -381 446 -381 C 580 -381 680 -342 748 -265 C 816 -187 850 -72 850 80 L 850 180 L 842 180 C 809 127 766 88 713 62 C 659 36 595 23 520 23 C 458 23 404 30 356 46 C 308 61 267 84 233 115 C 188 157 153 212 127 280 C 101 348 88 421 88 500 C 88 652 130 775 215 871 C 300 966 411 1014 547 1014 C 612 1014 668 1003 715 981 C 761 959 803 925 840 879 L 846 879 L 846 991 L 991 991 L 991 104 C 991 -94 944 -246 850 -352 C 756 -457 621 -510 444 -510 C 404 -510 369 -508 337 -504 C 305 -500 267 -492 223 -481 Z M 543 891 C 443 891 368 859 318 795 C 267 731 242 636 242 512 C 242 387 266 294 315 234 C 364 173 439 143 539 143 C 645 143 724 174 775 236 C 826 298 852 393 852 522 C 852 646 826 739 776 800 C 725 860 647 891 543 891 Z M 541 1442 L 709 1442 L 584 1081 L 465 1124 L 541 1442 Z" unicode="ģ" />
<glyph horiz-adv-x="580" d="M 389 0 L 233 0 L 233 1393 L 389 1393 L 389 0 Z M 49 1491 L 49 1630 L 574 1630 L 574 1491 L 49 1491 Z" unicode="Ī" />
<glyph horiz-adv-x="510" d="M 180 0 L 180 991 L 330 991 L 330 0 L 180 0 Z M 29 1196 L 29 1321 L 475 1321 L 475 1196 L 29 1196 Z" unicode="ī" />
<glyph horiz-adv-x="580" d="M 389 0 L 379 0 C 317 -56 273 -101 247 -136 C 221 -171 209 -203 209 -233 C 209 -263 217 -286 234 -301 C 251 -316 277 -324 311 -324 C 341 -324 369 -319 394 -311 C 418 -303 445 -289 475 -270 L 514 -377 C 479 -398 442 -414 403 -426 C 364 -438 325 -444 285 -444 C 214 -444 159 -429 119 -399 C 79 -369 59 -328 59 -276 C 59 -227 75 -185 108 -149 C 140 -113 207 -63 307 0 L 233 0 L 233 1393 L 389 1393 L 389 0 Z" unicode="Į" />
<glyph horiz-adv-x="510" d="M 227 -444 C 157 -444 102 -429 62 -399 C 22 -369 2 -328 2 -276 C 2 -227 18 -185 51 -149 C 84 -113 151 -63 252 0 L 182 0 L 182 991 L 332 991 L 332 0 L 324 0 C 260 -56 216 -101 190 -136 C 164 -171 152 -203 152 -233 C 152 -263 160 -286 177 -301 C 193 -316 220 -324 256 -324 C 286 -324 314 -319 338 -311 C 362 -303 390 -289 420 -270 L 461 -377 C 425 -398 387 -414 347 -426 C 307 -438 267 -444 227 -444 Z M 256 1393 C 286 1393 312 1382 332 1361 C 352 1340 362 1314 362 1284 C 362 1253 352 1228 332 1208 C 312 1188 286 1178 256 1178 C 225 1178 199 1188 178 1209 C 157 1229 147 1254 147 1284 C 147 1316 157 1342 178 1362 C 199 1382 225 1393 256 1393 Z" unicode="į" />
<glyph horiz-adv-x="580" d="M 389 0 L 233 0 L 233 1393 L 389 1393 L 389 0 Z M 312 1704 C 346 1704 376 1691 400 1667 C 424 1643 437 1613 437 1577 C 437 1541 424 1510 400 1486 C 376 1462 346 1450 310 1450 C 274 1450 244 1462 220 1486 C 195 1510 183 1541 183 1577 C 183 1613 195 1644 220 1668 C 245 1692 276 1704 312 1704 Z" unicode="İ" />
<glyph horiz-adv-x="510" d="M 180 0 L 180 991 L 330 991 L 330 0 L 180 0 Z" unicode="ı" />
<glyph horiz-adv-x="1186" d="M 367 0 L 211 0 L 211 1393 L 367 1393 L 367 750 L 401 750 L 424 760 L 918 1393 L 1098 1393 L 573 729 L 1180 0 L 979 0 L 424 668 L 401 678 L 367 678 L 367 0 Z M 589 -61 L 774 -61 L 628 -475 L 505 -428 L 589 -61 Z" unicode="Ķ" />
<glyph horiz-adv-x="1012" d="M 317 0 L 168 0 L 168 1489 L 317 1489 L 317 565 L 344 565 L 369 573 L 784 991 L 958 991 L 518 543 L 995 0 L 801 0 L 369 483 L 346 494 L 317 494 L 317 0 Z M 476 -61 L 661 -61 L 515 -475 L 392 -428 L 476 -61 Z" unicode="ķ" />
<glyph horiz-adv-x="958" d="M 375 125 L 915 125 L 915 0 L 217 0 L 217 1393 L 375 1393 L 375 125 Z M 210 1470 L 210 1481 L 393 1679 L 647 1679 L 647 1669 L 376 1470 L 210 1470 Z" unicode="Ĺ" />
<glyph horiz-adv-x="522" d="M 125 1470 L 125 1481 L 322 1679 L 549 1679 L 549 1669 L 291 1470 L 125 1470 Z M 338 0 L 186 0 L 186 1407 L 338 1407 L 338 0 Z" unicode="ĺ" />
<glyph horiz-adv-x="958" d="M 375 125 L 915 125 L 915 0 L 217 0 L 217 1393 L 375 1393 L 375 125 Z M 521 -61 L 706 -61 L 560 -475 L 437 -428 L 521 -61 Z" unicode="Ļ" />
<glyph horiz-adv-x="522" d="M 338 0 L 186 0 L 186 1489 L 338 1489 L 338 0 Z M 184 -75 L 369 -75 L 223 -489 L 100 -442 L 184 -75 Z" unicode="ļ" />
<glyph horiz-adv-x="958" d="M 375 125 L 915 125 L 915 0 L 217 0 L 217 1393 L 375 1393 L 375 125 Z M 554 1393 L 718 1393 L 587 995 L 468 1036 L 554 1393 Z" unicode="Ľ" />
<glyph horiz-adv-x="537" d="M 338 0 L 186 0 L 186 1489 L 338 1489 L 338 0 Z M 509 1393 L 673 1393 L 542 995 L 423 1036 L 509 1393 Z" unicode="ľ" />
<glyph horiz-adv-x="999" d="M 258 621 L 115 512 L 49 608 L 258 754 L 258 1393 L 416 1393 L 416 858 L 590 987 L 657 893 L 416 723 L 416 125 L 956 125 L 956 0 L 258 0 L 258 621 Z" unicode="Ł" />
<glyph horiz-adv-x="584" d="M 233 633 L 72 514 L 6 608 L 233 766 L 233 1489 L 385 1489 L 385 866 L 549 987 L 614 893 L 385 731 L 385 0 L 233 0 L 233 633 Z" unicode="ł" />
<glyph horiz-adv-x="1395" d="M 360 0 L 211 0 L 211 1393 L 410 1393 L 1079 260 L 1079 1393 L 1229 1393 L 1229 0 L 1067 0 L 360 1171 L 360 0 Z M 609 1470 L 609 1481 L 792 1679 L 1046 1679 L 1046 1669 L 775 1470 L 609 1470 Z" unicode="Ń" />
<glyph horiz-adv-x="1128" d="M 309 0 L 160 0 L 160 991 L 309 991 L 309 848 L 315 848 C 363 905 414 947 470 974 C 525 1000 587 1014 655 1014 C 765 1014 847 983 900 922 C 952 861 979 767 979 641 L 979 0 L 829 0 L 829 614 C 829 716 814 787 785 827 C 756 867 704 887 629 887 C 522 887 442 857 389 797 C 335 737 309 646 309 526 L 309 0 Z M 466 1120 L 626 1405 L 819 1405 L 819 1397 L 612 1120 L 466 1120 Z" unicode="ń" />
<glyph horiz-adv-x="1395" d="M 360 0 L 211 0 L 211 1393 L 410 1393 L 1079 260 L 1079 1393 L 1229 1393 L 1229 0 L 1067 0 L 360 1171 L 360 0 Z M 642 -61 L 827 -61 L 681 -475 L 558 -428 L 642 -61 Z" unicode="Ņ" />
<glyph horiz-adv-x="1128" d="M 309 0 L 160 0 L 160 991 L 309 991 L 309 848 L 315 848 C 363 905 414 947 470 974 C 525 1000 587 1014 655 1014 C 765 1014 847 983 900 922 C 952 861 979 767 979 641 L 979 0 L 829 0 L 829 614 C 829 716 814 787 785 827 C 756 867 704 887 629 887 C 522 887 442 857 389 797 C 335 737 309 646 309 526 L 309 0 Z M 499 -61 L 684 -61 L 538 -475 L 415 -428 L 499 -61 Z" unicode="ņ" />
<glyph horiz-adv-x="1395" d="M 360 0 L 211 0 L 211 1393 L 410 1393 L 1079 260 L 1079 1393 L 1229 1393 L 1229 0 L 1067 0 L 360 1171 L 360 0 Z M 876 1741 L 1023 1741 L 1023 1733 L 751 1450 L 468 1733 L 468 1741 L 632 1741 L 751 1610 L 876 1741 Z" unicode="Ň" />
<glyph horiz-adv-x="1128" d="M 309 0 L 160 0 L 160 991 L 309 991 L 309 848 L 315 848 C 363 905 414 947 470 974 C 525 1000 587 1014 655 1014 C 765 1014 847 983 900 922 C 952 861 979 767 979 641 L 979 0 L 829 0 L 829 614 C 829 716 814 787 785 827 C 756 867 704 887 629 887 C 522 887 442 857 389 797 C 335 737 309 646 309 526 L 309 0 Z M 717 1434 L 848 1434 L 848 1425 L 582 1092 L 319 1425 L 319 1434 L 461 1434 L 586 1270 L 717 1434 Z" unicode="ň" />
<glyph horiz-adv-x="1518" d="M 791 1417 C 981 1417 1136 1351 1254 1219 C 1372 1087 1432 916 1432 705 C 1432 593 1414 490 1379 395 C 1344 300 1295 219 1231 152 C 1173 92 1106 48 1030 19 C 954 -10 867 -25 770 -25 C 674 -25 588 -10 512 18 C 436 47 370 90 315 147 C 251 213 202 293 168 388 C 134 482 117 583 117 690 C 117 800 134 902 170 998 C 206 1094 257 1175 324 1241 C 384 1300 452 1344 528 1373 C 604 1402 691 1417 791 1417 Z M 762 1288 C 616 1288 499 1234 412 1128 C 324 1021 281 879 281 702 C 281 518 325 373 415 265 C 504 157 626 104 780 104 C 928 104 1047 157 1135 263 C 1223 369 1268 512 1268 692 C 1268 876 1222 1022 1132 1128 C 1042 1234 918 1288 762 1288 Z M 511 1497 L 511 1636 L 1036 1636 L 1036 1497 L 511 1497 Z" unicode="Ō" />
<glyph horiz-adv-x="1145" d="M 588 1022 C 725 1022 837 973 924 877 C 1011 781 1055 656 1055 504 C 1055 422 1041 345 1015 273 C 988 201 951 140 903 92 C 862 51 814 21 760 1 C 705 -19 642 -29 571 -29 C 501 -29 437 -18 381 1 C 325 21 277 51 238 90 C 192 136 155 195 129 266 C 103 337 90 411 90 489 C 90 648 135 777 227 875 C 319 973 439 1022 588 1022 Z M 571 899 C 468 899 387 863 329 791 C 271 719 242 620 242 494 C 242 368 271 270 329 199 C 387 127 468 92 571 92 C 675 92 756 127 815 198 C 873 268 903 367 903 494 C 903 621 873 720 815 792 C 756 863 675 899 571 899 Z M 310 1196 L 310 1321 L 835 1321 L 835 1196 L 310 1196 Z" unicode="ō" />
<glyph horiz-adv-x="1518" d="M 791 1417 C 981 1417 1136 1351 1254 1219 C 1372 1087 1432 916 1432 705 C 1432 593 1414 490 1379 395 C 1344 300 1295 219 1231 152 C 1173 92 1106 48 1030 19 C 954 -10 867 -25 770 -25 C 674 -25 588 -10 512 18 C 436 47 370 90 315 147 C 251 213 202 293 168 388 C 134 482 117 583 117 690 C 117 800 134 902 170 998 C 206 1094 257 1175 324 1241 C 384 1300 452 1344 528 1373 C 604 1402 691 1417 791 1417 Z M 762 1288 C 616 1288 499 1234 412 1128 C 324 1021 281 879 281 702 C 281 518 325 373 415 265 C 504 157 626 104 780 104 C 928 104 1047 157 1135 263 C 1223 369 1268 512 1268 692 C 1268 876 1222 1022 1132 1128 C 1042 1234 918 1288 762 1288 Z M 493 1476 L 493 1487 L 676 1685 L 917 1685 L 917 1675 L 653 1476 L 493 1476 Z M 848 1476 L 848 1487 L 1030 1685 L 1272 1685 L 1272 1675 L 1007 1476 L 848 1476 Z" unicode="Ő" />
<glyph horiz-adv-x="1145" d="M 588 1022 C 725 1022 837 973 924 877 C 1011 781 1055 656 1055 504 C 1055 422 1041 345 1015 273 C 988 201 951 140 903 92 C 862 51 814 21 760 1 C 705 -19 642 -29 571 -29 C 501 -29 437 -18 381 1 C 325 21 277 51 238 90 C 192 136 155 195 129 266 C 103 337 90 411 90 489 C 90 648 135 777 227 875 C 319 973 439 1022 588 1022 Z M 571 899 C 468 899 387 863 329 791 C 271 719 242 620 242 494 C 242 368 271 270 329 199 C 387 127 468 92 571 92 C 675 92 756 127 815 198 C 873 268 903 367 903 494 C 903 621 873 720 815 792 C 756 863 675 899 571 899 Z M 353 1120 L 525 1405 L 693 1405 L 693 1397 L 495 1120 L 353 1120 Z M 640 1120 L 812 1405 L 980 1405 L 980 1397 L 781 1120 L 640 1120 Z" unicode="ő" />
<glyph horiz-adv-x="1917" d="M 1825 127 L 1825 0 L 1049 0 L 1049 76 C 1001 42 954 18 908 5 C 862 -7 805 -14 737 -14 C 647 -14 568 -2 498 22 C 428 46 369 82 319 131 C 255 194 205 274 170 372 C 134 469 117 574 117 686 C 117 896 177 1069 298 1204 C 418 1339 572 1407 760 1407 C 819 1407 873 1399 922 1384 C 971 1369 1015 1347 1053 1319 L 1053 1393 L 1761 1393 L 1761 1264 L 1204 1264 L 1204 786 L 1761 786 L 1761 664 L 1204 664 L 1204 127 L 1825 127 Z M 1053 190 L 1053 1190 C 1010 1219 965 1241 917 1255 C 869 1269 816 1276 760 1276 C 610 1276 492 1224 407 1121 C 321 1018 279 876 279 696 C 279 593 294 498 324 411 C 354 323 395 257 449 211 C 486 177 531 151 584 135 C 637 119 698 111 766 111 C 826 111 877 116 921 128 C 964 140 1008 160 1053 190 Z" unicode="Œ" />
<glyph horiz-adv-x="1841" d="M 952 195 L 944 195 C 902 121 849 67 786 31 C 722 -5 647 -23 561 -23 C 419 -23 305 23 219 116 C 133 209 90 332 90 485 C 90 639 135 764 226 862 C 316 959 434 1008 578 1008 C 638 1008 695 998 747 978 C 799 958 845 929 883 891 C 887 887 894 877 905 862 C 916 846 931 825 950 799 L 958 799 C 1000 869 1053 921 1118 956 C 1183 990 1260 1008 1348 1008 C 1419 1008 1481 997 1534 975 C 1587 953 1631 921 1665 877 C 1697 838 1719 793 1732 741 C 1744 689 1751 622 1751 541 L 1751 489 L 1026 489 C 1026 356 1052 257 1105 193 C 1157 128 1238 96 1348 96 C 1415 96 1471 107 1516 130 C 1561 152 1602 190 1640 244 L 1737 166 C 1689 100 1634 52 1571 22 C 1508 -7 1432 -23 1343 -23 C 1249 -23 1171 -5 1109 28 C 1047 62 994 118 952 195 Z M 561 885 C 463 885 386 849 328 779 C 270 709 242 614 242 496 C 242 370 270 273 328 203 C 386 133 466 98 569 98 C 668 98 745 132 801 201 C 857 269 885 364 885 485 C 885 611 856 710 799 780 C 742 850 663 885 561 885 Z M 1028 594 L 1606 594 L 1606 623 C 1606 706 1582 770 1536 816 C 1489 862 1423 885 1339 885 C 1244 885 1172 861 1122 815 C 1072 768 1040 694 1028 594 Z" unicode="œ" />
<glyph horiz-adv-x="1167" d="M 367 676 L 367 0 L 211 0 L 211 1393 L 547 1393 C 644 1393 717 1389 766 1381 C 815 1373 859 1358 897 1337 C 945 1309 982 1268 1009 1213 C 1035 1158 1049 1095 1049 1024 C 1049 909 1013 817 941 748 C 869 679 771 643 647 641 L 1133 0 L 940 0 L 434 666 L 412 676 L 367 676 Z M 367 750 L 547 750 C 663 750 749 771 806 815 C 862 859 891 925 891 1014 C 891 1104 865 1170 814 1210 C 762 1250 677 1270 559 1270 L 367 1270 L 367 750 Z M 466 1470 L 466 1481 L 649 1679 L 903 1679 L 903 1669 L 632 1470 L 466 1470 Z" unicode="Ŕ" />
<glyph horiz-adv-x="713" d="M 322 0 L 172 0 L 172 991 L 317 991 L 317 825 L 326 825 C 368 883 414 926 463 955 C 512 984 564 999 618 999 C 626 999 637 998 649 997 C 661 995 675 993 692 991 L 692 856 C 677 858 663 859 649 860 C 635 861 625 862 618 862 C 520 862 447 831 397 770 C 347 708 322 618 322 498 L 322 0 Z M 296 1120 L 456 1405 L 649 1405 L 649 1397 L 442 1120 L 296 1120 Z" unicode="ŕ" />
<glyph horiz-adv-x="1167" d="M 367 676 L 367 0 L 211 0 L 211 1393 L 547 1393 C 644 1393 717 1389 766 1381 C 815 1373 859 1358 897 1337 C 945 1309 982 1268 1009 1213 C 1035 1158 1049 1095 1049 1024 C 1049 909 1013 817 941 748 C 869 679 771 643 647 641 L 1133 0 L 940 0 L 434 666 L 412 676 L 367 676 Z M 367 750 L 547 750 C 663 750 749 771 806 815 C 862 859 891 925 891 1014 C 891 1104 865 1170 814 1210 C 762 1250 677 1270 559 1270 L 367 1270 L 367 750 Z M 552 -61 L 737 -61 L 591 -475 L 468 -428 L 552 -61 Z" unicode="Ŗ" />
<glyph horiz-adv-x="713" d="M 322 0 L 172 0 L 172 991 L 317 991 L 317 825 L 326 825 C 368 883 414 926 463 955 C 512 984 564 999 618 999 C 626 999 637 998 649 997 C 661 995 675 993 692 991 L 692 856 C 677 858 663 859 649 860 C 635 861 625 862 618 862 C 520 862 447 831 397 770 C 347 708 322 618 322 498 L 322 0 Z M 368 -61 L 553 -61 L 407 -475 L 284 -428 L 368 -61 Z" unicode="ŗ" />
<glyph horiz-adv-x="1167" d="M 367 676 L 367 0 L 211 0 L 211 1393 L 547 1393 C 644 1393 717 1389 766 1381 C 815 1373 859 1358 897 1337 C 945 1309 982 1268 1009 1213 C 1035 1158 1049 1095 1049 1024 C 1049 909 1013 817 941 748 C 869 679 771 643 647 641 L 1133 0 L 940 0 L 434 666 L 412 676 L 367 676 Z M 367 750 L 547 750 C 663 750 749 771 806 815 C 862 859 891 925 891 1014 C 891 1104 865 1170 814 1210 C 762 1250 677 1270 559 1270 L 367 1270 L 367 750 Z M 718 1741 L 865 1741 L 865 1733 L 593 1450 L 310 1733 L 310 1741 L 474 1741 L 593 1610 L 718 1741 Z" unicode="Ř" />
<glyph horiz-adv-x="713" d="M 322 0 L 172 0 L 172 991 L 317 991 L 317 825 L 326 825 C 368 883 414 926 463 955 C 512 984 564 999 618 999 C 626 999 637 998 649 997 C 661 995 675 993 692 991 L 692 856 C 677 858 663 859 649 860 C 635 861 625 862 618 862 C 520 862 447 831 397 770 C 347 708 322 618 322 498 L 322 0 Z M 565 1434 L 696 1434 L 696 1425 L 430 1092 L 167 1425 L 167 1434 L 309 1434 L 434 1270 L 565 1434 Z" unicode="ř" />
<glyph horiz-adv-x="1071" d="M 102 195 L 217 285 C 253 221 298 175 350 145 C 402 115 466 100 541 100 C 627 100 695 123 744 169 C 792 215 817 280 817 362 C 817 406 809 443 795 475 C 780 507 757 533 727 555 C 700 574 673 590 645 603 C 617 616 533 651 393 707 C 308 740 245 783 205 837 C 165 890 145 954 145 1030 C 145 1142 185 1234 266 1306 C 346 1377 450 1413 578 1413 C 660 1413 731 1395 792 1359 C 852 1323 900 1272 934 1204 L 827 1120 C 797 1176 760 1218 716 1246 C 671 1274 618 1288 557 1288 C 481 1288 420 1266 374 1224 C 328 1182 305 1126 305 1057 C 305 999 319 952 349 918 C 378 883 429 851 502 823 C 634 771 722 734 765 714 C 807 693 843 669 872 643 C 906 609 932 571 948 530 C 964 488 973 438 973 379 C 973 252 934 153 857 82 C 779 10 672 -25 535 -25 C 435 -25 351 -7 283 27 C 215 61 155 117 102 195 Z M 441 1482 L 441 1493 L 624 1691 L 878 1691 L 878 1681 L 607 1482 L 441 1482 Z" unicode="Ś" />
<glyph horiz-adv-x="934" d="M 86 147 L 190 231 C 230 181 273 145 319 124 C 364 102 419 92 483 92 C 550 92 602 105 638 132 C 674 159 692 198 692 250 C 692 279 685 304 673 326 C 661 348 642 366 618 381 C 600 391 579 401 557 409 C 534 417 464 440 348 477 C 272 500 215 532 178 573 C 141 614 123 665 123 727 C 123 813 156 883 223 937 C 289 991 377 1018 485 1018 C 561 1018 626 1006 679 983 C 732 959 780 922 823 870 L 721 788 C 685 826 648 854 612 870 C 576 886 532 895 481 895 C 413 895 360 882 324 856 C 288 830 270 793 270 745 C 270 705 282 674 306 653 C 330 632 377 610 449 588 C 550 555 618 532 654 518 C 689 504 718 489 741 473 C 773 447 798 417 814 383 C 830 349 838 310 838 266 C 838 173 806 101 744 50 C 681 -1 593 -27 481 -27 C 391 -27 316 -13 254 13 C 192 40 136 85 86 147 Z M 394 1120 L 554 1405 L 747 1405 L 747 1397 L 540 1120 L 394 1120 Z" unicode="ś" />
<glyph horiz-adv-x="1071" d="M 102 195 L 217 285 C 253 221 298 175 350 145 C 402 115 466 100 541 100 C 627 100 695 123 744 169 C 792 215 817 280 817 362 C 817 406 809 443 795 475 C 780 507 757 533 727 555 C 700 574 673 590 645 603 C 617 616 533 651 393 707 C 308 740 245 783 205 837 C 165 890 145 954 145 1030 C 145 1142 185 1234 266 1306 C 346 1377 450 1413 578 1413 C 660 1413 731 1395 792 1359 C 852 1323 900 1272 934 1204 L 827 1120 C 797 1176 760 1218 716 1246 C 671 1274 618 1288 557 1288 C 481 1288 420 1266 374 1224 C 328 1182 305 1126 305 1057 C 305 999 319 952 349 918 C 378 883 429 851 502 823 C 634 771 722 734 765 714 C 807 693 843 669 872 643 C 906 609 932 571 948 530 C 964 488 973 438 973 379 C 973 252 934 153 857 82 C 779 10 672 -25 535 -25 C 435 -25 351 -7 283 27 C 215 61 155 117 102 195 Z M 372 -245 L 337 -149 C 371 -121 402 -102 431 -91 C 459 -80 494 -75 534 -75 C 599 -75 651 -93 690 -129 C 729 -165 749 -212 749 -272 C 749 -332 729 -380 690 -416 C 651 -452 599 -471 534 -471 C 494 -471 459 -465 431 -454 C 402 -443 371 -424 337 -397 L 372 -301 C 396 -325 419 -343 441 -353 C 462 -363 488 -368 518 -368 C 551 -368 577 -359 597 -342 C 616 -324 626 -301 626 -272 C 626 -243 616 -220 597 -203 C 577 -186 551 -178 518 -178 C 488 -178 462 -182 441 -192 C 419 -202 396 -219 372 -245 Z" unicode="Ş" />
<glyph horiz-adv-x="934" d="M 86 147 L 190 231 C 230 181 273 145 319 124 C 364 102 419 92 483 92 C 550 92 602 105 638 132 C 674 159 692 198 692 250 C 692 279 685 304 673 326 C 661 348 642 366 618 381 C 600 391 579 401 557 409 C 534 417 464 440 348 477 C 272 500 215 532 178 573 C 141 614 123 665 123 727 C 123 813 156 883 223 937 C 289 991 377 1018 485 1018 C 561 1018 626 1006 679 983 C 732 959 780 922 823 870 L 721 788 C 685 826 648 854 612 870 C 576 886 532 895 481 895 C 413 895 360 882 324 856 C 288 830 270 793 270 745 C 270 705 282 674 306 653 C 330 632 377 610 449 588 C 550 555 618 532 654 518 C 689 504 718 489 741 473 C 773 447 798 417 814 383 C 830 349 838 310 838 266 C 838 173 806 101 744 50 C 681 -1 593 -27 481 -27 C 391 -27 316 -13 254 13 C 192 40 136 85 86 147 Z M 290 -245 L 255 -149 C 289 -121 320 -102 349 -91 C 377 -80 412 -75 452 -75 C 517 -75 569 -93 608 -129 C 647 -165 667 -212 667 -272 C 667 -332 647 -380 608 -416 C 569 -452 517 -471 452 -471 C 412 -471 377 -465 349 -454 C 320 -443 289 -424 255 -397 L 290 -301 C 314 -325 337 -343 359 -353 C 380 -363 406 -368 436 -368 C 469 -368 495 -359 515 -342 C 534 -324 544 -301 544 -272 C 544 -243 534 -220 515 -203 C 495 -186 469 -178 436 -178 C 406 -178 380 -182 359 -192 C 337 -202 314 -219 290 -245 Z" unicode="ş" />
<glyph horiz-adv-x="1071" d="M 102 195 L 217 285 C 253 221 298 175 350 145 C 402 115 466 100 541 100 C 627 100 695 123 744 169 C 792 215 817 280 817 362 C 817 406 809 443 795 475 C 780 507 757 533 727 555 C 700 574 673 590 645 603 C 617 616 533 651 393 707 C 308 740 245 783 205 837 C 165 890 145 954 145 1030 C 145 1142 185 1234 266 1306 C 346 1377 450 1413 578 1413 C 660 1413 731 1395 792 1359 C 852 1323 900 1272 934 1204 L 827 1120 C 797 1176 760 1218 716 1246 C 671 1274 618 1288 557 1288 C 481 1288 420 1266 374 1224 C 328 1182 305 1126 305 1057 C 305 999 319 952 349 918 C 378 883 429 851 502 823 C 634 771 722 734 765 714 C 807 693 843 669 872 643 C 906 609 932 571 948 530 C 964 488 973 438 973 379 C 973 252 934 153 857 82 C 779 10 672 -25 535 -25 C 435 -25 351 -7 283 27 C 215 61 155 117 102 195 Z M 682 1741 L 829 1741 L 829 1733 L 557 1450 L 274 1733 L 274 1741 L 438 1741 L 557 1610 L 682 1741 Z" unicode="Š" />
<glyph horiz-adv-x="934" d="M 86 147 L 190 231 C 230 181 273 145 319 124 C 364 102 419 92 483 92 C 550 92 602 105 638 132 C 674 159 692 198 692 250 C 692 279 685 304 673 326 C 661 348 642 366 618 381 C 600 391 579 401 557 409 C 534 417 464 440 348 477 C 272 500 215 532 178 573 C 141 614 123 665 123 727 C 123 813 156 883 223 937 C 289 991 377 1018 485 1018 C 561 1018 626 1006 679 983 C 732 959 780 922 823 870 L 721 788 C 685 826 648 854 612 870 C 576 886 532 895 481 895 C 413 895 360 882 324 856 C 288 830 270 793 270 745 C 270 705 282 674 306 653 C 330 632 377 610 449 588 C 550 555 618 532 654 518 C 689 504 718 489 741 473 C 773 447 798 417 814 383 C 830 349 838 310 838 266 C 838 173 806 101 744 50 C 681 -1 593 -27 481 -27 C 391 -27 316 -13 254 13 C 192 40 136 85 86 147 Z M 610 1434 L 741 1434 L 741 1425 L 475 1092 L 212 1425 L 212 1434 L 354 1434 L 479 1270 L 610 1434 Z" unicode="š" />
<glyph horiz-adv-x="1042" d="M 623 0 L 465 0 L 465 1264 L 66 1264 L 66 1393 L 1022 1393 L 1022 1264 L 623 1264 L 623 0 Z M 458 -67 L 643 -67 L 497 -481 L 374 -434 L 458 -67 Z" unicode="Ţ" />
<glyph horiz-adv-x="713" d="M 41 862 L 41 977 L 238 977 L 246 1337 L 389 1337 L 381 977 L 672 977 L 672 862 L 375 862 L 375 369 C 375 273 390 206 421 168 C 451 130 504 111 580 111 C 594 111 607 111 618 113 C 629 114 642 116 657 119 L 657 6 C 639 1 622 -2 606 -4 C 590 -6 570 -8 547 -8 C 436 -8 356 20 306 77 C 256 134 231 226 231 354 L 231 862 L 41 862 Z M 374 -67 L 559 -67 L 413 -481 L 290 -434 L 374 -67 Z" unicode="ţ" />
<glyph horiz-adv-x="1042" d="M 623 0 L 465 0 L 465 1264 L 66 1264 L 66 1393 L 1022 1393 L 1022 1264 L 623 1264 L 623 0 Z M 673 1741 L 820 1741 L 820 1733 L 548 1450 L 265 1733 L 265 1741 L 429 1741 L 548 1610 L 673 1741 Z" unicode="Ť" />
<glyph horiz-adv-x="713" d="M 41 862 L 41 977 L 238 977 L 246 1337 L 389 1337 L 381 977 L 672 977 L 672 862 L 375 862 L 375 369 C 375 273 390 206 421 168 C 451 130 504 111 580 111 C 594 111 607 111 618 113 C 629 114 642 116 657 119 L 657 6 C 639 1 622 -2 606 -4 C 590 -6 570 -8 547 -8 C 436 -8 356 20 306 77 C 256 134 231 226 231 354 L 231 862 L 41 862 Z M 597 1458 L 761 1458 L 630 1060 L 511 1101 L 597 1458 Z" unicode="ť" />
<glyph horiz-adv-x="1335" d="M 188 1393 L 346 1393 L 346 512 C 346 365 372 260 425 197 C 478 133 567 102 692 102 C 816 102 904 133 956 196 C 1008 259 1034 365 1034 514 L 1034 1393 L 1190 1393 L 1190 539 C 1190 434 1181 349 1164 285 C 1147 220 1119 165 1081 121 C 1037 69 983 32 919 9 C 855 -13 775 -25 678 -25 C 580 -25 500 -12 436 14 C 372 40 320 80 279 135 C 246 177 223 230 209 292 C 195 354 188 437 188 539 L 188 1393 Z M 431 1491 L 431 1630 L 956 1630 L 956 1491 L 431 1491 Z" unicode="Ū" />
<glyph horiz-adv-x="1116" d="M 803 991 L 952 991 L 952 0 L 815 0 L 809 123 L 803 123 C 775 75 736 39 685 15 C 634 -8 571 -20 496 -20 C 374 -20 286 9 230 68 C 174 126 147 220 147 350 L 147 991 L 297 991 L 297 391 C 297 282 313 206 345 164 C 377 121 434 100 518 100 C 620 100 693 127 737 183 C 781 239 803 333 803 467 L 803 991 Z M 294 1196 L 294 1321 L 819 1321 L 819 1196 L 294 1196 Z" unicode="ū" />
<glyph horiz-adv-x="1335" d="M 188 1393 L 346 1393 L 346 512 C 346 365 372 260 425 197 C 478 133 567 102 692 102 C 816 102 904 133 956 196 C 1008 259 1034 365 1034 514 L 1034 1393 L 1190 1393 L 1190 539 C 1190 434 1181 349 1164 285 C 1147 220 1119 165 1081 121 C 1037 69 983 32 919 9 C 855 -13 775 -25 678 -25 C 580 -25 500 -12 436 14 C 372 40 320 80 279 135 C 246 177 223 230 209 292 C 195 354 188 437 188 539 L 188 1393 Z M 698 1806 C 758 1806 807 1788 846 1752 C 884 1716 904 1670 904 1616 C 904 1560 884 1515 845 1480 C 805 1444 755 1427 693 1427 C 631 1427 580 1444 541 1480 C 502 1516 483 1562 483 1618 C 483 1674 502 1719 542 1754 C 582 1788 634 1806 698 1806 Z M 693 1704 C 665 1704 643 1696 627 1680 C 611 1664 603 1643 603 1616 C 603 1588 611 1567 627 1552 C 643 1536 665 1529 693 1529 C 721 1529 744 1536 761 1552 C 777 1567 786 1588 786 1616 C 786 1643 777 1664 761 1680 C 744 1696 721 1704 693 1704 Z" unicode="Ů" />
<glyph horiz-adv-x="1116" d="M 803 991 L 952 991 L 952 0 L 815 0 L 809 123 L 803 123 C 775 75 736 39 685 15 C 634 -8 571 -20 496 -20 C 374 -20 286 9 230 68 C 174 126 147 220 147 350 L 147 991 L 297 991 L 297 391 C 297 282 313 206 345 164 C 377 121 434 100 518 100 C 620 100 693 127 737 183 C 781 239 803 333 803 467 L 803 991 Z M 558 1454 C 616 1454 663 1437 701 1403 C 738 1369 757 1326 757 1274 C 757 1220 738 1176 701 1142 C 663 1108 615 1092 556 1092 C 496 1092 447 1108 409 1142 C 371 1176 353 1220 353 1274 C 353 1328 372 1371 410 1404 C 448 1437 498 1454 558 1454 Z M 554 1360 C 527 1360 506 1352 490 1336 C 474 1320 466 1299 466 1272 C 466 1245 473 1224 489 1209 C 505 1193 527 1186 556 1186 C 584 1186 606 1193 622 1209 C 638 1225 646 1246 646 1274 C 646 1300 637 1321 621 1337 C 605 1352 582 1360 554 1360 Z" unicode="ů" />
<glyph horiz-adv-x="1335" d="M 188 1393 L 346 1393 L 346 512 C 346 365 372 260 425 197 C 478 133 567 102 692 102 C 816 102 904 133 956 196 C 1008 259 1034 365 1034 514 L 1034 1393 L 1190 1393 L 1190 539 C 1190 434 1181 349 1164 285 C 1147 220 1119 165 1081 121 C 1037 69 983 32 919 9 C 855 -13 775 -25 678 -25 C 580 -25 500 -12 436 14 C 372 40 320 80 279 135 C 246 177 223 230 209 292 C 195 354 188 437 188 539 L 188 1393 Z M 409 1470 L 409 1481 L 592 1679 L 833 1679 L 833 1669 L 569 1470 L 409 1470 Z M 764 1470 L 764 1481 L 946 1679 L 1188 1679 L 1188 1669 L 923 1470 L 764 1470 Z" unicode="Ű" />
<glyph horiz-adv-x="1116" d="M 803 991 L 952 991 L 952 0 L 815 0 L 809 123 L 803 123 C 775 75 736 39 685 15 C 634 -8 571 -20 496 -20 C 374 -20 286 9 230 68 C 174 126 147 220 147 350 L 147 991 L 297 991 L 297 391 C 297 282 313 206 345 164 C 377 121 434 100 518 100 C 620 100 693 127 737 183 C 781 239 803 333 803 467 L 803 991 Z M 331 1120 L 503 1405 L 671 1405 L 671 1397 L 473 1120 L 331 1120 Z M 618 1120 L 790 1405 L 958 1405 L 958 1397 L 759 1120 L 618 1120 Z" unicode="ű" />
<glyph horiz-adv-x="1335" d="M 1044 -270 L 1085 -377 C 1049 -398 1012 -414 973 -426 C 933 -438 894 -444 854 -444 C 784 -444 729 -429 689 -399 C 649 -369 629 -328 629 -276 C 629 -228 644 -187 674 -153 C 704 -119 768 -72 866 -10 L 866 2 C 817 -8 777 -16 746 -20 C 714 -24 683 -27 651 -27 C 570 -27 498 -13 434 14 C 370 41 320 80 283 131 C 249 175 224 228 210 291 C 195 353 188 436 188 539 L 188 1393 L 346 1393 L 346 512 C 346 365 372 260 426 196 C 480 132 568 100 692 100 C 816 100 904 131 956 194 C 1008 256 1034 363 1034 514 L 1034 1393 L 1190 1393 L 1190 539 C 1190 407 1176 304 1148 230 C 1120 156 1072 95 1004 49 C 981 31 951 5 915 -30 C 879 -65 848 -98 823 -129 C 808 -147 797 -165 789 -182 C 781 -199 778 -216 778 -233 C 778 -263 786 -286 803 -301 C 820 -316 846 -324 881 -324 C 911 -324 939 -319 963 -311 C 987 -303 1014 -289 1044 -270 Z" unicode="Ų" />
<glyph horiz-adv-x="1116" d="M 815 0 L 809 123 L 803 123 C 775 75 736 39 685 15 C 634 -8 571 -20 496 -20 C 374 -20 286 9 230 68 C 174 126 147 220 147 350 L 147 991 L 297 991 L 297 391 C 297 282 313 206 345 164 C 377 121 434 100 518 100 C 620 100 693 127 737 183 C 781 239 803 333 803 467 L 803 991 L 952 991 L 952 0 L 887 0 C 825 -55 780 -100 754 -136 C 728 -171 715 -203 715 -233 C 715 -263 723 -286 740 -301 C 757 -316 783 -324 817 -324 C 849 -324 877 -319 901 -311 C 925 -303 952 -289 983 -270 L 1022 -377 C 987 -398 950 -414 910 -426 C 870 -438 830 -444 791 -444 C 720 -444 665 -429 625 -399 C 585 -369 565 -328 565 -276 C 565 -227 581 -184 615 -147 C 649 -110 715 -61 815 0 Z" unicode="ų" />
<glyph horiz-adv-x="1071" d="M 639 0 L 481 0 L 481 532 L 45 1393 L 227 1393 L 565 668 L 903 1393 L 1071 1393 L 639 532 L 639 0 Z M 345 1688 C 377 1688 405 1676 428 1653 C 450 1630 462 1602 462 1569 C 462 1535 450 1506 428 1484 C 405 1461 377 1450 343 1450 C 309 1450 281 1461 258 1484 C 235 1506 224 1535 224 1569 C 224 1602 235 1630 259 1653 C 282 1676 311 1688 345 1688 Z M 782 1688 C 814 1688 842 1676 865 1653 C 887 1630 899 1602 899 1569 C 899 1535 887 1506 865 1484 C 842 1461 814 1450 780 1450 C 746 1450 718 1461 695 1484 C 672 1506 661 1535 661 1569 C 661 1602 672 1630 696 1653 C 719 1676 748 1688 782 1688 Z" unicode="Ÿ" />
<glyph horiz-adv-x="1087" d="M 1032 127 L 1032 0 L 100 0 L 100 127 L 829 1264 L 176 1264 L 176 1393 L 1010 1393 L 1010 1266 L 279 127 L 1032 127 Z M 456 1470 L 456 1481 L 639 1679 L 893 1679 L 893 1669 L 622 1470 L 456 1470 Z" unicode="Ź" />
<glyph horiz-adv-x="915" d="M 842 119 L 842 0 L 94 0 L 94 115 L 662 872 L 129 872 L 129 991 L 829 991 L 829 879 L 262 119 L 842 119 Z M 372 1120 L 532 1405 L 725 1405 L 725 1397 L 518 1120 L 372 1120 Z" unicode="ź" />
<glyph horiz-adv-x="1087" d="M 1032 127 L 1032 0 L 100 0 L 100 127 L 829 1264 L 176 1264 L 176 1393 L 1010 1393 L 1010 1266 L 279 127 L 1032 127 Z M 587 1704 C 621 1704 651 1691 675 1667 C 699 1643 712 1613 712 1577 C 712 1541 699 1510 675 1486 C 651 1462 621 1450 585 1450 C 549 1450 519 1462 495 1486 C 470 1510 458 1541 458 1577 C 458 1613 470 1644 495 1668 C 520 1692 551 1704 587 1704 Z" unicode="Ż" />
<glyph horiz-adv-x="915" d="M 842 119 L 842 0 L 94 0 L 94 115 L 662 872 L 129 872 L 129 991 L 829 991 L 829 879 L 262 119 L 842 119 Z M 489 1393 C 519 1393 545 1382 565 1361 C 585 1340 595 1314 595 1284 C 595 1253 585 1228 565 1208 C 545 1188 519 1178 489 1178 C 458 1178 432 1188 411 1209 C 390 1229 380 1254 380 1284 C 380 1316 390 1342 411 1362 C 432 1382 458 1393 489 1393 Z" unicode="ż" />
<glyph horiz-adv-x="1087" d="M 1032 127 L 1032 0 L 100 0 L 100 127 L 829 1264 L 176 1264 L 176 1393 L 1010 1393 L 1010 1266 L 279 127 L 1032 127 Z M 708 1741 L 855 1741 L 855 1733 L 583 1450 L 300 1733 L 300 1741 L 464 1741 L 583 1610 L 708 1741 Z" unicode="Ž" />
<glyph horiz-adv-x="915" d="M 842 119 L 842 0 L 94 0 L 94 115 L 662 872 L 129 872 L 129 991 L 829 991 L 829 879 L 262 119 L 842 119 Z M 608 1434 L 739 1434 L 739 1425 L 473 1092 L 210 1425 L 210 1434 L 352 1434 L 477 1270 L 608 1434 Z" unicode="ž" />
<glyph horiz-adv-x="858" d="M 154 756 L 168 862 L 358 862 L 369 946 C 390 1096 438 1210 514 1287 C 589 1364 690 1403 817 1403 C 837 1403 856 1401 873 1399 C 889 1397 911 1393 938 1389 L 903 1270 C 876 1274 855 1276 840 1278 C 824 1279 809 1280 795 1280 C 720 1280 660 1254 616 1204 C 572 1153 542 1077 528 977 L 512 862 L 791 862 L 776 756 L 498 756 L 395 55 C 380 -85 340 -195 275 -277 C 210 -358 124 -407 16 -424 L -18 -305 C 62 -290 122 -252 163 -191 C 203 -129 232 -31 250 104 L 342 756 L 154 756 Z" unicode="ƒ" />
<glyph horiz-adv-x="1071" d="M 102 195 L 217 285 C 253 221 298 175 350 145 C 402 115 466 100 541 100 C 627 100 695 123 744 169 C 792 215 817 280 817 362 C 817 406 809 443 795 475 C 780 507 757 533 727 555 C 700 574 673 590 645 603 C 617 616 533 651 393 707 C 308 740 245 783 205 837 C 165 890 145 954 145 1030 C 145 1142 185 1234 266 1306 C 346 1377 450 1413 578 1413 C 660 1413 731 1395 792 1359 C 852 1323 900 1272 934 1204 L 827 1120 C 797 1176 760 1218 716 1246 C 671 1274 618 1288 557 1288 C 481 1288 420 1266 374 1224 C 328 1182 305 1126 305 1057 C 305 999 319 952 349 918 C 378 883 429 851 502 823 C 634 771 722 734 765 714 C 807 693 843 669 872 643 C 906 609 932 571 948 530 C 964 488 973 438 973 379 C 973 252 934 153 857 82 C 779 10 672 -25 535 -25 C 435 -25 351 -7 283 27 C 215 61 155 117 102 195 Z M 480 -61 L 665 -61 L 519 -475 L 396 -428 L 480 -61 Z" unicode="Ș" />
<glyph horiz-adv-x="934" d="M 86 147 L 190 231 C 230 181 273 145 319 124 C 364 102 419 92 483 92 C 550 92 602 105 638 132 C 674 159 692 198 692 250 C 692 279 685 304 673 326 C 661 348 642 366 618 381 C 600 391 579 401 557 409 C 534 417 464 440 348 477 C 272 500 215 532 178 573 C 141 614 123 665 123 727 C 123 813 156 883 223 937 C 289 991 377 1018 485 1018 C 561 1018 626 1006 679 983 C 732 959 780 922 823 870 L 721 788 C 685 826 648 854 612 870 C 576 886 532 895 481 895 C 413 895 360 882 324 856 C 288 830 270 793 270 745 C 270 705 282 674 306 653 C 330 632 377 610 449 588 C 550 555 618 532 654 518 C 689 504 718 489 741 473 C 773 447 798 417 814 383 C 830 349 838 310 838 266 C 838 173 806 101 744 50 C 681 -1 593 -27 481 -27 C 391 -27 316 -13 254 13 C 192 40 136 85 86 147 Z M 384 -81 L 569 -81 L 423 -495 L 300 -448 L 384 -81 Z" unicode="ș" />
<glyph horiz-adv-x="1042" d="M 623 0 L 465 0 L 465 1264 L 66 1264 L 66 1393 L 1022 1393 L 1022 1264 L 623 1264 L 623 0 Z M 458 -67 L 643 -67 L 497 -481 L 374 -434 L 458 -67 Z" unicode="Ț" />
<glyph horiz-adv-x="713" d="M 41 862 L 41 977 L 238 977 L 246 1337 L 389 1337 L 381 977 L 672 977 L 672 862 L 375 862 L 375 369 C 375 273 390 206 421 168 C 451 130 504 111 580 111 C 594 111 607 111 618 113 C 629 114 642 116 657 119 L 657 6 C 639 1 622 -2 606 -4 C 590 -6 570 -8 547 -8 C 436 -8 356 20 306 77 C 256 134 231 226 231 354 L 231 862 L 41 862 Z M 374 -67 L 559 -67 L 413 -481 L 290 -434 L 374 -67 Z" unicode="ț" />
<glyph horiz-adv-x="449" d="M 217 1489 L 395 1489 L 227 993 L 100 1036 L 217 1489 Z" unicode="ʻ" />
<glyph horiz-adv-x="733" d="M 233 1120 L 102 1120 L 102 1128 L 369 1462 L 631 1128 L 631 1120 L 489 1120 L 365 1270 L 233 1120 Z" unicode="ˆ" />
<glyph horiz-adv-x="733" d="M 500 1434 L 631 1434 L 631 1425 L 365 1092 L 102 1425 L 102 1434 L 244 1434 L 369 1270 L 500 1434 Z" unicode="ˇ" />
<glyph horiz-adv-x="729" d="M 102 1196 L 102 1321 L 627 1321 L 627 1196 L 102 1196 Z" unicode="ˉ" />
<glyph horiz-adv-x="719" d="M 514 1421 L 616 1376 C 600 1289 571 1226 530 1186 C 488 1146 431 1126 358 1126 C 286 1126 229 1146 188 1186 C 147 1226 118 1289 102 1376 L 205 1421 C 221 1359 241 1314 265 1286 C 288 1258 318 1245 354 1245 C 388 1245 413 1250 429 1261 C 445 1272 462 1294 479 1327 C 487 1342 494 1356 499 1370 C 504 1383 509 1400 514 1421 Z" unicode="˘" />
<glyph horiz-adv-x="420" d="M 211 1393 C 241 1393 267 1382 287 1361 C 307 1340 317 1314 317 1284 C 317 1253 307 1228 287 1208 C 267 1188 241 1178 211 1178 C 180 1178 154 1188 133 1209 C 112 1229 102 1254 102 1284 C 102 1316 112 1342 133 1362 C 154 1382 180 1393 211 1393 Z" unicode="˙" />
<glyph horiz-adv-x="608" d="M 307 1454 C 365 1454 412 1437 450 1403 C 487 1369 506 1326 506 1274 C 506 1220 487 1176 450 1142 C 412 1108 364 1092 305 1092 C 245 1092 196 1108 158 1142 C 120 1176 102 1220 102 1274 C 102 1328 121 1371 159 1404 C 197 1437 247 1454 307 1454 Z M 303 1360 C 276 1360 255 1352 239 1336 C 223 1320 215 1299 215 1272 C 215 1245 222 1224 238 1209 C 254 1193 276 1186 305 1186 C 333 1186 355 1193 371 1209 C 387 1225 395 1246 395 1274 C 395 1300 386 1321 370 1337 C 354 1352 331 1360 303 1360 Z" unicode="˚" />
<glyph horiz-adv-x="41" d="M -143 -270 L -104 -377 C -138 -398 -175 -414 -215 -426 C -255 -438 -295 -444 -336 -444 C -406 -444 -461 -429 -501 -399 C -541 -369 -561 -328 -561 -276 C -561 -240 -551 -206 -532 -176 C -512 -146 -480 -114 -436 -82 C -416 -67 -395 -52 -372 -38 C -349 -23 -297 8 -217 57 L -172 57 C -260 -17 -322 -75 -358 -118 C -394 -161 -412 -199 -412 -233 C -412 -263 -403 -286 -386 -301 C -369 -316 -343 -324 -309 -324 C -277 -324 -249 -319 -225 -311 C -201 -303 -173 -289 -143 -270 Z" unicode="˛" />
<glyph horiz-adv-x="848" d="M 176 1139 L 102 1208 C 126 1270 152 1316 182 1346 C 212 1376 247 1391 287 1391 C 313 1391 338 1386 361 1377 C 384 1367 421 1348 471 1319 C 489 1307 506 1299 520 1295 C 534 1290 548 1288 561 1288 C 585 1288 605 1295 619 1311 C 633 1326 650 1358 672 1407 L 745 1339 C 727 1282 702 1238 670 1207 C 638 1176 603 1161 563 1161 C 540 1161 516 1166 490 1176 C 464 1186 435 1201 401 1223 C 376 1237 356 1248 342 1254 C 328 1260 313 1264 299 1264 C 272 1264 249 1254 230 1235 C 211 1215 193 1183 176 1139 Z" unicode="˜" />
<glyph horiz-adv-x="831" d="M 102 1120 L 274 1405 L 442 1405 L 442 1397 L 244 1120 L 102 1120 Z M 389 1120 L 561 1405 L 729 1405 L 729 1397 L 530 1120 L 389 1120 Z" unicode="˝" />
<glyph horiz-adv-x="1163" d="M 1157 0 L 47 0 L 584 1452 L 610 1452 L 1157 0 Z M 936 117 L 600 1036 L 586 1036 L 254 117 L 936 117 Z" unicode="Δ" />
<glyph horiz-adv-x="1362" d="M 899 287 L 926 115 L 1157 115 L 1157 0 L 813 0 L 760 381 C 810 391 850 402 881 416 C 911 429 941 447 969 471 C 1013 509 1048 560 1074 622 C 1099 684 1112 751 1112 823 C 1112 893 1100 961 1077 1026 C 1054 1091 1023 1145 983 1188 C 950 1222 909 1248 860 1267 C 810 1286 756 1296 696 1296 C 573 1296 474 1253 400 1169 C 326 1084 289 971 289 829 C 289 757 301 691 325 629 C 349 567 384 517 428 477 C 456 452 486 433 517 420 C 547 406 589 393 641 381 L 588 0 L 244 0 L 244 115 L 475 115 L 502 287 C 458 301 421 315 392 329 C 363 343 336 361 311 383 C 255 431 210 495 178 575 C 145 655 129 740 129 831 C 129 918 144 999 174 1075 C 204 1151 247 1216 305 1272 C 357 1322 415 1359 479 1383 C 543 1407 616 1419 700 1419 C 870 1419 1007 1364 1113 1256 C 1219 1147 1272 1005 1272 831 C 1272 737 1255 651 1221 571 C 1187 491 1140 427 1079 379 C 1053 358 1028 341 1002 328 C 976 314 941 301 899 287 Z" unicode="Ω" />
<glyph horiz-adv-x="1167" d="M 860 991 L 1010 991 L 1010 324 C 1012 253 1018 196 1027 154 C 1035 111 1049 69 1069 27 L 940 -29 C 921 9 908 39 900 61 C 892 83 885 111 879 145 L 864 145 C 833 92 795 53 750 29 C 705 4 650 -8 584 -8 C 532 -8 489 -1 455 13 C 420 27 384 52 346 88 L 332 88 L 332 -379 L 154 -379 L 207 207 L 195 991 L 346 991 L 346 432 C 346 321 365 242 404 194 C 442 146 507 123 598 123 C 692 123 760 150 800 204 C 840 258 860 349 860 477 L 860 991 Z" unicode="μ" />
<glyph horiz-adv-x="1337" d="M 506 905 L 506 0 L 354 0 L 354 907 C 320 903 289 890 259 869 C 229 847 203 820 182 786 L 78 868 C 120 929 168 973 220 1000 C 272 1026 336 1040 414 1040 C 456 1040 493 1038 523 1035 C 553 1031 598 1024 657 1012 C 755 992 823 980 863 974 C 903 968 940 965 975 965 C 1031 965 1072 971 1099 984 C 1126 996 1157 1024 1192 1067 L 1290 993 C 1275 957 1249 924 1211 895 C 1173 866 1134 848 1092 842 L 1092 0 L 940 0 L 940 838 L 506 905 Z" unicode="π" />
<glyph horiz-adv-x="674" d="M 563 537 L 141 537 L 141 698 L 563 698 L 563 537 Z" unicode="‐" />
<glyph horiz-adv-x="1081" d="M 141 618 L 141 766 L 971 766 L 971 618 L 141 618 Z" unicode="–" />
<glyph horiz-adv-x="1751" d="M 1567 625 L 229 625 L 229 766 L 1567 766 L 1567 625 Z" unicode="—" />
<glyph horiz-adv-x="449" d="M 217 1489 L 395 1489 L 227 993 L 100 1036 L 217 1489 Z" unicode="‘" />
<glyph horiz-adv-x="434" d="M 221 1489 L 399 1489 L 231 993 L 104 1036 L 221 1489 Z" unicode="’" />
<glyph horiz-adv-x="498" d="M 209 231 L 389 231 L 207 -301 L 84 -260 L 209 231 Z" unicode="‚" />
<glyph horiz-adv-x="772" d="M 225 1489 L 397 1489 L 227 993 L 109 1036 L 225 1489 Z M 553 1489 L 725 1489 L 555 993 L 436 1036 L 553 1489 Z" unicode="“" />
<glyph horiz-adv-x="772" d="M 217 1489 L 389 1489 L 219 993 L 101 1036 L 217 1489 Z M 545 1489 L 717 1489 L 547 993 L 428 1036 L 545 1489 Z" unicode="”" />
<glyph horiz-adv-x="805" d="M 209 231 L 383 231 L 201 -301 L 84 -260 L 209 231 Z M 537 231 L 711 231 L 528 -301 L 412 -260 L 537 231 Z" unicode="„" />
<glyph horiz-adv-x="920" d="M 424 918 L 78 907 L 78 1034 L 424 1026 L 408 1393 L 567 1393 L 551 1026 L 897 1034 L 897 907 L 551 918 L 563 0 L 412 0 L 424 918 Z" unicode="†" />
<glyph horiz-adv-x="997" d="M 455 920 L 113 909 L 113 1036 L 451 1026 L 440 1393 L 602 1393 L 592 1026 L 932 1036 L 932 909 L 588 920 L 588 504 L 932 512 L 932 385 L 592 395 L 596 0 L 446 0 L 451 395 L 113 385 L 113 512 L 455 504 L 455 920 Z" unicode="‡" />
<glyph horiz-adv-x="877" d="M 467 956 C 539 956 600 930 651 879 C 701 827 727 765 727 692 C 727 618 701 555 650 504 C 599 453 537 428 463 428 C 388 428 325 453 275 504 C 224 555 199 618 199 692 C 199 767 224 830 275 880 C 326 930 390 956 467 956 Z" unicode="•" />
<glyph horiz-adv-x="2580" d="M 508 242 C 544 242 574 229 598 204 C 622 179 635 149 635 113 C 635 77 622 46 598 22 C 573 -1 542 -14 506 -14 C 470 -14 439 -1 415 22 C 391 46 379 77 379 113 C 379 149 391 179 416 204 C 440 229 471 242 508 242 Z M 1353 242 C 1389 242 1419 229 1443 204 C 1467 179 1480 149 1480 113 C 1480 77 1467 46 1443 22 C 1418 -1 1387 -14 1351 -14 C 1315 -14 1284 -1 1260 22 C 1236 46 1224 77 1224 113 C 1224 149 1236 179 1261 204 C 1285 229 1316 242 1353 242 Z M 2201 242 C 2237 242 2267 229 2291 204 C 2315 179 2328 149 2328 113 C 2328 77 2315 46 2291 22 C 2266 -1 2235 -14 2199 -14 C 2163 -14 2132 -1 2108 22 C 2084 46 2072 77 2072 113 C 2072 149 2084 179 2109 204 C 2133 229 2164 242 2201 242 Z" unicode="…" />
<glyph horiz-adv-x="2265" d="M 1225 762 C 1310 762 1378 727 1429 658 C 1479 589 1505 497 1505 381 C 1505 319 1496 261 1479 206 C 1461 150 1438 105 1409 70 C 1384 42 1355 21 1321 8 C 1287 -5 1248 -12 1202 -12 C 1111 -12 1039 21 985 89 C 931 157 905 248 905 362 C 905 423 914 481 934 537 C 954 593 981 640 1016 678 C 1042 706 1073 727 1107 741 C 1141 755 1181 762 1225 762 Z M 1921 762 C 2006 762 2074 727 2125 658 C 2176 589 2202 497 2202 381 C 2202 319 2193 261 2176 206 C 2158 150 2135 105 2105 70 C 2080 42 2051 21 2017 8 C 1983 -5 1944 -12 1898 -12 C 1807 -12 1735 22 1682 90 C 1628 158 1602 249 1602 365 C 1602 425 1611 482 1631 538 C 1650 593 1677 640 1712 678 C 1738 706 1769 727 1803 741 C 1837 755 1877 762 1921 762 Z M 410 1405 C 495 1405 563 1370 614 1301 C 664 1232 690 1140 690 1024 C 690 902 663 806 610 736 C 557 666 485 631 393 631 C 301 631 228 665 173 734 C 117 802 90 894 90 1010 C 90 1068 99 1125 119 1181 C 139 1236 166 1283 201 1321 C 227 1349 258 1370 292 1384 C 326 1398 366 1405 410 1405 Z M 397 1294 C 345 1294 304 1268 274 1216 C 244 1164 229 1093 229 1001 C 229 921 243 857 271 811 C 299 764 339 741 389 741 C 443 741 483 765 510 814 C 537 863 551 936 551 1034 C 551 1118 537 1183 511 1227 C 485 1271 447 1294 397 1294 Z M 1212 651 C 1160 651 1119 625 1089 573 C 1059 521 1044 450 1044 358 C 1044 278 1058 214 1086 168 C 1114 121 1154 98 1204 98 C 1258 98 1298 122 1325 171 C 1352 220 1366 293 1366 391 C 1366 476 1352 541 1326 585 C 1300 629 1262 651 1212 651 Z M 1909 651 C 1857 651 1816 625 1786 573 C 1756 521 1741 450 1741 358 C 1741 278 1755 214 1783 168 C 1811 121 1851 98 1901 98 C 1955 98 1995 122 2022 172 C 2048 221 2062 294 2062 391 C 2062 476 2049 541 2023 585 C 1997 629 1959 651 1909 651 Z M 1143 1413 L 1255 1362 L 455 -20 L 342 31 L 1143 1413 Z" unicode="‰" />
<glyph horiz-adv-x="659" d="M 416 940 L 563 940 L 342 582 L 563 231 L 416 231 L 147 578 L 416 940 Z" unicode="‹" />
<glyph horiz-adv-x="659" d="M 293 231 L 147 231 L 367 590 L 145 940 L 293 940 L 561 594 L 293 231 Z" unicode="›" />
<glyph horiz-adv-x="395" d="M 623 1413 L 735 1362 L -66 -20 L -178 31 L 623 1413 Z" unicode="⁄" />
<glyph horiz-adv-x="1272" d="M 248 547 L 88 547 L 88 662 L 246 662 L 246 793 L 88 793 L 88 907 L 264 907 C 291 1059 359 1181 468 1274 C 577 1366 707 1413 858 1413 C 943 1413 1020 1394 1089 1357 C 1157 1320 1213 1267 1255 1198 L 1143 1108 C 1098 1172 1053 1217 1008 1243 C 962 1269 906 1282 838 1282 C 730 1282 638 1248 562 1181 C 486 1113 438 1022 418 907 L 946 907 L 891 793 L 399 793 L 399 662 L 840 662 L 782 547 L 406 547 C 418 406 461 297 535 221 C 608 144 705 106 825 106 C 896 106 956 119 1005 145 C 1053 171 1102 217 1151 281 L 1260 195 C 1204 119 1143 65 1076 31 C 1008 -3 927 -20 831 -20 C 711 -20 609 3 526 50 C 442 96 376 166 328 260 C 304 306 286 351 274 397 C 261 443 252 493 248 547 Z" unicode="€" />
<glyph horiz-adv-x="1239" d="M 664 920 L 559 920 L 588 1499 L 717 1499 L 868 1087 L 1016 1499 L 1143 1499 L 1174 920 L 1069 920 L 1055 1331 L 1044 1331 L 905 936 L 825 936 L 682 1331 L 670 1331 L 664 920 Z M 371 920 L 260 920 L 260 1409 L 119 1409 L 119 1499 L 510 1499 L 510 1409 L 371 1409 L 371 920 Z" unicode="™" />
<glyph horiz-adv-x="1362" d="M 899 287 L 926 115 L 1157 115 L 1157 0 L 813 0 L 760 381 C 810 391 850 402 881 416 C 911 429 941 447 969 471 C 1013 509 1048 560 1074 622 C 1099 684 1112 751 1112 823 C 1112 893 1100 961 1077 1026 C 1054 1091 1023 1145 983 1188 C 950 1222 909 1248 860 1267 C 810 1286 756 1296 696 1296 C 573 1296 474 1253 400 1169 C 326 1084 289 971 289 829 C 289 757 301 691 325 629 C 349 567 384 517 428 477 C 456 452 486 433 517 420 C 547 406 589 393 641 381 L 588 0 L 244 0 L 244 115 L 475 115 L 502 287 C 458 301 421 315 392 329 C 363 343 336 361 311 383 C 255 431 210 495 178 575 C 145 655 129 740 129 831 C 129 918 144 999 174 1075 C 204 1151 247 1216 305 1272 C 357 1322 415 1359 479 1383 C 543 1407 616 1419 700 1419 C 870 1419 1007 1364 1113 1256 C 1219 1147 1272 1005 1272 831 C 1272 737 1255 651 1221 571 C 1187 491 1140 427 1079 379 C 1053 358 1028 341 1002 328 C 976 314 941 301 899 287 Z" unicode="Ω" />
<glyph horiz-adv-x="1126" d="M 549 995 L 549 864 C 493 858 451 847 421 833 C 391 819 364 797 342 768 C 316 734 297 693 284 646 C 270 598 264 546 264 489 C 264 431 271 376 286 324 C 300 272 321 228 348 193 C 373 158 405 132 445 115 C 484 98 532 90 590 90 C 692 90 770 124 824 194 C 878 264 905 365 905 498 C 905 606 885 698 846 774 C 807 850 743 919 653 983 L 274 1255 L 305 1489 L 463 1489 L 434 1327 L 727 1110 C 849 1021 936 931 987 839 C 1037 747 1063 637 1063 508 C 1063 344 1020 214 934 117 C 848 19 732 -29 586 -29 C 440 -29 323 17 235 110 C 147 203 104 327 104 481 C 104 583 125 676 169 759 C 213 842 272 903 348 942 C 380 958 410 970 439 978 C 468 985 505 991 549 995 Z" unicode="∂" />
<glyph horiz-adv-x="1163" d="M 1157 0 L 47 0 L 584 1452 L 610 1452 L 1157 0 Z M 936 117 L 600 1036 L 586 1036 L 254 117 L 936 117 Z" unicode="∆" />
<glyph horiz-adv-x="1389" d="M 1282 1393 L 1282 1268 L 1163 1268 L 1163 0 L 1004 0 L 1004 1272 L 444 1272 L 444 0 L 285 0 L 285 1268 L 166 1268 L 166 1393 L 1282 1393 Z" unicode="∏" />
<glyph horiz-adv-x="1114" d="M 166 0 L 166 137 L 616 707 L 172 1255 L 172 1393 L 1016 1393 L 1016 1264 L 352 1264 L 799 731 L 328 127 L 1030 127 L 1030 0 L 166 0 Z" unicode="∑" />
<glyph horiz-adv-x="1081" d="M 141 618 L 141 766 L 971 766 L 971 618 L 141 618 Z" unicode="−" />
<glyph horiz-adv-x="395" d="M 623 1413 L 735 1362 L -66 -20 L -178 31 L 623 1413 Z" unicode="∕" />
<glyph horiz-adv-x="623" d="M 336 842 C 376 842 411 827 440 798 C 468 769 483 734 483 692 C 483 650 468 614 440 586 C 411 557 376 543 334 543 C 292 543 256 557 227 586 C 198 614 184 650 184 692 C 184 734 198 770 227 799 C 255 827 292 842 336 842 Z" unicode="∙" />
<glyph horiz-adv-x="1042" d="M 236 926 L 76 926 L 76 1042 L 373 1042 L 549 -27 L 569 -27 L 823 1665 L 1991 1665 L 1991 1493 L 936 1493 L 647 -305 L 463 -305 L 236 926 Z" unicode="√" />
<glyph horiz-adv-x="1081" d="M 571 856 C 599 914 631 957 668 985 C 704 1013 747 1028 795 1028 C 865 1028 920 998 962 940 C 1003 881 1024 802 1024 702 C 1024 599 1002 518 958 459 C 914 400 855 371 780 371 C 748 371 717 378 686 393 C 655 407 630 427 612 451 C 602 463 593 476 586 490 C 578 504 567 527 553 559 C 524 493 491 444 455 414 C 418 384 374 369 322 369 C 255 369 201 398 161 458 C 120 518 100 596 100 694 C 100 793 122 873 168 934 C 213 995 272 1026 346 1026 C 392 1026 434 1012 471 984 C 508 956 541 913 571 856 Z M 510 653 C 494 727 474 782 448 816 C 422 850 390 868 350 868 C 310 868 278 852 255 821 C 232 790 221 747 221 692 C 221 635 232 590 256 556 C 280 522 312 506 352 506 C 375 506 395 510 411 519 C 427 528 443 543 461 565 C 471 578 482 595 494 616 C 505 636 510 649 510 653 Z M 616 729 C 630 655 650 600 675 566 C 700 531 733 514 774 514 C 814 514 845 529 868 561 C 891 592 903 635 903 690 C 903 748 891 794 867 828 C 843 862 812 879 772 879 C 749 879 729 874 713 865 C 697 855 680 840 664 819 C 652 806 641 789 631 768 C 620 746 615 733 616 729 Z" unicode="∞" />
<glyph horiz-adv-x="793" d="M -102 -213 L -14 -106 C 21 -146 50 -172 74 -185 C 97 -198 128 -205 166 -205 C 227 -205 272 -179 300 -127 C 328 -75 342 6 342 117 L 342 1161 C 342 1242 350 1311 367 1368 C 384 1424 410 1471 446 1509 C 476 1539 511 1563 552 1580 C 593 1597 637 1606 684 1606 C 737 1606 784 1597 826 1579 C 868 1561 905 1533 938 1495 L 850 1389 C 815 1426 786 1451 764 1463 C 741 1475 710 1481 672 1481 C 610 1481 564 1455 536 1404 C 508 1353 494 1273 494 1165 L 494 121 C 494 -23 465 -134 407 -212 C 349 -290 268 -330 162 -330 C 106 -330 56 -320 13 -301 C -29 -282 -68 -253 -102 -213 Z" unicode="∫" />
<glyph horiz-adv-x="1081" d="M 272 360 L 162 420 C 200 511 237 575 272 611 C 306 647 348 666 397 666 C 427 666 454 659 478 646 C 501 633 546 601 614 549 C 638 530 658 517 676 509 C 693 501 710 498 727 498 C 752 498 773 508 789 530 C 805 551 824 593 846 657 L 958 602 C 930 513 899 448 864 408 C 828 368 784 348 731 348 C 700 348 670 355 640 370 C 610 385 575 410 535 446 C 506 472 482 489 463 499 C 444 509 426 514 408 514 C 382 514 362 506 349 492 C 336 477 310 433 272 360 Z M 272 731 L 162 793 C 200 883 237 946 272 982 C 306 1018 348 1036 397 1036 C 427 1036 454 1030 478 1018 C 501 1006 546 974 614 922 C 638 903 658 890 676 882 C 693 874 710 870 727 870 C 752 870 773 880 789 902 C 805 924 824 966 846 1030 L 958 973 C 930 885 899 821 864 781 C 828 741 784 721 731 721 C 700 721 670 728 640 743 C 610 758 575 783 535 819 C 506 843 482 860 463 870 C 444 880 426 885 408 885 C 382 885 362 877 349 863 C 336 848 310 804 272 731 Z" unicode="≈" />
<glyph horiz-adv-x="1081" d="M 594 893 L 745 1204 L 850 1155 L 719 893 L 958 893 L 958 766 L 659 766 L 594 618 L 958 618 L 958 492 L 532 492 L 369 154 L 264 201 L 408 492 L 156 492 L 156 618 L 469 618 L 535 766 L 156 766 L 156 893 L 594 893 Z" unicode="≠" />
<glyph horiz-adv-x="1081" d="M 147 887 L 897 1192 L 936 1063 L 338 836 L 338 825 L 936 596 L 897 469 L 147 774 L 147 887 Z M 147 248 L 147 379 L 936 379 L 936 248 L 147 248 Z" unicode="≤" />
<glyph horiz-adv-x="1081" d="M 963 887 L 963 774 L 213 469 L 174 596 L 772 825 L 772 836 L 174 1063 L 213 1192 L 963 887 Z M 963 248 L 174 248 L 174 379 L 963 379 L 963 248 Z" unicode="≥" />
<glyph horiz-adv-x="1034" d="M 1006 700 L 555 -84 L 528 -84 L 78 686 L 526 1462 L 555 1462 L 1006 700 Z M 844 688 L 541 1194 L 520 1194 L 244 702 L 541 174 L 559 174 L 844 688 Z" unicode="◊" />
<glyph horiz-adv-x="455" d="M 188 1393 L 352 1393 L 221 995 L 102 1036 L 188 1393 Z" unicode="" />
<glyph horiz-adv-x="473" d="M 186 -61 L 371 -61 L 225 -475 L 102 -428 L 186 -61 Z" unicode="" />
<glyph horiz-adv-x="641" d="M 102 1470 L 102 1481 L 285 1679 L 539 1679 L 539 1669 L 268 1470 L 102 1470 Z" unicode="" />
<glyph horiz-adv-x="760" d="M 510 1741 L 657 1741 L 657 1733 L 385 1450 L 102 1733 L 102 1741 L 266 1741 L 385 1610 L 510 1741 Z" unicode="" />
<glyph horiz-adv-x="969" d="M 223 1688 C 255 1688 283 1676 306 1653 C 328 1630 340 1602 340 1569 C 340 1535 328 1506 306 1484 C 283 1461 255 1450 221 1450 C 187 1450 159 1461 136 1484 C 113 1506 102 1535 102 1569 C 102 1602 113 1630 137 1653 C 160 1676 189 1688 223 1688 Z M 750 1688 C 782 1688 810 1676 832 1653 C 854 1630 866 1602 866 1569 C 866 1535 854 1506 832 1484 C 809 1461 781 1450 748 1450 C 714 1450 685 1461 663 1484 C 640 1506 629 1535 629 1569 C 629 1602 640 1630 663 1653 C 686 1676 715 1688 750 1688 Z" unicode="" />
<glyph horiz-adv-x="641" d="M 539 1470 L 367 1470 L 102 1669 L 102 1679 L 356 1679 L 539 1481 L 539 1470 Z" unicode="" />
<glyph horiz-adv-x="983" d="M 102 1470 L 102 1481 L 285 1679 L 526 1679 L 526 1669 L 262 1470 L 102 1470 Z M 457 1470 L 457 1481 L 639 1679 L 881 1679 L 881 1669 L 616 1470 L 457 1470 Z" unicode="" />
<glyph horiz-adv-x="729" d="M 102 1491 L 102 1630 L 627 1630 L 627 1491 L 102 1491 Z" unicode="" />
<glyph horiz-adv-x="1159" d="M 47 977 L 238 977 L 238 1061 C 238 1200 273 1308 345 1386 C 417 1464 517 1503 647 1503 C 746 1503 832 1481 904 1439 C 976 1396 1012 1345 1012 1286 C 1012 1254 1002 1228 982 1208 C 962 1188 937 1178 907 1178 C 893 1178 879 1180 866 1186 C 852 1192 842 1199 834 1208 C 827 1214 820 1224 813 1237 C 806 1250 803 1259 803 1264 L 807 1333 C 807 1335 802 1339 794 1347 C 786 1354 778 1360 770 1364 C 757 1370 740 1374 719 1378 C 698 1382 676 1384 653 1384 C 560 1384 492 1359 450 1309 C 408 1259 387 1179 387 1069 L 387 977 L 694 977 L 694 862 L 387 862 L 387 0 L 238 0 L 238 862 L 47 862 L 47 977 Z M 836 0 L 836 991 L 985 991 L 985 0 L 836 0 Z" unicode="ﬁ" />
<glyph horiz-adv-x="1169" d="M 238 0 L 238 862 L 47 862 L 47 977 L 238 977 L 238 1061 C 238 1203 274 1313 346 1389 C 418 1465 521 1503 655 1503 C 729 1503 796 1492 856 1470 C 915 1448 963 1416 1001 1374 L 1001 0 L 850 0 L 850 1206 C 850 1244 848 1273 844 1293 C 840 1312 834 1327 825 1337 C 812 1352 791 1364 763 1372 C 734 1380 701 1384 664 1384 C 568 1384 497 1358 453 1308 C 409 1257 387 1177 387 1069 L 387 977 L 694 977 L 694 862 L 387 862 L 387 0 L 238 0 Z" unicode="ﬂ" />
</font>
</defs>
</svg>
