<?xml version="1.0" encoding="utf-8" ?><svg version="1.1" xmlns = 'http://www.w3.org/2000/svg'><defs><font id='web' horiz-adv-x="1000">
<font-face font-family="web" descent="-460" cap-height="1400" units-per-em="2048" bbox="-1130,-576,2420,2018" x-height="874" ascent="1588" />
<missing-glyph horiz-adv-x="1332" d="" /><glyph horiz-adv-x="484" d="" unicode=" " />
<glyph horiz-adv-x="564" d="M 124 1380 C 124 1389 124 1395 126 1397 C 127 1399 132 1400 142 1400 L 424 1400 C 433 1400 438 1399 440 1397 C 441 1395 442 1389 442 1380 L 384 424 C 384 414 382 409 380 407 C 377 405 371 404 362 404 L 204 404 C 194 404 188 405 186 407 C 183 409 182 414 182 424 L 124 1380 Z M 284 -22 C 242 -22 206 -7 176 21 C 145 49 130 87 130 134 C 130 176 144 213 174 244 C 203 274 240 290 284 290 C 328 290 364 274 394 244 C 423 213 438 177 438 136 C 438 93 423 56 393 25 C 363 -6 326 -22 284 -22 Z" unicode="!" />
<glyph horiz-adv-x="800" d="M 320 1400 C 329 1400 335 1398 337 1396 C 339 1393 339 1388 338 1380 L 296 924 C 294 916 293 910 291 908 C 289 905 284 904 276 904 L 164 904 C 156 904 151 905 149 908 C 147 910 145 916 144 924 L 102 1380 C 100 1388 101 1393 103 1396 C 105 1398 110 1400 120 1400 L 320 1400 Z M 680 1400 C 689 1400 695 1398 697 1396 C 699 1393 699 1388 698 1380 L 656 924 C 654 916 653 910 651 908 C 649 905 644 904 636 904 L 524 904 C 516 904 511 905 509 908 C 507 910 505 916 504 924 L 462 1380 C 460 1388 461 1393 463 1396 C 465 1398 470 1400 480 1400 L 680 1400 Z" unicode="&#x22;" />
<glyph horiz-adv-x="1036" d="M 562 338 L 372 338 L 316 20 C 313 12 311 6 309 4 C 307 1 301 0 292 0 L 156 0 C 146 0 141 1 140 4 C 138 6 138 12 140 20 L 196 338 L 68 338 C 58 338 53 339 51 342 C 49 344 48 350 48 358 L 48 484 C 48 492 49 497 51 500 C 53 502 58 504 68 504 L 224 504 L 268 760 L 126 760 C 116 760 111 761 109 764 C 107 766 106 772 106 780 L 106 906 C 106 914 107 919 109 922 C 111 924 116 926 126 926 L 298 926 L 354 1240 C 356 1248 359 1253 361 1256 C 363 1258 368 1260 378 1260 L 514 1260 C 523 1260 529 1258 531 1256 C 533 1253 532 1248 530 1240 L 474 926 L 666 926 L 720 1240 C 722 1248 725 1253 727 1256 C 729 1258 734 1260 744 1260 L 880 1260 C 889 1260 895 1258 897 1256 C 899 1253 898 1248 896 1240 L 842 926 L 970 926 C 979 926 985 924 987 922 C 989 919 990 914 990 906 L 990 780 C 990 772 989 766 987 764 C 985 761 979 760 970 760 L 812 760 L 768 504 L 906 504 C 915 504 921 502 923 500 C 925 497 926 492 926 484 L 926 358 C 926 350 925 344 923 342 C 921 339 915 338 906 338 L 738 338 L 682 20 C 679 12 677 6 675 4 C 673 1 667 0 658 0 L 522 0 C 512 0 507 1 506 4 C 504 6 504 12 506 20 L 562 338 Z M 400 504 L 592 504 L 636 760 L 444 760 L 400 504 Z" unicode="#" />
<glyph horiz-adv-x="1080" d="M 476 10 C 384 19 302 45 232 88 C 161 130 106 182 68 242 C 64 247 62 252 62 256 C 62 260 65 264 72 270 L 266 416 C 271 421 276 424 280 424 C 285 424 290 420 296 412 C 328 361 363 322 401 296 C 439 269 484 256 538 256 C 584 256 624 269 658 295 C 691 321 708 354 708 394 C 708 435 693 469 665 497 C 636 524 600 549 557 572 C 513 594 466 617 416 641 C 365 664 318 692 275 725 C 231 757 195 797 167 844 C 138 890 124 949 124 1020 C 124 1065 132 1108 149 1150 C 165 1191 189 1228 221 1260 C 252 1292 289 1319 333 1342 C 376 1364 424 1380 476 1388 L 476 1540 C 476 1548 477 1553 479 1556 C 481 1558 486 1560 496 1560 L 652 1560 C 661 1560 667 1558 669 1556 C 671 1553 672 1548 672 1540 L 672 1384 C 737 1373 798 1352 854 1321 C 910 1289 954 1250 986 1202 C 990 1195 992 1190 992 1188 C 992 1185 988 1180 982 1174 L 792 1034 C 785 1027 780 1024 778 1024 C 772 1024 768 1028 766 1036 C 747 1066 723 1092 694 1114 C 664 1135 625 1146 576 1146 C 530 1146 494 1134 467 1110 C 439 1086 426 1055 426 1018 C 426 980 440 949 470 925 C 499 900 536 877 580 856 C 624 834 671 812 722 790 C 772 767 820 739 864 706 C 908 672 944 631 974 583 C 1003 534 1018 473 1018 400 C 1018 302 988 219 930 150 C 871 80 785 36 672 16 L 672 -140 C 672 -148 671 -153 669 -156 C 667 -158 661 -160 652 -160 L 496 -160 C 486 -160 481 -158 479 -156 C 477 -153 476 -148 476 -140 L 476 10 Z" unicode="$" />
<glyph horiz-adv-x="1816" d="M 618 1074 C 618 1097 614 1119 606 1140 C 598 1161 588 1179 574 1195 C 560 1211 543 1223 523 1232 C 503 1241 480 1246 456 1246 C 430 1246 407 1241 387 1232 C 366 1223 348 1211 334 1195 C 320 1179 309 1161 301 1140 C 293 1119 290 1097 290 1074 C 290 1050 293 1028 301 1007 C 309 986 320 968 334 952 C 348 936 366 924 387 915 C 407 906 430 902 456 902 C 480 902 503 906 523 915 C 543 924 560 936 574 952 C 588 968 598 986 606 1007 C 614 1028 618 1050 618 1074 Z M 106 1074 C 106 1120 114 1163 130 1205 C 146 1246 170 1282 200 1314 C 230 1345 267 1370 311 1388 C 354 1406 402 1416 456 1416 C 508 1416 556 1406 599 1388 C 641 1370 678 1345 708 1314 C 738 1282 761 1246 777 1205 C 793 1163 802 1120 802 1074 C 802 1028 793 984 777 943 C 761 901 738 865 708 834 C 678 802 641 777 599 759 C 556 741 508 732 456 732 C 402 732 354 741 311 759 C 267 777 230 802 200 834 C 170 865 146 901 130 943 C 114 984 106 1028 106 1074 Z M 564 20 C 558 10 553 5 549 3 C 545 1 539 0 530 0 L 372 0 C 361 0 356 1 356 4 C 356 7 358 12 364 20 L 1256 1380 C 1262 1389 1266 1395 1270 1397 C 1274 1399 1280 1400 1290 1400 L 1448 1400 C 1458 1400 1464 1398 1464 1396 C 1464 1392 1461 1387 1456 1380 L 564 20 Z M 1526 326 C 1526 349 1522 371 1514 392 C 1506 413 1496 431 1482 447 C 1468 463 1451 475 1431 484 C 1411 493 1388 498 1364 498 C 1338 498 1315 493 1295 484 C 1274 475 1256 463 1242 447 C 1228 431 1217 413 1209 392 C 1201 371 1198 349 1198 326 C 1198 302 1201 280 1209 259 C 1217 238 1228 220 1242 204 C 1256 188 1274 176 1295 167 C 1315 158 1338 154 1364 154 C 1388 154 1411 158 1431 167 C 1451 176 1468 188 1482 204 C 1496 220 1506 238 1514 259 C 1522 280 1526 302 1526 326 Z M 1014 326 C 1014 372 1022 415 1038 457 C 1054 498 1078 534 1108 566 C 1138 597 1174 622 1217 640 C 1260 658 1308 668 1362 668 C 1414 668 1462 658 1505 640 C 1548 622 1585 597 1615 566 C 1645 534 1669 498 1685 457 C 1701 415 1710 372 1710 326 C 1710 280 1701 236 1685 195 C 1669 153 1645 117 1615 86 C 1585 54 1548 29 1505 11 C 1462 -6 1414 -16 1362 -16 C 1308 -16 1260 -6 1217 11 C 1174 29 1138 54 1108 86 C 1078 117 1054 153 1038 195 C 1022 236 1014 280 1014 326 Z" unicode="%" />
<glyph horiz-adv-x="1270" d="M 482 624 C 478 628 474 630 470 630 C 468 630 465 628 460 626 C 424 598 394 567 371 533 C 347 499 336 458 336 412 C 336 374 342 343 356 317 C 369 291 386 269 407 253 C 427 236 450 224 475 217 C 499 209 523 206 546 206 C 587 206 622 211 651 221 C 679 231 707 250 734 278 C 738 282 740 286 740 290 C 740 294 738 298 734 304 L 482 624 Z M 438 1112 C 438 1080 449 1049 471 1019 C 493 989 512 962 528 940 C 530 938 533 937 535 936 C 537 934 539 934 542 934 C 544 934 546 934 548 936 C 549 937 551 938 554 940 C 595 972 624 1000 641 1024 C 657 1048 666 1077 666 1112 C 666 1145 655 1172 635 1193 C 614 1213 586 1224 552 1224 C 517 1224 489 1213 469 1193 C 448 1172 438 1145 438 1112 Z M 1056 296 C 1052 289 1050 284 1050 282 C 1050 279 1052 274 1058 266 L 1240 26 C 1241 24 1242 22 1244 20 C 1246 14 1248 10 1248 8 C 1248 2 1242 0 1230 0 L 998 0 C 988 0 980 4 972 14 L 904 106 C 901 110 899 112 898 112 C 895 112 892 110 888 106 C 846 62 795 29 734 8 C 672 -13 607 -24 538 -24 C 479 -24 422 -15 367 2 C 311 19 262 45 220 80 C 177 114 143 158 117 211 C 91 263 78 325 78 396 C 78 449 84 496 98 537 C 111 577 129 614 152 646 C 174 678 201 707 231 733 C 261 759 293 784 328 808 C 333 810 336 814 336 820 C 336 824 334 827 332 830 C 301 866 272 909 245 961 C 217 1012 204 1064 204 1118 C 204 1163 213 1205 232 1243 C 250 1281 275 1313 307 1340 C 338 1366 374 1387 416 1402 C 457 1416 501 1424 548 1424 C 597 1424 643 1417 685 1403 C 727 1389 763 1368 794 1342 C 824 1315 849 1283 867 1246 C 885 1208 894 1166 894 1118 C 894 1076 888 1040 877 1008 C 865 976 850 946 831 920 C 811 893 789 868 764 846 C 738 823 711 800 682 778 C 676 775 674 770 674 764 C 674 758 676 753 680 748 L 878 496 C 882 490 886 488 890 488 C 895 488 898 490 900 496 C 910 520 918 547 923 579 C 927 610 931 639 934 666 C 934 676 939 682 950 682 L 1150 682 C 1162 682 1168 676 1168 666 C 1166 639 1162 609 1155 576 C 1147 542 1138 508 1128 474 C 1117 439 1105 406 1093 375 C 1080 343 1068 317 1056 296 Z" unicode="&#x26;" />
<glyph horiz-adv-x="440" d="M 320 1400 C 329 1400 335 1398 337 1396 C 339 1393 339 1388 338 1380 L 296 924 C 294 916 293 910 291 908 C 289 905 284 904 276 904 L 164 904 C 156 904 151 905 149 908 C 147 910 145 916 144 924 L 102 1380 C 100 1388 101 1393 103 1396 C 105 1398 110 1400 120 1400 L 320 1400 Z" unicode="'" />
<glyph horiz-adv-x="506" d="M 266 -274 C 240 -218 216 -156 193 -90 C 169 -23 149 47 131 121 C 113 195 98 272 88 353 C 77 433 72 515 72 598 C 72 682 77 763 88 842 C 98 920 113 996 131 1069 C 149 1141 169 1210 193 1276 C 216 1341 240 1401 266 1456 C 270 1465 274 1470 280 1470 C 284 1470 287 1469 290 1468 L 446 1398 C 452 1395 456 1391 456 1386 C 456 1382 455 1378 454 1376 C 431 1328 409 1275 389 1217 C 368 1159 349 1097 333 1032 C 316 966 303 897 293 824 C 283 750 278 675 278 598 C 278 519 283 442 293 368 C 303 293 316 222 333 155 C 349 87 368 24 389 -35 C 409 -94 431 -148 454 -196 C 455 -198 456 -202 456 -206 C 456 -211 452 -215 446 -218 L 290 -286 C 287 -287 284 -288 280 -288 C 274 -288 270 -283 266 -274 Z" unicode="(" />
<glyph horiz-adv-x="506" d="M 240 -274 C 234 -283 230 -288 226 -288 C 222 -288 218 -287 216 -286 C 205 -282 191 -276 173 -269 C 155 -261 137 -254 119 -246 C 101 -238 85 -230 72 -223 C 58 -215 52 -210 52 -206 C 52 -202 52 -198 54 -196 C 75 -148 96 -94 118 -35 C 139 24 158 87 174 155 C 190 222 203 293 213 368 C 223 442 228 519 228 598 C 228 675 223 750 213 824 C 203 897 190 966 174 1032 C 158 1097 139 1159 118 1217 C 96 1275 75 1328 54 1376 C 52 1378 52 1382 52 1386 C 52 1390 59 1396 75 1405 C 90 1413 107 1422 127 1431 C 146 1439 165 1447 183 1454 C 201 1460 212 1465 216 1468 C 218 1469 222 1470 226 1470 C 230 1470 234 1465 240 1456 C 265 1401 289 1341 313 1276 C 336 1210 357 1141 375 1069 C 393 996 407 920 418 842 C 428 763 434 682 434 598 C 434 515 428 433 418 353 C 407 272 393 195 375 121 C 357 47 336 -23 313 -90 C 289 -156 265 -218 240 -274 Z" unicode=")" />
<glyph horiz-adv-x="656" d="M 264 846 C 254 846 249 847 247 850 C 245 852 244 858 244 866 L 262 1014 L 256 1018 L 136 928 C 129 924 124 922 122 922 C 118 922 113 926 108 936 L 44 1046 C 41 1054 40 1058 40 1060 C 40 1061 44 1065 52 1072 L 192 1128 L 192 1140 L 52 1198 C 44 1202 40 1206 40 1210 C 40 1212 42 1217 46 1224 L 110 1334 C 114 1343 118 1348 124 1348 C 124 1348 128 1346 136 1344 L 256 1248 L 262 1250 L 244 1402 C 244 1410 244 1415 246 1418 C 247 1420 252 1422 262 1422 L 390 1422 C 400 1422 407 1421 409 1419 C 411 1417 412 1411 412 1402 L 392 1252 C 397 1249 400 1248 400 1248 L 522 1340 C 527 1344 532 1346 536 1346 C 540 1346 544 1342 548 1334 L 610 1224 C 614 1217 616 1212 616 1208 C 616 1204 612 1200 604 1196 L 464 1138 L 464 1128 L 604 1072 C 612 1065 616 1060 616 1058 C 616 1054 614 1049 610 1044 L 548 936 C 542 926 538 922 534 922 C 530 922 525 924 520 928 L 400 1018 L 394 1014 L 412 866 C 412 858 411 852 409 850 C 407 847 401 846 392 846 L 264 846 L 264 846 Z" unicode="*" />
<glyph horiz-adv-x="1040" d="M 614 586 C 614 576 615 571 617 569 C 619 567 624 566 634 566 L 950 566 C 959 566 965 564 967 562 C 969 559 970 554 970 546 L 970 412 C 970 404 969 398 967 396 C 965 393 959 392 950 392 L 634 392 C 624 392 619 391 617 389 C 615 387 614 381 614 372 L 614 20 C 614 12 613 6 611 4 C 609 1 603 0 594 0 L 448 0 C 438 0 433 1 431 4 C 429 6 428 12 428 20 L 428 372 C 428 381 427 387 425 389 C 423 391 417 392 408 392 L 90 392 C 80 392 75 393 73 396 C 71 398 70 404 70 412 L 70 546 C 70 554 71 559 73 562 C 75 564 80 566 90 566 L 408 566 C 417 566 423 567 425 569 C 427 571 428 576 428 586 L 428 936 C 428 944 429 949 431 952 C 433 954 438 956 448 956 L 594 956 C 603 956 609 954 611 952 C 613 949 614 944 614 936 L 614 586 Z" unicode="+" />
<glyph horiz-adv-x="500" d="M 110 192 C 111 200 113 205 115 208 C 117 210 122 212 132 212 L 344 212 C 361 212 367 205 362 192 L 232 -244 C 229 -252 226 -257 224 -260 C 221 -262 215 -264 206 -264 L 102 -264 C 94 -264 89 -262 88 -260 C 86 -257 86 -252 86 -244 L 110 192 Z" unicode="," />
<glyph horiz-adv-x="600" d="M 92 618 C 92 627 93 633 96 635 C 98 637 104 638 112 638 L 488 638 C 497 638 503 637 505 635 C 507 633 508 627 508 618 L 508 462 C 508 452 507 447 505 445 C 503 443 497 442 488 442 L 112 442 C 102 442 97 443 95 445 C 93 447 92 452 92 462 L 92 618 Z" unicode="-" />
<glyph horiz-adv-x="500" d="M 250 -22 C 207 -22 170 -7 140 21 C 109 49 94 87 94 134 C 94 176 109 213 140 244 C 170 274 207 290 250 290 C 294 290 331 274 361 244 C 391 213 406 176 406 134 C 406 87 391 49 361 21 C 331 -7 294 -22 250 -22 Z" unicode="." />
<glyph horiz-adv-x="1108" d="M 288 -80 C 282 -89 278 -94 275 -96 C 271 -97 266 -96 260 -94 L 120 -26 C 112 -22 108 -17 108 -13 C 108 -8 109 -3 112 2 L 840 1554 C 845 1563 849 1568 853 1570 C 856 1571 861 1570 868 1568 L 1008 1500 C 1016 1496 1020 1491 1020 1487 C 1020 1482 1018 1477 1016 1472 L 288 -80 Z" unicode="/" />
<glyph horiz-adv-x="1024" d="M 966 636 C 966 426 926 264 848 150 C 769 35 658 -22 516 -22 C 374 -22 264 35 185 151 C 105 266 66 428 66 636 C 66 844 105 1005 185 1121 C 264 1236 374 1294 516 1294 C 658 1294 769 1236 848 1122 C 926 1007 966 845 966 636 Z M 316 636 C 316 576 319 521 327 472 C 334 422 346 380 362 344 C 378 308 398 280 424 261 C 449 241 480 232 516 232 C 552 232 582 241 608 261 C 633 280 653 308 669 344 C 684 380 695 422 703 472 C 710 521 714 576 714 636 C 714 696 710 750 703 800 C 695 849 684 892 669 928 C 653 964 633 991 608 1011 C 582 1030 552 1040 516 1040 C 480 1040 449 1030 424 1011 C 398 991 378 964 362 928 C 346 892 334 849 327 800 C 319 750 316 696 316 636 Z" unicode="0" />
<glyph horiz-adv-x="574" d="M 458 20 C 458 10 457 5 455 3 C 453 1 447 0 438 0 L 222 0 C 212 0 207 1 205 3 C 203 5 202 10 202 20 L 202 946 C 202 954 199 958 194 958 C 190 958 186 957 182 956 L 62 914 C 58 912 54 912 50 912 C 44 912 42 918 42 930 L 42 1116 C 42 1126 43 1133 46 1137 C 48 1140 54 1143 62 1146 L 438 1286 C 442 1287 446 1288 450 1288 C 455 1288 458 1282 458 1270 L 458 20 Z" unicode="1" />
<glyph horiz-adv-x="1008" d="M 896 218 C 905 218 911 216 913 214 C 915 211 916 206 916 198 L 916 20 C 916 10 915 5 913 3 C 911 1 905 0 896 0 L 48 0 C 34 0 28 4 28 14 C 28 19 29 24 33 28 C 36 32 39 35 42 38 L 496 544 C 552 605 592 664 617 720 C 641 776 654 829 654 880 C 654 932 640 977 613 1015 C 585 1053 542 1072 482 1072 C 426 1072 382 1053 350 1017 C 318 980 302 928 302 862 C 302 848 295 842 282 842 L 86 842 C 75 842 68 848 66 862 C 66 915 74 968 91 1020 C 107 1072 133 1118 168 1159 C 202 1199 246 1232 300 1257 C 353 1281 416 1294 490 1294 C 558 1294 618 1284 671 1264 C 723 1244 767 1216 803 1180 C 838 1144 865 1101 883 1053 C 901 1004 910 952 910 896 C 910 850 905 807 895 765 C 885 723 869 681 847 639 C 825 597 796 553 760 508 C 724 462 680 413 628 360 L 532 262 C 514 246 506 234 506 228 C 506 221 510 218 520 218 L 896 218 Z" unicode="2" />
<glyph horiz-adv-x="1000" d="M 86 946 C 87 995 97 1041 116 1084 C 134 1126 160 1163 194 1194 C 227 1224 267 1249 315 1267 C 362 1285 416 1294 476 1294 C 537 1294 592 1285 642 1269 C 691 1252 733 1229 768 1199 C 802 1169 829 1133 848 1093 C 866 1052 876 1008 876 960 C 876 904 863 855 839 814 C 814 772 784 738 748 712 C 742 708 740 704 740 700 C 740 697 742 694 748 692 C 802 660 846 617 880 563 C 913 509 930 446 930 376 C 930 320 920 267 901 219 C 881 170 853 128 816 93 C 778 57 733 29 679 9 C 625 -11 563 -22 494 -22 C 426 -22 366 -13 314 5 C 262 23 217 48 181 82 C 144 115 115 154 95 200 C 74 245 62 295 58 350 C 58 356 59 361 61 364 C 63 366 68 368 76 368 L 282 368 C 288 368 293 366 295 364 C 297 361 298 357 300 352 C 306 306 326 270 359 242 C 391 214 433 200 484 200 C 541 200 587 216 622 250 C 656 283 674 328 674 384 C 674 436 657 479 623 515 C 589 550 540 568 478 568 L 392 568 C 382 568 377 569 376 571 C 374 573 374 578 374 586 L 374 742 C 374 750 374 755 376 757 C 377 759 382 760 392 760 L 478 760 C 526 760 564 776 592 809 C 620 841 634 882 634 930 C 634 976 619 1014 589 1042 C 559 1070 518 1084 468 1084 C 421 1084 384 1071 356 1045 C 328 1019 312 986 310 946 C 308 936 307 931 305 929 C 303 927 298 926 290 926 L 106 926 C 96 926 91 927 89 929 C 87 931 86 936 86 946 Z" unicode="3" />
<glyph horiz-adv-x="1040" d="M 856 18 C 856 10 855 5 854 3 C 852 1 847 0 838 0 L 622 0 C 614 0 609 1 607 3 C 605 5 604 10 604 18 L 604 148 C 604 156 603 161 601 163 C 599 165 594 166 586 166 L 18 166 C 7 166 2 171 2 182 C 2 184 2 188 4 192 C 5 196 7 200 10 204 C 143 384 276 564 408 744 C 540 924 672 1104 806 1284 C 811 1290 817 1298 824 1307 C 830 1315 837 1320 844 1320 C 852 1320 856 1316 856 1308 L 856 406 C 856 398 857 393 859 391 C 861 389 866 388 876 388 L 966 388 C 974 388 979 387 981 385 C 983 383 984 377 984 368 L 984 184 C 984 176 983 171 981 169 C 979 167 974 166 966 166 L 874 166 C 866 166 861 165 859 163 C 857 161 856 156 856 148 L 856 18 Z M 622 720 C 622 726 620 730 618 730 C 600 710 582 686 562 658 C 542 630 521 600 500 570 C 478 539 457 508 436 478 C 414 447 395 419 378 394 C 374 386 372 382 372 382 C 372 378 376 376 384 376 L 604 376 C 612 376 617 377 619 379 C 621 381 622 386 622 394 L 622 720 Z" unicode="4" />
<glyph horiz-adv-x="938" d="M 196 296 C 214 270 240 248 273 230 C 305 211 344 202 390 202 C 456 202 509 220 549 256 C 588 292 608 340 608 400 C 608 462 589 513 553 551 C 516 589 459 608 382 608 C 347 608 318 604 294 598 C 270 591 249 583 232 575 C 214 566 200 558 190 552 C 179 545 171 542 166 542 C 155 542 150 546 150 556 L 198 1252 C 199 1261 201 1267 204 1269 C 206 1271 212 1272 220 1272 L 796 1272 C 805 1272 811 1271 813 1269 C 815 1267 816 1261 816 1252 L 816 1074 C 816 1066 815 1061 813 1059 C 811 1057 805 1056 796 1056 L 428 1056 C 418 1056 413 1055 411 1053 C 409 1051 407 1046 406 1038 L 392 802 C 392 792 393 787 395 785 C 397 783 402 782 412 782 C 417 782 424 782 432 784 C 440 785 449 786 460 786 C 525 786 583 776 633 756 C 683 736 725 708 760 673 C 794 637 821 595 839 547 C 857 498 866 446 866 390 C 866 332 855 279 835 229 C 814 179 784 135 745 98 C 705 60 658 31 603 10 C 547 -11 486 -22 418 -22 C 327 -22 252 -8 193 20 C 133 48 85 81 48 120 C 42 125 40 129 41 131 C 41 133 44 136 48 142 L 168 298 C 173 303 178 306 182 306 C 186 306 190 302 196 296 Z" unicode="5" />
<glyph horiz-adv-x="1000" d="M 550 814 C 547 811 546 807 546 802 C 546 798 551 796 562 796 C 619 796 672 785 722 765 C 771 744 813 716 848 681 C 882 645 910 604 930 556 C 950 508 960 456 960 400 C 960 341 949 286 929 236 C 908 185 878 140 839 102 C 799 63 752 33 698 11 C 643 -11 582 -22 514 -22 C 446 -22 384 -11 330 11 C 275 33 228 63 189 102 C 149 140 119 185 98 236 C 76 286 66 341 66 400 C 66 453 72 501 86 543 C 99 585 122 630 154 678 C 186 726 228 780 281 842 C 333 903 399 981 478 1076 L 626 1254 C 630 1258 634 1262 640 1266 C 645 1270 652 1272 660 1272 L 908 1272 C 912 1272 914 1270 914 1268 C 914 1265 912 1262 910 1260 L 550 814 Z M 320 400 C 320 344 337 296 372 257 C 406 217 454 198 514 198 C 572 198 620 217 656 257 C 692 296 710 344 710 400 C 710 454 692 501 658 541 C 623 580 575 600 514 600 C 454 600 406 580 372 541 C 337 501 320 454 320 400 Z" unicode="6" />
<glyph horiz-adv-x="842" d="M 80 0 C 72 0 68 2 68 8 C 68 13 68 17 70 20 L 532 1020 C 534 1028 536 1032 536 1034 C 536 1043 531 1048 522 1048 L 90 1048 C 82 1048 77 1049 75 1051 C 73 1053 72 1058 72 1066 L 72 1252 C 72 1261 73 1267 75 1269 C 77 1271 82 1272 90 1272 L 864 1272 C 872 1272 876 1269 876 1264 C 876 1261 874 1257 872 1252 L 342 18 C 338 10 334 5 332 3 C 329 1 323 0 314 0 L 80 0 Z" unicode="7" />
<glyph horiz-adv-x="1030" d="M 324 384 C 324 360 328 336 338 314 C 347 291 360 271 378 255 C 395 238 415 224 439 214 C 462 203 487 198 514 198 C 540 198 565 203 589 214 C 612 224 632 238 649 255 C 665 271 679 291 689 314 C 699 336 704 360 704 384 C 704 436 687 481 654 520 C 620 558 574 578 514 578 C 454 578 407 558 374 520 C 340 481 324 436 324 384 Z M 370 950 C 370 906 383 869 409 839 C 435 809 470 794 514 794 C 559 794 595 809 623 839 C 650 869 664 906 664 950 C 664 988 650 1023 623 1054 C 595 1084 560 1100 516 1100 C 472 1100 436 1084 410 1054 C 383 1023 370 988 370 950 Z M 260 688 C 265 692 268 695 268 698 C 268 700 265 704 260 710 C 222 738 192 772 168 814 C 144 855 132 903 132 958 C 132 1006 140 1050 158 1091 C 175 1131 200 1167 234 1198 C 267 1228 307 1252 355 1270 C 402 1287 456 1296 516 1296 C 576 1296 629 1287 677 1270 C 724 1252 764 1228 797 1198 C 829 1167 855 1131 873 1091 C 891 1050 900 1006 900 958 C 900 902 887 853 862 813 C 836 772 806 738 770 710 C 764 704 762 700 762 698 C 762 695 764 692 770 688 C 824 654 869 612 905 560 C 940 508 958 446 958 376 C 958 320 948 268 928 220 C 908 172 879 130 841 94 C 803 58 756 29 702 9 C 647 -11 584 -22 514 -22 C 443 -22 380 -11 326 9 C 271 29 225 58 188 94 C 150 130 122 172 102 220 C 82 268 72 320 72 376 C 72 446 89 508 124 560 C 158 612 204 654 260 688 Z" unicode="8" />
<glyph horiz-adv-x="1000" d="M 690 880 C 690 933 673 979 640 1018 C 606 1056 562 1076 506 1076 C 448 1076 402 1056 368 1018 C 333 979 316 933 316 880 C 316 828 332 783 366 745 C 399 707 446 688 506 688 C 563 688 608 707 641 745 C 673 783 690 828 690 880 Z M 458 464 C 462 468 464 471 464 474 C 464 480 458 484 448 484 C 392 488 340 500 294 521 C 247 541 207 569 174 603 C 140 637 114 677 96 724 C 77 770 68 822 68 880 C 68 937 78 991 99 1042 C 119 1092 149 1136 187 1174 C 225 1211 271 1240 325 1262 C 379 1283 439 1294 506 1294 C 571 1294 631 1283 685 1262 C 739 1240 785 1211 823 1174 C 861 1136 890 1092 911 1042 C 931 991 942 937 942 880 C 942 845 938 812 932 782 C 925 751 914 719 898 687 C 882 654 861 619 835 582 C 809 544 777 502 740 454 L 402 20 C 395 12 389 6 385 4 C 380 1 374 0 366 0 L 118 0 C 110 0 105 1 103 3 C 101 5 103 10 110 20 L 458 464 Z" unicode="9" />
<glyph horiz-adv-x="500" d="M 258 -22 C 215 -22 178 -7 148 21 C 117 49 102 87 102 134 C 102 176 117 213 148 244 C 178 274 215 290 258 290 C 302 290 339 274 369 244 C 399 213 414 176 414 134 C 414 87 399 49 369 21 C 339 -7 302 -22 258 -22 Z M 258 592 C 215 592 178 606 148 635 C 117 663 102 701 102 748 C 102 790 117 827 148 858 C 178 888 215 904 258 904 C 302 904 339 888 369 858 C 399 827 414 790 414 748 C 414 701 399 663 369 635 C 339 606 302 592 258 592 Z" unicode=":" />
<glyph horiz-adv-x="500" d="M 258 592 C 215 592 178 606 148 635 C 117 663 102 701 102 748 C 102 790 117 827 148 858 C 178 888 215 904 258 904 C 302 904 339 888 369 858 C 399 827 414 790 414 748 C 414 701 399 663 369 635 C 339 606 302 592 258 592 Z M 140 192 C 141 200 143 205 145 208 C 147 210 152 212 162 212 L 374 212 C 391 212 397 205 392 192 L 262 -244 C 259 -252 256 -257 254 -260 C 251 -262 245 -264 236 -264 L 132 -264 C 124 -264 119 -262 118 -260 C 116 -257 116 -252 116 -244 L 140 192 Z" unicode=";" />
<glyph horiz-adv-x="1040" d="M 312 480 C 312 478 312 477 312 475 C 312 473 314 472 316 470 L 950 216 C 958 212 963 209 966 206 C 968 203 970 197 970 188 L 970 36 C 970 25 966 20 960 20 C 958 20 955 21 950 24 L 90 376 C 80 380 75 385 73 392 C 71 398 70 408 70 420 L 70 540 C 70 552 71 560 73 565 C 75 569 80 574 90 578 L 950 928 C 955 930 958 932 960 932 C 966 932 970 926 970 916 L 970 764 C 970 754 968 748 966 745 C 963 742 958 739 950 736 L 316 490 C 314 488 312 486 312 484 C 312 482 312 481 312 480 Z" unicode="&#x3C;" />
<glyph horiz-adv-x="1040" d="M 950 731 C 959 731 965 729 967 727 C 969 724 970 719 970 711 L 970 577 C 970 569 969 563 967 561 C 965 558 959 557 950 557 L 90 557 C 80 557 75 558 73 561 C 71 563 70 569 70 577 L 70 711 C 70 719 71 724 73 727 C 75 729 80 731 90 731 L 950 731 Z M 950 400 C 959 400 965 398 967 396 C 969 393 970 388 970 380 L 970 246 C 970 238 969 232 967 230 C 965 227 959 226 950 226 L 90 226 C 80 226 75 227 73 230 C 71 232 70 238 70 246 L 70 380 C 70 388 71 393 73 396 C 75 398 80 400 90 400 L 950 400 Z" unicode="=" />
<glyph horiz-adv-x="1040" d="M 728 480 C 728 481 727 482 727 484 C 727 486 726 488 724 490 L 90 736 C 82 739 76 742 74 745 C 71 748 70 754 70 764 L 70 916 C 70 926 73 932 80 932 C 81 932 84 930 90 928 L 950 578 C 959 574 965 569 967 565 C 969 560 970 552 970 540 L 970 420 C 970 408 969 398 967 392 C 965 385 959 380 950 376 L 90 24 C 84 21 81 20 80 20 C 73 20 70 25 70 36 L 70 188 C 70 197 71 203 74 206 C 76 209 82 212 90 216 L 724 470 C 726 472 727 473 727 475 C 727 477 728 478 728 480 Z" unicode="&#x3E;" />
<glyph horiz-adv-x="866" d="M 304 410 C 294 410 289 411 287 413 C 285 415 283 420 282 430 C 278 450 276 469 276 488 C 276 553 290 610 318 660 C 346 709 377 754 411 796 C 445 837 476 876 504 914 C 532 951 546 990 546 1032 C 546 1074 534 1108 512 1132 C 489 1156 454 1168 408 1168 C 362 1168 327 1152 302 1121 C 276 1089 264 1050 264 1004 C 264 996 263 990 261 988 C 259 985 253 984 244 984 L 32 984 C 24 984 18 985 16 987 C 13 989 12 994 12 1002 L 12 1022 C 12 1079 22 1132 42 1182 C 62 1231 90 1274 126 1310 C 162 1346 205 1374 257 1394 C 308 1414 366 1424 430 1424 C 480 1424 531 1416 581 1402 C 631 1387 675 1365 715 1337 C 754 1308 786 1272 810 1228 C 834 1184 846 1133 846 1076 C 846 1024 837 978 821 938 C 804 898 783 862 759 831 C 734 799 707 771 678 745 C 648 719 621 693 597 668 C 572 642 551 616 535 589 C 518 561 510 531 510 498 L 510 430 C 510 420 509 415 507 413 C 505 411 499 410 490 410 L 304 410 Z M 414 -22 C 372 -22 336 -7 306 21 C 275 49 260 87 260 134 C 260 176 274 213 304 244 C 333 274 370 290 414 290 C 458 290 494 274 524 244 C 553 213 568 177 568 136 C 568 93 553 56 523 25 C 493 -6 456 -22 414 -22 Z" unicode="?" />
<glyph horiz-adv-x="1516" d="M 904 440 C 910 496 901 541 876 577 C 850 612 814 630 766 630 C 734 630 706 624 684 612 C 661 600 642 584 627 564 C 611 544 600 521 593 495 C 585 469 582 442 582 414 C 582 392 585 372 592 352 C 598 332 608 314 620 299 C 632 283 646 271 664 262 C 681 252 700 248 722 248 C 752 248 778 253 800 264 C 821 274 839 288 853 306 C 867 323 878 343 886 367 C 894 390 900 414 904 440 Z M 924 152 C 922 156 920 158 916 158 C 914 158 912 156 908 152 C 880 121 848 95 812 75 C 776 54 728 44 670 44 C 628 44 590 53 554 71 C 518 89 486 113 460 145 C 433 176 412 213 397 256 C 381 298 374 345 374 396 C 374 456 381 512 397 565 C 412 617 435 663 466 703 C 496 742 534 773 579 797 C 623 820 675 832 734 832 C 780 832 822 821 858 800 C 894 778 919 748 934 708 C 935 704 938 702 942 702 C 946 702 948 704 950 708 L 970 796 C 972 805 975 811 978 813 C 980 815 986 816 996 816 L 1142 816 C 1151 816 1157 815 1159 813 C 1161 811 1160 805 1158 796 L 1082 374 C 1079 359 1076 342 1073 322 C 1069 302 1068 284 1068 268 C 1068 252 1073 238 1083 226 C 1093 214 1106 208 1122 208 C 1142 208 1162 215 1183 230 C 1203 244 1222 266 1238 294 C 1254 322 1267 356 1277 396 C 1287 436 1292 480 1292 530 C 1292 608 1279 677 1255 736 C 1230 794 1196 843 1152 882 C 1108 920 1056 949 996 969 C 936 988 870 998 798 998 C 719 998 647 983 581 955 C 515 926 458 886 410 836 C 362 785 324 726 297 658 C 269 590 256 516 256 438 C 256 347 269 266 297 195 C 324 123 363 63 413 14 C 463 -35 523 -72 594 -98 C 664 -123 743 -136 830 -136 C 908 -136 984 -126 1057 -107 C 1129 -87 1186 -57 1228 -16 C 1230 -13 1234 -12 1238 -12 C 1243 -12 1246 -16 1246 -26 L 1246 -200 C 1246 -208 1240 -214 1230 -220 C 1182 -245 1124 -266 1056 -282 C 988 -298 914 -306 834 -306 C 722 -306 619 -289 526 -255 C 432 -221 352 -172 285 -108 C 217 -44 165 34 128 126 C 90 218 72 322 72 438 C 72 542 91 638 130 728 C 168 817 221 894 288 959 C 354 1023 432 1074 521 1111 C 609 1147 704 1166 804 1166 C 896 1166 982 1151 1064 1123 C 1145 1094 1216 1053 1277 1001 C 1337 948 1385 884 1420 809 C 1454 733 1472 650 1472 558 C 1472 490 1462 425 1443 363 C 1423 301 1396 246 1362 199 C 1327 151 1285 114 1236 87 C 1186 59 1132 46 1072 46 C 1037 46 1006 55 980 75 C 953 94 934 120 924 152 Z" unicode="@" />
<glyph horiz-adv-x="1212" d="M 614 818 C 611 822 607 824 602 824 C 595 824 591 822 590 818 L 460 456 C 458 453 458 450 458 446 C 458 440 462 438 472 438 L 734 438 C 744 438 750 440 750 444 C 750 448 749 451 748 454 L 614 818 Z M 584 1422 C 588 1430 595 1434 606 1434 C 615 1434 622 1430 626 1422 L 1210 20 C 1211 17 1212 13 1212 8 C 1212 2 1207 0 1198 0 L 920 0 C 912 0 906 1 903 4 C 899 6 896 12 894 20 L 826 196 C 823 205 820 211 817 213 C 813 215 808 216 802 216 L 404 216 C 392 216 383 209 378 196 L 312 20 C 306 6 298 0 288 0 L 16 0 C 5 0 0 2 0 8 C 0 10 1 14 4 20 L 584 1422 Z" unicode="A" />
<glyph horiz-adv-x="1140" d="M 404 860 C 404 850 405 845 407 843 C 409 841 414 840 424 840 L 522 840 C 576 840 621 851 656 874 C 690 896 708 937 708 996 C 708 1050 691 1090 658 1115 C 624 1139 579 1152 522 1152 L 424 1152 C 414 1152 409 1151 407 1149 C 405 1147 404 1141 404 1132 L 404 860 Z M 584 248 C 644 248 692 262 728 292 C 764 321 782 365 782 424 C 782 492 763 538 726 563 C 688 587 631 600 554 600 L 424 600 C 414 600 409 599 407 597 C 405 595 404 589 404 580 L 404 268 C 404 258 405 253 407 251 C 409 249 414 248 424 248 L 584 248 Z M 118 1380 C 118 1389 119 1395 121 1397 C 123 1399 128 1400 138 1400 L 514 1400 C 554 1400 589 1399 621 1397 C 652 1395 680 1391 706 1387 C 731 1382 754 1376 775 1369 C 795 1361 815 1352 834 1342 C 890 1311 931 1270 958 1218 C 984 1166 998 1107 998 1042 C 998 975 983 920 955 878 C 926 835 892 802 854 780 C 848 776 846 772 846 768 C 846 764 848 760 854 758 C 880 747 907 732 935 712 C 962 692 987 667 1009 638 C 1031 608 1048 574 1062 535 C 1075 495 1082 451 1082 402 C 1082 328 1069 266 1044 215 C 1018 163 983 122 938 90 C 892 58 837 35 773 21 C 708 7 637 0 560 0 L 138 0 C 128 0 123 1 121 3 C 119 5 118 10 118 20 L 118 1380 Z" unicode="B" />
<glyph horiz-adv-x="1250" d="M 790 -26 C 678 -26 577 -7 488 31 C 398 69 322 121 260 187 C 197 253 149 330 115 418 C 81 506 64 600 64 700 C 64 797 80 890 114 978 C 147 1066 195 1143 258 1209 C 320 1275 397 1327 487 1367 C 577 1406 678 1426 790 1426 C 854 1426 916 1418 978 1403 C 1039 1387 1094 1368 1142 1344 C 1152 1338 1158 1332 1158 1324 L 1158 1022 C 1158 1012 1155 1008 1150 1008 C 1146 1008 1142 1009 1140 1012 C 1101 1052 1052 1082 994 1104 C 935 1125 872 1136 806 1136 C 734 1136 671 1124 617 1101 C 563 1077 517 1046 481 1006 C 444 966 416 919 398 867 C 379 814 370 758 370 700 C 370 641 379 585 398 533 C 416 480 444 434 481 394 C 517 354 563 322 617 299 C 671 275 733 264 804 264 C 870 264 933 274 993 296 C 1052 317 1101 348 1140 388 C 1142 390 1146 392 1150 392 C 1155 392 1158 387 1158 378 L 1158 76 C 1158 68 1152 61 1142 56 C 1094 32 1039 12 978 -3 C 916 -18 854 -26 790 -26 Z" unicode="C" />
<glyph horiz-adv-x="1274" d="M 528 1400 C 645 1400 746 1382 832 1346 C 917 1310 988 1260 1044 1197 C 1100 1133 1141 1059 1169 974 C 1196 888 1210 797 1210 700 C 1210 593 1194 497 1163 411 C 1131 325 1085 251 1023 191 C 961 130 883 83 790 50 C 696 16 588 0 466 0 L 138 0 C 128 0 123 1 121 3 C 119 5 118 10 118 20 L 118 1380 C 118 1389 119 1395 121 1397 C 123 1399 128 1400 138 1400 L 528 1400 Z M 904 700 C 904 764 896 823 882 877 C 867 931 844 977 814 1015 C 783 1053 744 1082 696 1104 C 648 1125 590 1136 524 1136 L 430 1136 C 420 1136 415 1135 413 1133 C 411 1131 410 1125 410 1116 L 410 284 C 410 274 411 269 413 267 C 415 265 420 264 430 264 L 524 264 C 589 264 645 274 693 296 C 740 317 779 347 811 385 C 842 423 865 469 881 523 C 896 577 904 636 904 700 Z" unicode="D" />
<glyph horiz-adv-x="1054" d="M 118 1380 C 118 1389 119 1395 121 1397 C 123 1399 128 1400 138 1400 L 954 1400 C 963 1400 969 1399 971 1397 C 973 1395 974 1389 974 1380 L 974 1156 C 974 1146 973 1141 971 1139 C 969 1137 963 1136 954 1136 L 430 1136 C 420 1136 415 1135 413 1133 C 411 1131 410 1125 410 1116 L 410 790 C 410 780 411 775 413 773 C 415 771 420 770 430 770 L 934 770 C 943 770 949 769 951 767 C 953 765 954 759 954 750 L 954 530 C 954 520 953 515 951 513 C 949 511 943 510 934 510 L 430 510 C 420 510 415 509 413 507 C 411 505 410 499 410 490 L 410 284 C 410 274 411 269 413 267 C 415 265 420 264 430 264 L 964 264 C 973 264 979 263 981 261 C 983 259 984 253 984 244 L 984 20 C 984 10 983 5 981 3 C 979 1 973 0 964 0 L 138 0 C 128 0 123 1 121 3 C 119 5 118 10 118 20 L 118 1380 Z" unicode="E" />
<glyph horiz-adv-x="1000" d="M 118 1380 C 118 1389 119 1395 121 1397 C 123 1399 128 1400 138 1400 L 918 1400 C 927 1400 933 1399 935 1397 C 937 1395 938 1389 938 1380 L 938 1156 C 938 1146 937 1141 935 1139 C 933 1137 927 1136 918 1136 L 430 1136 C 420 1136 415 1135 413 1133 C 411 1131 410 1125 410 1116 L 410 750 C 410 740 411 735 413 733 C 415 731 420 730 430 730 L 900 730 C 909 730 915 729 917 727 C 919 725 920 719 920 710 L 920 490 C 920 480 919 475 917 473 C 915 471 909 470 900 470 L 430 470 C 420 470 415 469 413 467 C 411 465 410 459 410 450 L 410 20 C 410 10 409 5 407 3 C 405 1 399 0 390 0 L 138 0 C 128 0 123 1 121 3 C 119 5 118 10 118 20 L 118 1380 Z" unicode="F" />
<glyph horiz-adv-x="1326" d="M 810 1152 C 735 1152 670 1139 615 1115 C 559 1090 514 1057 478 1015 C 442 973 415 924 397 869 C 379 813 370 755 370 694 C 370 631 379 572 398 516 C 416 460 444 411 480 369 C 516 327 561 294 615 270 C 669 246 731 234 802 234 C 830 234 858 235 888 239 C 917 242 939 247 954 254 C 967 259 974 268 974 280 L 974 518 C 974 527 973 533 971 535 C 969 537 963 538 954 538 L 746 538 C 736 538 731 539 729 541 C 727 543 726 548 726 558 L 726 768 C 726 777 727 783 729 785 C 731 787 736 788 746 788 L 1220 788 C 1229 788 1235 786 1237 783 C 1239 779 1240 774 1240 768 L 1240 88 C 1240 80 1236 73 1228 68 C 1205 52 1177 38 1145 27 C 1112 15 1077 6 1040 -2 C 1002 -10 964 -16 925 -20 C 885 -24 848 -26 812 -26 C 694 -26 589 -7 497 31 C 404 69 326 120 262 186 C 198 251 149 327 115 415 C 81 502 64 595 64 694 C 64 794 81 888 115 977 C 149 1065 198 1143 262 1210 C 326 1276 403 1329 493 1368 C 583 1406 684 1426 796 1426 C 864 1426 928 1419 990 1405 C 1051 1391 1106 1370 1156 1344 C 1166 1338 1172 1332 1172 1324 L 1172 1042 C 1172 1034 1168 1030 1162 1030 C 1159 1030 1156 1030 1154 1032 C 1110 1069 1059 1098 1001 1120 C 943 1141 879 1152 810 1152 Z" unicode="G" />
<glyph horiz-adv-x="1240" d="M 1122 20 C 1122 10 1121 5 1119 3 C 1117 1 1111 0 1102 0 L 850 0 C 840 0 835 1 833 3 C 831 5 830 10 830 20 L 830 484 C 830 493 829 499 827 501 C 825 503 819 504 810 504 L 430 504 C 420 504 415 503 413 501 C 411 499 410 493 410 484 L 410 20 C 410 10 409 5 407 3 C 405 1 399 0 390 0 L 138 0 C 128 0 123 1 121 3 C 119 5 118 10 118 20 L 118 1380 C 118 1389 119 1395 121 1397 C 123 1399 128 1400 138 1400 L 390 1400 C 399 1400 405 1399 407 1397 C 409 1395 410 1389 410 1380 L 410 784 C 410 774 411 769 413 767 C 415 765 420 764 430 764 L 810 764 C 819 764 825 765 827 767 C 829 769 830 774 830 784 L 830 1380 C 830 1389 831 1395 833 1397 C 835 1399 840 1400 850 1400 L 1102 1400 C 1111 1400 1117 1399 1119 1397 C 1121 1395 1122 1389 1122 1380 L 1122 20 Z" unicode="H" />
<glyph horiz-adv-x="528" d="M 118 1380 C 118 1389 119 1395 121 1397 C 123 1399 128 1400 138 1400 L 390 1400 C 399 1400 405 1399 407 1397 C 409 1395 410 1389 410 1380 L 410 20 C 410 10 409 5 407 3 C 405 1 399 0 390 0 L 138 0 C 128 0 123 1 121 3 C 119 5 118 10 118 20 L 118 1380 Z" unicode="I" />
<glyph horiz-adv-x="666" d="M 232 -22 C 194 -22 160 -20 130 -17 C 99 -13 77 -10 64 -8 C 56 -5 50 -3 48 -1 C 45 1 44 6 44 16 L 44 230 C 44 243 50 248 64 246 C 73 243 86 240 103 238 C 119 235 138 234 160 234 C 197 234 223 245 237 267 C 251 289 258 323 258 370 L 258 1382 C 258 1390 259 1395 261 1397 C 263 1399 268 1400 276 1400 L 532 1400 C 540 1400 545 1399 547 1397 C 549 1395 550 1390 550 1382 L 550 298 C 550 190 522 109 468 57 C 413 4 334 -22 232 -22 Z" unicode="J" />
<glyph horiz-adv-x="1204" d="M 406 20 C 406 10 405 5 403 3 C 401 1 395 0 386 0 L 138 0 C 128 0 123 1 121 3 C 119 5 118 10 118 20 L 118 1380 C 118 1389 119 1395 121 1397 C 123 1399 128 1400 138 1400 L 386 1400 C 395 1400 401 1399 403 1397 C 405 1395 406 1389 406 1380 L 406 846 C 406 836 410 832 418 832 C 426 832 432 835 436 842 L 800 1380 C 806 1388 811 1393 814 1396 C 816 1398 822 1400 832 1400 L 1134 1400 C 1144 1400 1150 1398 1150 1394 C 1150 1392 1147 1388 1142 1380 L 708 760 C 705 757 704 754 704 750 C 704 746 705 742 708 740 L 1180 20 C 1186 10 1190 5 1190 4 C 1190 1 1184 0 1172 0 L 868 0 C 858 0 853 1 851 3 C 849 5 844 10 836 20 L 438 632 C 434 637 428 640 422 640 C 411 640 406 635 406 626 L 406 20 Z" unicode="K" />
<glyph horiz-adv-x="950" d="M 118 1380 C 118 1389 119 1395 121 1397 C 123 1399 128 1400 138 1400 L 390 1400 C 399 1400 405 1399 407 1397 C 409 1395 410 1389 410 1380 L 410 284 C 410 274 411 269 413 267 C 415 265 420 264 430 264 L 886 264 C 895 264 901 263 903 261 C 905 259 906 253 906 244 L 906 20 C 906 10 905 5 903 3 C 901 1 895 0 886 0 L 138 0 C 128 0 123 1 121 3 C 119 5 118 10 118 20 L 118 1380 Z" unicode="L" />
<glyph horiz-adv-x="1536" d="M 788 270 C 782 263 776 260 768 260 C 760 260 753 263 748 270 L 426 664 C 422 668 417 670 412 670 C 401 670 396 666 396 658 L 396 20 C 396 10 395 5 393 3 C 391 1 385 0 376 0 L 138 0 C 128 0 123 1 121 3 C 119 5 118 10 118 20 L 118 1420 C 118 1429 122 1434 132 1434 C 134 1434 137 1433 140 1433 C 142 1432 146 1429 150 1424 L 756 686 C 761 680 765 678 768 678 C 772 678 776 680 780 686 L 1386 1424 C 1391 1429 1395 1432 1398 1433 C 1400 1433 1403 1434 1406 1434 C 1414 1434 1418 1429 1418 1420 L 1418 20 C 1418 10 1417 5 1415 3 C 1413 1 1407 0 1398 0 L 1160 0 C 1150 0 1145 1 1143 3 C 1141 5 1140 10 1140 20 L 1140 658 C 1140 666 1134 670 1124 670 C 1118 670 1114 668 1110 664 L 788 270 Z" unicode="M" />
<glyph horiz-adv-x="1222" d="M 428 724 C 424 728 419 730 414 730 C 403 730 398 726 398 718 L 398 20 C 398 10 397 5 395 3 C 393 1 387 0 378 0 L 132 0 C 122 0 117 1 115 3 C 113 5 112 10 112 20 L 112 1420 C 112 1429 115 1434 122 1434 C 124 1434 127 1433 130 1433 C 132 1432 136 1429 142 1424 L 794 674 C 798 670 802 668 808 668 C 818 668 824 672 824 680 L 824 1380 C 824 1389 825 1395 827 1397 C 829 1399 834 1400 844 1400 L 1090 1400 C 1099 1400 1105 1399 1107 1397 C 1109 1395 1110 1389 1110 1380 L 1110 -20 C 1110 -29 1106 -34 1100 -34 C 1093 -34 1087 -30 1082 -24 L 428 724 Z" unicode="N" />
<glyph horiz-adv-x="1540" d="M 1476 700 C 1476 601 1457 508 1421 420 C 1384 332 1334 255 1271 189 C 1207 123 1133 70 1047 32 C 961 -6 868 -26 770 -26 C 671 -26 579 -6 493 32 C 407 70 332 123 269 189 C 205 255 155 332 119 420 C 82 508 64 601 64 700 C 64 798 82 892 119 980 C 155 1068 205 1145 269 1211 C 332 1277 407 1329 493 1368 C 579 1406 671 1426 770 1426 C 868 1426 961 1406 1047 1368 C 1133 1329 1207 1277 1271 1211 C 1334 1145 1384 1068 1421 980 C 1457 892 1476 798 1476 700 Z M 370 700 C 370 640 379 583 399 531 C 418 478 445 432 481 393 C 516 353 558 322 607 299 C 655 275 710 264 770 264 C 830 264 884 275 933 299 C 981 322 1023 353 1059 393 C 1094 432 1121 478 1141 531 C 1160 583 1170 640 1170 700 C 1170 760 1160 816 1141 869 C 1121 921 1094 967 1059 1007 C 1023 1046 981 1077 933 1101 C 884 1124 830 1136 770 1136 C 710 1136 655 1124 607 1101 C 558 1077 516 1046 481 1007 C 445 967 418 921 399 869 C 379 816 370 760 370 700 Z" unicode="O" />
<glyph horiz-adv-x="1110" d="M 430 1136 C 420 1136 415 1135 413 1133 C 411 1131 410 1125 410 1116 L 410 752 C 410 742 411 737 413 735 C 415 733 420 732 430 732 L 536 732 C 608 732 663 748 702 781 C 740 813 760 864 760 934 C 760 995 741 1044 705 1081 C 668 1117 610 1136 530 1136 L 430 1136 Z M 430 470 C 420 470 415 469 413 467 C 411 465 410 459 410 450 L 410 20 C 410 10 409 5 407 3 C 405 1 399 0 390 0 L 138 0 C 128 0 123 1 121 3 C 119 5 118 10 118 20 L 118 1380 C 118 1389 119 1395 121 1397 C 123 1399 128 1400 138 1400 L 542 1400 C 626 1400 695 1392 749 1377 C 803 1361 851 1338 894 1308 C 948 1269 990 1218 1019 1155 C 1047 1091 1062 1019 1062 938 C 1062 778 1008 656 900 572 C 857 537 806 511 747 495 C 687 478 622 470 550 470 L 430 470 Z" unicode="P" />
<glyph horiz-adv-x="1564" d="M 1476 704 C 1476 648 1471 598 1461 554 C 1451 510 1437 470 1420 434 C 1402 398 1383 365 1361 335 C 1339 305 1316 276 1292 248 C 1288 244 1286 240 1286 236 C 1286 230 1294 228 1312 228 L 1518 236 C 1527 236 1533 235 1535 233 C 1537 231 1538 225 1538 216 L 1538 18 C 1538 8 1537 3 1535 1 C 1533 -1 1527 -2 1518 -2 L 1148 10 C 1128 10 1104 8 1076 5 C 1048 1 1017 -2 984 -7 C 950 -11 915 -16 879 -20 C 842 -24 806 -26 770 -26 C 671 -26 579 -6 493 32 C 407 70 332 123 269 189 C 205 255 155 332 119 420 C 82 508 64 601 64 700 C 64 798 82 892 119 980 C 155 1068 205 1145 269 1211 C 332 1277 407 1329 493 1368 C 579 1406 671 1426 770 1426 C 868 1426 961 1407 1047 1369 C 1133 1331 1207 1279 1271 1213 C 1334 1147 1384 1070 1421 983 C 1457 895 1476 802 1476 704 Z M 370 700 C 370 640 379 583 399 531 C 418 478 445 432 481 393 C 516 353 558 322 607 299 C 655 275 710 264 770 264 C 830 264 884 275 933 299 C 981 322 1023 353 1059 393 C 1094 432 1121 478 1141 531 C 1160 583 1170 640 1170 700 C 1170 760 1160 816 1141 869 C 1121 921 1094 967 1059 1007 C 1023 1046 981 1077 933 1101 C 884 1124 830 1136 770 1136 C 710 1136 655 1124 607 1101 C 558 1077 516 1046 481 1007 C 445 967 418 921 399 869 C 379 816 370 760 370 700 Z" unicode="Q" />
<glyph horiz-adv-x="1178" d="M 406 20 C 406 10 405 5 403 3 C 401 1 395 0 386 0 L 136 0 C 126 0 120 1 118 3 C 115 5 114 10 114 20 L 114 1380 C 114 1389 115 1395 117 1397 C 119 1399 124 1400 134 1400 L 492 1400 C 576 1400 645 1395 701 1386 C 756 1376 809 1357 860 1328 C 917 1296 965 1250 1003 1191 C 1041 1131 1060 1058 1060 970 C 1060 864 1033 776 979 704 C 925 632 852 582 762 556 C 756 554 754 551 754 546 C 754 543 755 540 758 538 C 826 450 893 363 960 279 C 1026 194 1094 108 1162 20 C 1168 10 1172 5 1172 4 C 1172 1 1166 0 1154 0 L 844 0 C 834 0 828 1 825 3 C 821 5 816 10 810 20 L 440 514 C 433 524 426 530 418 530 C 411 530 407 528 407 525 C 406 521 406 516 406 510 L 406 20 Z M 426 1148 C 416 1148 411 1147 409 1145 C 407 1143 406 1137 406 1128 L 406 776 C 406 766 407 761 409 759 C 411 757 416 756 426 756 L 536 756 C 608 756 663 771 702 801 C 740 831 760 880 760 950 C 760 1011 741 1059 705 1095 C 668 1130 610 1148 530 1148 L 426 1148 Z" unicode="R" />
<glyph horiz-adv-x="1074" d="M 286 398 C 320 344 357 304 396 277 C 434 249 480 236 534 236 C 583 236 624 249 658 276 C 691 302 708 337 708 380 C 708 422 693 458 664 487 C 634 515 598 542 554 566 C 510 590 462 614 410 639 C 358 663 310 693 266 727 C 222 761 185 802 156 851 C 126 899 112 960 112 1034 C 112 1088 123 1140 145 1188 C 167 1236 197 1277 237 1313 C 276 1348 323 1376 379 1396 C 434 1416 495 1426 562 1426 C 604 1426 647 1421 689 1412 C 731 1402 771 1389 809 1373 C 847 1356 882 1335 914 1311 C 946 1286 972 1258 994 1226 C 998 1219 1000 1214 1000 1212 C 1000 1208 996 1202 990 1196 L 796 1048 C 789 1041 784 1038 782 1038 C 778 1038 773 1042 768 1050 C 749 1083 725 1111 695 1133 C 665 1155 624 1166 574 1166 C 527 1166 490 1153 463 1128 C 435 1102 422 1070 422 1032 C 422 993 437 961 467 936 C 497 910 534 886 579 864 C 623 841 672 818 724 794 C 776 770 824 740 869 705 C 913 669 951 626 981 575 C 1011 523 1026 460 1026 384 C 1026 325 1015 271 995 221 C 974 171 943 127 902 91 C 860 54 810 25 750 5 C 690 -15 620 -26 542 -26 C 487 -26 435 -19 386 -7 C 336 5 291 23 249 46 C 207 68 169 94 137 124 C 104 153 76 185 54 220 C 50 225 48 230 48 236 C 48 240 51 244 58 250 L 256 402 C 262 407 268 410 272 410 C 276 410 280 406 286 398 Z" unicode="S" />
<glyph horiz-adv-x="1002" d="M 46 1380 C 46 1389 47 1395 49 1397 C 51 1399 56 1400 66 1400 L 936 1400 C 945 1400 951 1399 953 1397 C 955 1395 956 1389 956 1380 L 956 1156 C 956 1146 955 1141 953 1139 C 951 1137 945 1136 936 1136 L 666 1136 C 656 1136 651 1135 649 1133 C 647 1131 646 1125 646 1116 L 646 20 C 646 10 645 5 643 3 C 641 1 635 0 626 0 L 374 0 C 364 0 359 1 357 3 C 355 5 354 10 354 20 L 354 1116 C 354 1125 353 1131 351 1133 C 349 1135 343 1136 334 1136 L 66 1136 C 56 1136 51 1137 49 1139 C 47 1141 46 1146 46 1156 L 46 1380 Z" unicode="T" />
<glyph horiz-adv-x="1266" d="M 858 1380 C 858 1389 859 1395 861 1397 C 863 1399 868 1400 878 1400 L 1130 1400 C 1139 1400 1145 1399 1147 1397 C 1149 1395 1150 1389 1150 1380 L 1150 432 C 1150 356 1136 289 1108 232 C 1080 174 1042 127 995 89 C 947 51 892 22 830 3 C 767 -16 702 -26 634 -26 C 566 -26 500 -16 438 3 C 375 22 320 51 273 89 C 225 127 188 174 160 232 C 132 289 118 356 118 432 L 118 1380 C 118 1389 119 1395 121 1397 C 123 1399 128 1400 138 1400 L 390 1400 C 399 1400 405 1399 407 1397 C 409 1395 410 1389 410 1380 L 410 508 C 410 462 415 424 427 394 C 438 363 454 338 474 319 C 494 299 517 285 545 277 C 572 268 602 264 634 264 C 699 264 753 282 795 318 C 837 354 858 417 858 508 L 858 1380 Z" unicode="U" />
<glyph horiz-adv-x="1214" d="M 596 642 C 597 638 601 636 608 636 C 613 636 617 638 620 642 L 910 1380 C 915 1393 923 1400 934 1400 L 1210 1400 C 1218 1400 1222 1398 1222 1394 C 1222 1390 1220 1385 1218 1380 L 626 -26 C 624 -28 622 -30 618 -32 C 614 -33 610 -34 608 -34 C 604 -34 600 -33 596 -32 C 592 -30 589 -28 588 -26 L -2 1380 C -4 1385 -6 1390 -6 1394 C -6 1398 -2 1400 6 1400 L 284 1400 C 294 1400 302 1393 308 1380 L 596 642 Z" unicode="V" />
<glyph horiz-adv-x="1814" d="M 920 768 C 917 772 913 774 908 774 C 902 774 899 772 898 768 L 598 -26 C 596 -28 593 -30 589 -32 C 584 -33 580 -34 578 -34 C 575 -34 572 -33 568 -32 C 564 -30 561 -28 560 -26 L 18 1380 C 15 1385 14 1390 14 1394 C 14 1398 18 1400 26 1400 L 302 1400 C 312 1400 320 1393 326 1380 L 578 654 C 579 650 583 648 590 648 C 594 648 597 650 600 654 L 886 1414 C 891 1427 900 1434 912 1434 C 924 1434 932 1427 938 1414 L 1226 654 C 1227 650 1230 648 1236 648 C 1240 648 1243 650 1246 654 L 1502 1380 C 1507 1393 1515 1400 1526 1400 L 1798 1400 C 1806 1400 1810 1398 1810 1394 C 1810 1390 1808 1385 1806 1380 L 1258 -26 C 1256 -28 1254 -30 1250 -32 C 1246 -33 1242 -34 1240 -34 C 1237 -34 1233 -33 1229 -32 C 1224 -30 1221 -28 1220 -26 L 920 768 Z" unicode="W" />
<glyph horiz-adv-x="1244" d="M 32 1380 C 29 1385 28 1389 28 1392 C 28 1397 32 1400 40 1400 L 348 1400 C 358 1400 367 1393 374 1380 L 614 940 C 615 936 618 934 624 934 C 628 934 631 936 634 940 L 878 1380 C 883 1389 887 1395 890 1397 C 892 1399 897 1400 904 1400 L 1210 1400 C 1218 1400 1222 1397 1222 1392 C 1222 1389 1220 1385 1218 1380 L 826 720 C 823 714 822 710 822 708 C 822 705 823 701 826 696 L 1234 20 C 1236 14 1238 10 1238 8 C 1238 2 1234 0 1226 0 L 916 0 C 905 0 896 6 890 20 L 630 472 C 627 476 624 478 620 478 C 614 478 611 476 610 472 L 350 20 C 344 10 340 5 338 3 C 335 1 330 0 324 0 L 16 0 C 8 0 4 2 4 8 C 4 10 5 14 8 20 L 416 696 C 418 701 420 705 420 708 C 420 710 418 714 416 720 L 32 1380 Z" unicode="X" />
<glyph horiz-adv-x="1192" d="M 450 644 L 12 1380 C 9 1385 8 1389 8 1392 C 8 1397 12 1400 20 1400 L 312 1400 C 322 1400 331 1393 338 1380 L 588 948 C 589 944 592 942 598 942 C 602 942 605 944 608 948 L 860 1380 C 865 1389 869 1395 872 1397 C 874 1399 879 1400 886 1400 L 1172 1400 C 1180 1400 1184 1397 1184 1392 C 1184 1389 1182 1385 1180 1380 L 742 644 L 742 20 C 742 10 741 5 739 3 C 737 1 731 0 722 0 L 470 0 C 460 0 455 1 453 3 C 451 5 450 10 450 20 L 450 644 Z" unicode="Y" />
<glyph horiz-adv-x="1014" d="M 464 294 C 461 288 460 282 460 276 C 460 268 464 264 472 264 L 914 264 C 923 264 929 263 931 261 C 933 259 934 253 934 244 L 934 20 C 934 10 933 5 931 3 C 929 1 923 0 914 0 L 40 0 C 30 0 26 3 26 10 C 26 12 27 16 30 22 L 550 1106 C 554 1114 556 1120 556 1126 C 556 1132 551 1136 542 1136 L 106 1136 C 96 1136 91 1137 89 1139 C 87 1141 86 1146 86 1156 L 86 1380 C 86 1389 87 1395 89 1397 C 91 1399 96 1400 106 1400 L 968 1400 C 977 1400 982 1397 982 1392 C 982 1389 980 1385 978 1380 L 464 294 Z" unicode="Z" />
<glyph horiz-adv-x="582" d="M 98 1446 C 98 1455 99 1461 101 1463 C 103 1465 108 1466 118 1466 L 514 1466 C 523 1466 529 1465 531 1463 C 533 1461 534 1455 534 1446 L 534 1314 C 534 1304 533 1299 531 1297 C 529 1295 523 1294 514 1294 L 330 1294 C 320 1294 315 1293 313 1291 C 311 1289 310 1283 310 1274 L 310 -92 C 310 -101 311 -107 313 -109 C 315 -111 320 -112 330 -112 L 524 -112 C 533 -112 539 -113 541 -115 C 543 -117 544 -122 544 -132 L 544 -264 C 544 -273 543 -279 541 -281 C 539 -283 533 -284 524 -284 L 118 -284 C 108 -284 103 -283 101 -281 C 99 -279 98 -273 98 -264 L 98 1446 Z" unicode="[" />
<glyph horiz-adv-x="1108" d="M 112 1472 C 109 1477 108 1482 108 1487 C 108 1491 112 1496 120 1500 L 260 1568 C 266 1570 271 1571 275 1570 C 278 1568 282 1563 288 1554 L 1016 2 C 1018 -3 1020 -8 1020 -13 C 1020 -17 1016 -22 1008 -26 L 868 -94 C 861 -96 856 -97 853 -96 C 849 -94 845 -89 840 -80 L 112 1472 Z" unicode="\" />
<glyph horiz-adv-x="582" d="M 484 -264 C 484 -273 483 -279 481 -281 C 479 -283 473 -284 464 -284 L 58 -284 C 48 -284 43 -283 41 -281 C 39 -279 38 -273 38 -264 L 38 -132 C 38 -122 39 -117 41 -115 C 43 -113 48 -112 58 -112 L 252 -112 C 261 -112 267 -111 269 -109 C 271 -107 272 -101 272 -92 L 272 1238 L 272 1274 C 272 1283 271 1289 269 1291 C 267 1293 261 1294 252 1294 L 68 1294 C 58 1294 53 1295 51 1297 C 49 1299 48 1304 48 1314 L 48 1446 C 48 1455 49 1461 51 1463 C 53 1465 58 1466 68 1466 L 464 1466 C 473 1466 479 1465 481 1463 C 483 1461 484 1455 484 1446 L 484 -264 Z" unicode="]" />
<glyph horiz-adv-x="1040" d="M 522 1186 C 520 1186 518 1185 516 1185 C 514 1185 512 1184 510 1182 L 304 734 C 300 726 297 720 294 718 C 291 715 285 714 276 714 L 86 714 C 75 714 70 717 70 724 C 70 725 71 728 74 734 L 380 1380 C 384 1389 389 1395 396 1397 C 402 1399 412 1400 424 1400 L 624 1400 C 636 1400 644 1399 649 1397 C 653 1395 658 1389 662 1380 L 968 734 C 970 728 972 725 972 724 C 972 717 966 714 956 714 L 768 714 C 758 714 752 715 749 718 C 746 720 743 726 740 734 L 534 1182 C 532 1184 529 1185 527 1185 C 525 1185 523 1186 522 1186 Z" unicode="^" />
<glyph horiz-adv-x="934" d="M 0 -126 C 0 -116 1 -111 4 -109 C 6 -107 12 -106 20 -106 L 914 -106 C 923 -106 929 -107 931 -109 C 933 -111 934 -116 934 -126 L 934 -236 C 934 -245 933 -251 931 -253 C 929 -255 923 -256 914 -256 L 20 -256 C 10 -256 5 -255 3 -253 C 1 -251 0 -245 0 -236 L 0 -126 Z" unicode="_" />
<glyph horiz-adv-x="1000" d="M 626 1032 C 631 1025 634 1020 634 1016 C 634 1013 629 1012 620 1012 L 444 1012 C 434 1012 427 1014 422 1018 C 416 1022 411 1026 406 1032 L 152 1280 C 144 1288 140 1293 140 1296 C 140 1298 146 1300 160 1300 L 420 1300 C 428 1300 433 1298 437 1296 C 440 1293 445 1288 452 1280 L 626 1032 Z" unicode="`" />
<glyph horiz-adv-x="960" d="M 620 298 C 620 332 605 361 575 385 C 545 408 506 420 460 420 C 412 420 373 409 344 387 C 314 365 300 335 300 298 C 300 259 314 229 344 207 C 373 185 412 174 460 174 C 506 174 545 185 575 209 C 605 232 620 262 620 298 Z M 46 280 C 46 377 77 453 141 507 C 204 561 288 588 392 588 C 441 588 482 583 516 574 C 549 564 578 550 604 532 C 606 530 609 530 612 530 C 617 530 620 535 620 546 L 620 566 C 620 616 606 652 579 674 C 551 695 506 706 442 706 C 400 706 361 700 325 690 C 288 679 255 666 226 650 C 218 646 212 644 210 644 C 203 644 200 649 200 660 L 200 824 C 200 834 205 842 216 848 C 240 860 274 872 320 885 C 365 897 416 904 472 904 C 549 904 608 898 650 888 C 691 877 728 860 760 836 C 782 818 801 799 816 777 C 830 755 842 727 850 695 C 858 662 863 623 867 578 C 870 532 872 479 872 418 L 872 20 C 872 12 871 6 869 4 C 867 1 861 0 852 0 L 650 0 C 640 0 635 1 633 4 C 631 6 630 12 630 20 L 630 84 C 630 86 627 88 622 88 C 618 88 615 87 614 86 C 582 48 545 21 504 5 C 462 -11 411 -20 350 -20 C 306 -20 265 -12 229 2 C 192 16 160 37 133 64 C 105 90 84 122 69 159 C 53 195 46 236 46 280 Z" unicode="a" />
<glyph horiz-adv-x="1100" d="M 786 444 C 786 476 781 506 771 535 C 761 563 746 589 728 611 C 709 633 686 650 659 663 C 631 675 600 682 566 682 C 531 682 500 675 473 663 C 445 650 422 633 403 611 C 383 589 369 563 359 535 C 349 506 344 476 344 444 C 344 410 349 379 359 349 C 369 319 383 293 403 271 C 422 249 445 231 473 219 C 500 206 531 200 566 200 C 600 200 631 206 659 219 C 686 231 709 249 728 271 C 746 293 761 319 771 349 C 781 379 786 410 786 444 Z M 350 796 C 350 793 352 792 358 792 C 362 792 364 792 366 794 C 392 824 429 850 475 872 C 521 893 572 904 630 904 C 691 904 747 892 799 869 C 850 845 894 813 931 772 C 967 730 996 682 1016 626 C 1036 570 1046 509 1046 444 C 1046 378 1036 317 1016 261 C 996 204 967 155 931 113 C 894 71 850 38 799 14 C 747 -10 691 -22 630 -22 C 572 -22 521 -11 475 10 C 429 31 392 57 366 88 C 364 89 362 90 358 90 C 352 90 350 88 350 86 L 350 20 C 350 12 349 6 347 4 C 345 1 339 0 330 0 L 112 0 C 102 0 97 1 95 4 C 93 6 92 12 92 20 L 92 1480 C 92 1488 93 1493 95 1496 C 97 1498 102 1500 112 1500 L 330 1500 C 339 1500 345 1498 347 1496 C 349 1493 350 1488 350 1480 L 350 796 Z" unicode="b" />
<glyph horiz-adv-x="828" d="M 748 22 C 733 14 716 7 697 2 C 677 -3 657 -7 636 -11 C 614 -14 593 -17 573 -19 C 552 -21 533 -22 516 -22 C 449 -22 387 -10 331 14 C 274 38 225 70 183 112 C 141 153 108 202 84 259 C 60 315 48 377 48 444 C 48 509 60 570 84 627 C 108 683 141 732 183 773 C 225 813 274 845 331 869 C 387 892 449 904 516 904 C 553 904 593 900 635 894 C 677 887 712 877 742 864 C 748 861 753 858 755 856 C 757 853 758 849 758 844 L 758 632 C 758 621 754 616 748 616 C 745 616 742 617 738 620 C 714 638 686 653 655 664 C 623 674 586 680 544 680 C 469 680 411 658 370 614 C 328 570 308 513 308 444 C 308 374 328 317 368 271 C 408 225 466 202 544 202 C 589 202 628 208 660 221 C 692 233 720 250 746 270 C 747 271 750 272 754 272 C 760 272 764 267 764 258 L 764 42 C 764 36 763 32 761 30 C 759 27 754 24 748 22 Z" unicode="c" />
<glyph horiz-adv-x="1100" d="M 752 442 C 752 474 747 504 737 533 C 727 561 712 587 694 609 C 675 631 652 648 625 661 C 597 673 567 680 534 680 C 499 680 468 673 440 661 C 412 648 388 631 370 609 C 351 587 337 561 327 533 C 317 504 312 474 312 442 C 312 408 317 377 327 348 C 337 318 351 293 370 271 C 388 249 412 231 440 219 C 468 206 499 200 534 200 C 567 200 597 206 625 219 C 652 231 675 249 694 271 C 712 293 727 318 737 348 C 747 377 752 408 752 442 Z M 750 1480 C 750 1488 751 1493 753 1496 C 755 1498 760 1500 770 1500 L 988 1500 C 997 1500 1003 1498 1005 1496 C 1007 1493 1008 1488 1008 1480 L 1008 20 C 1008 12 1007 6 1005 4 C 1003 1 997 0 988 0 L 770 0 C 760 0 755 1 753 4 C 751 6 750 12 750 20 L 750 86 C 750 88 747 90 742 90 C 738 90 735 89 734 88 C 707 57 670 31 624 10 C 577 -11 525 -22 468 -22 C 405 -22 348 -10 298 14 C 247 38 203 70 167 112 C 130 153 102 202 82 259 C 62 315 52 376 52 442 C 52 507 62 568 82 624 C 102 680 130 728 167 770 C 203 811 247 843 298 867 C 348 890 405 902 468 902 C 525 902 577 891 624 871 C 670 850 707 824 734 794 C 735 792 738 792 742 792 C 747 792 750 793 750 796 L 750 1480 Z" unicode="d" />
<glyph horiz-adv-x="986" d="M 316 330 C 321 283 344 246 385 220 C 425 193 483 180 558 180 C 603 180 648 186 694 199 C 739 211 776 229 806 252 C 808 254 812 256 818 256 C 823 256 826 249 826 236 L 826 62 C 826 54 819 45 806 36 C 794 28 777 20 757 13 C 736 5 713 0 689 -6 C 664 -11 638 -15 611 -18 C 583 -20 558 -22 534 -22 C 460 -22 394 -10 335 14 C 275 38 225 70 184 112 C 142 153 111 202 89 259 C 67 315 56 377 56 444 C 56 509 66 570 88 626 C 109 682 139 730 178 772 C 216 813 263 845 317 869 C 371 892 430 904 496 904 C 565 904 627 892 681 869 C 735 845 780 813 818 771 C 855 729 883 679 902 621 C 920 563 930 498 930 428 L 930 396 C 930 376 929 363 927 357 C 925 351 918 348 908 348 L 338 348 C 328 348 322 347 320 345 C 317 343 316 338 316 330 Z M 490 700 C 439 700 397 686 364 658 C 330 630 311 592 306 546 C 306 536 307 531 309 529 C 311 527 316 526 326 526 L 654 526 C 664 526 671 527 673 529 C 675 531 675 536 674 546 C 668 592 650 630 620 658 C 589 686 546 700 490 700 Z" unicode="e" />
<glyph horiz-adv-x="604" d="M 412 902 C 412 892 413 887 415 885 C 417 883 422 882 432 882 L 554 882 C 563 882 569 880 571 878 C 573 875 574 870 574 862 L 574 686 C 574 678 573 672 571 670 C 569 667 563 666 554 666 L 432 666 C 422 666 417 665 415 663 C 413 661 412 655 412 646 L 412 20 C 412 12 411 6 409 4 C 407 1 401 0 392 0 L 176 0 C 166 0 161 1 159 4 C 157 6 156 12 156 20 L 156 646 C 156 655 155 661 153 663 C 151 665 145 666 136 666 L 54 666 C 44 666 39 667 37 670 C 35 672 34 678 34 686 L 34 862 C 34 870 35 875 37 878 C 39 880 44 882 54 882 L 136 882 C 145 882 151 883 153 885 C 155 887 156 892 156 902 L 156 1204 C 156 1310 180 1391 228 1446 C 276 1500 352 1528 456 1528 C 470 1528 484 1527 498 1526 C 511 1524 523 1523 534 1522 C 547 1520 560 1519 572 1518 C 580 1515 585 1513 588 1511 C 590 1509 592 1503 592 1494 L 592 1320 C 592 1305 585 1300 572 1304 C 561 1306 551 1308 542 1310 C 532 1311 524 1312 516 1312 C 446 1312 412 1266 412 1176 L 412 902 Z" unicode="f" />
<glyph horiz-adv-x="1094" d="M 314 444 C 314 410 319 379 329 349 C 339 319 353 293 371 271 C 389 249 411 231 438 219 C 464 206 495 200 530 200 C 564 200 595 206 623 219 C 650 231 673 249 693 271 C 712 293 727 319 737 349 C 747 379 752 410 752 444 C 752 476 747 506 737 535 C 727 563 712 589 693 611 C 673 633 650 650 623 663 C 595 675 564 682 530 682 C 495 682 464 675 438 663 C 411 650 389 633 371 611 C 353 589 339 563 329 535 C 319 506 314 476 314 444 Z M 242 -380 C 230 -374 224 -366 224 -356 L 224 -168 C 224 -154 226 -148 232 -148 C 234 -148 237 -148 239 -150 C 241 -151 243 -152 246 -154 C 268 -172 302 -190 347 -207 C 391 -223 443 -232 502 -232 C 582 -232 643 -213 686 -176 C 728 -138 750 -73 750 20 L 750 86 C 750 88 747 90 742 90 C 738 90 735 89 734 88 C 707 57 671 31 625 10 C 579 -11 527 -22 470 -22 C 407 -22 350 -9 300 16 C 249 41 205 75 169 118 C 132 160 104 210 84 266 C 64 322 54 381 54 444 C 54 506 64 565 84 621 C 104 676 132 725 169 767 C 205 809 249 842 300 867 C 350 891 407 904 470 904 C 527 904 579 893 625 872 C 671 850 707 824 734 794 C 735 792 738 792 742 792 C 747 792 750 793 750 796 L 750 862 C 750 870 751 875 753 878 C 755 880 760 882 770 882 L 986 882 C 995 882 1001 880 1003 878 C 1005 875 1006 870 1006 862 L 1006 32 C 1006 -124 965 -241 885 -321 C 804 -400 684 -440 526 -440 C 470 -440 415 -434 362 -422 C 308 -410 268 -396 242 -380 Z" unicode="g" />
<glyph horiz-adv-x="1038" d="M 938 20 C 938 12 937 6 935 4 C 933 1 927 0 918 0 L 700 0 C 690 0 685 1 683 4 C 681 6 680 12 680 20 L 680 514 C 680 567 668 608 646 636 C 623 664 586 678 536 678 C 476 678 430 657 399 616 C 367 574 352 520 352 452 L 352 20 C 352 12 351 6 349 4 C 347 1 341 0 332 0 L 114 0 C 104 0 99 1 97 4 C 95 6 94 12 94 20 L 94 1480 C 94 1488 95 1493 97 1496 C 99 1498 104 1500 114 1500 L 332 1500 C 341 1500 347 1498 349 1496 C 351 1493 352 1488 352 1480 L 352 786 C 352 783 354 782 360 782 C 364 782 366 782 368 784 C 410 822 454 852 498 873 C 542 893 591 904 646 904 C 699 904 744 895 782 878 C 819 860 849 837 872 807 C 894 777 911 741 922 700 C 932 658 938 614 938 568 L 938 20 Z" unicode="h" />
<glyph horiz-adv-x="446" d="M 94 862 C 94 870 95 875 97 878 C 99 880 104 882 114 882 L 332 882 C 341 882 347 880 349 878 C 351 875 352 870 352 862 L 352 20 C 352 12 351 6 349 4 C 347 1 341 0 332 0 L 114 0 C 104 0 99 1 97 4 C 95 6 94 12 94 20 L 94 862 Z M 70 1202 C 70 1246 84 1282 114 1312 C 143 1341 180 1356 224 1356 C 268 1356 304 1341 334 1312 C 363 1282 378 1246 378 1202 C 378 1158 363 1121 334 1092 C 304 1062 268 1048 224 1048 C 180 1048 143 1062 114 1092 C 84 1121 70 1158 70 1202 Z" unicode="i" />
<glyph horiz-adv-x="444" d="M 354 -122 C 354 -224 330 -303 284 -358 C 237 -412 162 -440 60 -440 C 45 -440 30 -439 16 -439 C 1 -438 -11 -437 -22 -436 C -35 -434 -48 -433 -60 -432 C -68 -429 -73 -427 -76 -425 C -78 -423 -80 -417 -80 -408 L -80 -236 C -80 -224 -77 -218 -72 -218 C -69 -218 -65 -218 -60 -220 C -42 -224 -25 -226 -8 -226 C 30 -226 57 -215 72 -193 C 86 -171 94 -136 94 -90 L 94 862 C 94 870 95 875 97 878 C 99 880 104 882 114 882 L 334 882 C 343 882 349 880 351 878 C 353 875 354 870 354 862 L 354 -122 Z M 70 1202 C 70 1246 84 1282 114 1312 C 143 1341 180 1356 224 1356 C 268 1356 304 1341 334 1312 C 363 1282 378 1246 378 1202 C 378 1158 363 1121 334 1092 C 304 1062 268 1048 224 1048 C 180 1048 143 1062 114 1092 C 84 1121 70 1158 70 1202 Z" unicode="j" />
<glyph horiz-adv-x="966" d="M 346 572 C 346 562 350 558 358 558 C 366 558 372 561 376 568 L 602 862 C 608 870 613 875 616 878 C 618 880 624 882 634 882 L 900 882 C 910 882 916 880 916 876 C 916 874 913 870 908 862 L 608 494 C 605 491 604 488 604 484 C 604 480 605 476 608 474 L 932 20 C 938 10 942 5 942 4 C 942 1 936 0 924 0 L 660 0 C 650 0 645 1 643 3 C 641 5 636 10 628 20 L 378 390 C 374 395 368 398 362 398 C 351 398 346 393 346 384 L 346 20 C 346 12 345 6 343 4 C 341 1 335 0 326 0 L 110 0 C 100 0 95 1 93 4 C 91 6 90 12 90 20 L 90 1480 C 90 1488 91 1493 93 1496 C 95 1498 100 1500 110 1500 L 326 1500 C 335 1500 341 1498 343 1496 C 345 1493 346 1488 346 1480 L 346 572 Z" unicode="k" />
<glyph horiz-adv-x="446" d="M 94 1480 C 94 1488 95 1493 97 1496 C 99 1498 104 1500 114 1500 L 332 1500 C 341 1500 347 1498 349 1496 C 351 1493 352 1488 352 1480 L 352 20 C 352 12 351 6 349 4 C 347 1 341 0 332 0 L 114 0 C 104 0 99 1 97 4 C 95 6 94 12 94 20 L 94 1480 Z" unicode="l" />
<glyph horiz-adv-x="1564" d="M 870 752 C 871 749 874 748 878 748 C 882 748 884 748 886 750 C 902 768 919 787 939 806 C 958 824 979 841 1002 856 C 1024 870 1050 882 1078 891 C 1106 899 1136 904 1170 904 C 1226 904 1273 895 1312 879 C 1350 862 1382 839 1406 809 C 1430 779 1447 743 1457 702 C 1467 660 1472 615 1472 566 L 1472 20 C 1472 12 1471 6 1469 4 C 1467 1 1461 0 1452 0 L 1236 0 C 1226 0 1221 1 1219 4 C 1217 6 1216 12 1216 20 L 1216 512 C 1216 565 1206 606 1186 634 C 1166 662 1131 676 1082 676 C 1030 676 988 658 957 624 C 925 589 910 541 910 480 L 910 20 C 910 12 909 6 907 4 C 905 1 899 0 890 0 L 674 0 C 664 0 659 1 657 4 C 655 6 654 12 654 20 L 654 512 C 654 565 644 606 624 634 C 604 662 569 676 520 676 C 468 676 426 658 396 624 C 365 589 350 541 350 480 L 350 20 C 350 12 349 6 347 4 C 345 1 339 0 330 0 L 114 0 C 104 0 99 1 97 4 C 95 6 94 12 94 20 L 94 862 C 94 870 95 875 97 878 C 99 880 104 882 114 882 L 330 882 C 339 882 345 880 347 878 C 349 875 350 870 350 862 L 350 782 C 350 779 352 778 358 778 C 362 778 364 778 366 780 C 399 816 435 845 473 869 C 511 892 558 904 614 904 C 688 904 745 889 783 861 C 821 832 850 796 870 752 Z" unicode="m" />
<glyph horiz-adv-x="1026" d="M 938 20 C 938 12 937 6 935 4 C 933 1 927 0 918 0 L 700 0 C 690 0 685 1 683 4 C 681 6 680 12 680 20 L 680 514 C 680 567 668 608 646 636 C 623 664 586 678 536 678 C 476 678 430 657 399 616 C 367 574 352 520 352 452 L 352 20 C 352 12 351 6 349 4 C 347 1 341 0 332 0 L 114 0 C 104 0 99 1 97 4 C 95 6 94 12 94 20 L 94 862 C 94 870 95 875 97 878 C 99 880 104 882 114 882 L 332 882 C 341 882 347 880 349 878 C 351 875 352 870 352 862 L 352 782 C 352 779 354 778 360 778 C 364 778 366 778 368 780 C 410 818 454 849 498 871 C 542 893 591 904 646 904 C 699 904 744 895 782 878 C 819 860 849 837 872 807 C 894 777 911 741 922 700 C 932 658 938 614 938 568 L 938 20 Z" unicode="n" />
<glyph horiz-adv-x="1068" d="M 56 444 C 56 510 68 572 93 628 C 117 684 151 732 195 774 C 238 815 289 847 347 870 C 405 892 467 904 534 904 C 600 904 663 892 721 870 C 779 847 829 815 873 774 C 916 732 950 684 975 628 C 999 572 1012 510 1012 444 C 1012 377 999 315 975 259 C 950 202 916 153 873 111 C 829 69 779 36 721 13 C 663 -10 600 -22 534 -22 C 467 -22 405 -10 347 13 C 289 36 238 69 195 111 C 151 153 117 202 93 259 C 68 315 56 377 56 444 Z M 316 444 C 316 410 321 379 331 350 C 341 320 355 295 374 273 C 392 251 415 233 442 221 C 468 208 499 202 534 202 C 568 202 599 208 626 221 C 652 233 675 251 694 273 C 712 295 727 320 737 350 C 747 379 752 410 752 444 C 752 476 747 506 737 535 C 727 563 712 588 694 610 C 675 631 652 648 626 661 C 599 673 568 680 534 680 C 499 680 468 673 442 661 C 415 648 392 631 374 610 C 355 588 341 563 331 535 C 321 506 316 476 316 444 Z" unicode="o" />
<glyph horiz-adv-x="1100" d="M 786 444 C 786 476 781 506 771 535 C 761 563 746 589 728 611 C 709 633 686 650 659 663 C 631 675 600 682 566 682 C 531 682 500 675 473 662 C 445 648 422 631 403 609 C 383 587 369 561 359 533 C 349 504 344 474 344 442 C 344 408 349 377 359 348 C 369 318 383 293 403 271 C 422 249 445 231 473 219 C 500 206 531 200 566 200 C 600 200 631 206 659 219 C 686 231 709 249 728 271 C 746 293 761 319 771 349 C 781 379 786 410 786 444 Z M 350 796 C 350 793 352 792 358 792 C 362 792 364 792 366 794 C 392 824 429 850 475 872 C 521 893 572 904 630 904 C 691 904 747 891 799 867 C 850 842 894 809 931 767 C 967 725 996 676 1016 621 C 1036 565 1046 506 1046 444 C 1046 381 1036 322 1016 266 C 996 210 967 160 931 118 C 894 75 850 41 799 16 C 747 -9 691 -22 630 -22 C 572 -22 521 -11 475 10 C 429 31 392 57 366 88 C 364 89 362 90 358 90 C 352 90 350 88 350 86 L 350 -420 C 350 -428 349 -433 347 -436 C 345 -438 339 -440 330 -440 L 114 -440 C 104 -440 99 -438 97 -436 C 95 -433 94 -428 94 -420 L 94 862 C 94 870 95 875 97 878 C 99 880 104 882 114 882 L 330 882 C 339 882 345 880 347 878 C 349 875 350 870 350 862 L 350 796 Z" unicode="p" />
<glyph horiz-adv-x="1100" d="M 310 442 C 310 408 315 377 325 348 C 335 318 349 293 368 271 C 386 249 409 231 437 219 C 464 206 495 200 530 200 C 564 200 595 206 623 219 C 650 231 673 249 693 271 C 712 293 727 318 737 348 C 747 377 752 408 752 442 C 752 474 747 504 737 533 C 727 561 712 587 693 609 C 673 631 650 648 623 661 C 595 673 564 680 530 680 C 495 680 464 673 437 661 C 409 648 386 631 368 609 C 349 587 335 561 325 533 C 315 504 310 474 310 442 Z M 746 862 C 746 870 747 875 749 878 C 751 880 756 882 766 882 L 982 882 C 991 882 997 880 999 878 C 1001 875 1002 870 1002 862 L 1002 -420 C 1002 -428 1001 -433 999 -436 C 997 -438 991 -440 982 -440 L 766 -440 C 756 -440 751 -438 749 -436 C 747 -433 746 -428 746 -420 L 746 86 C 746 88 743 90 738 90 C 734 90 731 89 730 88 C 703 57 667 31 621 10 C 575 -11 523 -22 466 -22 C 403 -22 346 -10 296 14 C 245 38 201 70 165 112 C 128 153 100 202 80 259 C 60 315 50 376 50 442 C 50 507 60 568 80 624 C 100 680 128 728 165 770 C 201 811 245 843 296 867 C 346 890 403 902 466 902 C 523 902 575 891 621 871 C 667 850 703 824 730 794 C 731 792 734 792 738 792 C 743 792 746 793 746 796 L 746 862 Z" unicode="q" />
<glyph horiz-adv-x="666" d="M 108 0 C 98 0 93 1 91 4 C 89 6 88 12 88 20 L 88 862 C 88 870 89 875 91 878 C 93 880 98 882 108 882 L 320 882 C 329 882 335 880 337 878 C 339 875 340 870 340 862 L 340 758 C 340 755 342 754 348 754 C 352 754 354 754 356 756 C 366 773 380 790 398 808 C 415 825 435 841 458 855 C 480 869 505 880 533 890 C 560 899 589 904 620 904 C 629 904 635 902 637 900 C 639 897 640 892 640 884 L 640 674 C 640 659 636 652 628 652 C 624 652 616 652 606 654 C 595 655 582 656 566 656 C 490 656 434 628 398 574 C 362 519 344 442 344 342 L 344 20 C 344 12 343 6 341 4 C 339 1 333 0 324 0 L 108 0 Z" unicode="r" />
<glyph horiz-adv-x="812" d="M 738 768 C 740 764 742 759 742 754 C 742 748 739 743 734 738 L 602 636 C 594 630 588 628 586 628 C 583 628 578 631 572 638 C 557 654 537 669 513 683 C 488 697 459 704 426 704 C 399 704 376 698 358 687 C 339 675 330 658 330 636 C 330 614 340 597 362 585 C 383 572 409 560 441 550 C 472 539 506 528 544 516 C 581 504 615 487 647 466 C 678 444 704 416 726 382 C 747 347 758 303 758 250 C 758 214 750 179 736 146 C 721 112 699 83 670 59 C 640 34 604 14 561 0 C 517 -14 467 -22 410 -22 C 322 -22 250 -5 194 27 C 138 59 91 98 54 142 C 51 146 50 150 50 156 C 50 161 52 166 58 172 L 198 280 C 203 284 208 286 212 286 C 218 286 224 282 228 276 C 250 248 276 225 304 208 C 332 190 363 182 398 182 C 428 182 453 188 472 200 C 490 212 500 230 500 254 C 500 275 489 292 469 304 C 448 316 422 327 391 338 C 359 348 325 360 289 372 C 252 384 218 400 187 422 C 155 443 129 471 109 506 C 88 540 78 585 78 640 C 78 676 85 710 101 742 C 116 774 138 802 167 826 C 195 850 230 869 272 883 C 313 897 360 904 412 904 C 478 904 541 891 599 865 C 657 839 703 806 738 768 Z" unicode="s" />
<glyph horiz-adv-x="602" d="M 58 666 C 48 666 43 667 41 670 C 39 672 38 678 38 686 L 38 862 C 38 870 39 875 41 878 C 43 880 48 882 58 882 L 140 882 C 149 882 155 883 157 885 C 159 887 160 892 160 902 L 160 1160 C 160 1173 166 1184 180 1192 L 392 1296 C 394 1297 397 1298 399 1300 C 401 1301 403 1302 406 1302 C 412 1302 416 1296 416 1286 L 416 902 C 416 892 417 887 419 885 C 421 883 426 882 436 882 L 558 882 C 567 882 573 880 575 878 C 577 875 578 870 578 862 L 578 686 C 578 678 577 672 575 670 C 573 667 567 666 558 666 L 436 666 C 426 666 421 665 419 663 C 417 661 416 655 416 646 L 416 20 C 416 12 415 6 413 4 C 411 1 405 0 396 0 L 180 0 C 170 0 165 1 163 4 C 161 6 160 12 160 20 L 160 646 C 160 655 159 661 157 663 C 155 665 149 666 140 666 L 58 666 Z" unicode="t" />
<glyph horiz-adv-x="984" d="M 492 -22 C 425 -22 367 -12 318 8 C 268 28 228 55 196 89 C 164 123 140 163 124 210 C 108 256 100 307 100 362 L 100 862 C 100 870 101 875 103 878 C 105 880 110 882 120 882 L 338 882 C 347 882 353 880 355 878 C 357 875 358 870 358 862 L 358 366 C 358 307 370 265 394 240 C 418 214 450 202 492 202 C 533 202 566 214 590 240 C 614 265 626 307 626 366 L 626 862 C 626 870 627 875 629 878 C 631 880 636 882 646 882 L 864 882 C 873 882 879 880 881 878 C 883 875 884 870 884 862 L 884 362 C 884 307 876 256 860 210 C 844 163 820 123 788 89 C 756 55 715 28 666 8 C 616 -12 558 -22 492 -22 Z" unicode="u" />
<glyph horiz-adv-x="878" d="M 426 446 C 427 442 431 440 438 440 C 443 440 447 442 450 446 L 628 862 C 632 870 635 875 638 878 C 640 880 646 882 654 882 L 878 882 C 890 882 896 879 896 874 C 896 874 894 870 892 862 L 456 -18 C 449 -31 440 -38 428 -38 C 418 -38 410 -31 404 -18 L -14 862 C -16 870 -18 874 -18 874 C -18 879 -12 882 0 882 L 222 882 C 230 882 235 880 238 878 C 240 875 244 870 248 862 L 426 446 Z" unicode="v" />
<glyph horiz-adv-x="1296" d="M 448 -18 C 444 -30 436 -36 424 -36 C 414 -36 407 -30 402 -18 L -6 862 C -8 870 -10 874 -10 874 C -10 879 -4 882 8 882 L 236 882 C 244 882 249 880 252 878 C 254 875 258 870 262 862 L 426 474 C 427 470 431 468 438 468 C 443 468 447 470 450 474 L 628 884 C 633 897 640 904 648 904 C 656 904 662 897 668 884 L 848 474 C 849 470 853 468 860 468 C 865 468 869 470 872 474 L 1034 862 C 1038 870 1041 875 1044 878 C 1046 880 1052 882 1060 882 L 1288 882 C 1300 882 1306 879 1306 874 C 1306 874 1304 870 1302 862 L 898 -18 C 895 -24 892 -29 890 -32 C 887 -34 882 -36 876 -36 C 865 -36 857 -30 852 -18 L 662 418 C 659 422 655 424 650 424 C 643 424 639 422 638 418 L 448 -18 Z" unicode="w" />
<glyph horiz-adv-x="948" d="M 282 444 C 284 446 286 449 286 452 C 286 454 284 457 282 460 L 22 862 C 19 867 18 871 18 874 C 18 879 22 882 32 882 L 276 882 C 284 882 289 880 293 878 C 296 875 301 870 308 862 C 333 819 358 777 384 736 C 409 694 434 653 460 612 C 462 609 465 608 468 608 C 470 608 473 609 476 612 C 501 653 526 694 552 736 C 577 777 602 819 628 862 C 634 870 639 875 643 878 C 646 880 652 882 660 882 L 902 882 C 914 882 920 880 920 878 C 920 874 917 868 912 862 L 654 460 C 651 457 650 454 650 452 C 650 449 651 446 654 444 L 934 20 C 939 13 942 8 942 6 C 942 2 936 0 924 0 L 680 0 C 672 0 666 1 663 4 C 659 6 654 12 648 20 L 478 284 C 475 286 472 288 470 288 C 467 288 464 286 462 284 C 434 240 406 196 379 152 C 351 108 324 64 298 20 C 291 12 286 6 283 4 C 279 1 274 0 266 0 L 24 0 C 12 0 6 2 6 6 C 6 10 8 14 12 20 L 282 444 Z" unicode="x" />
<glyph horiz-adv-x="958" d="M 470 348 C 471 344 474 342 478 342 C 480 342 483 344 486 348 L 694 862 C 698 870 701 875 704 878 C 706 880 712 882 720 882 L 950 882 C 962 882 968 879 968 874 C 968 874 966 870 964 862 C 873 647 783 433 694 220 C 604 6 514 -207 424 -422 C 420 -430 416 -435 414 -438 C 411 -440 406 -442 398 -442 L 170 -442 C 158 -442 152 -439 152 -434 C 152 -434 153 -430 156 -422 L 338 20 C 340 26 342 32 342 38 C 342 43 340 49 338 56 L 4 862 C 1 870 0 874 0 874 C 0 879 6 882 18 882 L 242 882 C 250 882 255 880 258 878 C 260 875 264 870 268 862 L 470 348 Z" unicode="y" />
<glyph horiz-adv-x="756" d="M 400 246 C 396 238 394 232 394 228 C 394 220 398 216 406 216 L 684 216 C 693 216 699 215 701 213 C 703 211 704 205 704 196 L 704 20 C 704 10 703 5 701 3 C 699 1 693 0 684 0 L 36 0 C 26 0 22 3 22 10 C 22 12 23 16 26 22 L 356 636 C 360 644 362 650 362 656 C 362 662 358 666 350 666 L 82 666 C 72 666 67 667 65 669 C 63 671 62 676 62 686 L 62 862 C 62 871 63 877 65 879 C 67 881 72 882 82 882 L 720 882 C 729 882 734 879 734 874 C 734 871 732 867 730 862 L 400 246 Z" unicode="z" />
<glyph horiz-adv-x="584" d="M 246 596 C 259 593 275 587 293 578 C 311 568 327 554 343 534 C 358 514 371 487 382 454 C 392 420 398 378 398 328 L 398 20 C 398 -65 427 -108 486 -108 L 526 -108 C 535 -108 541 -109 543 -111 C 545 -113 546 -118 546 -128 L 546 -260 C 546 -269 545 -275 543 -277 C 541 -279 535 -280 526 -280 L 434 -280 C 399 -280 367 -275 337 -266 C 307 -256 281 -242 259 -222 C 237 -202 219 -176 206 -144 C 192 -112 186 -73 186 -28 L 186 262 C 186 350 175 414 154 454 C 132 494 98 514 52 514 C 42 514 37 515 35 517 C 33 519 32 524 32 534 L 32 680 C 32 689 33 695 35 697 C 37 699 42 700 52 700 C 98 700 132 719 154 759 C 175 798 186 862 186 950 L 186 1210 C 186 1255 192 1294 206 1326 C 219 1358 237 1384 259 1404 C 281 1424 307 1438 337 1448 C 367 1457 399 1462 434 1462 L 526 1462 C 535 1462 541 1461 543 1459 C 545 1457 546 1451 546 1442 L 546 1310 C 546 1300 545 1295 543 1293 C 541 1291 535 1290 526 1290 L 486 1290 C 427 1290 398 1247 398 1162 L 398 884 C 398 833 392 791 382 758 C 371 724 358 698 343 678 C 327 658 311 643 293 634 C 275 624 259 618 246 616 L 246 596 Z" unicode="{" />
<glyph horiz-adv-x="412" d="M 114 1480 C 114 1488 115 1493 117 1496 C 119 1498 124 1500 134 1500 L 266 1500 C 275 1500 281 1498 283 1496 C 285 1493 286 1488 286 1480 L 286 -480 C 286 -488 285 -493 283 -496 C 281 -498 275 -500 266 -500 L 134 -500 C 124 -500 119 -498 117 -496 C 115 -493 114 -488 114 -480 L 114 1480 Z" unicode="|" />
<glyph horiz-adv-x="584" d="M 338 616 C 323 618 307 624 290 634 C 272 643 256 658 241 678 C 225 698 212 724 202 758 C 191 791 186 833 186 884 L 186 1128 C 186 1184 180 1225 168 1251 C 156 1277 132 1290 98 1290 L 58 1290 C 48 1290 43 1291 41 1293 C 39 1295 38 1300 38 1310 L 38 1442 C 38 1451 39 1457 41 1459 C 43 1461 48 1462 58 1462 L 130 1462 C 166 1462 200 1458 233 1450 C 265 1442 294 1428 318 1409 C 342 1389 361 1364 376 1332 C 390 1300 398 1259 398 1210 L 398 950 C 398 862 408 798 430 759 C 451 719 485 700 532 700 C 541 700 547 699 549 697 C 551 695 552 689 552 680 L 552 534 C 552 524 551 519 549 517 C 547 515 541 514 532 514 C 485 514 451 494 430 454 C 408 414 398 350 398 262 L 398 -28 C 398 -77 390 -118 376 -150 C 361 -182 342 -207 318 -227 C 294 -246 265 -260 233 -268 C 200 -276 166 -280 130 -280 L 58 -280 C 48 -280 43 -279 41 -277 C 39 -275 38 -269 38 -260 L 38 -128 C 38 -118 39 -113 41 -111 C 43 -109 48 -108 58 -108 L 98 -108 C 132 -108 156 -95 168 -70 C 180 -44 186 -4 186 52 L 186 328 C 186 378 191 420 202 454 C 212 487 225 514 241 534 C 256 554 272 568 290 578 C 307 587 323 593 338 596 L 338 616 Z" unicode="}" />
<glyph horiz-adv-x="1040" d="M 980 614 C 980 581 973 550 959 521 C 945 492 927 467 903 445 C 879 423 852 405 820 393 C 788 380 754 374 718 374 C 682 374 650 378 623 386 C 596 394 572 405 550 418 C 528 430 509 444 492 459 C 474 473 458 487 442 500 C 426 512 411 523 396 531 C 380 539 364 544 346 544 C 334 544 323 542 311 538 C 299 534 289 528 280 520 C 271 512 264 502 258 491 C 252 480 250 468 250 454 L 250 432 C 250 422 248 415 246 411 C 244 407 237 406 226 406 L 84 406 C 72 406 65 407 63 411 C 61 415 60 422 60 432 L 60 490 C 60 522 67 553 82 583 C 96 613 116 639 141 661 C 166 683 195 701 228 714 C 260 727 295 734 332 734 C 366 734 397 729 424 721 C 450 713 474 702 495 690 C 516 677 535 663 552 649 C 568 634 584 620 600 608 C 615 595 630 584 645 576 C 660 568 676 564 694 564 C 705 564 716 565 728 569 C 740 573 750 578 759 586 C 768 593 775 602 781 613 C 787 624 790 637 790 652 L 790 676 C 790 686 791 692 793 696 C 795 700 802 702 814 702 L 956 702 C 967 702 974 700 976 696 C 978 692 980 686 980 676 L 980 614 Z" unicode="~" />
<glyph horiz-adv-x="554" d="M 278 1424 C 318 1424 352 1409 382 1380 C 411 1350 426 1315 426 1274 C 426 1234 412 1199 384 1169 C 356 1139 320 1124 278 1124 C 236 1124 201 1139 173 1169 C 144 1199 130 1234 130 1274 C 130 1295 134 1315 142 1333 C 150 1351 161 1366 175 1380 C 189 1393 204 1404 222 1412 C 239 1420 258 1424 278 1424 Z M 374 966 C 384 807 395 649 405 493 C 415 336 425 178 436 20 C 436 10 435 5 434 3 C 432 1 427 0 418 0 L 136 0 C 126 0 121 1 120 3 C 118 5 118 10 118 20 C 128 178 139 336 149 493 C 159 649 169 807 180 966 C 180 975 181 981 184 983 C 186 985 192 986 202 986 L 352 986 C 361 986 367 985 370 983 C 372 981 374 975 374 966 Z" unicode="¡" />
<glyph horiz-adv-x="820" d="M 394 10 C 343 22 296 41 254 68 C 211 94 174 127 144 165 C 113 203 89 245 73 293 C 56 340 48 390 48 444 C 48 497 56 547 73 594 C 89 640 113 682 144 720 C 174 757 211 789 254 815 C 296 841 343 860 394 872 L 394 1026 C 394 1034 395 1039 397 1042 C 399 1044 404 1046 414 1046 L 570 1046 C 579 1046 585 1044 587 1042 C 589 1039 590 1034 590 1026 L 590 882 C 618 879 645 875 672 869 C 698 863 722 856 742 848 C 748 845 753 842 755 840 C 757 837 758 833 758 828 L 758 624 C 758 613 754 608 748 608 C 745 608 742 609 738 612 C 690 648 621 666 532 666 C 457 666 399 645 358 605 C 316 564 296 510 296 444 C 296 377 316 322 356 280 C 396 237 454 216 532 216 C 622 216 694 236 746 276 C 747 277 750 278 754 278 C 760 278 764 274 764 266 L 764 58 C 764 52 763 48 761 46 C 759 43 754 40 748 38 C 726 27 702 19 674 13 C 646 7 618 2 590 0 L 590 -140 C 590 -148 589 -153 587 -156 C 585 -158 579 -160 570 -160 L 414 -160 C 404 -160 399 -158 397 -156 C 395 -153 394 -148 394 -140 L 394 10 Z" unicode="¢" />
<glyph horiz-adv-x="1146" d="M 196 222 C 205 222 211 223 213 225 C 215 227 216 232 216 242 L 216 590 C 216 598 212 602 204 602 L 76 602 C 65 602 60 607 60 618 L 60 762 C 60 772 65 778 76 778 L 204 778 C 212 778 216 782 216 790 L 216 928 C 216 1016 225 1089 244 1147 C 262 1205 292 1256 332 1300 C 368 1338 412 1368 466 1390 C 519 1411 580 1422 650 1422 C 724 1422 788 1411 842 1389 C 895 1367 939 1338 973 1302 C 1007 1266 1031 1224 1047 1177 C 1062 1129 1070 1081 1070 1032 C 1070 1022 1069 1017 1067 1015 C 1065 1013 1059 1012 1050 1012 L 836 1012 C 826 1012 821 1013 819 1015 C 817 1017 816 1022 816 1032 C 816 1052 813 1071 808 1091 C 802 1110 794 1128 782 1144 C 770 1160 753 1173 733 1183 C 712 1193 686 1198 654 1198 C 535 1198 476 1113 476 944 L 476 790 C 476 782 480 778 488 778 L 772 778 C 785 778 792 771 792 758 L 792 622 C 792 608 785 602 772 602 L 488 602 C 480 602 476 598 476 590 L 476 242 C 476 232 477 227 479 225 C 481 223 486 222 496 222 L 956 222 C 969 222 976 215 976 202 L 976 20 C 976 6 969 0 956 0 L 48 0 C 34 0 28 6 28 20 L 28 202 C 28 215 34 222 48 222 L 196 222 Z" unicode="£" />
<glyph horiz-adv-x="1148" d="M 794 744 C 794 808 774 861 734 904 C 694 946 640 968 574 968 C 542 968 512 962 486 951 C 459 939 436 924 417 904 C 397 884 382 860 372 833 C 361 805 356 776 356 744 C 356 712 361 682 372 655 C 382 627 397 604 417 584 C 436 564 459 548 486 537 C 512 525 542 520 574 520 C 640 520 694 541 734 584 C 774 626 794 680 794 744 Z M 1000 744 C 1000 697 993 655 979 619 C 965 582 949 551 932 526 C 929 520 928 517 928 516 C 928 513 928 511 930 510 L 1078 364 C 1080 361 1082 358 1082 356 C 1082 353 1080 350 1078 348 L 972 242 C 969 239 966 238 964 238 C 961 238 958 239 956 242 L 810 390 C 807 392 804 394 802 394 C 799 394 796 392 794 390 C 768 372 737 357 701 343 C 664 329 622 322 574 322 C 526 322 483 328 447 342 C 410 355 378 370 352 388 C 349 390 346 392 344 392 C 341 392 338 390 336 388 L 190 240 C 187 237 184 236 182 236 C 179 236 176 237 174 240 L 68 346 C 65 348 64 351 64 354 C 64 356 65 359 68 362 L 216 508 C 217 509 218 511 218 514 C 218 515 216 518 214 524 C 198 546 183 577 171 615 C 158 653 152 696 152 744 C 152 792 158 835 171 873 C 183 911 198 941 214 964 C 216 969 218 972 218 974 C 218 976 217 978 216 980 L 68 1126 C 65 1128 64 1131 64 1134 C 64 1136 65 1139 68 1142 L 174 1248 C 176 1250 179 1252 182 1252 C 184 1252 187 1250 190 1248 L 336 1100 C 338 1097 341 1096 344 1096 C 346 1096 349 1097 352 1100 C 378 1117 410 1132 447 1146 C 483 1159 526 1166 574 1166 C 622 1166 664 1159 701 1145 C 737 1131 768 1115 794 1098 C 796 1095 799 1094 802 1094 C 804 1094 807 1095 810 1098 L 956 1246 C 958 1248 961 1250 964 1250 C 966 1250 969 1248 972 1246 L 1078 1140 C 1080 1137 1082 1134 1082 1132 C 1082 1129 1080 1126 1078 1124 L 930 978 C 928 976 928 974 928 972 C 928 970 929 967 932 962 C 949 936 965 905 979 869 C 993 832 1000 790 1000 744 Z" unicode="¤" />
<glyph horiz-adv-x="1192" d="M 884 908 C 881 902 880 899 880 898 C 880 891 884 888 894 888 L 1068 888 C 1081 888 1088 881 1088 868 L 1088 760 C 1088 746 1081 740 1068 740 L 814 740 C 804 740 798 739 796 737 C 793 735 790 730 786 722 L 736 632 C 733 622 733 617 736 615 C 738 613 744 612 754 612 L 1068 612 C 1081 612 1088 605 1088 592 L 1088 484 C 1088 470 1081 464 1068 464 L 738 464 C 728 464 723 463 721 461 C 719 459 718 453 718 444 L 718 20 C 718 10 717 5 715 3 C 713 1 707 0 698 0 L 496 0 C 486 0 481 1 479 3 C 477 5 476 10 476 20 L 476 444 C 476 453 475 459 473 461 C 471 463 465 464 456 464 L 122 464 C 111 464 106 469 106 480 L 106 596 C 106 606 111 612 122 612 L 438 612 C 447 612 454 613 458 615 C 462 617 461 622 456 632 L 408 722 C 404 730 400 735 398 737 C 395 739 389 740 380 740 L 122 740 C 111 740 106 745 106 756 L 106 872 C 106 882 111 888 122 888 L 300 888 C 309 888 314 891 314 898 C 314 899 312 902 310 908 L 12 1380 C 9 1385 8 1389 8 1392 C 8 1397 12 1400 20 1400 L 282 1400 C 292 1400 302 1393 310 1380 C 355 1298 401 1218 448 1139 C 494 1059 541 979 588 898 C 589 894 592 892 598 892 C 602 892 605 894 608 898 C 654 979 701 1060 747 1140 C 793 1220 839 1300 886 1380 C 891 1389 895 1395 899 1397 C 902 1399 907 1400 914 1400 L 1174 1400 C 1182 1400 1186 1397 1186 1392 C 1186 1389 1184 1385 1182 1380 L 884 908 Z" unicode="¥" />
<glyph horiz-adv-x="408" d="M 112 1480 C 112 1488 113 1493 115 1496 C 117 1498 122 1500 132 1500 L 266 1500 C 275 1500 281 1498 283 1496 C 285 1493 286 1488 286 1480 L 286 688 C 286 680 285 674 283 672 C 281 669 275 668 266 668 L 132 668 C 122 668 117 669 115 672 C 113 674 112 680 112 688 L 112 1480 Z M 112 312 C 112 320 113 325 115 328 C 117 330 122 332 132 332 L 266 332 C 275 332 281 330 283 328 C 285 325 286 320 286 312 L 286 -480 C 286 -488 285 -493 283 -496 C 281 -498 275 -500 266 -500 L 132 -500 C 122 -500 117 -498 115 -496 C 113 -493 112 -488 112 -480 L 112 312 Z" unicode="¦" />
<glyph horiz-adv-x="1110" d="M 84 -192 C 80 -184 78 -178 78 -176 C 78 -171 81 -166 88 -162 L 252 -50 C 258 -46 264 -44 270 -44 C 275 -44 281 -47 288 -54 C 320 -108 356 -149 397 -177 C 437 -205 486 -220 544 -220 C 594 -220 633 -207 663 -183 C 693 -159 708 -125 708 -82 C 708 -61 703 -42 694 -24 C 684 -6 670 11 650 29 C 630 47 605 65 574 83 C 543 101 506 120 464 140 C 406 166 355 192 311 218 C 266 243 228 270 198 300 C 168 330 145 363 129 399 C 113 435 106 476 106 524 C 106 550 110 576 118 601 C 126 626 138 650 152 672 C 166 694 183 715 203 735 C 223 755 244 772 268 788 C 273 791 276 794 276 798 C 276 800 273 804 268 810 C 248 826 230 843 215 859 C 199 875 187 892 177 911 C 167 930 159 951 154 974 C 148 997 146 1024 146 1054 C 146 1104 155 1152 175 1196 C 194 1240 221 1279 256 1312 C 291 1345 333 1371 383 1391 C 432 1410 487 1420 548 1420 C 592 1420 635 1415 677 1406 C 719 1397 759 1383 796 1365 C 833 1347 866 1324 896 1296 C 926 1268 950 1236 970 1200 C 974 1192 976 1186 976 1184 C 976 1179 972 1174 966 1170 L 812 1064 C 806 1060 800 1058 794 1058 C 788 1058 782 1061 776 1068 C 762 1085 748 1101 732 1117 C 716 1132 699 1145 681 1157 C 663 1168 644 1177 624 1184 C 604 1190 582 1194 560 1194 C 538 1194 518 1191 500 1186 C 481 1180 465 1172 451 1161 C 437 1150 427 1137 419 1121 C 411 1105 408 1086 408 1066 C 408 1045 412 1026 420 1010 C 428 993 441 977 459 962 C 476 946 498 931 525 916 C 552 900 584 884 622 868 C 677 842 729 817 777 793 C 825 769 867 742 903 713 C 939 684 968 651 990 614 C 1012 576 1024 532 1028 482 C 1028 415 1016 356 992 304 C 968 252 931 209 880 174 C 874 170 872 167 872 164 C 872 161 874 157 880 152 C 912 120 936 85 953 47 C 969 9 978 -36 978 -88 C 978 -141 968 -190 949 -235 C 930 -279 902 -318 865 -350 C 828 -382 782 -407 728 -425 C 673 -443 610 -452 538 -452 C 483 -452 432 -445 385 -433 C 338 -420 295 -402 257 -379 C 219 -356 185 -329 156 -297 C 126 -265 102 -230 84 -192 Z M 678 290 C 683 287 687 286 690 286 C 692 286 695 286 698 288 C 755 312 784 356 784 420 C 784 442 779 463 770 481 C 761 499 747 518 727 536 C 707 554 682 572 652 590 C 621 608 584 629 542 652 C 532 657 523 662 513 667 C 503 671 496 676 490 680 C 484 682 480 684 478 684 C 476 684 475 684 473 684 C 471 684 470 683 468 682 C 453 677 439 671 426 664 C 413 657 402 648 392 638 C 382 628 374 616 368 602 C 362 588 360 572 360 554 C 360 530 365 509 375 490 C 385 471 401 453 421 436 C 441 419 465 402 494 385 C 522 368 555 350 592 332 C 609 322 624 315 637 309 C 650 303 664 297 678 290 Z" unicode="§" />
<glyph horiz-adv-x="1000" d="M 498 1044 C 460 1044 428 1057 401 1083 C 373 1109 360 1142 360 1184 C 360 1224 373 1257 400 1285 C 426 1312 459 1326 498 1326 C 538 1326 571 1312 597 1284 C 623 1256 636 1223 636 1186 C 636 1147 622 1114 596 1086 C 569 1058 536 1044 498 1044 Z M 94 1044 C 56 1044 24 1057 -3 1083 C -30 1109 -44 1142 -44 1184 C -44 1224 -31 1257 -5 1285 C 21 1312 54 1326 94 1326 C 134 1326 167 1312 193 1284 C 219 1256 232 1223 232 1186 C 232 1147 218 1114 192 1086 C 165 1058 132 1044 94 1044 Z" unicode="¨" />
<glyph horiz-adv-x="1084" d="M 56 962 C 56 1028 69 1091 95 1150 C 121 1209 156 1261 200 1305 C 244 1349 296 1385 355 1411 C 414 1437 477 1450 544 1450 C 610 1450 673 1437 732 1411 C 791 1385 842 1349 886 1305 C 930 1261 964 1209 990 1150 C 1015 1091 1028 1028 1028 962 C 1028 895 1015 832 990 773 C 964 713 930 661 886 617 C 842 572 791 537 732 511 C 673 485 610 472 544 472 C 477 472 414 485 355 511 C 296 537 244 572 200 617 C 156 661 121 713 95 773 C 69 832 56 895 56 962 Z M 198 962 C 198 910 206 862 223 818 C 240 773 264 734 294 701 C 324 668 361 642 403 624 C 445 605 492 596 544 596 C 595 596 642 605 684 624 C 726 642 762 668 792 701 C 822 734 845 773 861 818 C 877 862 886 910 886 962 C 886 1012 877 1060 861 1104 C 845 1148 822 1186 792 1219 C 762 1252 726 1278 684 1297 C 642 1316 595 1326 544 1326 C 492 1326 445 1316 403 1297 C 361 1278 324 1252 294 1219 C 264 1186 240 1148 223 1104 C 206 1060 198 1012 198 962 Z M 578 818 C 592 818 605 819 616 821 C 627 823 637 826 646 830 C 655 834 664 838 673 844 C 681 850 690 856 700 864 C 704 868 707 870 710 870 C 712 870 714 866 714 858 L 714 744 C 714 736 713 730 712 728 C 710 726 707 723 702 720 C 684 710 664 701 642 693 C 619 685 593 682 564 682 C 520 682 481 689 447 705 C 412 720 383 740 359 766 C 335 792 316 821 303 855 C 290 889 284 924 284 962 C 284 1000 290 1036 302 1070 C 314 1104 332 1133 356 1159 C 380 1184 409 1204 444 1219 C 478 1234 518 1242 564 1242 C 590 1242 615 1238 639 1231 C 663 1223 684 1215 702 1206 C 708 1202 711 1199 712 1197 C 713 1195 714 1190 714 1182 L 714 1068 C 714 1060 713 1056 712 1056 C 710 1056 708 1056 706 1057 C 704 1058 702 1060 700 1062 C 684 1074 667 1084 649 1093 C 631 1101 608 1106 578 1106 C 556 1106 537 1102 520 1094 C 503 1086 489 1076 477 1063 C 465 1050 457 1035 451 1018 C 445 1000 442 982 442 962 C 442 920 453 885 477 858 C 501 831 534 818 578 818 Z" unicode="©" />
<glyph horiz-adv-x="746" d="M 516 1130 C 516 1149 512 1167 506 1185 C 499 1203 489 1218 477 1232 C 465 1245 450 1256 432 1264 C 414 1272 395 1276 374 1276 C 353 1276 334 1272 317 1264 C 299 1256 284 1246 272 1233 C 259 1220 249 1205 242 1187 C 235 1169 232 1150 232 1130 C 232 1108 235 1088 242 1070 C 249 1052 259 1036 272 1023 C 284 1009 299 999 317 991 C 334 983 353 980 374 980 C 395 980 414 984 432 992 C 450 1000 465 1010 477 1024 C 489 1038 499 1054 506 1072 C 512 1090 516 1109 516 1130 Z M 690 870 C 690 862 689 856 687 854 C 685 851 679 850 670 850 L 536 850 C 526 850 521 851 519 854 C 517 856 516 862 516 870 L 516 910 C 516 911 515 912 513 913 C 511 913 509 914 508 914 L 505 914 C 503 914 501 913 500 912 C 476 890 451 872 423 858 C 395 844 363 838 326 838 C 286 838 249 845 216 860 C 183 874 155 894 131 920 C 107 946 88 976 75 1011 C 62 1045 56 1083 56 1124 C 56 1162 62 1199 75 1235 C 88 1270 107 1301 131 1328 C 155 1355 183 1376 216 1392 C 249 1408 286 1416 326 1416 C 363 1416 395 1409 423 1395 C 451 1381 476 1364 500 1342 C 501 1340 503 1340 505 1340 L 508 1340 C 509 1340 511 1340 513 1341 C 515 1341 516 1342 516 1344 L 516 1384 C 516 1392 517 1397 519 1400 C 521 1402 526 1404 536 1404 L 670 1404 C 679 1404 685 1402 687 1400 C 689 1397 690 1392 690 1384 L 690 870 Z" unicode="ª" />
<glyph horiz-adv-x="1010" d="M 100 432 C 97 437 96 441 96 444 C 96 446 97 450 100 456 L 338 872 C 342 880 346 884 352 884 C 355 884 360 882 366 878 L 502 800 C 510 796 514 791 514 786 C 514 783 512 779 510 774 L 324 460 C 320 454 318 450 318 447 C 318 444 318 441 318 438 C 318 432 320 426 324 418 L 510 106 C 512 102 513 100 514 99 C 515 97 516 96 516 94 C 516 90 511 85 502 80 L 366 2 C 360 -2 355 -4 352 -4 C 346 -4 342 0 338 8 L 100 432 Z M 510 432 C 507 437 506 441 506 444 C 506 446 507 450 510 456 L 748 872 C 752 880 756 884 762 884 C 765 884 770 882 776 878 L 912 800 C 920 796 924 791 924 786 C 924 783 922 779 920 774 L 734 460 C 730 454 728 450 728 447 C 728 444 728 441 728 438 C 728 432 730 426 734 418 L 920 106 C 922 102 923 100 924 99 C 925 97 926 96 926 94 C 926 90 921 85 912 80 L 776 2 C 770 -2 765 -4 762 -4 C 756 -4 752 0 748 8 L 510 432 Z" unicode="«" />
<glyph horiz-adv-x="1040" d="M 90 586 C 80 586 75 587 73 590 C 71 592 70 598 70 606 L 70 740 C 70 748 71 753 73 756 C 75 758 80 760 90 760 L 950 760 C 959 760 965 758 967 756 C 969 753 970 748 970 740 L 970 208 C 970 200 969 194 967 192 C 965 189 959 188 950 188 L 804 188 C 794 188 789 189 787 192 C 785 194 784 200 784 208 L 784 566 C 784 575 783 581 781 583 C 779 585 773 586 764 586 L 90 586 Z" unicode="¬" />
<glyph horiz-adv-x="600" d="M 92 618 C 92 627 93 633 96 635 C 98 637 104 638 112 638 L 488 638 C 497 638 503 637 505 635 C 507 633 508 627 508 618 L 508 462 C 508 452 507 447 505 445 C 503 443 497 442 488 442 L 112 442 C 102 442 97 443 95 445 C 93 447 92 452 92 462 L 92 618 Z" unicode="­" />
<glyph horiz-adv-x="1084" d="M 56 962 C 56 1028 69 1091 95 1150 C 121 1209 156 1261 200 1305 C 244 1349 296 1385 355 1411 C 414 1437 477 1450 544 1450 C 610 1450 673 1437 732 1411 C 790 1385 842 1349 886 1305 C 930 1261 964 1209 990 1150 C 1015 1091 1028 1028 1028 962 C 1028 895 1015 832 990 773 C 964 713 930 661 886 617 C 842 572 790 537 732 511 C 673 485 610 472 544 472 C 477 472 414 485 355 511 C 296 537 244 572 200 617 C 156 661 121 713 95 773 C 69 832 56 895 56 962 Z M 200 962 C 200 910 208 862 225 818 C 241 773 265 734 295 701 C 325 668 362 642 404 624 C 446 605 492 596 544 596 C 595 596 642 605 684 624 C 726 642 762 668 792 701 C 822 734 845 773 861 818 C 877 862 886 910 886 962 C 886 1012 877 1060 861 1104 C 845 1148 822 1186 792 1219 C 762 1252 726 1278 684 1297 C 642 1316 595 1326 544 1326 C 492 1326 446 1316 404 1297 C 362 1278 325 1252 295 1219 C 265 1186 241 1148 225 1104 C 208 1060 200 1012 200 962 Z M 508 982 C 524 982 539 982 552 983 C 564 983 575 986 584 990 C 593 994 600 1000 605 1008 C 609 1016 612 1027 612 1042 C 612 1065 606 1082 594 1092 C 582 1102 566 1108 544 1108 L 508 1108 C 498 1108 493 1107 491 1105 C 489 1103 488 1097 488 1088 L 488 1000 C 488 992 489 987 491 985 C 493 983 498 982 508 982 Z M 372 710 C 362 710 357 711 355 713 C 353 715 352 720 352 730 L 352 1208 C 352 1217 353 1223 355 1225 C 357 1227 362 1228 372 1228 L 556 1228 C 624 1228 673 1213 704 1183 C 734 1153 750 1112 750 1060 C 750 1022 742 991 726 966 C 710 940 690 920 666 904 C 663 901 662 899 662 898 C 662 896 662 894 663 893 C 664 891 666 889 668 886 L 758 730 C 762 722 764 717 764 716 C 764 712 758 710 748 710 L 634 710 C 630 710 626 711 623 714 C 619 716 616 720 612 726 L 546 848 C 542 854 539 858 536 862 C 532 866 526 868 516 868 L 508 868 C 498 868 493 867 491 865 C 489 863 488 857 488 848 L 488 730 C 488 720 487 715 485 713 C 483 711 477 710 468 710 L 372 710 Z" unicode="®" />
<glyph horiz-adv-x="1000" d="M 100 1212 C 100 1221 101 1227 104 1229 C 106 1231 112 1232 120 1232 L 740 1232 C 749 1232 755 1231 757 1229 C 759 1227 760 1221 760 1212 L 760 1100 C 760 1090 759 1085 757 1083 C 755 1081 749 1080 740 1080 L 120 1080 C 110 1080 105 1081 103 1083 C 101 1085 100 1090 100 1100 L 100 1212 Z" unicode="¯" />
<glyph horiz-adv-x="702" d="M 484 1136 C 484 1154 480 1172 474 1189 C 468 1206 459 1221 448 1233 C 436 1245 422 1255 406 1263 C 390 1270 372 1274 352 1274 C 331 1274 312 1270 296 1263 C 280 1255 266 1245 254 1233 C 242 1221 233 1206 227 1189 C 221 1172 218 1154 218 1136 C 218 1116 221 1098 227 1082 C 233 1065 242 1050 254 1038 C 266 1026 280 1016 296 1009 C 312 1001 331 998 352 998 C 372 998 390 1001 406 1009 C 422 1016 436 1026 448 1038 C 459 1050 468 1065 474 1082 C 480 1098 484 1116 484 1136 Z M 56 1136 C 56 1176 62 1214 76 1248 C 89 1282 108 1311 134 1336 C 159 1361 190 1381 227 1395 C 263 1409 305 1416 352 1416 C 398 1416 439 1409 475 1395 C 511 1381 542 1361 568 1336 C 593 1311 612 1282 626 1248 C 639 1214 646 1176 646 1136 C 646 1095 639 1058 626 1024 C 612 990 593 960 568 935 C 542 910 511 891 475 877 C 439 863 398 856 352 856 C 305 856 263 863 227 877 C 190 891 159 910 134 935 C 108 960 89 990 76 1024 C 62 1058 56 1095 56 1136 Z" unicode="°" />
<glyph horiz-adv-x="1040" d="M 614 748 C 614 738 615 733 617 731 C 619 729 624 728 634 728 L 950 728 C 959 728 965 726 967 724 C 969 721 970 716 970 708 L 970 574 C 970 566 969 560 967 558 C 965 555 959 554 950 554 L 634 554 C 624 554 619 553 617 551 C 615 549 614 543 614 534 L 614 284 C 614 276 613 270 611 268 C 609 265 603 264 594 264 L 448 264 C 438 264 433 265 431 268 C 429 270 428 276 428 284 L 428 534 C 428 543 427 549 425 551 C 423 553 417 554 408 554 L 90 554 C 80 554 75 555 73 558 C 71 560 70 566 70 574 L 70 708 C 70 716 71 721 73 724 C 75 726 80 728 90 728 L 408 728 C 417 728 423 729 425 731 C 427 733 428 738 428 748 L 428 998 C 428 1006 429 1011 431 1014 C 433 1016 438 1018 448 1018 L 594 1018 C 603 1018 609 1016 611 1014 C 613 1011 614 1006 614 998 L 614 748 Z M 950 176 C 959 176 965 174 967 172 C 969 169 970 164 970 156 L 970 22 C 970 14 969 8 967 6 C 965 3 959 2 950 2 L 90 2 C 80 2 75 3 73 6 C 71 8 70 14 70 22 L 70 156 C 70 164 71 169 73 172 C 75 174 80 176 90 176 L 950 176 Z" unicode="±" />
<glyph horiz-adv-x="732" d="M 80 1378 C 78 1417 82 1454 94 1489 C 106 1523 124 1553 148 1579 C 172 1605 201 1625 237 1640 C 272 1654 312 1662 358 1662 C 405 1662 447 1655 483 1643 C 519 1630 550 1612 574 1589 C 598 1566 617 1538 629 1506 C 641 1474 648 1438 648 1400 C 648 1374 644 1349 637 1325 C 630 1301 619 1276 604 1250 C 589 1224 570 1198 547 1170 C 524 1142 496 1112 464 1080 L 440 1056 C 438 1052 436 1050 434 1049 C 432 1048 432 1047 432 1046 C 432 1042 436 1040 444 1040 L 634 1040 C 643 1040 649 1039 651 1037 C 653 1035 654 1029 654 1020 L 654 902 C 654 892 653 887 651 885 C 649 883 643 882 634 882 L 100 882 C 96 882 93 883 91 885 C 89 887 88 890 88 894 C 88 898 88 901 90 903 C 92 905 94 908 96 912 C 115 932 137 956 163 982 C 188 1008 214 1035 241 1063 C 268 1091 295 1120 321 1150 C 347 1180 371 1209 391 1237 C 411 1265 428 1291 441 1317 C 453 1343 460 1366 460 1386 C 460 1417 451 1443 435 1465 C 419 1487 394 1498 360 1498 C 341 1498 325 1494 312 1488 C 299 1481 289 1472 281 1461 C 273 1450 267 1438 263 1424 C 259 1410 258 1396 258 1382 C 258 1368 251 1362 238 1362 L 96 1362 C 90 1362 85 1362 83 1364 C 81 1366 80 1370 80 1378 Z" unicode="²" />
<glyph horiz-adv-x="732" d="M 258 1436 C 258 1426 257 1421 255 1419 C 253 1417 248 1416 240 1416 L 114 1416 C 104 1416 99 1417 97 1419 C 95 1421 94 1426 94 1436 C 94 1470 101 1501 113 1529 C 125 1557 142 1580 165 1600 C 187 1620 215 1635 247 1646 C 279 1656 315 1662 356 1662 C 396 1662 432 1656 464 1646 C 496 1636 524 1622 547 1604 C 569 1586 587 1564 599 1540 C 611 1515 618 1488 618 1460 C 618 1428 611 1400 597 1378 C 583 1356 565 1337 544 1322 C 540 1318 538 1314 538 1312 C 538 1310 540 1308 544 1304 C 577 1284 604 1258 624 1224 C 644 1190 654 1153 654 1112 C 654 1075 647 1042 634 1012 C 620 982 601 957 576 936 C 551 915 521 899 485 887 C 449 875 408 870 362 870 C 316 870 276 875 241 887 C 205 899 176 915 152 937 C 128 958 109 984 97 1014 C 84 1044 78 1078 78 1116 C 78 1125 79 1131 81 1133 C 83 1135 88 1136 98 1136 L 230 1136 C 239 1136 245 1135 247 1133 C 249 1131 250 1125 250 1116 C 250 1088 259 1066 277 1051 C 295 1035 320 1028 352 1028 C 384 1028 409 1035 428 1050 C 446 1064 456 1086 456 1116 C 456 1144 447 1166 429 1182 C 411 1198 384 1206 346 1206 L 294 1206 C 284 1206 279 1207 277 1209 C 275 1211 274 1216 274 1226 L 274 1318 C 274 1327 275 1333 277 1335 C 279 1337 284 1338 294 1338 L 340 1338 C 368 1338 390 1345 408 1359 C 425 1373 434 1394 434 1422 C 434 1448 426 1468 410 1484 C 394 1500 373 1508 348 1508 C 320 1508 299 1501 283 1489 C 267 1477 259 1459 258 1436 Z" unicode="³" />
<glyph horiz-adv-x="1000" d="M 548 1280 C 554 1288 559 1293 563 1296 C 566 1298 572 1300 580 1300 L 840 1300 C 853 1300 860 1298 860 1296 C 860 1293 856 1288 848 1280 L 594 1032 C 588 1026 583 1022 578 1018 C 572 1014 565 1012 556 1012 L 380 1012 C 370 1012 366 1013 366 1016 C 366 1020 368 1025 374 1032 L 548 1280 Z" unicode="´" />
<glyph horiz-adv-x="1026" d="M 350 -8 C 346 -8 343 -8 342 -10 C 340 -11 340 -14 340 -20 L 340 -424 C 340 -432 339 -437 337 -440 C 335 -442 329 -444 320 -444 L 112 -444 C 102 -444 97 -442 95 -440 C 93 -437 92 -432 92 -424 L 92 862 C 92 870 93 875 95 878 C 97 880 102 882 112 882 L 332 882 C 341 882 347 880 349 878 C 351 875 352 870 352 862 L 352 370 C 352 316 363 276 386 248 C 409 220 446 206 496 206 C 521 206 545 210 567 220 C 589 229 609 242 626 259 C 642 276 655 297 665 321 C 675 345 680 373 680 404 L 680 862 C 680 870 681 875 683 878 C 685 880 690 882 700 882 L 920 882 C 929 882 935 880 937 878 C 939 875 940 870 940 862 L 940 20 C 940 12 939 6 937 4 C 935 1 929 0 920 0 L 700 0 C 690 0 685 1 683 4 C 681 6 680 12 680 20 L 680 100 C 680 101 679 102 678 103 C 676 103 675 104 674 104 C 672 104 671 104 670 104 C 668 104 667 103 666 102 C 649 80 632 62 616 47 C 599 32 581 20 562 10 C 543 0 523 -6 501 -11 C 479 -15 456 -18 430 -18 C 416 -18 402 -16 388 -14 C 374 -12 362 -10 350 -8 Z" unicode="µ" />
<glyph horiz-adv-x="1112" d="M 542 466 C 464 466 395 477 333 500 C 271 522 219 554 176 596 C 133 637 100 687 78 746 C 55 804 44 870 44 942 C 44 1014 55 1079 77 1136 C 99 1193 131 1241 174 1280 C 216 1319 269 1349 332 1369 C 395 1389 468 1400 550 1400 L 562 1400 C 571 1400 577 1398 579 1396 C 581 1393 582 1388 582 1380 L 582 486 C 582 476 581 471 579 469 C 577 467 571 466 562 466 L 542 466 Z M 972 1400 C 981 1400 987 1399 989 1397 C 991 1395 992 1389 992 1380 L 992 -306 C 992 -315 991 -321 989 -323 C 987 -325 981 -326 972 -326 L 750 -326 C 740 -326 735 -325 733 -323 C 731 -321 730 -315 730 -306 L 730 1380 C 730 1389 731 1395 733 1397 C 735 1399 740 1400 750 1400 L 972 1400 Z" unicode="¶" />
<glyph horiz-adv-x="500" d="M 258 506 C 215 506 178 520 148 549 C 117 577 102 615 102 662 C 102 704 117 741 148 772 C 178 802 215 818 258 818 C 302 818 339 802 369 772 C 399 741 414 704 414 662 C 414 615 399 577 369 549 C 339 520 302 506 258 506 Z" unicode="·" />
<glyph horiz-adv-x="1000" d="M 434 22 C 463 22 493 17 525 9 C 556 0 584 -13 610 -31 C 635 -49 656 -71 672 -97 C 688 -123 696 -154 696 -190 C 696 -258 674 -315 632 -361 C 589 -407 534 -430 466 -430 C 444 -430 418 -427 388 -421 C 357 -415 332 -405 314 -392 C 306 -385 302 -377 304 -368 L 324 -258 C 326 -247 329 -242 332 -242 C 336 -242 339 -243 342 -246 C 356 -256 371 -265 385 -271 C 399 -277 416 -280 436 -280 C 465 -280 487 -272 503 -257 C 518 -241 526 -221 526 -196 C 526 -164 515 -140 494 -126 C 472 -111 448 -104 422 -104 C 414 -104 405 -104 395 -105 C 385 -105 378 -106 374 -106 C 367 -106 363 -105 361 -104 C 359 -102 358 -98 358 -90 L 378 22 L 434 22 Z" unicode="¸" />
<glyph horiz-adv-x="732" d="M 536 902 C 536 894 535 888 533 886 C 531 883 525 882 516 882 L 374 882 C 366 882 360 883 358 886 C 355 888 354 894 354 902 L 354 1416 C 354 1426 353 1432 351 1436 C 349 1439 343 1439 334 1436 L 214 1400 C 206 1396 200 1395 198 1396 C 195 1397 194 1402 194 1412 L 194 1538 C 194 1547 195 1553 198 1556 C 200 1559 206 1562 214 1566 L 516 1666 C 526 1669 531 1669 533 1667 C 535 1665 536 1659 536 1650 L 536 902 Z" unicode="¹" />
<glyph horiz-adv-x="732" d="M 366 1276 C 345 1276 326 1272 309 1264 C 292 1256 277 1246 265 1233 C 253 1219 243 1204 236 1186 C 229 1168 226 1148 226 1128 C 226 1106 229 1086 236 1068 C 243 1049 253 1033 265 1019 C 277 1005 292 995 309 987 C 326 979 345 976 366 976 C 386 976 405 979 422 987 C 439 995 454 1005 466 1019 C 478 1033 488 1049 495 1068 C 502 1086 506 1106 506 1128 C 506 1148 502 1168 495 1186 C 488 1204 478 1219 466 1233 C 454 1246 439 1256 422 1264 C 405 1272 386 1276 366 1276 Z M 366 838 C 320 838 278 845 240 859 C 202 873 169 893 142 919 C 114 945 93 975 78 1011 C 63 1046 56 1085 56 1128 C 56 1168 63 1206 78 1242 C 93 1277 114 1307 142 1333 C 169 1359 202 1379 240 1394 C 278 1408 320 1416 366 1416 C 412 1416 454 1408 492 1394 C 530 1379 562 1359 590 1333 C 617 1307 638 1277 653 1242 C 668 1206 676 1168 676 1128 C 676 1085 668 1046 653 1011 C 638 975 617 945 590 919 C 562 893 530 873 492 859 C 454 845 412 838 366 838 Z" unicode="º" />
<glyph horiz-adv-x="1010" d="M 262 8 C 258 0 253 -4 248 -4 C 244 -4 240 -2 234 2 L 98 80 C 88 85 84 90 84 94 C 84 96 84 97 85 99 C 86 100 88 102 90 106 L 276 418 C 280 426 282 432 282 438 C 282 441 281 444 281 447 C 281 450 279 454 276 460 L 90 774 C 87 779 86 783 86 786 C 86 791 90 796 98 800 L 234 878 C 240 882 244 884 248 884 C 253 884 258 880 262 872 L 500 456 C 502 450 504 446 504 444 C 504 441 502 437 500 432 L 262 8 Z M 672 8 C 668 0 663 -4 658 -4 C 654 -4 650 -2 644 2 L 508 80 C 498 85 494 90 494 94 C 494 96 494 97 495 99 C 496 100 498 102 500 106 L 686 418 C 690 426 692 432 692 438 C 692 441 691 444 691 447 C 691 450 689 454 686 460 L 500 774 C 497 779 496 783 496 786 C 496 791 500 796 508 800 L 644 878 C 650 882 654 884 658 884 C 663 884 668 880 672 872 L 910 456 C 912 450 914 446 914 444 C 914 441 912 437 910 432 L 672 8 Z" unicode="»" />
<glyph horiz-adv-x="1446" d="M 272 62 C 392 288 511 515 631 742 C 751 969 870 1196 990 1424 C 995 1433 1000 1438 1006 1438 C 1007 1438 1008 1437 1010 1437 C 1012 1436 1014 1435 1018 1434 L 1138 1372 C 1146 1366 1150 1360 1150 1356 C 1150 1353 1148 1349 1146 1344 C 1026 1116 906 889 786 662 C 666 435 546 208 428 -18 C 422 -27 417 -32 412 -32 C 410 -32 408 -31 407 -31 C 405 -30 403 -29 400 -28 L 280 34 C 272 38 268 42 268 48 C 268 50 268 52 269 54 C 269 56 270 58 272 62 Z M 442 652 C 442 644 441 638 439 636 C 437 633 431 632 422 632 L 280 632 C 272 632 266 633 264 636 C 261 638 260 644 260 652 L 260 1166 C 260 1176 259 1182 257 1186 C 255 1189 249 1189 240 1186 L 120 1150 C 112 1146 106 1145 104 1146 C 101 1147 100 1152 100 1162 L 100 1288 C 100 1297 101 1303 104 1306 C 106 1309 112 1312 120 1316 L 422 1416 C 432 1419 437 1419 439 1417 C 441 1415 442 1409 442 1400 L 442 652 Z M 718 100 C 708 100 701 101 697 103 C 693 105 692 108 692 112 C 692 115 693 119 695 123 C 697 127 700 130 704 134 L 1206 764 C 1209 767 1212 770 1214 772 C 1216 774 1220 776 1224 776 C 1228 776 1230 774 1232 772 C 1233 770 1234 767 1234 764 L 1234 278 C 1234 268 1235 263 1237 261 C 1239 259 1244 258 1254 258 L 1306 258 C 1315 258 1321 257 1323 255 C 1325 253 1326 247 1326 238 L 1326 120 C 1326 110 1325 105 1323 103 C 1321 101 1315 100 1306 100 L 1254 100 C 1244 100 1239 99 1237 97 C 1235 95 1234 89 1234 80 L 1234 20 C 1234 10 1233 5 1231 3 C 1229 1 1223 0 1214 0 L 1082 0 C 1072 0 1067 1 1065 3 C 1063 5 1062 10 1062 20 L 1062 80 C 1062 89 1061 95 1059 97 C 1057 99 1051 100 1042 100 L 718 100 Z M 1078 406 C 1078 412 1076 416 1074 416 C 1071 416 1068 414 1064 410 L 954 262 C 952 258 950 256 948 254 C 946 252 946 250 946 248 C 946 244 950 242 958 242 L 1058 242 C 1067 242 1073 243 1075 245 C 1077 247 1078 252 1078 262 L 1078 406 Z" unicode="¼" />
<glyph horiz-adv-x="1594" d="M 272 62 C 392 288 511 515 631 742 C 751 969 870 1196 990 1424 C 995 1433 1000 1438 1006 1438 C 1007 1438 1008 1437 1010 1437 C 1012 1436 1014 1435 1018 1434 L 1138 1372 C 1146 1366 1150 1360 1150 1356 C 1150 1353 1148 1349 1146 1344 C 1026 1116 906 889 786 662 C 666 435 546 208 428 -18 C 422 -27 417 -32 412 -32 C 410 -32 408 -31 407 -31 C 405 -30 403 -29 400 -28 L 280 34 C 272 38 268 42 268 48 C 268 50 268 52 269 54 C 269 56 270 58 272 62 Z M 442 652 C 442 644 441 638 439 636 C 437 633 431 632 422 632 L 280 632 C 272 632 266 633 264 636 C 261 638 260 644 260 652 L 260 1166 C 260 1176 259 1182 257 1186 C 255 1189 249 1189 240 1186 L 120 1150 C 112 1146 106 1145 104 1146 C 101 1147 100 1152 100 1162 L 100 1288 C 100 1297 101 1303 104 1306 C 106 1309 112 1312 120 1316 L 422 1416 C 432 1419 437 1419 439 1417 C 441 1415 442 1409 442 1400 L 442 652 Z M 900 496 C 898 535 902 572 914 607 C 926 641 944 671 968 697 C 992 723 1021 743 1057 758 C 1092 772 1132 780 1178 780 C 1225 780 1267 773 1303 761 C 1339 748 1370 730 1394 707 C 1418 684 1437 656 1449 624 C 1461 592 1468 556 1468 518 C 1468 492 1464 467 1457 443 C 1450 419 1439 394 1424 368 C 1409 342 1390 316 1367 288 C 1344 260 1316 230 1284 198 L 1260 174 C 1258 170 1256 168 1254 167 C 1252 166 1252 165 1252 164 C 1252 160 1256 158 1264 158 L 1454 158 C 1463 158 1469 157 1471 155 C 1473 153 1474 147 1474 138 L 1474 20 C 1474 10 1473 5 1471 3 C 1469 1 1463 0 1454 0 L 920 0 C 916 0 913 1 911 3 C 909 5 908 8 908 12 C 908 16 908 19 910 21 C 912 23 914 26 916 30 C 935 50 957 74 983 100 C 1008 126 1034 153 1061 181 C 1088 209 1115 238 1141 268 C 1167 298 1191 327 1211 355 C 1231 383 1248 409 1261 435 C 1273 461 1280 484 1280 504 C 1280 535 1271 561 1255 583 C 1239 605 1214 616 1180 616 C 1161 616 1145 612 1132 606 C 1119 599 1109 590 1101 579 C 1093 568 1087 556 1083 542 C 1079 528 1078 514 1078 500 C 1078 486 1071 480 1058 480 L 916 480 C 910 480 905 480 903 482 C 901 484 900 488 900 496 Z" unicode="½" />
<glyph horiz-adv-x="1546" d="M 392 62 C 512 288 631 515 751 742 C 871 969 990 1196 1110 1424 C 1115 1433 1120 1438 1126 1438 C 1127 1438 1128 1437 1130 1437 C 1132 1436 1134 1435 1138 1434 L 1258 1372 C 1266 1366 1270 1360 1270 1356 C 1270 1353 1268 1349 1266 1344 C 1146 1116 1026 889 906 662 C 786 435 666 208 548 -18 C 542 -27 537 -32 532 -32 C 530 -32 528 -31 527 -31 C 525 -30 523 -29 520 -28 L 400 34 C 392 38 388 42 388 48 C 388 50 388 52 389 54 C 389 56 390 58 392 62 Z M 279 1186 C 279 1176 278 1171 276 1169 C 274 1167 269 1166 261 1166 L 135 1166 C 125 1166 120 1167 118 1169 C 116 1171 115 1176 115 1186 C 115 1220 122 1251 134 1279 C 146 1307 163 1330 186 1350 C 208 1370 236 1385 268 1396 C 300 1406 336 1412 377 1412 C 417 1412 453 1406 485 1396 C 517 1386 545 1372 568 1354 C 590 1336 608 1314 620 1290 C 632 1265 639 1238 639 1210 C 639 1178 632 1150 618 1128 C 604 1106 586 1087 565 1072 C 561 1068 559 1064 559 1062 C 559 1060 561 1058 565 1054 C 598 1034 625 1008 645 974 C 665 940 675 903 675 862 C 675 825 668 792 655 762 C 641 732 622 707 597 686 C 572 665 542 649 506 637 C 470 625 429 620 383 620 C 337 620 297 625 262 637 C 226 649 197 665 173 687 C 149 708 130 734 118 764 C 105 794 99 828 99 866 C 99 875 100 881 102 883 C 104 885 109 886 119 886 L 251 886 C 260 886 266 885 268 883 C 270 881 271 875 271 866 C 271 838 280 816 298 801 C 316 785 341 778 373 778 C 405 778 430 785 449 800 C 467 814 477 836 477 866 C 477 894 468 916 450 932 C 432 948 405 956 367 956 L 315 956 C 305 956 300 957 298 959 C 296 961 295 966 295 976 L 295 1068 C 295 1077 296 1083 298 1085 C 300 1087 305 1088 315 1088 L 361 1088 C 389 1088 411 1095 429 1109 C 446 1123 455 1144 455 1172 C 455 1198 447 1218 431 1234 C 415 1250 394 1258 369 1258 C 341 1258 320 1251 304 1239 C 288 1227 280 1209 279 1186 Z M 818 100 C 808 100 801 101 797 103 C 793 105 792 108 792 112 C 792 115 793 119 795 123 C 797 127 800 130 804 134 L 1306 764 C 1309 767 1312 770 1314 772 C 1316 774 1320 776 1324 776 C 1328 776 1330 774 1332 772 C 1333 770 1334 767 1334 764 L 1334 278 C 1334 268 1335 263 1337 261 C 1339 259 1344 258 1354 258 L 1406 258 C 1415 258 1421 257 1423 255 C 1425 253 1426 247 1426 238 L 1426 120 C 1426 110 1425 105 1423 103 C 1421 101 1415 100 1406 100 L 1354 100 C 1344 100 1339 99 1337 97 C 1335 95 1334 89 1334 80 L 1334 20 C 1334 10 1333 5 1331 3 C 1329 1 1323 0 1314 0 L 1182 0 C 1172 0 1167 1 1165 3 C 1163 5 1162 10 1162 20 L 1162 80 C 1162 89 1161 95 1159 97 C 1157 99 1151 100 1142 100 L 818 100 Z M 1178 406 C 1178 412 1176 416 1174 416 C 1171 416 1168 414 1164 410 L 1054 262 C 1052 258 1050 256 1048 254 C 1046 252 1046 250 1046 248 C 1046 244 1050 242 1058 242 L 1158 242 C 1167 242 1173 243 1175 245 C 1177 247 1178 252 1178 262 L 1178 406 Z" unicode="¾" />
<glyph horiz-adv-x="866" d="M 562 990 C 571 990 577 989 579 987 C 581 985 582 979 584 970 C 588 950 590 930 590 912 C 590 846 576 789 548 740 C 520 690 489 645 455 604 C 421 562 390 523 362 486 C 334 448 320 409 320 368 C 320 325 331 292 354 268 C 376 244 411 232 458 232 C 503 232 538 247 564 279 C 589 310 602 349 602 396 C 602 404 603 409 605 412 C 607 414 612 416 622 416 L 834 416 C 842 416 847 415 850 413 C 852 411 854 406 854 398 L 854 378 C 854 319 844 265 824 217 C 804 168 776 126 740 90 C 704 54 660 26 609 6 C 557 -14 500 -24 436 -24 C 385 -24 335 -16 285 -2 C 235 12 190 34 151 63 C 111 91 80 127 56 171 C 32 214 20 265 20 324 C 20 376 28 422 45 462 C 61 502 82 537 107 569 C 131 600 158 629 188 655 C 217 681 244 706 269 732 C 293 757 314 783 331 810 C 347 836 356 867 356 902 L 356 970 C 356 979 357 985 359 987 C 361 989 366 990 376 990 L 562 990 Z M 452 1424 C 493 1424 529 1409 560 1381 C 590 1352 606 1314 606 1268 C 606 1225 591 1188 562 1158 C 532 1127 496 1112 452 1112 C 408 1112 371 1127 342 1158 C 312 1188 298 1224 298 1266 C 298 1308 313 1345 343 1377 C 373 1408 409 1424 452 1424 Z" unicode="¿" />
<glyph horiz-adv-x="1212" d="M 614 818 C 611 822 607 824 602 824 C 595 824 591 822 590 818 L 460 456 C 458 453 458 450 458 446 C 458 440 462 438 472 438 L 734 438 C 744 438 750 440 750 444 C 750 448 749 451 748 454 L 614 818 Z M 584 1422 C 588 1430 595 1434 606 1434 C 615 1434 622 1430 626 1422 L 1210 20 C 1211 17 1212 13 1212 8 C 1212 2 1207 0 1198 0 L 920 0 C 912 0 906 1 903 4 C 899 6 896 12 894 20 L 826 196 C 823 205 820 211 817 213 C 813 215 808 216 802 216 L 404 216 C 392 216 383 209 378 196 L 312 20 C 306 6 298 0 288 0 L 16 0 C 5 0 0 2 0 8 C 0 10 1 14 4 20 L 584 1422 Z M 726 1520 C 731 1513 734 1508 734 1504 C 734 1501 729 1500 720 1500 L 544 1500 C 534 1500 527 1502 522 1506 C 516 1510 511 1514 506 1520 L 252 1768 C 244 1776 240 1781 240 1784 C 240 1786 246 1788 260 1788 L 520 1788 C 528 1788 533 1786 537 1784 C 540 1781 545 1776 552 1768 L 726 1520 Z" unicode="À" />
<glyph horiz-adv-x="1212" d="M 614 818 C 611 822 607 824 602 824 C 595 824 591 822 590 818 L 460 456 C 458 453 458 450 458 446 C 458 440 462 438 472 438 L 734 438 C 744 438 750 440 750 444 C 750 448 749 451 748 454 L 614 818 Z M 584 1422 C 588 1430 595 1434 606 1434 C 615 1434 622 1430 626 1422 L 1210 20 C 1211 17 1212 13 1212 8 C 1212 2 1207 0 1198 0 L 920 0 C 912 0 906 1 903 4 C 899 6 896 12 894 20 L 826 196 C 823 205 820 211 817 213 C 813 215 808 216 802 216 L 404 216 C 392 216 383 209 378 196 L 312 20 C 306 6 298 0 288 0 L 16 0 C 5 0 0 2 0 8 C 0 10 1 14 4 20 L 584 1422 Z M 692 1768 C 698 1776 703 1781 707 1784 C 710 1786 716 1788 724 1788 L 984 1788 C 997 1788 1004 1786 1004 1784 C 1004 1781 1000 1776 992 1768 L 738 1520 C 732 1514 727 1510 722 1506 C 716 1502 709 1500 700 1500 L 524 1500 C 514 1500 510 1501 510 1504 C 510 1508 512 1513 518 1520 L 692 1768 Z" unicode="Á" />
<glyph horiz-adv-x="1212" d="M 614 818 C 611 822 607 824 602 824 C 595 824 591 822 590 818 L 460 456 C 458 453 458 450 458 446 C 458 440 462 438 472 438 L 734 438 C 744 438 750 440 750 444 C 750 448 749 451 748 454 L 614 818 Z M 584 1422 C 588 1430 595 1434 606 1434 C 615 1434 622 1430 626 1422 L 1210 20 C 1211 17 1212 13 1212 8 C 1212 2 1207 0 1198 0 L 920 0 C 912 0 906 1 903 4 C 899 6 896 12 894 20 L 826 196 C 823 205 820 211 817 213 C 813 215 808 216 802 216 L 404 216 C 392 216 383 209 378 196 L 312 20 C 306 6 298 0 288 0 L 16 0 C 5 0 0 2 0 8 C 0 10 1 14 4 20 L 584 1422 Z M 478 1768 C 484 1776 490 1781 496 1784 C 501 1786 508 1788 516 1788 L 728 1788 C 742 1788 755 1781 766 1768 L 982 1520 C 986 1514 988 1510 988 1506 C 988 1502 984 1500 976 1500 L 792 1500 C 782 1500 776 1502 772 1506 C 768 1510 763 1514 758 1520 L 638 1648 C 635 1650 631 1652 626 1652 C 620 1652 616 1650 614 1648 L 498 1520 C 492 1514 488 1510 484 1506 C 480 1502 473 1500 464 1500 L 276 1500 C 268 1500 264 1502 264 1506 C 264 1510 266 1514 270 1520 L 478 1768 Z" unicode="Â" />
<glyph horiz-adv-x="1212" d="M 614 818 C 611 822 607 824 602 824 C 595 824 591 822 590 818 L 460 456 C 458 453 458 450 458 446 C 458 440 462 438 472 438 L 734 438 C 744 438 750 440 750 444 C 750 448 749 451 748 454 L 614 818 Z M 584 1422 C 588 1430 595 1434 606 1434 C 615 1434 622 1430 626 1422 L 1210 20 C 1211 17 1212 13 1212 8 C 1212 2 1207 0 1198 0 L 920 0 C 912 0 906 1 903 4 C 899 6 896 12 894 20 L 826 196 C 823 205 820 211 817 213 C 813 215 808 216 802 216 L 404 216 C 392 216 383 209 378 196 L 312 20 C 306 6 298 0 288 0 L 16 0 C 5 0 0 2 0 8 C 0 10 1 14 4 20 L 584 1422 Z M 966 1680 C 966 1626 947 1581 909 1543 C 871 1505 822 1486 762 1486 C 719 1486 685 1492 660 1506 C 634 1519 613 1534 596 1551 C 578 1567 562 1582 548 1596 C 533 1609 515 1616 494 1616 C 475 1616 459 1609 446 1597 C 432 1584 426 1566 426 1544 L 426 1532 C 426 1524 425 1518 423 1516 C 421 1513 415 1512 406 1512 L 292 1512 C 282 1512 277 1513 275 1516 C 273 1518 272 1524 272 1532 L 272 1580 C 272 1606 277 1631 289 1655 C 300 1678 315 1699 334 1717 C 352 1735 375 1749 401 1760 C 427 1770 454 1776 484 1776 C 525 1776 558 1769 583 1756 C 607 1742 628 1727 645 1711 C 661 1694 677 1679 691 1666 C 705 1652 722 1646 744 1646 C 762 1646 778 1652 792 1664 C 805 1676 812 1693 812 1716 L 812 1730 C 812 1738 813 1743 815 1746 C 817 1748 822 1750 832 1750 L 946 1750 C 955 1750 961 1748 963 1746 C 965 1743 966 1738 966 1730 L 966 1680 Z" unicode="Ã" />
<glyph horiz-adv-x="1212" d="M 614 818 C 611 822 607 824 602 824 C 595 824 591 822 590 818 L 460 456 C 458 453 458 450 458 446 C 458 440 462 438 472 438 L 734 438 C 744 438 750 440 750 444 C 750 448 749 451 748 454 L 614 818 Z M 584 1422 C 588 1430 595 1434 606 1434 C 615 1434 622 1430 626 1422 L 1210 20 C 1211 17 1212 13 1212 8 C 1212 2 1207 0 1198 0 L 920 0 C 912 0 906 1 903 4 C 899 6 896 12 894 20 L 826 196 C 823 205 820 211 817 213 C 813 215 808 216 802 216 L 404 216 C 392 216 383 209 378 196 L 312 20 C 306 6 298 0 288 0 L 16 0 C 5 0 0 2 0 8 C 0 10 1 14 4 20 L 584 1422 Z M 828 1532 C 790 1532 758 1545 731 1571 C 703 1597 690 1630 690 1672 C 690 1712 703 1745 730 1773 C 756 1800 789 1814 828 1814 C 868 1814 901 1800 927 1772 C 953 1744 966 1711 966 1674 C 966 1635 952 1602 926 1574 C 899 1546 866 1532 828 1532 Z M 424 1532 C 386 1532 354 1545 327 1571 C 299 1597 286 1630 286 1672 C 286 1712 299 1745 325 1773 C 351 1800 384 1814 424 1814 C 464 1814 497 1800 523 1772 C 549 1744 562 1711 562 1674 C 562 1635 548 1602 522 1574 C 495 1546 462 1532 424 1532 Z" unicode="Ä" />
<glyph horiz-adv-x="1212" d="M 614 818 C 611 822 607 824 602 824 C 595 824 591 822 590 818 L 460 456 C 458 453 458 450 458 446 C 458 440 462 438 472 438 L 734 438 C 744 438 750 440 750 444 C 750 448 749 451 748 454 L 614 818 Z M 584 1422 C 588 1430 595 1434 606 1434 C 615 1434 622 1430 626 1422 L 1210 20 C 1211 17 1212 13 1212 8 C 1212 2 1207 0 1198 0 L 920 0 C 912 0 906 1 903 4 C 899 6 896 12 894 20 L 826 196 C 823 205 820 211 817 213 C 813 215 808 216 802 216 L 404 216 C 392 216 383 209 378 196 L 312 20 C 306 6 298 0 288 0 L 16 0 C 5 0 0 2 0 8 C 0 10 1 14 4 20 L 584 1422 Z M 626 1606 C 647 1606 665 1613 680 1628 C 694 1642 702 1661 702 1684 C 702 1705 695 1723 681 1738 C 667 1752 648 1760 626 1760 C 603 1760 585 1752 571 1738 C 557 1723 550 1704 550 1682 C 550 1659 557 1641 572 1627 C 586 1613 604 1606 626 1606 Z M 626 1492 C 575 1492 531 1509 493 1543 C 455 1577 436 1623 436 1682 C 436 1735 454 1780 490 1818 C 526 1855 571 1874 626 1874 C 652 1874 677 1869 701 1859 C 724 1849 744 1835 761 1818 C 777 1800 791 1780 801 1757 C 811 1733 816 1709 816 1684 C 816 1657 811 1632 801 1610 C 791 1587 777 1567 760 1549 C 742 1531 722 1517 699 1507 C 675 1497 651 1492 626 1492 Z" unicode="Å" />
<glyph horiz-adv-x="1652" d="M 760 0 C 750 0 745 1 743 3 C 741 5 740 10 740 20 L 740 234 C 740 244 733 250 720 250 L 392 250 C 378 250 370 243 366 230 L 270 20 C 267 10 264 5 261 3 C 257 1 252 0 244 0 L -16 0 C -26 0 -32 2 -32 8 C -32 13 -31 17 -30 20 L 618 1380 C 624 1393 634 1400 648 1400 L 1518 1400 C 1527 1400 1533 1399 1535 1397 C 1537 1395 1538 1389 1538 1380 L 1538 1160 C 1538 1150 1537 1145 1535 1143 C 1533 1141 1527 1140 1518 1140 L 1040 1140 C 1030 1140 1025 1139 1023 1137 C 1021 1135 1020 1129 1020 1120 L 1020 786 C 1020 776 1021 771 1023 769 C 1025 767 1030 766 1040 766 L 1508 766 C 1517 766 1523 765 1525 763 C 1527 761 1528 755 1528 746 L 1528 532 C 1528 522 1527 517 1525 515 C 1523 513 1517 512 1508 512 L 1040 512 C 1030 512 1025 511 1023 509 C 1021 507 1020 501 1020 492 L 1020 280 C 1020 270 1021 265 1023 263 C 1025 261 1030 260 1040 260 L 1528 260 C 1537 260 1543 259 1545 257 C 1547 255 1548 249 1548 240 L 1548 20 C 1548 10 1547 5 1545 3 C 1543 1 1537 0 1528 0 L 760 0 Z M 476 506 C 473 498 472 494 472 494 C 472 488 478 486 490 486 L 720 486 C 729 486 735 487 737 489 C 739 491 740 496 740 506 L 740 1034 C 740 1039 736 1042 730 1042 C 727 1042 724 1041 722 1041 C 719 1040 717 1038 716 1036 L 476 506 Z" unicode="Æ" />
<glyph horiz-adv-x="1250" d="M 790 -26 C 678 -26 577 -7 488 31 C 398 69 322 121 260 187 C 197 253 149 330 115 418 C 81 506 64 600 64 700 C 64 797 80 890 114 978 C 147 1066 195 1143 258 1209 C 320 1275 397 1327 487 1367 C 577 1406 678 1426 790 1426 C 854 1426 916 1418 978 1403 C 1039 1387 1094 1368 1142 1344 C 1152 1338 1158 1332 1158 1324 L 1158 1022 C 1158 1012 1155 1008 1150 1008 C 1146 1008 1142 1009 1140 1012 C 1101 1052 1052 1082 994 1104 C 935 1125 872 1136 806 1136 C 734 1136 671 1124 617 1101 C 563 1077 517 1046 481 1006 C 444 966 416 919 398 867 C 379 814 370 758 370 700 C 370 641 379 585 398 533 C 416 480 444 434 481 394 C 517 354 563 322 617 299 C 671 275 733 264 804 264 C 870 264 933 274 993 296 C 1052 317 1101 348 1140 388 C 1142 390 1146 392 1150 392 C 1155 392 1158 387 1158 378 L 1158 76 C 1158 68 1152 61 1142 56 C 1094 32 1039 12 978 -3 C 916 -18 854 -26 790 -26 Z M 614 22 C 643 22 673 17 705 9 C 736 0 764 -13 790 -31 C 815 -49 836 -71 852 -97 C 868 -123 876 -154 876 -190 C 876 -258 854 -315 812 -361 C 769 -407 714 -430 646 -430 C 624 -430 598 -427 568 -421 C 537 -415 512 -405 494 -392 C 486 -385 482 -377 484 -368 L 504 -258 C 506 -247 509 -242 512 -242 C 516 -242 519 -243 522 -246 C 536 -256 551 -265 565 -271 C 579 -277 596 -280 616 -280 C 645 -280 667 -272 683 -257 C 698 -241 706 -221 706 -196 C 706 -164 695 -140 674 -126 C 652 -111 628 -104 602 -104 C 594 -104 585 -104 575 -105 C 565 -105 558 -106 554 -106 C 547 -106 543 -105 541 -104 C 539 -102 538 -98 538 -90 L 558 22 L 614 22 Z" unicode="Ç" />
<glyph horiz-adv-x="1054" d="M 118 1380 C 118 1389 119 1395 121 1397 C 123 1399 128 1400 138 1400 L 954 1400 C 963 1400 969 1399 971 1397 C 973 1395 974 1389 974 1380 L 974 1156 C 974 1146 973 1141 971 1139 C 969 1137 963 1136 954 1136 L 430 1136 C 420 1136 415 1135 413 1133 C 411 1131 410 1125 410 1116 L 410 790 C 410 780 411 775 413 773 C 415 771 420 770 430 770 L 934 770 C 943 770 949 769 951 767 C 953 765 954 759 954 750 L 954 530 C 954 520 953 515 951 513 C 949 511 943 510 934 510 L 430 510 C 420 510 415 509 413 507 C 411 505 410 499 410 490 L 410 284 C 410 274 411 269 413 267 C 415 265 420 264 430 264 L 964 264 C 973 264 979 263 981 261 C 983 259 984 253 984 244 L 984 20 C 984 10 983 5 981 3 C 979 1 973 0 964 0 L 138 0 C 128 0 123 1 121 3 C 119 5 118 10 118 20 L 118 1380 Z M 738 1520 C 743 1513 746 1508 746 1504 C 746 1501 741 1500 732 1500 L 556 1500 C 546 1500 539 1502 534 1506 C 528 1510 523 1514 518 1520 L 264 1768 C 256 1776 252 1781 252 1784 C 252 1786 258 1788 272 1788 L 532 1788 C 540 1788 545 1786 549 1784 C 552 1781 557 1776 564 1768 L 738 1520 Z" unicode="È" />
<glyph horiz-adv-x="1054" d="M 118 1380 C 118 1389 119 1395 121 1397 C 123 1399 128 1400 138 1400 L 954 1400 C 963 1400 969 1399 971 1397 C 973 1395 974 1389 974 1380 L 974 1156 C 974 1146 973 1141 971 1139 C 969 1137 963 1136 954 1136 L 430 1136 C 420 1136 415 1135 413 1133 C 411 1131 410 1125 410 1116 L 410 790 C 410 780 411 775 413 773 C 415 771 420 770 430 770 L 934 770 C 943 770 949 769 951 767 C 953 765 954 759 954 750 L 954 530 C 954 520 953 515 951 513 C 949 511 943 510 934 510 L 430 510 C 420 510 415 509 413 507 C 411 505 410 499 410 490 L 410 284 C 410 274 411 269 413 267 C 415 265 420 264 430 264 L 964 264 C 973 264 979 263 981 261 C 983 259 984 253 984 244 L 984 20 C 984 10 983 5 981 3 C 979 1 973 0 964 0 L 138 0 C 128 0 123 1 121 3 C 119 5 118 10 118 20 L 118 1380 Z M 486 1768 C 492 1776 497 1781 501 1784 C 504 1786 510 1788 518 1788 L 778 1788 C 791 1788 798 1786 798 1784 C 798 1781 794 1776 786 1768 L 532 1520 C 526 1514 521 1510 516 1506 C 510 1502 503 1500 494 1500 L 318 1500 C 308 1500 304 1501 304 1504 C 304 1508 306 1513 312 1520 L 486 1768 Z" unicode="É" />
<glyph horiz-adv-x="1054" d="M 118 1380 C 118 1389 119 1395 121 1397 C 123 1399 128 1400 138 1400 L 954 1400 C 963 1400 969 1399 971 1397 C 973 1395 974 1389 974 1380 L 974 1156 C 974 1146 973 1141 971 1139 C 969 1137 963 1136 954 1136 L 430 1136 C 420 1136 415 1135 413 1133 C 411 1131 410 1125 410 1116 L 410 790 C 410 780 411 775 413 773 C 415 771 420 770 430 770 L 934 770 C 943 770 949 769 951 767 C 953 765 954 759 954 750 L 954 530 C 954 520 953 515 951 513 C 949 511 943 510 934 510 L 430 510 C 420 510 415 509 413 507 C 411 505 410 499 410 490 L 410 284 C 410 274 411 269 413 267 C 415 265 420 264 430 264 L 964 264 C 973 264 979 263 981 261 C 983 259 984 253 984 244 L 984 20 C 984 10 983 5 981 3 C 979 1 973 0 964 0 L 138 0 C 128 0 123 1 121 3 C 119 5 118 10 118 20 L 118 1380 Z M 378 1768 C 384 1776 390 1781 396 1784 C 401 1786 408 1788 416 1788 L 628 1788 C 642 1788 655 1781 666 1768 L 882 1520 C 886 1514 888 1510 888 1506 C 888 1502 884 1500 876 1500 L 692 1500 C 682 1500 676 1502 672 1506 C 668 1510 663 1514 658 1520 L 538 1648 C 535 1650 531 1652 526 1652 C 520 1652 516 1650 514 1648 L 398 1520 C 392 1514 388 1510 384 1506 C 380 1502 373 1500 364 1500 L 176 1500 C 168 1500 164 1502 164 1506 C 164 1510 166 1514 170 1520 L 378 1768 Z" unicode="Ê" />
<glyph horiz-adv-x="1054" d="M 118 1380 C 118 1389 119 1395 121 1397 C 123 1399 128 1400 138 1400 L 954 1400 C 963 1400 969 1399 971 1397 C 973 1395 974 1389 974 1380 L 974 1156 C 974 1146 973 1141 971 1139 C 969 1137 963 1136 954 1136 L 430 1136 C 420 1136 415 1135 413 1133 C 411 1131 410 1125 410 1116 L 410 790 C 410 780 411 775 413 773 C 415 771 420 770 430 770 L 934 770 C 943 770 949 769 951 767 C 953 765 954 759 954 750 L 954 530 C 954 520 953 515 951 513 C 949 511 943 510 934 510 L 430 510 C 420 510 415 509 413 507 C 411 505 410 499 410 490 L 410 284 C 410 274 411 269 413 267 C 415 265 420 264 430 264 L 964 264 C 973 264 979 263 981 261 C 983 259 984 253 984 244 L 984 20 C 984 10 983 5 981 3 C 979 1 973 0 964 0 L 138 0 C 128 0 123 1 121 3 C 119 5 118 10 118 20 L 118 1380 Z M 728 1532 C 690 1532 658 1545 631 1571 C 603 1597 590 1630 590 1672 C 590 1712 603 1745 630 1773 C 656 1800 689 1814 728 1814 C 768 1814 801 1800 827 1772 C 853 1744 866 1711 866 1674 C 866 1635 852 1602 826 1574 C 799 1546 766 1532 728 1532 Z M 324 1532 C 286 1532 254 1545 227 1571 C 199 1597 186 1630 186 1672 C 186 1712 199 1745 225 1773 C 251 1800 284 1814 324 1814 C 364 1814 397 1800 423 1772 C 449 1744 462 1711 462 1674 C 462 1635 448 1602 422 1574 C 395 1546 362 1532 324 1532 Z" unicode="Ë" />
<glyph horiz-adv-x="528" d="M 118 1380 C 118 1389 119 1395 121 1397 C 123 1399 128 1400 138 1400 L 390 1400 C 399 1400 405 1399 407 1397 C 409 1395 410 1389 410 1380 L 410 20 C 410 10 409 5 407 3 C 405 1 399 0 390 0 L 138 0 C 128 0 123 1 121 3 C 119 5 118 10 118 20 L 118 1380 Z M 430 1520 C 435 1513 438 1508 438 1504 C 438 1501 433 1500 424 1500 L 248 1500 C 238 1500 231 1502 226 1506 C 220 1510 215 1514 210 1520 L -44 1768 C -52 1776 -56 1781 -56 1784 C -56 1786 -49 1788 -36 1788 L 224 1788 C 232 1788 237 1786 241 1784 C 244 1781 249 1776 256 1768 L 430 1520 Z" unicode="Ì" />
<glyph horiz-adv-x="528" d="M 118 1380 C 118 1389 119 1395 121 1397 C 123 1399 128 1400 138 1400 L 390 1400 C 399 1400 405 1399 407 1397 C 409 1395 410 1389 410 1380 L 410 20 C 410 10 409 5 407 3 C 405 1 399 0 390 0 L 138 0 C 128 0 123 1 121 3 C 119 5 118 10 118 20 L 118 1380 Z M 268 1768 C 274 1776 279 1781 283 1784 C 286 1786 292 1788 300 1788 L 560 1788 C 573 1788 580 1786 580 1784 C 580 1781 576 1776 568 1768 L 314 1520 C 308 1514 303 1510 298 1506 C 292 1502 285 1500 276 1500 L 100 1500 C 90 1500 86 1501 86 1504 C 86 1508 88 1513 94 1520 L 268 1768 Z" unicode="Í" />
<glyph horiz-adv-x="528" d="M 118 1380 C 118 1389 119 1395 121 1397 C 123 1399 128 1400 138 1400 L 390 1400 C 399 1400 405 1399 407 1397 C 409 1395 410 1389 410 1380 L 410 20 C 410 10 409 5 407 3 C 405 1 399 0 390 0 L 138 0 C 128 0 123 1 121 3 C 119 5 118 10 118 20 L 118 1380 Z M 116 1768 C 122 1776 128 1781 134 1784 C 139 1786 146 1788 154 1788 L 366 1788 C 380 1788 393 1781 404 1768 L 620 1520 C 624 1514 626 1510 626 1506 C 626 1502 622 1500 614 1500 L 430 1500 C 420 1500 414 1502 410 1506 C 406 1510 401 1514 396 1520 L 276 1648 C 273 1650 269 1652 264 1652 C 258 1652 254 1650 252 1648 L 136 1520 C 130 1514 126 1510 122 1506 C 118 1502 111 1500 102 1500 L -86 1500 C -94 1500 -98 1502 -98 1506 C -98 1510 -96 1514 -92 1520 L 116 1768 Z" unicode="Î" />
<glyph horiz-adv-x="528" d="M 118 1380 C 118 1389 119 1395 121 1397 C 123 1399 128 1400 138 1400 L 390 1400 C 399 1400 405 1399 407 1397 C 409 1395 410 1389 410 1380 L 410 20 C 410 10 409 5 407 3 C 405 1 399 0 390 0 L 138 0 C 128 0 123 1 121 3 C 119 5 118 10 118 20 L 118 1380 Z M 466 1532 C 428 1532 396 1545 369 1571 C 341 1597 328 1630 328 1672 C 328 1712 341 1745 368 1773 C 394 1800 427 1814 466 1814 C 506 1814 539 1800 565 1772 C 591 1744 604 1711 604 1674 C 604 1635 590 1602 564 1574 C 537 1546 504 1532 466 1532 Z M 62 1532 C 24 1532 -7 1545 -35 1571 C -62 1597 -76 1630 -76 1672 C -76 1712 -63 1745 -37 1773 C -11 1800 22 1814 62 1814 C 102 1814 135 1800 161 1772 C 187 1744 200 1711 200 1674 C 200 1635 186 1602 160 1574 C 133 1546 100 1532 62 1532 Z" unicode="Ï" />
<glyph horiz-adv-x="1270" d="M 500 1400 C 620 1400 725 1383 815 1350 C 905 1316 980 1269 1040 1208 C 1100 1146 1145 1073 1175 987 C 1205 901 1220 805 1220 700 C 1220 596 1204 501 1174 416 C 1143 330 1097 257 1037 195 C 976 133 900 85 809 51 C 717 17 611 0 490 0 L 138 0 C 128 0 123 1 121 3 C 119 5 118 10 118 20 L 118 510 C 118 519 117 525 115 527 C 113 529 107 530 98 530 L 16 530 C 6 530 1 531 -1 533 C -3 535 -4 540 -4 550 L -4 734 C -4 743 -2 749 0 751 C 2 753 8 754 16 754 L 98 754 C 107 754 113 755 115 757 C 117 759 118 764 118 774 L 118 1380 C 118 1389 119 1395 121 1397 C 123 1399 128 1400 138 1400 L 500 1400 Z M 916 700 C 916 834 885 940 823 1016 C 761 1092 659 1130 518 1130 L 422 1130 C 412 1130 407 1129 405 1127 C 403 1125 402 1119 402 1110 L 402 774 C 402 764 403 759 406 757 C 408 755 414 754 422 754 L 598 754 C 607 754 613 753 615 751 C 617 749 618 743 618 734 L 618 550 C 618 540 617 535 615 533 C 613 531 607 530 598 530 L 422 530 C 412 530 407 529 405 527 C 403 525 402 519 402 510 L 402 290 C 402 280 403 275 405 273 C 407 271 412 270 422 270 L 518 270 C 654 270 754 307 819 382 C 883 456 916 562 916 700 Z" unicode="Ð" />
<glyph horiz-adv-x="1222" d="M 428 724 C 424 728 419 730 414 730 C 403 730 398 726 398 718 L 398 20 C 398 10 397 5 395 3 C 393 1 387 0 378 0 L 132 0 C 122 0 117 1 115 3 C 113 5 112 10 112 20 L 112 1420 C 112 1429 115 1434 122 1434 C 124 1434 127 1433 130 1433 C 132 1432 136 1429 142 1424 L 794 674 C 798 670 802 668 808 668 C 818 668 824 672 824 680 L 824 1380 C 824 1389 825 1395 827 1397 C 829 1399 834 1400 844 1400 L 1090 1400 C 1099 1400 1105 1399 1107 1397 C 1109 1395 1110 1389 1110 1380 L 1110 -20 C 1110 -29 1106 -34 1100 -34 C 1093 -34 1087 -30 1082 -24 L 428 724 Z M 952 1680 C 952 1626 933 1581 895 1543 C 857 1505 808 1486 748 1486 C 705 1486 671 1492 646 1506 C 620 1519 599 1534 582 1551 C 564 1567 548 1582 534 1596 C 519 1609 501 1616 480 1616 C 461 1616 445 1609 432 1597 C 418 1584 412 1566 412 1544 L 412 1532 C 412 1524 411 1518 409 1516 C 407 1513 401 1512 392 1512 L 278 1512 C 268 1512 263 1513 261 1516 C 259 1518 258 1524 258 1532 L 258 1580 C 258 1606 263 1631 275 1655 C 286 1678 301 1699 320 1717 C 338 1735 361 1749 387 1760 C 413 1770 440 1776 470 1776 C 511 1776 544 1769 569 1756 C 593 1742 614 1727 631 1711 C 647 1694 663 1679 677 1666 C 691 1652 708 1646 730 1646 C 748 1646 764 1652 778 1664 C 791 1676 798 1693 798 1716 L 798 1730 C 798 1738 799 1743 801 1746 C 803 1748 808 1750 818 1750 L 932 1750 C 941 1750 947 1748 949 1746 C 951 1743 952 1738 952 1730 L 952 1680 Z" unicode="Ñ" />
<glyph horiz-adv-x="1540" d="M 1476 700 C 1476 601 1457 508 1421 420 C 1384 332 1334 255 1271 189 C 1207 123 1133 70 1047 32 C 961 -6 868 -26 770 -26 C 671 -26 579 -6 493 32 C 407 70 332 123 269 189 C 205 255 155 332 119 420 C 82 508 64 601 64 700 C 64 798 82 892 119 980 C 155 1068 205 1145 269 1211 C 332 1277 407 1329 493 1368 C 579 1406 671 1426 770 1426 C 868 1426 961 1406 1047 1368 C 1133 1329 1207 1277 1271 1211 C 1334 1145 1384 1068 1421 980 C 1457 892 1476 798 1476 700 Z M 370 700 C 370 640 379 583 399 531 C 418 478 445 432 481 393 C 516 353 558 322 607 299 C 655 275 710 264 770 264 C 830 264 884 275 933 299 C 981 322 1023 353 1059 393 C 1094 432 1121 478 1141 531 C 1160 583 1170 640 1170 700 C 1170 760 1160 816 1141 869 C 1121 921 1094 967 1059 1007 C 1023 1046 981 1077 933 1101 C 884 1124 830 1136 770 1136 C 710 1136 655 1124 607 1101 C 558 1077 516 1046 481 1007 C 445 967 418 921 399 869 C 379 816 370 760 370 700 Z M 904 1520 C 909 1513 912 1508 912 1504 C 912 1501 907 1500 898 1500 L 722 1500 C 712 1500 705 1502 700 1506 C 694 1510 689 1514 684 1520 L 430 1768 C 422 1776 418 1781 418 1784 C 418 1786 424 1788 438 1788 L 698 1788 C 706 1788 711 1786 715 1784 C 718 1781 723 1776 730 1768 L 904 1520 Z" unicode="Ò" />
<glyph horiz-adv-x="1540" d="M 1476 700 C 1476 601 1457 508 1421 420 C 1384 332 1334 255 1271 189 C 1207 123 1133 70 1047 32 C 961 -6 868 -26 770 -26 C 671 -26 579 -6 493 32 C 407 70 332 123 269 189 C 205 255 155 332 119 420 C 82 508 64 601 64 700 C 64 798 82 892 119 980 C 155 1068 205 1145 269 1211 C 332 1277 407 1329 493 1368 C 579 1406 671 1426 770 1426 C 868 1426 961 1406 1047 1368 C 1133 1329 1207 1277 1271 1211 C 1334 1145 1384 1068 1421 980 C 1457 892 1476 798 1476 700 Z M 370 700 C 370 640 379 583 399 531 C 418 478 445 432 481 393 C 516 353 558 322 607 299 C 655 275 710 264 770 264 C 830 264 884 275 933 299 C 981 322 1023 353 1059 393 C 1094 432 1121 478 1141 531 C 1160 583 1170 640 1170 700 C 1170 760 1160 816 1141 869 C 1121 921 1094 967 1059 1007 C 1023 1046 981 1077 933 1101 C 884 1124 830 1136 770 1136 C 710 1136 655 1124 607 1101 C 558 1077 516 1046 481 1007 C 445 967 418 921 399 869 C 379 816 370 760 370 700 Z M 804 1768 C 810 1776 815 1781 819 1784 C 822 1786 828 1788 836 1788 L 1096 1788 C 1109 1788 1116 1786 1116 1784 C 1116 1781 1112 1776 1104 1768 L 850 1520 C 844 1514 839 1510 834 1506 C 828 1502 821 1500 812 1500 L 636 1500 C 626 1500 622 1501 622 1504 C 622 1508 624 1513 630 1520 L 804 1768 Z" unicode="Ó" />
<glyph horiz-adv-x="1540" d="M 1476 700 C 1476 601 1457 508 1421 420 C 1384 332 1334 255 1271 189 C 1207 123 1133 70 1047 32 C 961 -6 868 -26 770 -26 C 671 -26 579 -6 493 32 C 407 70 332 123 269 189 C 205 255 155 332 119 420 C 82 508 64 601 64 700 C 64 798 82 892 119 980 C 155 1068 205 1145 269 1211 C 332 1277 407 1329 493 1368 C 579 1406 671 1426 770 1426 C 868 1426 961 1406 1047 1368 C 1133 1329 1207 1277 1271 1211 C 1334 1145 1384 1068 1421 980 C 1457 892 1476 798 1476 700 Z M 370 700 C 370 640 379 583 399 531 C 418 478 445 432 481 393 C 516 353 558 322 607 299 C 655 275 710 264 770 264 C 830 264 884 275 933 299 C 981 322 1023 353 1059 393 C 1094 432 1121 478 1141 531 C 1160 583 1170 640 1170 700 C 1170 760 1160 816 1141 869 C 1121 921 1094 967 1059 1007 C 1023 1046 981 1077 933 1101 C 884 1124 830 1136 770 1136 C 710 1136 655 1124 607 1101 C 558 1077 516 1046 481 1007 C 445 967 418 921 399 869 C 379 816 370 760 370 700 Z M 622 1768 C 628 1776 634 1781 640 1784 C 645 1786 652 1788 660 1788 L 872 1788 C 886 1788 899 1781 910 1768 L 1126 1520 C 1130 1514 1132 1510 1132 1506 C 1132 1502 1128 1500 1120 1500 L 936 1500 C 926 1500 920 1502 916 1506 C 912 1510 907 1514 902 1520 L 782 1648 C 779 1650 775 1652 770 1652 C 764 1652 760 1650 758 1648 L 642 1520 C 636 1514 632 1510 628 1506 C 624 1502 617 1500 608 1500 L 420 1500 C 412 1500 408 1502 408 1506 C 408 1510 410 1514 414 1520 L 622 1768 Z" unicode="Ô" />
<glyph horiz-adv-x="1540" d="M 1476 700 C 1476 601 1457 508 1421 420 C 1384 332 1334 255 1271 189 C 1207 123 1133 70 1047 32 C 961 -6 868 -26 770 -26 C 671 -26 579 -6 493 32 C 407 70 332 123 269 189 C 205 255 155 332 119 420 C 82 508 64 601 64 700 C 64 798 82 892 119 980 C 155 1068 205 1145 269 1211 C 332 1277 407 1329 493 1368 C 579 1406 671 1426 770 1426 C 868 1426 961 1406 1047 1368 C 1133 1329 1207 1277 1271 1211 C 1334 1145 1384 1068 1421 980 C 1457 892 1476 798 1476 700 Z M 370 700 C 370 640 379 583 399 531 C 418 478 445 432 481 393 C 516 353 558 322 607 299 C 655 275 710 264 770 264 C 830 264 884 275 933 299 C 981 322 1023 353 1059 393 C 1094 432 1121 478 1141 531 C 1160 583 1170 640 1170 700 C 1170 760 1160 816 1141 869 C 1121 921 1094 967 1059 1007 C 1023 1046 981 1077 933 1101 C 884 1124 830 1136 770 1136 C 710 1136 655 1124 607 1101 C 558 1077 516 1046 481 1007 C 445 967 418 921 399 869 C 379 816 370 760 370 700 Z M 1118 1680 C 1118 1626 1099 1581 1061 1543 C 1023 1505 974 1486 914 1486 C 871 1486 837 1492 812 1506 C 786 1519 765 1534 748 1551 C 730 1567 714 1582 700 1596 C 685 1609 667 1616 646 1616 C 627 1616 611 1609 598 1597 C 584 1584 578 1566 578 1544 L 578 1532 C 578 1524 577 1518 575 1516 C 573 1513 567 1512 558 1512 L 444 1512 C 434 1512 429 1513 427 1516 C 425 1518 424 1524 424 1532 L 424 1580 C 424 1606 429 1631 441 1655 C 452 1678 467 1699 486 1717 C 504 1735 527 1749 553 1760 C 579 1770 606 1776 636 1776 C 677 1776 710 1769 735 1756 C 759 1742 780 1727 797 1711 C 813 1694 829 1679 843 1666 C 857 1652 874 1646 896 1646 C 914 1646 930 1652 944 1664 C 957 1676 964 1693 964 1716 L 964 1730 C 964 1738 965 1743 967 1746 C 969 1748 974 1750 984 1750 L 1098 1750 C 1107 1750 1113 1748 1115 1746 C 1117 1743 1118 1738 1118 1730 L 1118 1680 Z" unicode="Õ" />
<glyph horiz-adv-x="1540" d="M 1476 700 C 1476 601 1457 508 1421 420 C 1384 332 1334 255 1271 189 C 1207 123 1133 70 1047 32 C 961 -6 868 -26 770 -26 C 671 -26 579 -6 493 32 C 407 70 332 123 269 189 C 205 255 155 332 119 420 C 82 508 64 601 64 700 C 64 798 82 892 119 980 C 155 1068 205 1145 269 1211 C 332 1277 407 1329 493 1368 C 579 1406 671 1426 770 1426 C 868 1426 961 1406 1047 1368 C 1133 1329 1207 1277 1271 1211 C 1334 1145 1384 1068 1421 980 C 1457 892 1476 798 1476 700 Z M 370 700 C 370 640 379 583 399 531 C 418 478 445 432 481 393 C 516 353 558 322 607 299 C 655 275 710 264 770 264 C 830 264 884 275 933 299 C 981 322 1023 353 1059 393 C 1094 432 1121 478 1141 531 C 1160 583 1170 640 1170 700 C 1170 760 1160 816 1141 869 C 1121 921 1094 967 1059 1007 C 1023 1046 981 1077 933 1101 C 884 1124 830 1136 770 1136 C 710 1136 655 1124 607 1101 C 558 1077 516 1046 481 1007 C 445 967 418 921 399 869 C 379 816 370 760 370 700 Z M 972 1532 C 934 1532 902 1545 875 1571 C 847 1597 834 1630 834 1672 C 834 1712 847 1745 874 1773 C 900 1800 933 1814 972 1814 C 1012 1814 1045 1800 1071 1772 C 1097 1744 1110 1711 1110 1674 C 1110 1635 1096 1602 1070 1574 C 1043 1546 1010 1532 972 1532 Z M 568 1532 C 530 1532 498 1545 471 1571 C 443 1597 430 1630 430 1672 C 430 1712 443 1745 469 1773 C 495 1800 528 1814 568 1814 C 608 1814 641 1800 667 1772 C 693 1744 706 1711 706 1674 C 706 1635 692 1602 666 1574 C 639 1546 606 1532 568 1532 Z" unicode="Ö" />
<glyph horiz-adv-x="1040" d="M 506 614 C 508 610 510 607 513 606 C 515 604 518 604 520 604 C 523 604 526 604 528 606 C 530 608 532 610 536 614 L 792 870 C 797 875 801 878 804 878 C 808 878 812 875 818 870 L 912 776 C 917 770 920 766 920 763 C 920 759 917 755 912 750 L 656 494 L 652 490 C 648 486 646 482 646 478 C 646 474 649 468 656 462 L 912 206 C 914 202 915 200 917 200 C 919 199 920 197 920 194 C 920 192 919 191 919 190 C 919 188 918 187 916 186 L 812 82 C 809 79 807 78 806 78 C 803 78 798 81 792 88 L 536 342 C 534 346 531 348 528 348 C 524 351 520 352 517 352 C 513 351 510 348 506 342 L 244 82 C 241 79 238 78 236 78 C 232 78 229 80 225 84 C 221 88 217 92 214 98 L 140 172 C 136 175 132 179 128 183 C 124 187 122 190 122 194 C 122 195 122 197 123 199 C 124 201 126 204 130 206 L 386 462 C 387 464 388 465 389 466 C 389 467 390 468 390 470 C 393 474 394 477 394 481 C 394 484 391 488 386 494 L 130 750 C 126 754 123 757 122 760 C 120 762 122 766 126 770 L 230 874 C 234 878 237 879 240 877 C 243 875 246 873 250 870 L 506 614 Z" unicode="×" />
<glyph horiz-adv-x="1540" d="M 1476 700 C 1476 601 1457 508 1421 420 C 1384 332 1334 255 1271 189 C 1207 123 1133 70 1047 32 C 961 -6 868 -26 770 -26 C 694 -26 622 -14 554 8 C 486 30 423 62 366 104 L 240 -36 C 237 -40 234 -42 230 -42 C 226 -42 221 -40 216 -36 L 94 72 C 90 76 88 80 88 84 C 88 88 90 92 94 96 L 222 240 C 171 304 132 374 105 452 C 77 529 64 612 64 700 C 64 798 82 892 119 980 C 155 1068 205 1145 269 1211 C 332 1277 407 1329 493 1368 C 579 1406 671 1426 770 1426 C 846 1426 918 1414 986 1392 C 1054 1369 1116 1337 1174 1296 L 1300 1436 C 1301 1440 1304 1442 1310 1442 C 1312 1442 1317 1440 1324 1436 L 1446 1328 C 1450 1324 1452 1320 1452 1316 C 1452 1312 1450 1308 1446 1304 L 1316 1158 C 1366 1094 1406 1023 1434 946 C 1462 868 1476 786 1476 700 Z M 370 700 C 370 617 388 540 426 470 L 430 470 C 432 470 436 472 440 476 L 970 1064 C 974 1068 976 1070 976 1072 C 976 1074 974 1078 970 1082 C 940 1099 909 1112 876 1122 C 842 1131 807 1136 770 1136 C 710 1136 655 1124 607 1101 C 558 1077 516 1046 481 1007 C 445 967 418 921 399 869 C 379 816 370 760 370 700 Z M 564 326 C 564 323 564 321 566 320 C 626 282 694 264 770 264 C 830 264 884 275 933 299 C 981 322 1023 353 1059 393 C 1094 432 1121 478 1141 531 C 1160 583 1170 640 1170 700 C 1170 784 1151 860 1114 928 C 1112 929 1111 930 1110 930 C 1107 930 1104 928 1100 924 L 570 334 C 566 330 564 327 564 326 Z" unicode="Ø" />
<glyph horiz-adv-x="1266" d="M 858 1380 C 858 1389 859 1395 861 1397 C 863 1399 868 1400 878 1400 L 1130 1400 C 1139 1400 1145 1399 1147 1397 C 1149 1395 1150 1389 1150 1380 L 1150 432 C 1150 356 1136 289 1108 232 C 1080 174 1042 127 995 89 C 947 51 892 22 830 3 C 767 -16 702 -26 634 -26 C 566 -26 500 -16 438 3 C 375 22 320 51 273 89 C 225 127 188 174 160 232 C 132 289 118 356 118 432 L 118 1380 C 118 1389 119 1395 121 1397 C 123 1399 128 1400 138 1400 L 390 1400 C 399 1400 405 1399 407 1397 C 409 1395 410 1389 410 1380 L 410 508 C 410 462 415 424 427 394 C 438 363 454 338 474 319 C 494 299 517 285 545 277 C 572 268 602 264 634 264 C 699 264 753 282 795 318 C 837 354 858 417 858 508 L 858 1380 Z M 748 1550 C 753 1543 756 1538 756 1534 C 756 1531 751 1530 742 1530 L 566 1530 C 556 1530 549 1532 544 1536 C 538 1540 533 1544 528 1550 L 274 1798 C 266 1806 262 1811 262 1814 C 262 1816 268 1818 282 1818 L 542 1818 C 550 1818 555 1816 559 1814 C 562 1811 567 1806 574 1798 L 748 1550 Z" unicode="Ù" />
<glyph horiz-adv-x="1266" d="M 858 1380 C 858 1389 859 1395 861 1397 C 863 1399 868 1400 878 1400 L 1130 1400 C 1139 1400 1145 1399 1147 1397 C 1149 1395 1150 1389 1150 1380 L 1150 432 C 1150 356 1136 289 1108 232 C 1080 174 1042 127 995 89 C 947 51 892 22 830 3 C 767 -16 702 -26 634 -26 C 566 -26 500 -16 438 3 C 375 22 320 51 273 89 C 225 127 188 174 160 232 C 132 289 118 356 118 432 L 118 1380 C 118 1389 119 1395 121 1397 C 123 1399 128 1400 138 1400 L 390 1400 C 399 1400 405 1399 407 1397 C 409 1395 410 1389 410 1380 L 410 508 C 410 462 415 424 427 394 C 438 363 454 338 474 319 C 494 299 517 285 545 277 C 572 268 602 264 634 264 C 699 264 753 282 795 318 C 837 354 858 417 858 508 L 858 1380 Z M 668 1768 C 674 1776 679 1781 683 1784 C 686 1786 692 1788 700 1788 L 960 1788 C 973 1788 980 1786 980 1784 C 980 1781 976 1776 968 1768 L 714 1520 C 708 1514 703 1510 698 1506 C 692 1502 685 1500 676 1500 L 500 1500 C 490 1500 486 1501 486 1504 C 486 1508 488 1513 494 1520 L 668 1768 Z" unicode="Ú" />
<glyph horiz-adv-x="1266" d="M 858 1380 C 858 1389 859 1395 861 1397 C 863 1399 868 1400 878 1400 L 1130 1400 C 1139 1400 1145 1399 1147 1397 C 1149 1395 1150 1389 1150 1380 L 1150 432 C 1150 356 1136 289 1108 232 C 1080 174 1042 127 995 89 C 947 51 892 22 830 3 C 767 -16 702 -26 634 -26 C 566 -26 500 -16 438 3 C 375 22 320 51 273 89 C 225 127 188 174 160 232 C 132 289 118 356 118 432 L 118 1380 C 118 1389 119 1395 121 1397 C 123 1399 128 1400 138 1400 L 390 1400 C 399 1400 405 1399 407 1397 C 409 1395 410 1389 410 1380 L 410 508 C 410 462 415 424 427 394 C 438 363 454 338 474 319 C 494 299 517 285 545 277 C 572 268 602 264 634 264 C 699 264 753 282 795 318 C 837 354 858 417 858 508 L 858 1380 Z M 484 1768 C 490 1776 496 1781 502 1784 C 507 1786 514 1788 522 1788 L 734 1788 C 748 1788 761 1781 772 1768 L 988 1520 C 992 1514 994 1510 994 1506 C 994 1502 990 1500 982 1500 L 798 1500 C 788 1500 782 1502 778 1506 C 774 1510 769 1514 764 1520 L 644 1648 C 641 1650 637 1652 632 1652 C 626 1652 622 1650 620 1648 L 504 1520 C 498 1514 494 1510 490 1506 C 486 1502 479 1500 470 1500 L 282 1500 C 274 1500 270 1502 270 1506 C 270 1510 272 1514 276 1520 L 484 1768 Z" unicode="Û" />
<glyph horiz-adv-x="1266" d="M 858 1380 C 858 1389 859 1395 861 1397 C 863 1399 868 1400 878 1400 L 1130 1400 C 1139 1400 1145 1399 1147 1397 C 1149 1395 1150 1389 1150 1380 L 1150 432 C 1150 356 1136 289 1108 232 C 1080 174 1042 127 995 89 C 947 51 892 22 830 3 C 767 -16 702 -26 634 -26 C 566 -26 500 -16 438 3 C 375 22 320 51 273 89 C 225 127 188 174 160 232 C 132 289 118 356 118 432 L 118 1380 C 118 1389 119 1395 121 1397 C 123 1399 128 1400 138 1400 L 390 1400 C 399 1400 405 1399 407 1397 C 409 1395 410 1389 410 1380 L 410 508 C 410 462 415 424 427 394 C 438 363 454 338 474 319 C 494 299 517 285 545 277 C 572 268 602 264 634 264 C 699 264 753 282 795 318 C 837 354 858 417 858 508 L 858 1380 Z M 834 1494 C 796 1494 764 1507 737 1533 C 709 1559 696 1592 696 1634 C 696 1674 709 1707 736 1735 C 762 1762 795 1776 834 1776 C 874 1776 907 1762 933 1734 C 959 1706 972 1673 972 1636 C 972 1597 958 1564 932 1536 C 905 1508 872 1494 834 1494 Z M 430 1494 C 392 1494 360 1507 333 1533 C 305 1559 292 1592 292 1634 C 292 1674 305 1707 331 1735 C 357 1762 390 1776 430 1776 C 470 1776 503 1762 529 1734 C 555 1706 568 1673 568 1636 C 568 1597 554 1564 528 1536 C 501 1508 468 1494 430 1494 Z" unicode="Ü" />
<glyph horiz-adv-x="1192" d="M 450 644 L 12 1380 C 9 1385 8 1389 8 1392 C 8 1397 12 1400 20 1400 L 312 1400 C 322 1400 331 1393 338 1380 L 588 948 C 589 944 592 942 598 942 C 602 942 605 944 608 948 L 860 1380 C 865 1389 869 1395 872 1397 C 874 1399 879 1400 886 1400 L 1172 1400 C 1180 1400 1184 1397 1184 1392 C 1184 1389 1182 1385 1180 1380 L 742 644 L 742 20 C 742 10 741 5 739 3 C 737 1 731 0 722 0 L 470 0 C 460 0 455 1 453 3 C 451 5 450 10 450 20 L 450 644 Z M 630 1768 C 636 1776 641 1781 645 1784 C 648 1786 654 1788 662 1788 L 922 1788 C 935 1788 942 1786 942 1784 C 942 1781 938 1776 930 1768 L 676 1520 C 670 1514 665 1510 660 1506 C 654 1502 647 1500 638 1500 L 462 1500 C 452 1500 448 1501 448 1504 C 448 1508 450 1513 456 1520 L 630 1768 Z" unicode="Ý" />
<glyph horiz-adv-x="1128" d="M 386 1400 C 395 1400 401 1399 403 1397 C 405 1395 406 1389 406 1380 L 406 1170 C 406 1160 407 1155 409 1153 C 411 1151 416 1150 426 1150 L 594 1150 C 664 1150 729 1139 787 1119 C 845 1098 894 1069 936 1031 C 977 993 1009 946 1032 892 C 1054 837 1066 776 1066 708 C 1066 641 1054 580 1032 525 C 1009 469 977 422 937 383 C 896 343 847 313 789 291 C 731 269 666 258 596 258 L 426 258 C 416 258 411 257 409 255 C 407 253 406 247 406 238 L 406 20 C 406 10 405 5 403 3 C 401 1 395 0 386 0 L 136 0 C 126 0 121 1 119 3 C 117 5 116 10 116 20 L 116 1380 C 116 1389 117 1395 119 1397 C 121 1399 126 1400 136 1400 L 386 1400 Z M 426 912 C 416 912 411 911 409 909 C 407 907 406 901 406 892 L 406 518 C 406 508 407 503 409 501 C 411 499 416 498 426 498 L 582 498 C 639 498 684 517 717 556 C 749 594 766 644 766 704 C 766 768 748 818 714 856 C 679 893 629 912 564 912 L 426 912 Z" unicode="Þ" />
<glyph horiz-adv-x="1092" d="M 110 0 C 100 0 95 1 93 4 C 91 6 90 12 90 20 L 90 1168 C 90 1222 100 1272 121 1316 C 141 1360 169 1397 205 1428 C 240 1458 282 1482 331 1499 C 379 1515 432 1524 488 1524 C 625 1524 730 1492 803 1428 C 875 1364 912 1276 912 1166 C 912 1106 899 1055 873 1014 C 847 972 816 938 782 910 C 778 907 776 904 776 900 C 776 896 779 892 786 890 C 819 875 852 857 886 835 C 919 813 949 785 975 753 C 1001 720 1022 680 1038 634 C 1054 587 1062 532 1062 468 C 1062 392 1049 323 1025 263 C 1000 202 965 151 919 109 C 873 67 817 34 753 12 C 688 -10 616 -22 536 -22 L 500 -22 C 490 -22 485 -20 483 -18 C 481 -15 480 -10 480 -2 L 480 180 C 480 188 481 193 483 196 C 485 198 490 200 500 200 L 536 200 C 620 200 685 223 732 269 C 778 315 802 380 802 464 C 802 500 796 534 784 567 C 772 599 754 628 731 653 C 707 677 678 697 643 711 C 607 725 566 732 518 732 L 486 732 C 476 732 471 733 469 736 C 467 738 466 744 466 752 L 466 924 C 466 932 467 937 469 940 C 471 942 476 944 486 944 L 526 944 C 564 950 597 970 625 1003 C 652 1035 666 1075 666 1122 C 666 1172 653 1216 629 1253 C 604 1289 562 1308 502 1308 C 459 1308 423 1293 393 1265 C 363 1236 348 1195 348 1142 L 348 20 C 348 12 347 6 345 4 C 343 1 337 0 328 0 L 110 0 L 110 0 Z" unicode="ß" />
<glyph horiz-adv-x="960" d="M 620 298 C 620 332 605 361 575 385 C 545 408 506 420 460 420 C 412 420 373 409 344 387 C 314 365 300 335 300 298 C 300 259 314 229 344 207 C 373 185 412 174 460 174 C 506 174 545 185 575 209 C 605 232 620 262 620 298 Z M 46 280 C 46 377 77 453 141 507 C 204 561 288 588 392 588 C 441 588 482 583 516 574 C 549 564 578 550 604 532 C 606 530 609 530 612 530 C 617 530 620 535 620 546 L 620 566 C 620 616 606 652 579 674 C 551 695 506 706 442 706 C 400 706 361 700 325 690 C 288 679 255 666 226 650 C 218 646 212 644 210 644 C 203 644 200 649 200 660 L 200 824 C 200 834 205 842 216 848 C 240 860 274 872 320 885 C 365 897 416 904 472 904 C 549 904 608 898 650 888 C 691 877 728 860 760 836 C 782 818 801 799 816 777 C 830 755 842 727 850 695 C 858 662 863 623 867 578 C 870 532 872 479 872 418 L 872 20 C 872 12 871 6 869 4 C 867 1 861 0 852 0 L 650 0 C 640 0 635 1 633 4 C 631 6 630 12 630 20 L 630 84 C 630 86 627 88 622 88 C 618 88 615 87 614 86 C 582 48 545 21 504 5 C 462 -11 411 -20 350 -20 C 306 -20 265 -12 229 2 C 192 16 160 37 133 64 C 105 90 84 122 69 159 C 53 195 46 236 46 280 Z M 654 1032 C 659 1025 662 1020 662 1016 C 662 1013 657 1012 648 1012 L 472 1012 C 462 1012 455 1014 450 1018 C 444 1022 439 1026 434 1032 L 180 1280 C 172 1288 168 1293 168 1296 C 168 1298 174 1300 188 1300 L 448 1300 C 456 1300 461 1298 465 1296 C 468 1293 473 1288 480 1280 L 654 1032 Z" unicode="à" />
<glyph horiz-adv-x="960" d="M 620 298 C 620 332 605 361 575 385 C 545 408 506 420 460 420 C 412 420 373 409 344 387 C 314 365 300 335 300 298 C 300 259 314 229 344 207 C 373 185 412 174 460 174 C 506 174 545 185 575 209 C 605 232 620 262 620 298 Z M 46 280 C 46 377 77 453 141 507 C 204 561 288 588 392 588 C 441 588 482 583 516 574 C 549 564 578 550 604 532 C 606 530 609 530 612 530 C 617 530 620 535 620 546 L 620 566 C 620 616 606 652 579 674 C 551 695 506 706 442 706 C 400 706 361 700 325 690 C 288 679 255 666 226 650 C 218 646 212 644 210 644 C 203 644 200 649 200 660 L 200 824 C 200 834 205 842 216 848 C 240 860 274 872 320 885 C 365 897 416 904 472 904 C 549 904 608 898 650 888 C 691 877 728 860 760 836 C 782 818 801 799 816 777 C 830 755 842 727 850 695 C 858 662 863 623 867 578 C 870 532 872 479 872 418 L 872 20 C 872 12 871 6 869 4 C 867 1 861 0 852 0 L 650 0 C 640 0 635 1 633 4 C 631 6 630 12 630 20 L 630 84 C 630 86 627 88 622 88 C 618 88 615 87 614 86 C 582 48 545 21 504 5 C 462 -11 411 -20 350 -20 C 306 -20 265 -12 229 2 C 192 16 160 37 133 64 C 105 90 84 122 69 159 C 53 195 46 236 46 280 Z M 534 1280 C 540 1288 545 1293 549 1296 C 552 1298 558 1300 566 1300 L 826 1300 C 839 1300 846 1298 846 1296 C 846 1293 842 1288 834 1280 L 580 1032 C 574 1026 569 1022 564 1018 C 558 1014 551 1012 542 1012 L 366 1012 C 356 1012 352 1013 352 1016 C 352 1020 354 1025 360 1032 L 534 1280 Z" unicode="á" />
<glyph horiz-adv-x="960" d="M 620 298 C 620 332 605 361 575 385 C 545 408 506 420 460 420 C 412 420 373 409 344 387 C 314 365 300 335 300 298 C 300 259 314 229 344 207 C 373 185 412 174 460 174 C 506 174 545 185 575 209 C 605 232 620 262 620 298 Z M 46 280 C 46 377 77 453 141 507 C 204 561 288 588 392 588 C 441 588 482 583 516 574 C 549 564 578 550 604 532 C 606 530 609 530 612 530 C 617 530 620 535 620 546 L 620 566 C 620 616 606 652 579 674 C 551 695 506 706 442 706 C 400 706 361 700 325 690 C 288 679 255 666 226 650 C 218 646 212 644 210 644 C 203 644 200 649 200 660 L 200 824 C 200 834 205 842 216 848 C 240 860 274 872 320 885 C 365 897 416 904 472 904 C 549 904 608 898 650 888 C 691 877 728 860 760 836 C 782 818 801 799 816 777 C 830 755 842 727 850 695 C 858 662 863 623 867 578 C 870 532 872 479 872 418 L 872 20 C 872 12 871 6 869 4 C 867 1 861 0 852 0 L 650 0 C 640 0 635 1 633 4 C 631 6 630 12 630 20 L 630 84 C 630 86 627 88 622 88 C 618 88 615 87 614 86 C 582 48 545 21 504 5 C 462 -11 411 -20 350 -20 C 306 -20 265 -12 229 2 C 192 16 160 37 133 64 C 105 90 84 122 69 159 C 53 195 46 236 46 280 Z M 332 1280 C 338 1288 344 1293 350 1296 C 355 1298 362 1300 370 1300 L 582 1300 C 596 1300 609 1293 620 1280 L 836 1032 C 840 1026 842 1022 842 1018 C 842 1014 838 1012 830 1012 L 646 1012 C 636 1012 630 1014 626 1018 C 622 1022 617 1026 612 1032 L 492 1160 C 489 1162 485 1164 480 1164 C 474 1164 470 1162 468 1160 L 352 1032 C 346 1026 342 1022 338 1018 C 334 1014 327 1012 318 1012 L 130 1012 C 122 1012 118 1014 118 1018 C 118 1022 120 1026 124 1032 L 332 1280 Z" unicode="â" />
<glyph horiz-adv-x="960" d="M 620 298 C 620 332 605 361 575 385 C 545 408 506 420 460 420 C 412 420 373 409 344 387 C 314 365 300 335 300 298 C 300 259 314 229 344 207 C 373 185 412 174 460 174 C 506 174 545 185 575 209 C 605 232 620 262 620 298 Z M 46 280 C 46 377 77 453 141 507 C 204 561 288 588 392 588 C 441 588 482 583 516 574 C 549 564 578 550 604 532 C 606 530 609 530 612 530 C 617 530 620 535 620 546 L 620 566 C 620 616 606 652 579 674 C 551 695 506 706 442 706 C 400 706 361 700 325 690 C 288 679 255 666 226 650 C 218 646 212 644 210 644 C 203 644 200 649 200 660 L 200 824 C 200 834 205 842 216 848 C 240 860 274 872 320 885 C 365 897 416 904 472 904 C 549 904 608 898 650 888 C 691 877 728 860 760 836 C 782 818 801 799 816 777 C 830 755 842 727 850 695 C 858 662 863 623 867 578 C 870 532 872 479 872 418 L 872 20 C 872 12 871 6 869 4 C 867 1 861 0 852 0 L 650 0 C 640 0 635 1 633 4 C 631 6 630 12 630 20 L 630 84 C 630 86 627 88 622 88 C 618 88 615 87 614 86 C 582 48 545 21 504 5 C 462 -11 411 -20 350 -20 C 306 -20 265 -12 229 2 C 192 16 160 37 133 64 C 105 90 84 122 69 159 C 53 195 46 236 46 280 Z M 844 1204 C 844 1150 825 1105 787 1067 C 749 1029 700 1010 640 1010 C 597 1010 563 1016 538 1030 C 512 1043 491 1058 474 1075 C 456 1091 440 1106 426 1120 C 411 1133 393 1140 372 1140 C 353 1140 337 1133 324 1121 C 310 1108 304 1090 304 1068 L 304 1056 C 304 1048 303 1042 301 1040 C 299 1037 293 1036 284 1036 L 170 1036 C 160 1036 155 1037 153 1040 C 151 1042 150 1048 150 1056 L 150 1104 C 150 1130 155 1155 167 1179 C 178 1202 193 1223 212 1241 C 230 1259 253 1273 279 1284 C 305 1294 332 1300 362 1300 C 403 1300 436 1293 461 1280 C 485 1266 506 1251 523 1235 C 539 1218 555 1203 569 1190 C 583 1176 600 1170 622 1170 C 640 1170 656 1176 670 1188 C 683 1200 690 1217 690 1240 L 690 1254 C 690 1262 691 1267 693 1270 C 695 1272 700 1274 710 1274 L 824 1274 C 833 1274 839 1272 841 1270 C 843 1267 844 1262 844 1254 L 844 1204 Z" unicode="ã" />
<glyph horiz-adv-x="960" d="M 620 298 C 620 332 605 361 575 385 C 545 408 506 420 460 420 C 412 420 373 409 344 387 C 314 365 300 335 300 298 C 300 259 314 229 344 207 C 373 185 412 174 460 174 C 506 174 545 185 575 209 C 605 232 620 262 620 298 Z M 46 280 C 46 377 77 453 141 507 C 204 561 288 588 392 588 C 441 588 482 583 516 574 C 549 564 578 550 604 532 C 606 530 609 530 612 530 C 617 530 620 535 620 546 L 620 566 C 620 616 606 652 579 674 C 551 695 506 706 442 706 C 400 706 361 700 325 690 C 288 679 255 666 226 650 C 218 646 212 644 210 644 C 203 644 200 649 200 660 L 200 824 C 200 834 205 842 216 848 C 240 860 274 872 320 885 C 365 897 416 904 472 904 C 549 904 608 898 650 888 C 691 877 728 860 760 836 C 782 818 801 799 816 777 C 830 755 842 727 850 695 C 858 662 863 623 867 578 C 870 532 872 479 872 418 L 872 20 C 872 12 871 6 869 4 C 867 1 861 0 852 0 L 650 0 C 640 0 635 1 633 4 C 631 6 630 12 630 20 L 630 84 C 630 86 627 88 622 88 C 618 88 615 87 614 86 C 582 48 545 21 504 5 C 462 -11 411 -20 350 -20 C 306 -20 265 -12 229 2 C 192 16 160 37 133 64 C 105 90 84 122 69 159 C 53 195 46 236 46 280 Z M 702 1044 C 664 1044 632 1057 605 1083 C 577 1109 564 1142 564 1184 C 564 1224 577 1257 604 1285 C 630 1312 663 1326 702 1326 C 742 1326 775 1312 801 1284 C 827 1256 840 1223 840 1186 C 840 1147 826 1114 800 1086 C 773 1058 740 1044 702 1044 Z M 298 1044 C 260 1044 228 1057 201 1083 C 173 1109 160 1142 160 1184 C 160 1224 173 1257 199 1285 C 225 1312 258 1326 298 1326 C 338 1326 371 1312 397 1284 C 423 1256 436 1223 436 1186 C 436 1147 422 1114 396 1086 C 369 1058 336 1044 298 1044 Z" unicode="ä" />
<glyph horiz-adv-x="960" d="M 620 298 C 620 332 605 361 575 385 C 545 408 506 420 460 420 C 412 420 373 409 344 387 C 314 365 300 335 300 298 C 300 259 314 229 344 207 C 373 185 412 174 460 174 C 506 174 545 185 575 209 C 605 232 620 262 620 298 Z M 46 280 C 46 377 77 453 141 507 C 204 561 288 588 392 588 C 441 588 482 583 516 574 C 549 564 578 550 604 532 C 606 530 609 530 612 530 C 617 530 620 535 620 546 L 620 566 C 620 616 606 652 579 674 C 551 695 506 706 442 706 C 400 706 361 700 325 690 C 288 679 255 666 226 650 C 218 646 212 644 210 644 C 203 644 200 649 200 660 L 200 824 C 200 834 205 842 216 848 C 240 860 274 872 320 885 C 365 897 416 904 472 904 C 549 904 608 898 650 888 C 691 877 728 860 760 836 C 782 818 801 799 816 777 C 830 755 842 727 850 695 C 858 662 863 623 867 578 C 870 532 872 479 872 418 L 872 20 C 872 12 871 6 869 4 C 867 1 861 0 852 0 L 650 0 C 640 0 635 1 633 4 C 631 6 630 12 630 20 L 630 84 C 630 86 627 88 622 88 C 618 88 615 87 614 86 C 582 48 545 21 504 5 C 462 -11 411 -20 350 -20 C 306 -20 265 -12 229 2 C 192 16 160 37 133 64 C 105 90 84 122 69 159 C 53 195 46 236 46 280 Z M 498 1122 C 519 1122 537 1129 552 1144 C 566 1158 574 1177 574 1200 C 574 1221 567 1239 553 1254 C 539 1268 520 1276 498 1276 C 475 1276 457 1268 443 1254 C 429 1239 422 1220 422 1198 C 422 1175 429 1157 444 1143 C 458 1129 476 1122 498 1122 Z M 498 1008 C 447 1008 403 1025 365 1059 C 327 1093 308 1139 308 1198 C 308 1251 326 1296 362 1334 C 398 1371 443 1390 498 1390 C 524 1390 549 1385 573 1375 C 596 1365 616 1351 633 1334 C 649 1316 663 1296 673 1273 C 683 1249 688 1225 688 1200 C 688 1173 683 1148 673 1126 C 663 1103 649 1083 632 1065 C 614 1047 594 1033 571 1023 C 547 1013 523 1008 498 1008 Z" unicode="å" />
<glyph horiz-adv-x="1520" d="M 1042 706 C 991 706 948 689 912 657 C 876 624 855 584 850 538 C 850 528 851 523 853 521 C 855 519 860 518 870 518 L 1206 518 C 1215 518 1221 519 1224 521 C 1226 523 1227 528 1226 538 C 1220 588 1203 629 1173 660 C 1143 690 1099 706 1042 706 Z M 724 142 C 724 144 721 146 716 146 C 712 146 709 145 708 144 C 694 125 677 106 657 86 C 636 66 611 48 583 32 C 554 16 521 3 483 -7 C 445 -17 402 -22 356 -22 C 308 -22 264 -14 226 1 C 187 16 154 37 128 63 C 101 89 81 120 67 156 C 53 192 46 231 46 274 C 46 366 76 440 137 497 C 197 553 280 582 384 582 C 432 582 474 575 510 563 C 546 550 573 536 592 522 C 594 520 597 520 600 520 C 605 520 608 525 608 536 L 608 564 C 608 662 542 712 412 712 C 357 712 313 704 281 690 C 248 675 224 662 210 652 C 206 648 203 646 202 646 C 192 646 188 651 188 662 L 188 822 C 188 832 197 843 215 853 C 233 863 255 871 281 879 C 307 886 335 892 366 896 C 396 900 425 902 452 902 C 498 902 538 897 571 888 C 603 878 631 867 653 853 C 675 839 692 823 706 807 C 719 790 730 774 738 758 C 739 755 742 754 746 754 C 748 754 751 755 754 758 C 783 795 821 828 869 858 C 916 887 976 902 1048 902 C 1120 902 1182 890 1234 866 C 1286 842 1329 808 1363 764 C 1397 720 1422 668 1439 608 C 1455 548 1464 482 1464 410 L 1464 368 C 1464 360 1463 354 1461 352 C 1459 349 1453 348 1444 348 L 884 348 C 874 348 868 347 866 345 C 863 343 862 338 862 330 C 867 283 890 245 931 216 C 971 186 1028 172 1100 172 C 1142 172 1187 178 1234 191 C 1280 203 1318 221 1346 244 C 1348 245 1350 246 1352 248 C 1353 249 1355 250 1358 250 C 1363 250 1366 243 1366 230 L 1366 66 C 1366 54 1356 42 1337 32 C 1317 21 1293 12 1264 4 C 1234 -4 1203 -10 1169 -15 C 1135 -19 1104 -22 1076 -22 C 990 -22 921 -7 868 22 C 814 51 766 91 724 142 Z M 440 170 C 496 170 537 185 564 215 C 590 245 604 277 604 312 C 604 342 589 370 559 395 C 529 419 486 432 432 432 C 388 432 352 420 326 398 C 299 375 286 342 286 300 C 286 258 299 226 327 204 C 354 181 392 170 440 170 Z" unicode="æ" />
<glyph horiz-adv-x="828" d="M 388 22 C 417 22 447 17 479 9 C 510 0 538 -13 564 -31 C 589 -49 610 -71 626 -97 C 642 -123 650 -154 650 -190 C 650 -258 628 -315 586 -361 C 543 -407 488 -430 420 -430 C 398 -430 372 -427 342 -421 C 311 -415 286 -405 268 -392 C 260 -385 256 -377 258 -368 L 278 -258 C 280 -247 283 -242 286 -242 C 290 -242 293 -243 296 -246 C 310 -256 325 -265 339 -271 C 353 -277 370 -280 390 -280 C 419 -280 441 -272 457 -257 C 472 -241 480 -221 480 -196 C 480 -164 469 -140 448 -126 C 426 -111 402 -104 376 -104 C 368 -104 359 -104 349 -105 C 339 -105 332 -106 328 -106 C 321 -106 317 -105 315 -104 C 313 -102 312 -98 312 -90 L 332 22 L 388 22 Z M 748 22 C 733 14 716 7 697 2 C 677 -3 657 -7 636 -11 C 614 -14 593 -17 573 -19 C 552 -21 533 -22 516 -22 C 449 -22 387 -10 331 14 C 274 38 225 70 183 112 C 141 153 108 202 84 259 C 60 315 48 377 48 444 C 48 509 60 570 84 627 C 108 683 141 732 183 773 C 225 813 274 845 331 869 C 387 892 449 904 516 904 C 553 904 593 900 635 894 C 677 887 712 877 742 864 C 748 861 753 858 755 856 C 757 853 758 849 758 844 L 758 632 C 758 621 754 616 748 616 C 745 616 742 617 738 620 C 714 638 686 653 655 664 C 623 674 586 680 544 680 C 469 680 411 658 370 614 C 328 570 308 513 308 444 C 308 374 328 317 368 271 C 408 225 466 202 544 202 C 589 202 628 208 660 221 C 692 233 720 250 746 270 C 747 271 750 272 754 272 C 760 272 764 267 764 258 L 764 42 C 764 36 763 32 761 30 C 759 27 754 24 748 22 Z" unicode="ç" />
<glyph horiz-adv-x="986" d="M 316 330 C 321 283 344 246 385 220 C 425 193 483 180 558 180 C 603 180 648 186 694 199 C 739 211 776 229 806 252 C 808 254 812 256 818 256 C 823 256 826 249 826 236 L 826 62 C 826 54 819 45 806 36 C 794 28 777 20 757 13 C 736 5 713 0 689 -6 C 664 -11 638 -15 611 -18 C 583 -20 558 -22 534 -22 C 460 -22 394 -10 335 14 C 275 38 225 70 184 112 C 142 153 111 202 89 259 C 67 315 56 377 56 444 C 56 509 66 570 88 626 C 109 682 139 730 178 772 C 216 813 263 845 317 869 C 371 892 430 904 496 904 C 565 904 627 892 681 869 C 735 845 780 813 818 771 C 855 729 883 679 902 621 C 920 563 930 498 930 428 L 930 396 C 930 376 929 363 927 357 C 925 351 918 348 908 348 L 338 348 C 328 348 322 347 320 345 C 317 343 316 338 316 330 Z M 490 700 C 439 700 397 686 364 658 C 330 630 311 592 306 546 C 306 536 307 531 309 529 C 311 527 316 526 326 526 L 654 526 C 664 526 671 527 673 529 C 675 531 675 536 674 546 C 668 592 650 630 620 658 C 589 686 546 700 490 700 Z M 668 1032 C 673 1025 676 1020 676 1016 C 676 1013 671 1012 662 1012 L 486 1012 C 476 1012 469 1014 464 1018 C 458 1022 453 1026 448 1032 L 194 1280 C 186 1288 182 1293 182 1296 C 182 1298 188 1300 202 1300 L 462 1300 C 470 1300 475 1298 479 1296 C 482 1293 487 1288 494 1280 L 668 1032 Z" unicode="è" />
<glyph horiz-adv-x="986" d="M 316 330 C 321 283 344 246 385 220 C 425 193 483 180 558 180 C 603 180 648 186 694 199 C 739 211 776 229 806 252 C 808 254 812 256 818 256 C 823 256 826 249 826 236 L 826 62 C 826 54 819 45 806 36 C 794 28 777 20 757 13 C 736 5 713 0 689 -6 C 664 -11 638 -15 611 -18 C 583 -20 558 -22 534 -22 C 460 -22 394 -10 335 14 C 275 38 225 70 184 112 C 142 153 111 202 89 259 C 67 315 56 377 56 444 C 56 509 66 570 88 626 C 109 682 139 730 178 772 C 216 813 263 845 317 869 C 371 892 430 904 496 904 C 565 904 627 892 681 869 C 735 845 780 813 818 771 C 855 729 883 679 902 621 C 920 563 930 498 930 428 L 930 396 C 930 376 929 363 927 357 C 925 351 918 348 908 348 L 338 348 C 328 348 322 347 320 345 C 317 343 316 338 316 330 Z M 490 700 C 439 700 397 686 364 658 C 330 630 311 592 306 546 C 306 536 307 531 309 529 C 311 527 316 526 326 526 L 654 526 C 664 526 671 527 673 529 C 675 531 675 536 674 546 C 668 592 650 630 620 658 C 589 686 546 700 490 700 Z M 548 1280 C 554 1288 559 1293 563 1296 C 566 1298 572 1300 580 1300 L 840 1300 C 853 1300 860 1298 860 1296 C 860 1293 856 1288 848 1280 L 594 1032 C 588 1026 583 1022 578 1018 C 572 1014 565 1012 556 1012 L 380 1012 C 370 1012 366 1013 366 1016 C 366 1020 368 1025 374 1032 L 548 1280 Z" unicode="é" />
<glyph horiz-adv-x="986" d="M 316 330 C 321 283 344 246 385 220 C 425 193 483 180 558 180 C 603 180 648 186 694 199 C 739 211 776 229 806 252 C 808 254 812 256 818 256 C 823 256 826 249 826 236 L 826 62 C 826 54 819 45 806 36 C 794 28 777 20 757 13 C 736 5 713 0 689 -6 C 664 -11 638 -15 611 -18 C 583 -20 558 -22 534 -22 C 460 -22 394 -10 335 14 C 275 38 225 70 184 112 C 142 153 111 202 89 259 C 67 315 56 377 56 444 C 56 509 66 570 88 626 C 109 682 139 730 178 772 C 216 813 263 845 317 869 C 371 892 430 904 496 904 C 565 904 627 892 681 869 C 735 845 780 813 818 771 C 855 729 883 679 902 621 C 920 563 930 498 930 428 L 930 396 C 930 376 929 363 927 357 C 925 351 918 348 908 348 L 338 348 C 328 348 322 347 320 345 C 317 343 316 338 316 330 Z M 490 700 C 439 700 397 686 364 658 C 330 630 311 592 306 546 C 306 536 307 531 309 529 C 311 527 316 526 326 526 L 654 526 C 664 526 671 527 673 529 C 675 531 675 536 674 546 C 668 592 650 630 620 658 C 589 686 546 700 490 700 Z M 344 1280 C 350 1288 356 1293 362 1296 C 367 1298 374 1300 382 1300 L 594 1300 C 608 1300 621 1293 632 1280 L 848 1032 C 852 1026 854 1022 854 1018 C 854 1014 850 1012 842 1012 L 658 1012 C 648 1012 642 1014 638 1018 C 634 1022 629 1026 624 1032 L 504 1160 C 501 1162 497 1164 492 1164 C 486 1164 482 1162 480 1160 L 364 1032 C 358 1026 354 1022 350 1018 C 346 1014 339 1012 330 1012 L 142 1012 C 134 1012 130 1014 130 1018 C 130 1022 132 1026 136 1032 L 344 1280 Z" unicode="ê" />
<glyph horiz-adv-x="986" d="M 316 330 C 321 283 344 246 385 220 C 425 193 483 180 558 180 C 603 180 648 186 694 199 C 739 211 776 229 806 252 C 808 254 812 256 818 256 C 823 256 826 249 826 236 L 826 62 C 826 54 819 45 806 36 C 794 28 777 20 757 13 C 736 5 713 0 689 -6 C 664 -11 638 -15 611 -18 C 583 -20 558 -22 534 -22 C 460 -22 394 -10 335 14 C 275 38 225 70 184 112 C 142 153 111 202 89 259 C 67 315 56 377 56 444 C 56 509 66 570 88 626 C 109 682 139 730 178 772 C 216 813 263 845 317 869 C 371 892 430 904 496 904 C 565 904 627 892 681 869 C 735 845 780 813 818 771 C 855 729 883 679 902 621 C 920 563 930 498 930 428 L 930 396 C 930 376 929 363 927 357 C 925 351 918 348 908 348 L 338 348 C 328 348 322 347 320 345 C 317 343 316 338 316 330 Z M 490 700 C 439 700 397 686 364 658 C 330 630 311 592 306 546 C 306 536 307 531 309 529 C 311 527 316 526 326 526 L 654 526 C 664 526 671 527 673 529 C 675 531 675 536 674 546 C 668 592 650 630 620 658 C 589 686 546 700 490 700 Z M 694 1044 C 656 1044 624 1057 597 1083 C 569 1109 556 1142 556 1184 C 556 1224 569 1257 596 1285 C 622 1312 655 1326 694 1326 C 734 1326 767 1312 793 1284 C 819 1256 832 1223 832 1186 C 832 1147 818 1114 792 1086 C 765 1058 732 1044 694 1044 Z M 290 1044 C 252 1044 220 1057 193 1083 C 165 1109 152 1142 152 1184 C 152 1224 165 1257 191 1285 C 217 1312 250 1326 290 1326 C 330 1326 363 1312 389 1284 C 415 1256 428 1223 428 1186 C 428 1147 414 1114 388 1086 C 361 1058 328 1044 290 1044 Z" unicode="ë" />
<glyph horiz-adv-x="446" d="M 94 862 C 94 870 95 875 97 878 C 99 880 104 882 114 882 L 332 882 C 341 882 347 880 349 878 C 351 875 352 870 352 862 L 352 20 C 352 12 351 6 349 4 C 347 1 341 0 332 0 L 114 0 C 104 0 99 1 97 4 C 95 6 94 12 94 20 L 94 862 Z M 202 1012 C 191 1012 183 1013 179 1016 C 174 1018 168 1024 160 1032 L -54 1282 C -60 1288 -64 1294 -64 1298 C -64 1300 -58 1302 -46 1302 L 194 1302 C 208 1302 219 1295 226 1282 L 360 1032 C 364 1025 366 1020 366 1018 C 366 1014 361 1012 352 1012 L 202 1012 Z" unicode="ì" />
<glyph horiz-adv-x="446" d="M 94 862 C 94 870 95 875 97 878 C 99 880 104 882 114 882 L 332 882 C 341 882 347 880 349 878 C 351 875 352 870 352 862 L 352 20 C 352 12 351 6 349 4 C 347 1 341 0 332 0 L 114 0 C 104 0 99 1 97 4 C 95 6 94 12 94 20 L 94 862 Z M 92 1012 C 82 1012 78 1014 78 1018 C 78 1020 80 1025 84 1032 L 218 1282 C 224 1295 235 1302 250 1302 L 490 1302 C 502 1302 508 1300 508 1298 C 508 1294 504 1288 498 1282 L 284 1032 C 276 1024 269 1018 265 1016 C 260 1013 252 1012 242 1012 L 92 1012 L 92 1012 Z" unicode="í" />
<glyph horiz-adv-x="446" d="M 94 862 C 94 870 95 875 97 878 C 99 880 104 882 114 882 L 332 882 C 341 882 347 880 349 878 C 351 875 352 870 352 862 L 352 20 C 352 12 351 6 349 4 C 347 1 341 0 332 0 L 114 0 C 104 0 99 1 97 4 C 95 6 94 12 94 20 L 94 862 Z M 74 1282 C 80 1290 86 1295 92 1298 C 97 1300 104 1302 112 1302 L 324 1302 C 338 1302 351 1295 362 1282 L 518 1032 C 522 1026 524 1022 524 1018 C 524 1014 520 1012 512 1012 L 348 1012 C 338 1012 332 1014 328 1018 C 324 1022 319 1026 314 1032 L 234 1162 C 231 1164 227 1166 222 1166 C 216 1166 212 1164 210 1162 L 134 1032 C 128 1026 124 1022 120 1018 C 116 1014 109 1012 100 1012 L -68 1012 C -76 1012 -80 1014 -80 1018 C -80 1022 -78 1026 -74 1032 L 74 1282 Z" unicode="î" />
<glyph horiz-adv-x="446" d="M 94 862 C 94 870 95 875 97 878 C 99 880 104 882 114 882 L 332 882 C 341 882 347 880 349 878 C 351 875 352 870 352 862 L 352 20 C 352 12 351 6 349 4 C 347 1 341 0 332 0 L 114 0 C 104 0 99 1 97 4 C 95 6 94 12 94 20 L 94 862 Z M 398 1038 C 363 1038 333 1050 307 1075 C 281 1099 268 1131 268 1170 C 268 1207 280 1239 306 1265 C 331 1291 362 1304 398 1304 C 436 1304 468 1290 492 1264 C 516 1237 528 1206 528 1172 C 528 1134 515 1103 491 1077 C 466 1051 435 1038 398 1038 Z M 46 1038 C 11 1038 -19 1050 -45 1075 C -71 1099 -84 1131 -84 1170 C -84 1207 -72 1239 -48 1265 C -24 1291 7 1304 46 1304 C 83 1304 114 1290 139 1264 C 163 1237 176 1206 176 1172 C 176 1134 163 1103 138 1077 C 112 1051 82 1038 46 1038 Z" unicode="ï" />
<glyph horiz-adv-x="1054" d="M 304 440 C 304 406 309 375 319 347 C 329 318 343 293 363 271 C 382 249 405 231 433 219 C 460 206 491 200 526 200 C 560 200 591 206 618 219 C 644 231 667 249 686 271 C 704 293 719 318 729 347 C 739 375 744 406 744 440 C 744 472 739 502 729 531 C 719 559 704 585 686 607 C 667 629 644 646 618 660 C 591 673 560 680 526 680 C 491 680 460 673 433 660 C 405 646 382 629 363 607 C 343 585 329 559 319 531 C 309 502 304 472 304 440 Z M 682 1190 C 776 1076 851 960 907 841 C 962 721 990 590 992 446 L 992 440 C 992 374 980 314 956 258 C 932 202 899 153 857 112 C 815 70 765 38 709 15 C 652 -8 591 -20 526 -20 C 460 -20 399 -8 343 15 C 286 38 236 70 194 112 C 151 153 117 202 93 258 C 68 314 56 374 56 440 C 56 505 67 566 90 622 C 112 678 144 726 185 767 C 225 807 274 839 330 863 C 386 886 447 898 514 898 C 547 898 580 890 612 876 C 616 876 618 878 618 882 C 618 884 617 887 616 890 L 586 944 C 556 996 524 1044 488 1088 C 482 1094 478 1098 475 1099 C 471 1099 466 1098 458 1094 L 286 996 C 275 989 266 992 260 1004 C 258 1005 257 1007 256 1010 C 254 1012 252 1017 248 1025 C 244 1032 237 1043 229 1058 C 220 1072 209 1092 196 1116 C 192 1122 190 1127 191 1131 C 191 1134 195 1138 202 1144 L 344 1224 C 353 1229 358 1233 358 1235 C 358 1237 354 1241 348 1248 C 325 1270 302 1291 278 1311 C 254 1330 228 1351 202 1374 C 191 1382 190 1390 200 1400 L 310 1510 C 318 1519 326 1520 336 1512 C 366 1489 398 1464 430 1438 C 462 1411 494 1381 526 1348 C 535 1338 546 1337 558 1344 L 746 1454 C 756 1460 765 1458 772 1446 L 842 1326 C 846 1319 847 1314 847 1311 C 846 1307 842 1303 836 1298 L 688 1216 C 681 1212 677 1208 675 1205 C 673 1201 675 1196 682 1190 Z" unicode="ð" />
<glyph horiz-adv-x="1026" d="M 938 20 C 938 12 937 6 935 4 C 933 1 927 0 918 0 L 700 0 C 690 0 685 1 683 4 C 681 6 680 12 680 20 L 680 514 C 680 567 668 608 646 636 C 623 664 586 678 536 678 C 476 678 430 657 399 616 C 367 574 352 520 352 452 L 352 20 C 352 12 351 6 349 4 C 347 1 341 0 332 0 L 114 0 C 104 0 99 1 97 4 C 95 6 94 12 94 20 L 94 862 C 94 870 95 875 97 878 C 99 880 104 882 114 882 L 332 882 C 341 882 347 880 349 878 C 351 875 352 870 352 862 L 352 782 C 352 779 354 778 360 778 C 364 778 366 778 368 780 C 410 818 454 849 498 871 C 542 893 591 904 646 904 C 699 904 744 895 782 878 C 819 860 849 837 872 807 C 894 777 911 741 922 700 C 932 658 938 614 938 568 L 938 20 Z M 852 1204 C 852 1150 833 1105 795 1067 C 757 1029 708 1010 648 1010 C 605 1010 571 1016 546 1030 C 520 1043 499 1058 482 1075 C 464 1091 448 1106 434 1120 C 419 1133 401 1140 380 1140 C 361 1140 345 1133 332 1121 C 318 1108 312 1090 312 1068 L 312 1056 C 312 1048 311 1042 309 1040 C 307 1037 301 1036 292 1036 L 178 1036 C 168 1036 163 1037 161 1040 C 159 1042 158 1048 158 1056 L 158 1104 C 158 1130 163 1155 175 1179 C 186 1202 201 1223 220 1241 C 238 1259 261 1273 287 1284 C 313 1294 340 1300 370 1300 C 411 1300 444 1293 469 1280 C 493 1266 514 1251 531 1235 C 547 1218 563 1203 577 1190 C 591 1176 608 1170 630 1170 C 648 1170 664 1176 678 1188 C 691 1200 698 1217 698 1240 L 698 1254 C 698 1262 699 1267 701 1270 C 703 1272 708 1274 718 1274 L 832 1274 C 841 1274 847 1272 849 1270 C 851 1267 852 1262 852 1254 L 852 1204 Z" unicode="ñ" />
<glyph horiz-adv-x="1068" d="M 56 444 C 56 510 68 572 93 628 C 117 684 151 732 195 774 C 238 815 289 847 347 870 C 405 892 467 904 534 904 C 600 904 663 892 721 870 C 779 847 829 815 873 774 C 916 732 950 684 975 628 C 999 572 1012 510 1012 444 C 1012 377 999 315 975 259 C 950 202 916 153 873 111 C 829 69 779 36 721 13 C 663 -10 600 -22 534 -22 C 467 -22 405 -10 347 13 C 289 36 238 69 195 111 C 151 153 117 202 93 259 C 68 315 56 377 56 444 Z M 316 444 C 316 410 321 379 331 350 C 341 320 355 295 374 273 C 392 251 415 233 442 221 C 468 208 499 202 534 202 C 568 202 599 208 626 221 C 652 233 675 251 694 273 C 712 295 727 320 737 350 C 747 379 752 410 752 444 C 752 476 747 506 737 535 C 727 563 712 588 694 610 C 675 631 652 648 626 661 C 599 673 568 680 534 680 C 499 680 468 673 442 661 C 415 648 392 631 374 610 C 355 588 341 563 331 535 C 321 506 316 476 316 444 Z M 668 1032 C 673 1025 676 1020 676 1016 C 676 1013 671 1012 662 1012 L 486 1012 C 476 1012 469 1014 464 1018 C 458 1022 453 1026 448 1032 L 194 1280 C 186 1288 182 1293 182 1296 C 182 1298 188 1300 202 1300 L 462 1300 C 470 1300 475 1298 479 1296 C 482 1293 487 1288 494 1280 L 668 1032 Z" unicode="ò" />
<glyph horiz-adv-x="1068" d="M 56 444 C 56 510 68 572 93 628 C 117 684 151 732 195 774 C 238 815 289 847 347 870 C 405 892 467 904 534 904 C 600 904 663 892 721 870 C 779 847 829 815 873 774 C 916 732 950 684 975 628 C 999 572 1012 510 1012 444 C 1012 377 999 315 975 259 C 950 202 916 153 873 111 C 829 69 779 36 721 13 C 663 -10 600 -22 534 -22 C 467 -22 405 -10 347 13 C 289 36 238 69 195 111 C 151 153 117 202 93 259 C 68 315 56 377 56 444 Z M 316 444 C 316 410 321 379 331 350 C 341 320 355 295 374 273 C 392 251 415 233 442 221 C 468 208 499 202 534 202 C 568 202 599 208 626 221 C 652 233 675 251 694 273 C 712 295 727 320 737 350 C 747 379 752 410 752 444 C 752 476 747 506 737 535 C 727 563 712 588 694 610 C 675 631 652 648 626 661 C 599 673 568 680 534 680 C 499 680 468 673 442 661 C 415 648 392 631 374 610 C 355 588 341 563 331 535 C 321 506 316 476 316 444 Z M 608 1280 C 614 1288 619 1293 623 1296 C 626 1298 632 1300 640 1300 L 900 1300 C 913 1300 920 1298 920 1296 C 920 1293 916 1288 908 1280 L 654 1032 C 648 1026 643 1022 638 1018 C 632 1014 625 1012 616 1012 L 440 1012 C 430 1012 426 1013 426 1016 C 426 1020 428 1025 434 1032 L 608 1280 Z" unicode="ó" />
<glyph horiz-adv-x="1068" d="M 56 444 C 56 510 68 572 93 628 C 117 684 151 732 195 774 C 238 815 289 847 347 870 C 405 892 467 904 534 904 C 600 904 663 892 721 870 C 779 847 829 815 873 774 C 916 732 950 684 975 628 C 999 572 1012 510 1012 444 C 1012 377 999 315 975 259 C 950 202 916 153 873 111 C 829 69 779 36 721 13 C 663 -10 600 -22 534 -22 C 467 -22 405 -10 347 13 C 289 36 238 69 195 111 C 151 153 117 202 93 259 C 68 315 56 377 56 444 Z M 316 444 C 316 410 321 379 331 350 C 341 320 355 295 374 273 C 392 251 415 233 442 221 C 468 208 499 202 534 202 C 568 202 599 208 626 221 C 652 233 675 251 694 273 C 712 295 727 320 737 350 C 747 379 752 410 752 444 C 752 476 747 506 737 535 C 727 563 712 588 694 610 C 675 631 652 648 626 661 C 599 673 568 680 534 680 C 499 680 468 673 442 661 C 415 648 392 631 374 610 C 355 588 341 563 331 535 C 321 506 316 476 316 444 Z M 386 1280 C 392 1288 398 1293 404 1296 C 409 1298 416 1300 424 1300 L 636 1300 C 650 1300 663 1293 674 1280 L 890 1032 C 894 1026 896 1022 896 1018 C 896 1014 892 1012 884 1012 L 700 1012 C 690 1012 684 1014 680 1018 C 676 1022 671 1026 666 1032 L 546 1160 C 543 1162 539 1164 534 1164 C 528 1164 524 1162 522 1160 L 406 1032 C 400 1026 396 1022 392 1018 C 388 1014 381 1012 372 1012 L 184 1012 C 176 1012 172 1014 172 1018 C 172 1022 174 1026 178 1032 L 386 1280 Z" unicode="ô" />
<glyph horiz-adv-x="1068" d="M 56 444 C 56 510 68 572 93 628 C 117 684 151 732 195 774 C 238 815 289 847 347 870 C 405 892 467 904 534 904 C 600 904 663 892 721 870 C 779 847 829 815 873 774 C 916 732 950 684 975 628 C 999 572 1012 510 1012 444 C 1012 377 999 315 975 259 C 950 202 916 153 873 111 C 829 69 779 36 721 13 C 663 -10 600 -22 534 -22 C 467 -22 405 -10 347 13 C 289 36 238 69 195 111 C 151 153 117 202 93 259 C 68 315 56 377 56 444 Z M 316 444 C 316 410 321 379 331 350 C 341 320 355 295 374 273 C 392 251 415 233 442 221 C 468 208 499 202 534 202 C 568 202 599 208 626 221 C 652 233 675 251 694 273 C 712 295 727 320 737 350 C 747 379 752 410 752 444 C 752 476 747 506 737 535 C 727 563 712 588 694 610 C 675 631 652 648 626 661 C 599 673 568 680 534 680 C 499 680 468 673 442 661 C 415 648 392 631 374 610 C 355 588 341 563 331 535 C 321 506 316 476 316 444 Z M 880 1204 C 880 1150 861 1105 823 1067 C 785 1029 736 1010 676 1010 C 633 1010 599 1016 574 1030 C 548 1043 527 1058 510 1075 C 492 1091 476 1106 462 1120 C 447 1133 429 1140 408 1140 C 389 1140 373 1133 360 1121 C 346 1108 340 1090 340 1068 L 340 1056 C 340 1048 339 1042 337 1040 C 335 1037 329 1036 320 1036 L 206 1036 C 196 1036 191 1037 189 1040 C 187 1042 186 1048 186 1056 L 186 1104 C 186 1130 191 1155 203 1179 C 214 1202 229 1223 248 1241 C 266 1259 289 1273 315 1284 C 341 1294 368 1300 398 1300 C 439 1300 472 1293 497 1280 C 521 1266 542 1251 559 1235 C 575 1218 591 1203 605 1190 C 619 1176 636 1170 658 1170 C 676 1170 692 1176 706 1188 C 719 1200 726 1217 726 1240 L 726 1254 C 726 1262 727 1267 729 1270 C 731 1272 736 1274 746 1274 L 860 1274 C 869 1274 875 1272 877 1270 C 879 1267 880 1262 880 1254 L 880 1204 Z" unicode="õ" />
<glyph horiz-adv-x="1068" d="M 56 444 C 56 510 68 572 93 628 C 117 684 151 732 195 774 C 238 815 289 847 347 870 C 405 892 467 904 534 904 C 600 904 663 892 721 870 C 779 847 829 815 873 774 C 916 732 950 684 975 628 C 999 572 1012 510 1012 444 C 1012 377 999 315 975 259 C 950 202 916 153 873 111 C 829 69 779 36 721 13 C 663 -10 600 -22 534 -22 C 467 -22 405 -10 347 13 C 289 36 238 69 195 111 C 151 153 117 202 93 259 C 68 315 56 377 56 444 Z M 316 444 C 316 410 321 379 331 350 C 341 320 355 295 374 273 C 392 251 415 233 442 221 C 468 208 499 202 534 202 C 568 202 599 208 626 221 C 652 233 675 251 694 273 C 712 295 727 320 737 350 C 747 379 752 410 752 444 C 752 476 747 506 737 535 C 727 563 712 588 694 610 C 675 631 652 648 626 661 C 599 673 568 680 534 680 C 499 680 468 673 442 661 C 415 648 392 631 374 610 C 355 588 341 563 331 535 C 321 506 316 476 316 444 Z M 736 1044 C 698 1044 666 1057 639 1083 C 611 1109 598 1142 598 1184 C 598 1224 611 1257 638 1285 C 664 1312 697 1326 736 1326 C 776 1326 809 1312 835 1284 C 861 1256 874 1223 874 1186 C 874 1147 860 1114 834 1086 C 807 1058 774 1044 736 1044 Z M 332 1044 C 294 1044 262 1057 235 1083 C 207 1109 194 1142 194 1184 C 194 1224 207 1257 233 1285 C 259 1312 292 1326 332 1326 C 372 1326 405 1312 431 1284 C 457 1256 470 1223 470 1186 C 470 1147 456 1114 430 1086 C 403 1058 370 1044 332 1044 Z" unicode="ö" />
<glyph horiz-adv-x="1040" d="M 518 -6 C 501 -6 485 -2 469 4 C 453 10 440 19 428 31 C 416 43 406 56 399 72 C 391 88 388 105 388 124 C 388 141 391 158 398 174 C 405 190 415 204 427 216 C 439 228 452 237 468 245 C 484 252 500 256 518 256 C 535 256 551 252 567 245 C 583 237 597 228 609 216 C 621 204 630 190 637 174 C 644 158 648 142 648 126 C 648 108 644 92 637 76 C 629 60 620 46 608 34 C 596 22 582 12 566 5 C 550 -2 534 -6 518 -6 Z M 518 688 C 501 688 485 691 469 698 C 453 704 440 713 428 725 C 416 737 406 750 399 766 C 391 782 388 799 388 818 C 388 835 391 852 398 868 C 405 884 415 898 427 910 C 439 922 452 931 468 939 C 484 946 500 950 518 950 C 535 950 551 946 567 939 C 583 931 597 922 609 910 C 621 898 630 884 637 868 C 644 852 648 836 648 820 C 648 802 644 786 637 770 C 629 754 620 740 608 728 C 596 716 582 706 566 699 C 550 691 534 688 518 688 Z M 950 566 C 959 566 965 564 967 562 C 969 559 970 554 970 546 L 970 412 C 970 404 969 398 967 396 C 965 393 959 392 950 392 L 90 392 C 80 392 75 393 73 396 C 71 398 70 404 70 412 L 70 546 C 70 554 71 559 73 562 C 75 564 80 566 90 566 L 950 566 Z" unicode="÷" />
<glyph horiz-adv-x="1068" d="M 56 442 C 56 507 68 568 94 624 C 119 680 153 728 197 770 C 240 811 291 843 350 867 C 408 890 471 902 538 902 C 591 902 642 894 691 879 C 739 863 783 842 822 814 L 894 890 C 898 894 902 896 906 896 C 907 896 911 894 918 890 L 982 824 C 986 820 988 816 988 812 C 988 808 986 804 982 800 L 912 730 C 942 690 967 646 985 598 C 1003 550 1012 498 1012 442 C 1012 376 999 316 975 260 C 950 204 916 155 873 113 C 829 71 779 38 721 14 C 663 -10 600 -22 534 -22 C 478 -22 426 -14 378 2 C 330 18 286 40 246 68 L 172 -8 C 168 -12 164 -14 160 -14 C 157 -14 153 -12 148 -8 L 82 56 C 78 60 76 64 76 68 C 76 72 78 76 82 80 L 156 154 C 125 194 101 238 83 286 C 65 334 56 386 56 442 Z M 764 442 C 764 484 755 522 738 556 L 404 236 C 422 225 442 216 463 210 C 483 203 507 200 534 200 C 570 200 602 206 631 219 C 659 231 684 249 704 271 C 724 293 739 318 749 348 C 759 377 764 408 764 442 Z M 304 442 C 304 403 312 365 330 328 L 662 644 C 627 668 586 680 540 680 C 502 680 469 673 440 661 C 410 648 386 631 366 609 C 346 587 330 561 320 533 C 309 504 304 474 304 442 Z" unicode="ø" />
<glyph horiz-adv-x="984" d="M 492 -22 C 425 -22 367 -12 318 8 C 268 28 228 55 196 89 C 164 123 140 163 124 210 C 108 256 100 307 100 362 L 100 862 C 100 870 101 875 103 878 C 105 880 110 882 120 882 L 338 882 C 347 882 353 880 355 878 C 357 875 358 870 358 862 L 358 366 C 358 307 370 265 394 240 C 418 214 450 202 492 202 C 533 202 566 214 590 240 C 614 265 626 307 626 366 L 626 862 C 626 870 627 875 629 878 C 631 880 636 882 646 882 L 864 882 C 873 882 879 880 881 878 C 883 875 884 870 884 862 L 884 362 C 884 307 876 256 860 210 C 844 163 820 123 788 89 C 756 55 715 28 666 8 C 616 -12 558 -22 492 -22 Z M 618 1032 C 623 1025 626 1020 626 1016 C 626 1013 621 1012 612 1012 L 436 1012 C 426 1012 419 1014 414 1018 C 408 1022 403 1026 398 1032 L 144 1280 C 136 1288 132 1293 132 1296 C 132 1298 138 1300 152 1300 L 412 1300 C 420 1300 425 1298 429 1296 C 432 1293 437 1288 444 1280 L 618 1032 Z" unicode="ù" />
<glyph horiz-adv-x="984" d="M 492 -22 C 425 -22 367 -12 318 8 C 268 28 228 55 196 89 C 164 123 140 163 124 210 C 108 256 100 307 100 362 L 100 862 C 100 870 101 875 103 878 C 105 880 110 882 120 882 L 338 882 C 347 882 353 880 355 878 C 357 875 358 870 358 862 L 358 366 C 358 307 370 265 394 240 C 418 214 450 202 492 202 C 533 202 566 214 590 240 C 614 265 626 307 626 366 L 626 862 C 626 870 627 875 629 878 C 631 880 636 882 646 882 L 864 882 C 873 882 879 880 881 878 C 883 875 884 870 884 862 L 884 362 C 884 307 876 256 860 210 C 844 163 820 123 788 89 C 756 55 715 28 666 8 C 616 -12 558 -22 492 -22 Z M 534 1280 C 540 1288 545 1293 549 1296 C 552 1298 558 1300 566 1300 L 826 1300 C 839 1300 846 1298 846 1296 C 846 1293 842 1288 834 1280 L 580 1032 C 574 1026 569 1022 564 1018 C 558 1014 551 1012 542 1012 L 366 1012 C 356 1012 352 1013 352 1016 C 352 1020 354 1025 360 1032 L 534 1280 Z" unicode="ú" />
<glyph horiz-adv-x="984" d="M 492 -22 C 425 -22 367 -12 318 8 C 268 28 228 55 196 89 C 164 123 140 163 124 210 C 108 256 100 307 100 362 L 100 862 C 100 870 101 875 103 878 C 105 880 110 882 120 882 L 338 882 C 347 882 353 880 355 878 C 357 875 358 870 358 862 L 358 366 C 358 307 370 265 394 240 C 418 214 450 202 492 202 C 533 202 566 214 590 240 C 614 265 626 307 626 366 L 626 862 C 626 870 627 875 629 878 C 631 880 636 882 646 882 L 864 882 C 873 882 879 880 881 878 C 883 875 884 870 884 862 L 884 362 C 884 307 876 256 860 210 C 844 163 820 123 788 89 C 756 55 715 28 666 8 C 616 -12 558 -22 492 -22 Z M 344 1280 C 350 1288 356 1293 362 1296 C 367 1298 374 1300 382 1300 L 594 1300 C 608 1300 621 1293 632 1280 L 848 1032 C 852 1026 854 1022 854 1018 C 854 1014 850 1012 842 1012 L 658 1012 C 648 1012 642 1014 638 1018 C 634 1022 629 1026 624 1032 L 504 1160 C 501 1162 497 1164 492 1164 C 486 1164 482 1162 480 1160 L 364 1032 C 358 1026 354 1022 350 1018 C 346 1014 339 1012 330 1012 L 142 1012 C 134 1012 130 1014 130 1018 C 130 1022 132 1026 136 1032 L 344 1280 Z" unicode="û" />
<glyph horiz-adv-x="984" d="M 492 -22 C 425 -22 367 -12 318 8 C 268 28 228 55 196 89 C 164 123 140 163 124 210 C 108 256 100 307 100 362 L 100 862 C 100 870 101 875 103 878 C 105 880 110 882 120 882 L 338 882 C 347 882 353 880 355 878 C 357 875 358 870 358 862 L 358 366 C 358 307 370 265 394 240 C 418 214 450 202 492 202 C 533 202 566 214 590 240 C 614 265 626 307 626 366 L 626 862 C 626 870 627 875 629 878 C 631 880 636 882 646 882 L 864 882 C 873 882 879 880 881 878 C 883 875 884 870 884 862 L 884 362 C 884 307 876 256 860 210 C 844 163 820 123 788 89 C 756 55 715 28 666 8 C 616 -12 558 -22 492 -22 Z M 694 1044 C 656 1044 624 1057 597 1083 C 569 1109 556 1142 556 1184 C 556 1224 569 1257 596 1285 C 622 1312 655 1326 694 1326 C 734 1326 767 1312 793 1284 C 819 1256 832 1223 832 1186 C 832 1147 818 1114 792 1086 C 765 1058 732 1044 694 1044 Z M 290 1044 C 252 1044 220 1057 193 1083 C 165 1109 152 1142 152 1184 C 152 1224 165 1257 191 1285 C 217 1312 250 1326 290 1326 C 330 1326 363 1312 389 1284 C 415 1256 428 1223 428 1186 C 428 1147 414 1114 388 1086 C 361 1058 328 1044 290 1044 Z" unicode="ü" />
<glyph horiz-adv-x="958" d="M 470 348 C 471 344 474 342 478 342 C 480 342 483 344 486 348 L 694 862 C 698 870 701 875 704 878 C 706 880 712 882 720 882 L 950 882 C 962 882 968 879 968 874 C 968 874 966 870 964 862 C 873 647 783 433 694 220 C 604 6 514 -207 424 -422 C 420 -430 416 -435 414 -438 C 411 -440 406 -442 398 -442 L 170 -442 C 158 -442 152 -439 152 -434 C 152 -434 153 -430 156 -422 L 338 20 C 340 26 342 32 342 38 C 342 43 340 49 338 56 L 4 862 C 1 870 0 874 0 874 C 0 879 6 882 18 882 L 242 882 C 250 882 255 880 258 878 C 260 875 264 870 268 862 L 470 348 Z M 494 1280 C 500 1288 505 1293 509 1296 C 512 1298 518 1300 526 1300 L 786 1300 C 799 1300 806 1298 806 1296 C 806 1293 802 1288 794 1280 L 540 1032 C 534 1026 529 1022 524 1018 C 518 1014 511 1012 502 1012 L 326 1012 C 316 1012 312 1013 312 1016 C 312 1020 314 1025 320 1032 L 494 1280 Z" unicode="ý" />
<glyph horiz-adv-x="1100" d="M 786 444 C 786 476 781 506 771 535 C 761 563 746 589 728 611 C 709 633 686 650 659 663 C 631 675 600 682 566 682 C 531 682 500 675 473 663 C 445 650 422 633 403 611 C 383 589 369 563 359 535 C 349 506 344 476 344 444 C 344 410 349 379 359 349 C 369 319 383 293 403 271 C 422 249 445 231 473 219 C 500 206 531 200 566 200 C 600 200 631 206 659 219 C 686 231 709 249 728 271 C 746 293 761 319 771 349 C 781 379 786 410 786 444 Z M 348 798 C 348 795 350 794 356 794 C 360 794 362 794 364 796 C 390 826 427 852 474 873 C 520 893 572 904 630 904 C 691 904 747 891 799 867 C 850 842 894 809 931 767 C 967 725 996 676 1016 621 C 1036 565 1046 506 1046 444 C 1046 381 1036 322 1016 266 C 996 210 967 160 931 118 C 894 75 850 41 799 16 C 747 -9 691 -22 630 -22 C 572 -22 520 -11 474 10 C 427 31 390 57 364 88 C 362 89 360 90 356 90 C 350 90 348 88 348 86 L 348 -420 C 348 -428 347 -433 345 -436 C 343 -438 337 -440 328 -440 L 112 -440 C 102 -440 97 -438 95 -436 C 93 -433 92 -428 92 -420 L 92 1480 C 92 1488 93 1493 95 1496 C 97 1498 102 1500 112 1500 L 328 1500 C 337 1500 343 1498 345 1496 C 347 1493 348 1488 348 1480 L 348 798 Z" unicode="þ" />
<glyph horiz-adv-x="958" d="M 470 348 C 471 344 474 342 478 342 C 480 342 483 344 486 348 L 694 862 C 698 870 701 875 704 878 C 706 880 712 882 720 882 L 950 882 C 962 882 968 879 968 874 C 968 874 966 870 964 862 C 873 647 783 433 694 220 C 604 6 514 -207 424 -422 C 420 -430 416 -435 414 -438 C 411 -440 406 -442 398 -442 L 170 -442 C 158 -442 152 -439 152 -434 C 152 -434 153 -430 156 -422 L 338 20 C 340 26 342 32 342 38 C 342 43 340 49 338 56 L 4 862 C 1 870 0 874 0 874 C 0 879 6 882 18 882 L 242 882 C 250 882 255 880 258 878 C 260 875 264 870 268 862 L 470 348 Z M 680 1044 C 642 1044 610 1057 583 1083 C 555 1109 542 1142 542 1184 C 542 1224 555 1257 582 1285 C 608 1312 641 1326 680 1326 C 720 1326 753 1312 779 1284 C 805 1256 818 1223 818 1186 C 818 1147 804 1114 778 1086 C 751 1058 718 1044 680 1044 Z M 276 1044 C 238 1044 206 1057 179 1083 C 151 1109 138 1142 138 1184 C 138 1224 151 1257 177 1285 C 203 1312 236 1326 276 1326 C 316 1326 349 1312 375 1284 C 401 1256 414 1223 414 1186 C 414 1147 400 1114 374 1086 C 347 1058 314 1044 276 1044 Z" unicode="ÿ" />
<glyph horiz-adv-x="1212" d="M 614 818 C 611 822 607 824 602 824 C 595 824 591 822 590 818 L 460 456 C 458 453 458 450 458 446 C 458 440 462 438 472 438 L 734 438 C 744 438 750 440 750 444 C 750 448 749 451 748 454 L 614 818 Z M 584 1422 C 588 1430 595 1434 606 1434 C 615 1434 622 1430 626 1422 L 1210 20 C 1211 17 1212 13 1212 8 C 1212 2 1207 0 1198 0 L 920 0 C 912 0 906 1 903 4 C 899 6 896 12 894 20 L 826 196 C 823 205 820 211 817 213 C 813 215 808 216 802 216 L 404 216 C 392 216 383 209 378 196 L 312 20 C 306 6 298 0 288 0 L 16 0 C 5 0 0 2 0 8 C 0 10 1 14 4 20 L 584 1422 Z M 296 1700 C 296 1709 297 1715 300 1717 C 302 1719 308 1720 316 1720 L 936 1720 C 945 1720 951 1719 953 1717 C 955 1715 956 1709 956 1700 L 956 1588 C 956 1578 955 1573 953 1571 C 951 1569 945 1568 936 1568 L 316 1568 C 306 1568 301 1569 299 1571 C 297 1573 296 1578 296 1588 L 296 1700 Z" unicode="Ā" />
<glyph horiz-adv-x="960" d="M 620 298 C 620 332 605 361 575 385 C 545 408 506 420 460 420 C 412 420 373 409 344 387 C 314 365 300 335 300 298 C 300 259 314 229 344 207 C 373 185 412 174 460 174 C 506 174 545 185 575 209 C 605 232 620 262 620 298 Z M 46 280 C 46 377 77 453 141 507 C 204 561 288 588 392 588 C 441 588 482 583 516 574 C 549 564 578 550 604 532 C 606 530 609 530 612 530 C 617 530 620 535 620 546 L 620 566 C 620 616 606 652 579 674 C 551 695 506 706 442 706 C 400 706 361 700 325 690 C 288 679 255 666 226 650 C 218 646 212 644 210 644 C 203 644 200 649 200 660 L 200 824 C 200 834 205 842 216 848 C 240 860 274 872 320 885 C 365 897 416 904 472 904 C 549 904 608 898 650 888 C 691 877 728 860 760 836 C 782 818 801 799 816 777 C 830 755 842 727 850 695 C 858 662 863 623 867 578 C 870 532 872 479 872 418 L 872 20 C 872 12 871 6 869 4 C 867 1 861 0 852 0 L 650 0 C 640 0 635 1 633 4 C 631 6 630 12 630 20 L 630 84 C 630 86 627 88 622 88 C 618 88 615 87 614 86 C 582 48 545 21 504 5 C 462 -11 411 -20 350 -20 C 306 -20 265 -12 229 2 C 192 16 160 37 133 64 C 105 90 84 122 69 159 C 53 195 46 236 46 280 Z M 178 1212 C 178 1221 179 1227 182 1229 C 184 1231 190 1232 198 1232 L 818 1232 C 827 1232 833 1231 835 1229 C 837 1227 838 1221 838 1212 L 838 1100 C 838 1090 837 1085 835 1083 C 833 1081 827 1080 818 1080 L 198 1080 C 188 1080 183 1081 181 1083 C 179 1085 178 1090 178 1100 L 178 1212 Z" unicode="ā" />
<glyph horiz-adv-x="1212" d="M 614 818 C 611 822 607 824 602 824 C 595 824 591 822 590 818 L 460 456 C 458 453 458 450 458 446 C 458 440 462 438 472 438 L 734 438 C 744 438 750 440 750 444 C 750 448 749 451 748 454 L 614 818 Z M 584 1422 C 588 1430 595 1434 606 1434 C 615 1434 622 1430 626 1422 L 1210 20 C 1211 17 1212 13 1212 8 C 1212 2 1207 0 1198 0 L 920 0 C 912 0 906 1 903 4 C 899 6 896 12 894 20 L 826 196 C 823 205 820 211 817 213 C 813 215 808 216 802 216 L 404 216 C 392 216 383 209 378 196 L 312 20 C 306 6 298 0 288 0 L 16 0 C 5 0 0 2 0 8 C 0 10 1 14 4 20 L 584 1422 Z M 626 1646 C 662 1646 691 1655 714 1673 C 736 1691 752 1722 760 1768 C 762 1781 771 1788 786 1788 L 932 1788 C 942 1788 946 1781 944 1768 C 928 1665 891 1593 834 1552 C 776 1510 707 1490 626 1490 C 544 1490 475 1510 418 1552 C 360 1593 324 1665 308 1768 C 304 1781 308 1788 320 1788 L 466 1788 C 480 1788 489 1781 492 1768 C 500 1722 516 1691 540 1673 C 564 1655 592 1646 626 1646 Z" unicode="Ă" />
<glyph horiz-adv-x="960" d="M 620 298 C 620 332 605 361 575 385 C 545 408 506 420 460 420 C 412 420 373 409 344 387 C 314 365 300 335 300 298 C 300 259 314 229 344 207 C 373 185 412 174 460 174 C 506 174 545 185 575 209 C 605 232 620 262 620 298 Z M 46 280 C 46 377 77 453 141 507 C 204 561 288 588 392 588 C 441 588 482 583 516 574 C 549 564 578 550 604 532 C 606 530 609 530 612 530 C 617 530 620 535 620 546 L 620 566 C 620 616 606 652 579 674 C 551 695 506 706 442 706 C 400 706 361 700 325 690 C 288 679 255 666 226 650 C 218 646 212 644 210 644 C 203 644 200 649 200 660 L 200 824 C 200 834 205 842 216 848 C 240 860 274 872 320 885 C 365 897 416 904 472 904 C 549 904 608 898 650 888 C 691 877 728 860 760 836 C 782 818 801 799 816 777 C 830 755 842 727 850 695 C 858 662 863 623 867 578 C 870 532 872 479 872 418 L 872 20 C 872 12 871 6 869 4 C 867 1 861 0 852 0 L 650 0 C 640 0 635 1 633 4 C 631 6 630 12 630 20 L 630 84 C 630 86 627 88 622 88 C 618 88 615 87 614 86 C 582 48 545 21 504 5 C 462 -11 411 -20 350 -20 C 306 -20 265 -12 229 2 C 192 16 160 37 133 64 C 105 90 84 122 69 159 C 53 195 46 236 46 280 Z M 520 1160 C 556 1160 585 1169 608 1187 C 630 1205 646 1236 654 1282 C 656 1295 665 1302 680 1302 L 826 1302 C 836 1302 840 1295 838 1282 C 822 1179 785 1107 728 1066 C 670 1024 601 1004 520 1004 C 438 1004 369 1024 312 1066 C 254 1107 218 1179 202 1282 C 198 1295 202 1302 214 1302 L 360 1302 C 374 1302 383 1295 386 1282 C 394 1236 410 1205 434 1187 C 458 1169 486 1160 520 1160 Z" unicode="ă" />
<glyph horiz-adv-x="1212" d="M 614 818 C 611 822 607 824 602 824 C 595 824 591 822 590 818 L 460 456 C 458 453 458 450 458 446 C 458 440 462 438 472 438 L 734 438 C 744 438 750 440 750 444 C 750 448 749 451 748 454 L 614 818 Z M 584 1422 C 588 1430 595 1434 606 1434 C 615 1434 622 1430 626 1422 L 1210 20 C 1211 17 1212 13 1212 8 C 1212 2 1207 0 1198 0 L 920 0 C 912 0 906 1 903 4 C 899 6 896 12 894 20 L 826 196 C 823 205 820 211 817 213 C 813 215 808 216 802 216 L 404 216 C 392 216 383 209 378 196 L 312 20 C 306 6 298 0 288 0 L 16 0 C 5 0 0 2 0 8 C 0 10 1 14 4 20 L 584 1422 Z M 1098 -402 C 1062 -402 1027 -397 995 -388 C 962 -378 933 -365 909 -347 C 884 -329 864 -306 849 -279 C 833 -251 826 -220 826 -186 C 826 -143 836 -103 857 -67 C 877 -30 906 5 942 40 L 1104 10 C 1081 -18 1061 -44 1045 -70 C 1028 -95 1016 -124 1010 -156 C 1004 -182 1011 -204 1030 -222 C 1048 -239 1073 -248 1104 -248 C 1129 -248 1155 -242 1182 -232 C 1184 -230 1188 -230 1192 -230 C 1196 -231 1198 -237 1198 -248 L 1198 -364 C 1198 -374 1193 -382 1184 -386 C 1160 -396 1131 -402 1098 -402 Z" unicode="Ą" />
<glyph horiz-adv-x="960" d="M 620 298 C 620 332 605 361 575 385 C 545 408 506 420 460 420 C 412 420 373 409 344 387 C 314 365 300 335 300 298 C 300 259 314 229 344 207 C 373 185 412 174 460 174 C 506 174 545 185 575 209 C 605 232 620 262 620 298 Z M 46 280 C 46 377 77 453 141 507 C 204 561 288 588 392 588 C 441 588 482 583 516 574 C 549 564 578 550 604 532 C 606 530 609 530 612 530 C 617 530 620 535 620 546 L 620 566 C 620 616 606 652 579 674 C 551 695 506 706 442 706 C 400 706 361 700 325 690 C 288 679 255 666 226 650 C 218 646 212 644 210 644 C 203 644 200 649 200 660 L 200 824 C 200 834 205 842 216 848 C 240 860 274 872 320 885 C 365 897 416 904 472 904 C 549 904 608 898 650 888 C 691 877 728 860 760 836 C 782 818 801 799 816 777 C 830 755 842 727 850 695 C 858 662 863 623 867 578 C 870 532 872 479 872 418 L 872 20 C 872 12 871 6 869 4 C 867 1 861 0 852 0 L 650 0 C 640 0 635 1 633 4 C 631 6 630 12 630 20 L 630 84 C 630 86 627 88 622 88 C 618 88 615 87 614 86 C 582 48 545 21 504 5 C 462 -11 411 -20 350 -20 C 306 -20 265 -12 229 2 C 192 16 160 37 133 64 C 105 90 84 122 69 159 C 53 195 46 236 46 280 Z M 802 -402 C 766 -402 731 -397 699 -388 C 666 -378 637 -365 613 -347 C 588 -329 568 -306 553 -279 C 537 -251 530 -220 530 -186 C 530 -143 540 -103 561 -67 C 581 -30 610 5 646 40 L 808 10 C 785 -18 765 -44 749 -70 C 732 -95 720 -124 714 -156 C 708 -182 715 -204 734 -222 C 752 -239 777 -248 808 -248 C 833 -248 859 -242 886 -232 C 888 -230 892 -230 896 -230 C 900 -231 902 -237 902 -248 L 902 -364 C 902 -374 897 -382 888 -386 C 864 -396 835 -402 802 -402 Z" unicode="ą" />
<glyph horiz-adv-x="1250" d="M 790 -26 C 678 -26 577 -7 488 31 C 398 69 322 121 260 187 C 197 253 149 330 115 418 C 81 506 64 600 64 700 C 64 797 80 890 114 978 C 147 1066 195 1143 258 1209 C 320 1275 397 1327 487 1367 C 577 1406 678 1426 790 1426 C 854 1426 916 1418 978 1403 C 1039 1387 1094 1368 1142 1344 C 1152 1338 1158 1332 1158 1324 L 1158 1022 C 1158 1012 1155 1008 1150 1008 C 1146 1008 1142 1009 1140 1012 C 1101 1052 1052 1082 994 1104 C 935 1125 872 1136 806 1136 C 734 1136 671 1124 617 1101 C 563 1077 517 1046 481 1006 C 444 966 416 919 398 867 C 379 814 370 758 370 700 C 370 641 379 585 398 533 C 416 480 444 434 481 394 C 517 354 563 322 617 299 C 671 275 733 264 804 264 C 870 264 933 274 993 296 C 1052 317 1101 348 1140 388 C 1142 390 1146 392 1150 392 C 1155 392 1158 387 1158 378 L 1158 76 C 1158 68 1152 61 1142 56 C 1094 32 1039 12 978 -3 C 916 -18 854 -26 790 -26 Z M 762 1768 C 768 1776 773 1781 777 1784 C 780 1786 786 1788 794 1788 L 1054 1788 C 1067 1788 1074 1786 1074 1784 C 1074 1781 1070 1776 1062 1768 L 808 1520 C 802 1514 797 1510 792 1506 C 786 1502 779 1500 770 1500 L 594 1500 C 584 1500 580 1501 580 1504 C 580 1508 582 1513 588 1520 L 762 1768 Z" unicode="Ć" />
<glyph horiz-adv-x="828" d="M 748 22 C 733 14 716 7 697 2 C 677 -3 657 -7 636 -11 C 614 -14 593 -17 573 -19 C 552 -21 533 -22 516 -22 C 449 -22 387 -10 331 14 C 274 38 225 70 183 112 C 141 153 108 202 84 259 C 60 315 48 377 48 444 C 48 509 60 570 84 627 C 108 683 141 732 183 773 C 225 813 274 845 331 869 C 387 892 449 904 516 904 C 553 904 593 900 635 894 C 677 887 712 877 742 864 C 748 861 753 858 755 856 C 757 853 758 849 758 844 L 758 632 C 758 621 754 616 748 616 C 745 616 742 617 738 620 C 714 638 686 653 655 664 C 623 674 586 680 544 680 C 469 680 411 658 370 614 C 328 570 308 513 308 444 C 308 374 328 317 368 271 C 408 225 466 202 544 202 C 589 202 628 208 660 221 C 692 233 720 250 746 270 C 747 271 750 272 754 272 C 760 272 764 267 764 258 L 764 42 C 764 36 763 32 761 30 C 759 27 754 24 748 22 Z M 506 1280 C 512 1288 517 1293 521 1296 C 524 1298 530 1300 538 1300 L 798 1300 C 811 1300 818 1298 818 1296 C 818 1293 814 1288 806 1280 L 552 1032 C 546 1026 541 1022 536 1018 C 530 1014 523 1012 514 1012 L 338 1012 C 328 1012 324 1013 324 1016 C 324 1020 326 1025 332 1032 L 506 1280 Z" unicode="ć" />
<glyph horiz-adv-x="1250" d="M 790 -26 C 678 -26 577 -7 488 31 C 398 69 322 121 260 187 C 197 253 149 330 115 418 C 81 506 64 600 64 700 C 64 797 80 890 114 978 C 147 1066 195 1143 258 1209 C 320 1275 397 1327 487 1367 C 577 1406 678 1426 790 1426 C 854 1426 916 1418 978 1403 C 1039 1387 1094 1368 1142 1344 C 1152 1338 1158 1332 1158 1324 L 1158 1022 C 1158 1012 1155 1008 1150 1008 C 1146 1008 1142 1009 1140 1012 C 1101 1052 1052 1082 994 1104 C 935 1125 872 1136 806 1136 C 734 1136 671 1124 617 1101 C 563 1077 517 1046 481 1006 C 444 966 416 919 398 867 C 379 814 370 758 370 700 C 370 641 379 585 398 533 C 416 480 444 434 481 394 C 517 354 563 322 617 299 C 671 275 733 264 804 264 C 870 264 933 274 993 296 C 1052 317 1101 348 1140 388 C 1142 390 1146 392 1150 392 C 1155 392 1158 387 1158 378 L 1158 76 C 1158 68 1152 61 1142 56 C 1094 32 1039 12 978 -3 C 916 -18 854 -26 790 -26 Z M 580 1768 C 586 1776 592 1781 598 1784 C 603 1786 610 1788 618 1788 L 830 1788 C 844 1788 857 1781 868 1768 L 1084 1520 C 1088 1514 1090 1510 1090 1506 C 1090 1502 1086 1500 1078 1500 L 894 1500 C 884 1500 878 1502 874 1506 C 870 1510 865 1514 860 1520 L 740 1648 C 737 1650 733 1652 728 1652 C 722 1652 718 1650 716 1648 L 600 1520 C 594 1514 590 1510 586 1506 C 582 1502 575 1500 566 1500 L 378 1500 C 370 1500 366 1502 366 1506 C 366 1510 368 1514 372 1520 L 580 1768 Z" unicode="Ĉ" />
<glyph horiz-adv-x="828" d="M 748 22 C 733 14 716 7 697 2 C 677 -3 657 -7 636 -11 C 614 -14 593 -17 573 -19 C 552 -21 533 -22 516 -22 C 449 -22 387 -10 331 14 C 274 38 225 70 183 112 C 141 153 108 202 84 259 C 60 315 48 377 48 444 C 48 509 60 570 84 627 C 108 683 141 732 183 773 C 225 813 274 845 331 869 C 387 892 449 904 516 904 C 553 904 593 900 635 894 C 677 887 712 877 742 864 C 748 861 753 858 755 856 C 757 853 758 849 758 844 L 758 632 C 758 621 754 616 748 616 C 745 616 742 617 738 620 C 714 638 686 653 655 664 C 623 674 586 680 544 680 C 469 680 411 658 370 614 C 328 570 308 513 308 444 C 308 374 328 317 368 271 C 408 225 466 202 544 202 C 589 202 628 208 660 221 C 692 233 720 250 746 270 C 747 271 750 272 754 272 C 760 272 764 267 764 258 L 764 42 C 764 36 763 32 761 30 C 759 27 754 24 748 22 Z M 318 1280 C 324 1288 330 1293 336 1296 C 341 1298 348 1300 356 1300 L 568 1300 C 582 1300 595 1293 606 1280 L 822 1032 C 826 1026 828 1022 828 1018 C 828 1014 824 1012 816 1012 L 632 1012 C 622 1012 616 1014 612 1018 C 608 1022 603 1026 598 1032 L 478 1160 C 475 1162 471 1164 466 1164 C 460 1164 456 1162 454 1160 L 338 1032 C 332 1026 328 1022 324 1018 C 320 1014 313 1012 304 1012 L 116 1012 C 108 1012 104 1014 104 1018 C 104 1022 106 1026 110 1032 L 318 1280 Z" unicode="ĉ" />
</font>
</defs>
</svg>
